osu file format v14

[General]
AudioFilename: audio.mp3
AudioLeadIn: 0
PreviewTime: 73919
Countdown: 0
SampleSet: Soft
StackLeniency: 0.7
Mode: 0
LetterboxInBreaks: 0
WidescreenStoryboard: 1

[Editor]
DistanceSpacing: 0.7
BeatDivisor: 4
GridSize: 32
TimelineZoom: 2.4

[Metadata]
Title:The Everlasting Guilty Crown
TitleUnicode:The Everlasting Guilty Crown
Artist:Roselia
ArtistUnicode:Roselia
Creator:Underdogs
Version:Hard
Source:バンドリ!ガールズバンドパーティ!
Tags:Gaia ryo supercell EGOIST Guilty Crown BanG Dream! Garupa Bandori ロゼリア ガルパ Girls Band Party! 湊友希那 Minato Yukina 相羽あいな Aiba Aina 宇田川あこ Udagawa Ako 櫻川めぐ Sakuragawa Megu 白金燐子 Shirokane Rinko 明坂聡美 Akesaka Satomi 氷川紗夜 Hikawa Sayo 工藤晴香 Kudou Haruka 今井リサ Imai Risa 遠藤ゆりか Endou Yurika
BeatmapID:1406449
BeatmapSetID:664522

[Difficulty]
HPDrainRate:5
CircleSize:4
OverallDifficulty:5
ApproachRate:8
SliderMultiplier:1.3
SliderTickRate:1

[Events]
//Background and Video events
0,0,"background.jpg",0,0
//Break Periods
//Storyboard Layer 0 (Background)
//Storyboard Layer 1 (Fail)
//Storyboard Layer 2 (Pass)
//Storyboard Layer 3 (Foreground)
//Storyboard Sound Samples

[TimingPoints]
2757,348.837209302326,4,2,1,30,1,0
8338,-133.333333333333,4,2,1,40,0,0
8425,-133.333333333333,4,2,21,40,0,0
9733,-133.333333333333,4,2,21,40,0,0
11129,-133.333333333333,4,2,21,40,0,0
13222,-125,4,2,21,40,0,0
13919,-133.333333333333,4,2,21,40,0,0
29966,-133.333333333333,4,2,1,30,0,0
30315,-133.333333333333,4,2,1,20,0,0
30663,-100,4,2,1,50,0,0
30838,-100,4,2,22,50,0,0
41826,-100,4,2,1,50,0,0
42001,-100,4,2,22,50,0,0
47582,-100,4,2,22,50,0,0
50547,-133.333333333333,4,2,22,60,0,0
50722,-133.333333333333,4,2,22,70,0,0
50896,-133.333333333333,4,2,22,50,0,0
51245,-133.333333333333,4,2,1,70,0,0
52291,-100,4,2,1,70,0,0
52989,-100,4,2,1,70,0,0
53512,-100,4,2,22,70,0,0
53600,-100,4,2,1,70,0,0
54210,-100,4,2,22,70,0,0
54646,-100,4,2,1,70,0,0
55082,-100,4,2,22,70,0,0
55344,-100,4,2,1,70,0,0
55780,-100,4,2,22,70,0,0
55867,-100,4,2,1,70,0,0
56303,-100,4,2,22,70,0,0
56390,-100,4,2,1,70,0,0
57001,-100,4,2,22,70,0,0
57437,-100,4,2,1,70,0,0
58222,-100,4,2,22,70,0,0
58309,-100,4,2,1,70,0,0
59094,-100,4,2,22,70,0,0
59181,-100,4,2,1,70,0,0
59791,-100,4,2,22,70,0,0
60227,-100,4,2,1,70,0,0
61361,-100,4,2,62,50,0,0
61448,-100,4,2,1,70,0,0
61884,-100,4,2,62,50,0,0
61972,-100,4,2,1,70,0,0
62408,-100,4,2,62,50,0,0
62495,-100,4,2,1,70,0,0
62931,-100,4,2,62,50,0,0
63018,-100,4,2,1,70,0,0
63454,-100,4,2,22,70,0,0
63541,-100,4,2,1,70,0,0
63803,-100,4,2,62,50,0,0
63890,-100,4,2,1,70,0,0
65024,-100,4,2,22,70,0,0
65111,-100,4,2,1,70,0,0
65547,-100,4,2,22,70,0,0
65809,-100,4,2,1,70,0,0
66594,-100,4,2,62,50,0,0
66681,-100,4,2,1,70,0,0
66943,-100,4,2,62,70,0,0
67030,-100,4,2,1,70,0,0
67466,-100,4,2,62,50,0,0
67553,-100,4,2,1,70,0,0
67989,-100,4,2,62,70,0,0
68076,-100,4,2,1,70,0,0
68338,-100,4,2,62,50,0,0
68425,-100,4,2,1,70,0,0
68861,-100,4,2,62,50,0,0
68948,-100,4,2,1,70,0,0
69210,-100,4,2,62,70,0,0
69472,-100,4,2,1,70,0,0
69733,-100,4,2,62,60,0,0
69820,-100,4,2,1,70,0,0
70780,-100,4,2,62,40,0,0
70867,-100,4,2,1,70,0,0
71129,-100,4,2,62,40,0,0
71216,-100,4,2,1,70,0,0
73919,-166.666666666667,4,2,1,20,0,0
75315,-100,4,2,71,80,0,1
76187,-100,4,2,1,80,0,1
76274,-100,4,2,71,80,0,1
77582,-100,4,2,1,80,0,1
77669,-100,4,2,71,80,0,1
77931,-100,4,2,1,80,0,1
78018,-100,4,2,71,80,0,1
78977,-100,4,2,1,80,0,1
79064,-100,4,2,71,80,0,1
80373,-100,4,2,1,80,0,1
80460,-100,4,2,71,80,0,1
83163,-100,4,2,1,80,0,1
83250,-100,4,2,71,80,0,1
84559,-100,4,2,1,80,0,1
84646,-100,4,2,71,80,0,1
90140,-100,4,2,1,80,0,1
90227,-100,4,2,71,80,0,1
94326,-100,4,2,1,80,0,1
94413,-100,4,2,71,80,0,1
97640,-100,4,2,71,70,0,1
99733,-100,4,2,72,70,0,1
99820,-100,4,2,71,70,0,1
100082,-100,4,2,72,70,0,1
100169,-100,4,2,71,70,0,1
100431,-100,4,2,72,70,0,1
100518,-100,4,2,71,70,0,1
102873,-66.6666666666667,4,2,71,70,0,1
103222,-100,4,2,71,70,0,0
110896,-100,4,2,72,70,0,0
110983,-100,4,2,71,70,0,0
111245,-100,4,2,72,70,0,0
111332,-100,4,2,71,70,0,0
111594,-100,4,2,72,70,0,0
111681,-100,4,2,71,70,0,0
117175,-100,4,2,72,50,0,0
117262,-100,4,2,1,70,0,0
117698,-100,4,2,72,50,0,0
117786,-100,4,2,1,70,0,0
118222,-100,4,2,72,50,0,0
118309,-100,4,2,1,70,0,0
119268,-83.3333333333333,4,2,1,70,0,0
119966,-133.333333333333,4,2,71,60,0,0
120053,-133.333333333333,4,2,71,10,0,0
120663,-133.333333333333,4,2,73,20,0,0
121361,337.078651685393,4,2,73,20,1,0
121361,-166.666666666667,4,2,73,20,0,0
121445,-100,4,2,73,10,0,0
122035,359.281437125748,4,2,73,20,1,0
122753,338.983050847458,4,2,74,20,1,0
123091,529.411764705882,4,2,73,20,1,0
123091,-166.666666666667,4,2,73,20,0,0
123223,-100,4,2,73,10,0,0
124149,521.739130434783,4,2,74,20,1,0
124149,-133.333333333333,4,2,74,20,0,0
124279,-100,4,2,74,10,0,0
124670,337.078651685393,4,2,73,20,1,0
125007,352.941176470588,4,2,73,20,1,0
125007,-133.333333333333,4,2,73,20,0,0
125095,-100,4,2,73,10,0,0
125359,-100,4,2,73,20,0,0
125448,-100,4,2,73,10,0,0
125712,359.281437125748,4,2,74,20,1,0
125712,-166.666666666667,4,2,74,20,0,0
126071,331.491712707182,4,2,73,20,1,0
126402,422.535211267606,4,2,73,40,1,0

[Colours]
Combo1 : 240,240,240
Combo2 : 128,255,255
Combo3 : 255,98,98
Combo4 : 176,98,255
Combo5 : 255,151,203
Combo6 : 255,0,0

[HitObjects]
363,332,2757,6,0,L|351:260,1,65,2|2,0:0|0:0,0:0:0:0:
227,124,3280,2,0,L|216:188,1,65,2|2,0:0|0:0,0:0:0:0:
370,331,3803,2,0,L|358:259,1,65,2|2,1:2|0:0,0:0:0:0:
219,123,4326,2,0,L|208:187,1,65,2|2,0:0|1:2,0:0:0:0:
207,187,4850,1,2,0:0:0:0:
318,177,5024,1,2,0:0:0:0:
296,68,5198,1,2,1:2:0:0:
296,68,5547,6,0,L|376:77,1,65,2|2,0:0|0:0,0:0:0:0:
512,144,6070,2,0,L|432:153,1,65,2|2,0:0|0:0,0:0:0:0:
304,230,6594,2,0,L|384:239,1,65,0|2,1:0|0:0,0:0:0:0:
480,344,7117,2,0,L|400:353,1,65,2|2,0:0|1:2,0:0:0:0:
252,338,7640,1,2,0:0:0:0:
167,293,7815,1,2,0:0:0:0:
96,358,7989,2,2,L|50:355,3,32.5,2|2|2|2,1:2|0:0|0:0|0:0,0:0:0:0:
37,346,8338,6,0,L|29:277,1,48.750001859665,6|4,3:2|0:0,0:0:0:0:
8,208,8687,2,0,P|60:207|104:245,1,97.50000371933,8|0,0:2|0:0,0:0:0:0:
217,334,9384,1,4,0:0:0:0:
281,282,9559,1,8,0:0:0:0:
255,204,9733,2,0,L|243:95,1,97.50000371933,4|0,0:0|1:0,0:0:0:0:
245,106,10431,2,0,L|303:116,1,48.750001859665,2|4,0:3|0:3,0:0:0:0:
355,45,10780,2,0,L|297:35,1,48.750001859665,8|8,1:2|0:3,0:0:0:0:
245,114,11129,6,0,L|357:134,1,97.50000371933,2|8,0:0|1:2,0:0:0:0:
421,128,11652,2,0,P|418:165|374:209,1,97.50000371933,2|0,0:3|0:0,0:0:0:0:
340,131,12175,1,4,0:0:0:0:
287,210,12350,2,0,B|281:249|281:249|293:313,1,97.50000371933,8|4,0:0|0:3,0:0:0:0:
374,348,12873,1,0,1:2:0:0:
274,200,13222,2,0,L|217:207,1,52,2|4,0:3|0:3,0:0:0:0:
159,289,13570,2,0,L|216:296,1,52,8|8,1:2|0:3,0:0:0:0:
313,349,13919,6,0,L|310:278,1,48.750001859665,2|4,0:0|0:0,0:0:0:0:
395,240,14268,2,0,L|392:288,1,48.750001859665,8|2,1:2|0:3,0:0:0:0:
178,142,14966,2,0,L|175:85,1,48.750001859665,4|8,0:0|0:0,0:0:0:0:
242,30,15315,1,4,0:0:0:0:
261,119,15489,2,0,L|256:180,1,48.750001859665,4|0,0:3|1:2,0:0:0:0:
342,328,16012,2,0,L|398:321,1,48.750001859665,2|4,0:3|0:3,0:0:0:0:
447,247,16361,2,0,L|391:240,1,48.750001859665,8|8,1:2|0:3,0:0:0:0:
304,243,16710,6,0,L|296:188,1,48.750001859665,2|4,0:0|0:0,0:0:0:0:
386,111,17059,2,0,L|378:159,1,48.750001859665,8|2,1:2|0:3,0:0:0:0:
153,193,17757,2,0,L|95:179,1,48.750001859665,4|8,0:0|0:0,0:0:0:0:
103,90,18105,2,0,L|161:104,1,48.750001859665,4|4,0:0|0:3,0:0:0:0:
218,39,18454,1,0,1:2:0:0:
284,197,18803,2,0,L|277:252,1,48.750001859665,2|4,0:3|0:3,0:0:0:0:
190,289,19152,2,0,L|197:224,1,48.750001859665,8|8,1:2|0:3,0:0:0:0:
239,134,19501,6,0,P|269:121|337:143,1,97.50000371933,2|8,0:0|1:2,0:0:0:0:
383,225,20024,1,2,0:3:0:0:
446,160,20198,2,0,L|437:62,1,97.50000371933,0|4,0:0|0:0,0:0:0:0:
352,32,20722,1,8,0:0:0:0:
352,32,20896,2,0,L|361:130,1,97.50000371933,4|0,0:0|1:2,0:0:0:0:
288,289,21594,2,0,L|232:283,1,48.750001859665,2|4,0:3|0:3,0:0:0:0:
168,217,21943,2,0,P|164:182|177:157,1,48.750001859665,8|8,1:2|0:3,0:0:0:0:
236,114,22291,6,0,P|209:91|131:90,1,97.50000371933,2|8,0:0|1:2,0:0:0:0:
81,139,22815,2,0,P|108:162|186:163,1,97.50000371933,2|0,0:3|0:0,0:0:0:0:
233,111,23338,1,0,0:0:0:0:
282,183,23512,2,0,L|273:298,1,97.50000371933,0|4,0:0|0:0,0:0:0:0:
326,351,24036,1,0,1:0:0:0:
449,228,24384,2,0,L|456:178,1,48.750001859665,2|4,0:3|0:3,0:0:0:0:
365,116,24733,2,0,L|371:164,1,48.750001859665,8|8,1:2|0:3,0:0:0:0:
376,253,25082,6,0,L|314:246,1,48.750001859665,2|4,0:0|0:0,0:0:0:0:
270,342,25431,2,0,L|332:335,1,48.750001859665,8|2,1:2|0:3,0:0:0:0:
155,162,26129,2,0,L|147:223,1,48.750001859665,4|8,0:0|0:0,0:0:0:0:
238,255,26477,2,0,L|231:206,1,48.750001859665,4|4,0:0|0:3,0:0:0:0:
261,125,26826,1,0,1:0:0:0:
106,77,27175,2,0,L|48:82,1,48.750001859665,2|4,0:3|0:3,0:0:0:0:
19,175,27524,2,0,L|77:170,1,48.750001859665,8|8,1:2|0:3,0:0:0:0:
143,248,27873,5,2,0:0:0:0:
256,192,28047,12,2,29966,0:0:0:0:
173,264,30663,6,0,L|100:260,1,65,6|4,3:2|0:0,0:0:0:0:
63,342,31012,2,0,L|206:351,1,130,8|0,3:2|3:2,0:0:0:0:
383,326,31710,2,0,L|374:255,1,65,4|8,3:2|0:0,0:0:0:0:
312,188,32059,2,0,P|352:167|442:198,1,130,4|0,3:2|3:2,0:0:0:0:
273,280,32757,2,0,P|234:255|216:162,1,130,2|8,3:3|3:2,0:0:0:0:
262,95,33280,1,8,2:3:0:0:
191,35,33454,6,0,P|159:47|124:48,1,65,2|4,3:2|0:0,0:0:0:0:
54,109,33803,2,0,P|44:139|43:178,1,65,8|2,3:2|0:3,0:0:0:0:
130,217,34152,2,0,P|140:183|141:148,1,65,0|0,3:2|0:0,0:0:0:0:
230,115,34501,1,4,3:2:0:0:
230,210,34675,6,0,P|281:220|357:172,1,130,8|4,0:0|0:3,0:0:0:0:
386,98,35198,1,0,3:2:0:0:
450,169,35373,2,0,L|443:237,1,65,0|2,0:0|3:3,0:0:0:0:
358,280,35722,2,0,L|351:215,1,65,4|8,2:3|3:2,0:0:0:0:
243,166,36070,1,8,2:3:0:0:
243,166,36158,1,0,0:0:0:0:
243,166,36245,6,0,L|250:313,1,130,2|8,3:2|3:2,0:0:0:0:
168,346,36768,1,2,0:3:0:0:
107,272,36943,2,0,L|113:142,1,130,0|4,3:2|3:2,0:0:0:0:
174,63,37466,1,8,0:0:0:0:
258,167,37640,2,0,L|265:314,1,130,4|0,3:3|3:2,0:0:0:0:
169,358,38163,1,0,0:0:0:0:
93,273,38338,2,0,L|99:143,1,130,2|8,3:3|3:2,0:0:0:0:
190,45,38861,1,8,2:3:0:0:
295,83,39036,6,0,L|370:83,1,65,2|4,3:2|0:0,0:0:0:0:
403,160,39384,1,8,3:2:0:0:
403,160,39559,2,0,L|269:167,1,130,2|0,0:3|0:0,0:0:0:0:
189,209,40082,2,0,P|183:248|196:280,1,65,4|8,3:2|0:0,0:0:0:0:
263,332,40431,1,4,3:2:0:0:
263,332,40605,2,0,L|402:322,1,130,4|0,0:3|0:0,0:0:0:0:
456,216,41129,2,0,L|381:222,1,65,2|4,3:3|2:3,0:0:0:0:
368,107,41477,2,0,L|443:113,1,65,8|8,3:2|2:3,0:0:0:0:
321,168,41826,6,0,P|296:136|317:48,1,130,6|8,3:2|3:2,0:0:0:0:
406,188,42524,2,0,P|390:225|304:251,1,130,0|4,3:2|3:2,0:0:0:0:
240,200,43047,1,8,0:0:0:0:
163,252,43222,2,0,L|157:320,1,65,4|4,3:2|0:3,0:0:0:0:
65,348,43570,2,0,L|59:283,1,65,0|0,3:2|0:0,0:0:0:0:
32,198,43919,2,0,B|40:146|40:146|52:129|52:129|60:70,1,130,2|8,3:3|3:2,0:0:0:0:
241,49,44617,6,0,P|281:54|322:134,1,130,2|8,3:2|3:2,0:0:0:0:
273,203,45140,1,2,0:3:0:0:
281,295,45315,2,0,L|415:282,1,130,0|4,3:2|3:2,0:0:0:0:
472,207,45838,2,0,L|487:137,1,65,8|4,0:0|3:2,0:0:0:0:
414,85,46187,2,0,L|399:155,1,65,4|0,0:3|3:2,0:0:0:0:
350,228,46536,2,0,B|307:249|307:249|214:242,1,130,0|4,0:0|2:3,0:0:0:0:
130,251,47059,1,8,3:2:0:0:
69,169,47233,1,8,2:3:0:0:
69,169,47320,1,0,0:0:0:0:
69,169,47408,6,0,L|59:93,1,65,6|0,3:2|0:0,0:0:0:0:
155,50,47757,2,0,L|146:114,1,65,8|2,3:2|0:3,0:0:0:0:
146,203,48105,2,0,L|283:190,1,130,0|4,3:2|3:2,0:0:0:0:
348,129,48629,1,8,0:0:0:0:
420,196,48803,1,4,3:2:0:0:
366,281,48977,2,0,L|220:296,1,130,4|0,0:3|0:0,0:0:0:0:
163,348,49501,2,0,P|145:309|150:276,1,65,2|4,3:3|2:3,0:0:0:0:
280,249,49850,2,0,P|255:284|224:296,1,65,8|8,3:2|2:3,0:0:0:0:
148,183,50198,5,6,3:2:0:0:
221,122,50373,1,4,0:0:0:0:
303,172,50547,1,4,3:3:0:0:
391,128,50722,2,0,L|379:21,1,97.50000371933,4|0,0:1|0:0,0:0:0:0:
486,89,51245,2,0,L|477:158,1,48.750001859665,2|8,3:2|0:2,0:0:0:0:
363,335,52291,6,0,L|315:327,3,32.5,8|8|8|8,0:0|0:0|0:0|0:0,0:0:0:0:
295,303,52640,2,0,L|255:308,3,32.5,8|8|8|8,0:0|0:0|0:0|0:0,0:0:0:0:
202,344,52989,6,0,P|217:296|210:207,1,130,6|8,3:2|0:0,0:0:0:0:
133,157,53512,1,8,0:2:0:0:
162,61,53687,2,0,L|237:67,1,65,0|2,3:2|3:2,0:0:0:0:
309,120,54036,2,0,L|383:110,1,65,8|8,0:0|0:3,0:0:0:0:
454,57,54384,1,4,3:2:0:0:
494,173,54559,2,0,L|475:314,1,130,4|2,0:3|0:0,0:0:0:0:
399,350,55082,2,0,P|357:343|325:323,1,65,2|4,3:0|3:0,0:0:0:0:
268,241,55431,1,8,0:0:0:0:
254,340,55605,1,2,0:0:0:0:
354,237,55780,6,0,P|340:189|262:150,1,130,8|8,3:3|0:0,0:0:0:0:
186,204,56303,2,0,L|179:63,1,130,8|2,0:0|3:2,0:0:0:0:
85,57,56826,2,0,L|85:133,1,65,8|12,0:0|0:0,0:0:0:0:
103,254,57175,1,6,3:2:0:0:
103,254,57350,2,0,P|136:284|234:283,1,130,12|2,0:3|0:0,0:0:0:0:
291,215,57873,2,0,L|282:138,1,65,2|0,3:2|0:0,0:0:0:0:
182,206,58222,1,8,3:0:0:0:
218,290,58396,1,10,0:0:0:0:
336,306,58570,6,0,B|427:293|427:293|396:251,1,130,6|8,3:2|0:0,0:0:0:0:
346,181,59094,1,12,0:0:0:0:
422,130,59268,2,0,P|432:88|425:53,1,65,0|2,3:2|3:2,0:0:0:0:
341,26,59617,2,0,P|333:69|340:104,1,65,8|10,0:0|0:0,0:0:0:0:
355,184,59966,1,10,3:2:0:0:
280,253,60140,2,0,L|142:246,1,130,10|2,0:0|0:0,0:0:0:0:
74,303,60663,2,0,P|57:264|68:215,1,65,0|2,3:2|3:2,0:0:0:0:
121,153,61012,1,8,0:0:0:0:
147,244,61187,1,2,0:0:0:0:
241,172,61361,6,0,L|377:166,1,130,2|8,3:2|0:0,0:0:0:0:
443,221,61884,2,0,P|461:176|421:88,1,130,4|2,0:2|3:2,0:0:0:0:
345,72,62408,2,0,L|274:77,1,65,8|2,1:2|0:0,0:0:0:0:
195,144,62757,1,0,3:2:0:0:
102,94,62931,2,0,L|111:23,2,65,2|8|2,0:3|0:0|0:0,0:0:0:0:
65,184,63454,2,0,B|57:231|57:231|63:264|63:264|54:321,1,130,8|2,3:2|3:3,0:0:0:0:
134,358,63977,1,10,0:0:0:0:
236,299,64152,6,0,L|310:290,1,65,6|0,3:2|0:0,0:0:0:0:
390,328,64501,1,8,0:0:0:0:
458,263,64675,2,0,B|449:217|449:217|459:126,1,130,2|6,0:0|3:2,0:0:0:0:
423,46,65198,1,8,0:0:0:0:
353,112,65373,2,0,P|312:132|229:106,1,130,2|2,0:0|0:0,0:0:0:0:
174,42,65896,2,0,L|95:47,1,65,8|2,0:0|0:0,0:0:0:0:
77,141,66245,2,0,L|156:146,1,65,0|2,3:2|3:2,0:0:0:0:
222,209,66594,1,4,1:3:0:0:
152,276,66768,1,2,0:0:0:0:
248,339,66943,6,0,L|387:322,1,130,2|8,3:0|0:0,0:0:0:0:
456,360,67466,2,0,P|462:307|409:240,1,130,2|0,0:3|0:0,0:0:0:0:
334,204,67989,1,2,1:3:0:0:
386,124,68163,1,2,0:0:0:0:
319,55,68338,2,0,P|281:61|186:47,1,130,8|8,3:1|0:0,0:0:0:0:
100,36,68861,2,0,L|87:178,1,130,8|2,0:1|0:3,0:0:0:0:
137,263,69384,2,0,P|178:269|210:259,1,65,8|2,1:0|0:0,0:0:0:0:
352,179,69733,6,0,L|220:181,2,130,6|10|0,3:1|0:0|3:2,0:0:0:0:
426,239,70605,1,2,3:2:0:0:
392,324,70780,2,0,L|305:320,1,65,2|2,1:1|0:0,0:0:0:0:
243,289,71129,2,0,P|201:277|115:313,1,130,2|8,3:1|0:0,0:0:0:0:
49,363,71652,1,2,0:0:0:0:
20,276,71826,2,0,L|11:211,1,65,0|2,3:2|0:0,0:0:0:0:
117,128,72175,2,0,L|108:193,1,65,8|2,0:0|0:0,0:0:0:0:
179,309,72524,5,6,3:2:0:0:
255,224,72698,2,0,L|279:193,2,32.5,10|8|8,0:0|0:0|0:0,0:0:0:0:
179,309,73047,2,0,L|140:303,2,32.5,10|8|8,0:0|0:0|0:0,0:0:0:0:
288,338,73396,2,0,L|302:374,2,32.5,10|8|8,0:0|0:0|0:0,0:0:0:0:
333,257,73745,1,10,0:0:0:0:
333,257,73919,6,0,B|433:234|433:234|420:293,1,155.999995239258,2|0,0:0|0:0,0:0:0:0:
300,163,75315,6,0,L|295:94,1,65,4|2,3:2|0:3,0:0:0:0:
205,59,75663,2,0,L|200:123,1,65,0|0,1:2|0:0,0:0:0:0:
245,220,76012,2,0,P|292:240|374:188,1,130,2|0,3:3|1:2,0:0:0:0:
420,129,76536,1,0,0:0:0:0:
472,218,76710,2,0,L|466:300,2,65,2|2|4,3:2|0:3|1:3,0:0:0:0:
506,125,77233,2,0,P|495:85|395:50,1,130,8|2,3:2|3:2,0:0:0:0:
341,104,77757,2,0,L|347:176,1,65,0|2,1:2|3:2,0:0:0:0:
333,277,78105,6,0,B|285:275|285:275|258:258|258:258|203:258,1,130,0|0,3:2|1:2,0:0:0:0:
148,337,78629,1,0,0:0:0:0:
70,272,78803,2,0,L|77:208,1,65,4|2,3:3|3:2,0:0:0:0:
141,128,79152,1,0,1:2:0:0:
216,192,79326,1,0,0:0:0:0:
286,114,79501,2,0,L|355:108,2,65,8|0|0,3:3|0:0|1:2,0:0:0:0:
228,33,80024,2,0,L|366:23,1,130,0|2,0:0|3:2,0:0:0:0:
448,68,80547,1,0,1:2:0:0:
445,232,80896,6,0,L|434:315,2,65,6|2|8,3:2|0:3|1:2,0:0:0:0:
346,259,81419,2,0,L|357:342,2,65,2|2|8,0:0|3:3|3:2,0:0:0:0:
287,184,81943,2,0,P|245:183|208:196,1,65,2|2,1:2|3:3,0:0:0:0:
192,327,82291,2,0,P|145:351|68:323,1,130,2|0,3:1|1:2,0:0:0:0:
15,264,82815,2,0,P|62:240|139:268,1,130,2|2,0:1|3:2,0:0:0:0:
223,187,83338,1,2,1:1:0:0:
223,187,83512,1,0,0:0:0:0:
101,126,83687,6,0,L|97:50,1,65,4|0,3:1|0:0,0:0:0:0:
183,13,84036,1,4,1:3:0:0:
256,79,84210,2,0,L|412:91,1,130,4|2,0:1|3:2,0:0:0:0:
445,167,84733,1,4,1:1:0:0:
390,248,84908,1,0,0:0:0:0:
292,182,85082,2,0,L|303:108,2,65,2|2|4,3:2|0:3|1:2,0:0:0:0:
301,292,85605,2,0,P|243:277|170:294,1,130,8|0,0:0|1:2,0:0:0:0:
82,340,86129,1,0,1:2:0:0:
82,340,86303,1,0,1:2:0:0:
45,204,86477,6,0,B|39:175|39:175|44:128,1,65,4|2,3:2|0:3,0:0:0:0:
132,90,86826,2,0,B|138:119|138:119|133:166,1,65,0|0,1:2|0:0,0:0:0:0:
154,250,87175,2,0,L|231:245,1,65,2|0,3:3|3:2,0:0:0:0:
283,166,87524,2,0,L|206:161,1,65,0|0,1:2|0:0,0:0:0:0:
127,113,87873,5,2,3:2:0:0:
179,29,88047,1,2,0:3:0:0:
266,75,88222,1,4,1:3:0:0:
218,161,88396,2,0,B|207:226|207:226|220:309,1,130,8|0,3:2|3:2,0:0:0:0:
308,346,88919,2,0,L|375:340,1,65,0|0,1:2|3:2,0:0:0:0:
460,270,89268,6,0,P|474:231|468:194,1,65,0|4,3:2|0:3,0:0:0:0:
391,160,89617,2,0,P|377:199|383:236,1,65,0|0,1:2|0:0,0:0:0:0:
390,321,89966,2,0,L|259:315,1,130,4|0,3:3|1:2,0:0:0:0:
167,350,90489,1,0,0:0:0:0:
99,287,90663,2,0,L|14:289,2,65,8|8|2,3:3|0:0|1:2,0:0:0:0:
179,226,91187,2,0,B|170:176|170:176|176:149|176:149|168:84,1,130,8|8,0:0|3:2,0:0:0:0:
223,31,91710,1,2,1:3:0:0:
315,47,91884,1,8,0:0:0:0:
422,18,92059,6,0,L|493:14,2,65,6|2|8,3:2|0:3|1:2,0:0:0:0:
381,126,92582,2,0,L|310:122,2,65,2|2|8,0:0|3:3|3:2,0:0:0:0:
473,194,93105,2,0,P|479:239|471:270,1,65,2|2,1:2|3:3,0:0:0:0:
375,304,93454,2,0,L|237:299,1,130,2|0,3:1|1:2,0:0:0:0:
174,190,93977,2,0,L|312:185,1,130,2|2,0:1|3:2,0:0:0:0:
308,320,94501,2,0,L|232:311,1,65,2|0,1:1|0:0,0:0:0:0:
87,262,94850,6,0,P|134:256|174:179,1,130,12|4,3:1|1:3,0:0:0:0:
178,107,95373,2,0,P|131:113|91:190,1,130,4|0,0:1|0:0,0:0:0:0:
174,190,95896,2,0,L|254:184,1,65,4|0,1:0|0:3,0:0:0:0:
301,107,96245,2,0,P|339:89|422:117,1,130,2|4,3:2|1:2,0:0:0:0:
465,204,96768,1,0,0:0:0:0:
353,236,96943,2,0,L|360:159,1,65,0|0,3:2|1:2,0:0:0:0:
288,112,97291,2,0,L|230:119,3,32.5,0|0|0|0,1:2|1:2|1:2|1:2,0:0:0:0:
215,151,97640,2,0,L|219:67,1,65,4|2,3:2|0:3,0:0:0:0:
101,39,97989,6,0,L|107:193,1,130,4|2,1:2|3:3,0:0:0:0:
159,258,98512,1,0,3:2:0:0:
257,251,98687,2,0,L|337:244,1,65,0|0,1:2|0:0,0:0:0:0:
375,326,99036,2,0,L|239:337,1,130,0|2,3:2|1:1,0:0:0:0:
145,352,99559,1,0,3:2:0:0:
85,273,99733,2,0,P|79:236|90:200,1,65,2|0,0:1|3:2,0:0:0:0:
178,179,100082,2,0,P|184:210|178:242,1,65,4|0,1:1|3:2,0:0:0:0:
93,102,100431,6,0,L|222:101,1,130,8|0,3:1|1:2,0:0:0:0:
294,30,100954,2,0,P|318:67|305:155,1,130,0|0,0:0|3:2,0:0:0:0:
215,188,101477,2,0,L|145:186,1,65,0|0,1:2|0:0,0:0:0:0:
108,280,101826,2,0,L|183:274,1,65,8|0,3:3|0:0,0:0:0:0:
265,319,102175,1,0,1:2:0:0:
265,319,102350,1,0,0:0:0:0:
328,238,102524,2,0,P|336:199|331:164,1,65,2|4,3:1|3:2,0:0:0:0:
243,71,102873,1,4,1:2:0:0:
115,158,103047,1,0,0:0:0:0:
115,158,103134,1,0,0:0:0:0:
115,158,103222,6,0,L|107:232,1,65,6|2,3:2|0:3,0:0:0:0:
84,319,103570,1,8,1:2:0:0:
179,360,103745,2,0,P|219:362|253:353,1,65,2|2,0:0|3:3,0:0:0:0:
316,284,104094,1,8,3:2:0:0:
409,326,104268,2,0,L|416:261,1,65,2|2,1:2|3:3,0:0:0:0:
459,120,104617,6,0,B|416:132|416:132|324:121,1,130,2|8,3:1|1:2,0:0:0:0:
256,53,105140,2,0,L|113:59,1,130,2|8,0:1|3:2,0:0:0:0:
64,140,105663,1,2,1:1:0:0:
136,208,105838,1,0,0:0:0:0:
59,256,106012,2,0,P|103:293|194:276,1,130,12|4,3:1|1:3,0:0:0:0:
257,232,106536,2,0,B|218:205|218:205|115:208,1,130,4|0,0:1|0:0,0:0:0:0:
172,290,107059,1,4,1:2:0:0:
257,232,107233,1,0,0:0:0:0:
325,308,107408,6,0,L|320:377,2,65,8|2|6,3:3|1:1|1:2,0:0:0:0:
419,259,107931,1,2,0:1:0:0:
419,259,108018,1,0,1:2:0:0:
419,259,108105,2,0,L|415:181,1,65,2|2,3:2|1:1,0:0:0:0:
411,92,108454,1,8,1:3:0:0:
308,99,108629,2,0,L|260:91,2,32.5,4|0|8,1:1|1:2|3:3,0:0:0:0:
305,97,109152,6,0,L|294:242,1,130,4|2,1:2|3:3,0:0:0:0:
252,309,109675,1,0,3:2:0:0:
168,251,109850,2,0,L|96:243,1,65,0|0,1:2|0:0,0:0:0:0:
46,151,110198,2,0,L|194:168,1,130,0|2,3:2|1:1,0:0:0:0:
268,209,110722,1,0,3:2:0:0:
345,148,110896,2,0,P|354:111|350:80,1,65,2|0,0:1|3:2,0:0:0:0:
256,38,111245,2,0,P|253:70|262:101,1,65,4|0,1:1|3:2,0:0:0:0:
345,150,111594,6,0,L|483:146,1,130,8|0,3:1|1:2,0:0:0:0:
510,243,112117,2,0,L|372:239,1,130,0|0,0:0|3:2,0:0:0:0:
284,272,112640,1,0,1:2:0:0:
349,346,112815,1,0,0:0:0:0:
232,350,112989,2,0,L|156:343,1,65,8|0,3:3|0:0,0:0:0:0:
127,255,113338,2,0,L|203:248,1,65,8|8,1:2|0:0,0:0:0:0:
277,175,113687,1,2,3:0:0:0:
359,218,113861,1,6,3:2:0:0:
277,272,114036,1,4,1:2:0:0:
277,175,114210,6,0,B|288:85|288:85|320:120,1,130,2|2,1:1|0:3,0:0:0:0:
211,119,114733,2,0,L|221:55,1,65,8|2,1:2|0:0,0:0:0:0:
132,11,115082,1,2,3:3:0:0:
132,11,115257,1,8,3:2:0:0:
110,108,115431,2,0,L|123:184,1,65,2|2,1:2|3:3,0:0:0:0:
62,245,115780,2,0,P|104:262|189:235,1,130,2|8,3:1|1:2,0:0:0:0:
241,167,116303,2,0,P|199:150|114:177,1,130,2|8,0:1|3:2,0:0:0:0:
62,245,116826,2,0,L|70:323,1,65,2|8,1:1|0:3,0:0:0:0:
174,355,117175,6,0,L|161:278,1,65,12|0,3:2|0:0,0:0:0:0:
223,215,117524,1,8,0:2:0:0:
284,292,117698,2,0,P|330:306|397:261,1,130,2|2,0:3|3:2,0:0:0:0:
435,178,118222,2,0,L|431:110,1,65,10|2,1:2|0:0,0:0:0:0:
352,46,118570,1,0,3:2:0:0:
283,115,118745,1,2,3:2:0:0:
205,46,118919,1,12,0:2:0:0:
79,236,119268,6,0,L|69:299,2,51.999998413086,8|8|8,0:2|0:2|0:2,0:0:0:0:
150,169,119617,6,0,L|141:117,2,51.999998413086,8|8|8,0:3|0:3|0:3,0:0:0:0:
164,257,119966,6,0,P|209:237|210:104,1,195.00000743866,6|4,3:2|0:3,0:0:0:0:
147,166,121012,1,2,0:0:0:0:
87,225,121361,2,0,P|82:273|136:329,1,116.999996429443,4|0,0:2|0:0,0:0:0:0:
176,323,122035,5,2,0:3:0:0:
279,254,122394,1,8,0:3:0:0:
219,143,122753,1,2,0:0:0:0:
119,50,123091,6,0,B|158:62|191:36|191:36|245:46,1,116.999996429443,2|0,0:3|0:0,0:0:0:0:
317,111,124149,6,0,L|421:102,1,97.50000371933,2|8,0:2|0:3,0:0:0:0:
466,226,125007,2,0,L|361:222,1,97.50000371933,2|4,0:1|0:1,0:0:0:0:
292,304,125712,1,2,0:2:0:0:
111,192,126402,1,8,0:1:0:0:
