osu file format v14

[General]
AudioFilename: audio.mp3
AudioLeadIn: 0
PreviewTime: 73919
Countdown: 0
SampleSet: Soft
StackLeniency: 0.7
Mode: 0
LetterboxInBreaks: 0
WidescreenStoryboard: 1

[Editor]
DistanceSpacing: 1.4
BeatDivisor: 4
GridSize: 32
TimelineZoom: 2.4

[Metadata]
Title:The Everlasting Guilty Crown
TitleUnicode:The Everlasting Guilty Crown
Artist:Roselia
ArtistUnicode:Roselia
Creator:Underdogs
Version:Easy
Source:バンドリ!ガールズバンドパーティ!
Tags:Gaia ryo supercell EGOIST Guilty Crown BanG Dream! Garupa Bandori ロゼリア ガルパ Girls Band Party! 湊友希那 Minato Yukina 相羽あいな Aiba Aina 宇田川あこ Udagawa Ako 櫻川めぐ Sakuragawa Megu 白金燐子 Shirokane Rinko 明坂聡美 Akesaka Satomi 氷川紗夜 Hikawa Sayo 工藤晴香 Kudou Haruka 今井リサ Imai Risa 遠藤ゆりか Endou Yurika
BeatmapID:1409238
BeatmapSetID:664522

[Difficulty]
HPDrainRate:2
CircleSize:3
OverallDifficulty:2
ApproachRate:3
SliderMultiplier:0.7
SliderTickRate:1

[Events]
//Background and Video events
0,0,"background.jpg",0,0
//Break Periods
//Storyboard Layer 0 (Background)
//Storyboard Layer 1 (Fail)
//Storyboard Layer 2 (Pass)
//Storyboard Layer 3 (Foreground)
//Storyboard Sound Samples

[TimingPoints]
2757,348.837209302326,4,2,1,30,1,0
2757,-100,4,2,1,30,0,0
6768,-100,4,2,1,30,0,0
7291,-100,4,2,1,30,0,0
7815,-100,4,2,1,30,0,0
8338,-100,4,2,1,40,0,0
8425,-100,4,2,21,40,0,0
29966,-100,4,2,1,30,0,0
30315,-100,4,2,1,20,0,0
30663,-100,4,2,1,50,0,0
30838,-100,4,2,22,50,0,0
39036,-100,4,2,22,50,0,0
41826,-100,4,2,1,60,0,0
42001,-100,4,2,22,50,0,0
47233,-100,4,2,22,50,0,0
47408,-100,4,2,1,50,0,0
47582,-100,4,2,22,50,0,0
47757,-100,4,2,22,50,0,0
50547,-100,4,2,22,60,0,0
50722,-100,4,2,22,70,0,0
50896,-100,4,2,22,50,0,0
51245,-100,4,2,1,70,0,0
52989,-100,4,2,1,70,0,0
53512,-100,4,2,22,70,0,0
53600,-100,4,2,1,70,0,0
54210,-100,4,2,22,70,0,0
54646,-100,4,2,1,70,0,0
55082,-100,4,2,22,70,0,0
55344,-100,4,2,1,70,0,0
55780,-100,4,2,22,70,0,0
55867,-100,4,2,1,70,0,0
56303,-100,4,2,22,70,0,0
56390,-100,4,2,1,70,0,0
57001,-100,4,2,22,70,0,0
57437,-100,4,2,1,70,0,0
58222,-100,4,2,22,70,0,0
58309,-100,4,2,1,70,0,0
58570,-100,4,2,1,70,0,0
59094,-100,4,2,22,70,0,0
59181,-100,4,2,1,70,0,0
59791,-100,4,2,22,70,0,0
60227,-100,4,2,1,70,0,0
61361,-100,4,2,62,50,0,0
61448,-100,4,2,1,70,0,0
61884,-100,4,2,62,50,0,0
61972,-100,4,2,1,70,0,0
62059,-100,4,2,1,70,0,0
62408,-100,4,2,62,50,0,0
62495,-100,4,2,1,70,0,0
62931,-100,4,2,62,50,0,0
63018,-100,4,2,1,70,0,0
63454,-100,4,2,22,70,0,0
63541,-100,4,2,1,70,0,0
63803,-100,4,2,62,50,0,0
63890,-100,4,2,1,70,0,0
64152,-100,4,2,1,70,0,0
64501,-100,4,2,1,70,0,0
65024,-100,4,2,22,70,0,0
65111,-100,4,2,1,70,0,0
65547,-100,4,2,22,70,0,0
65809,-100,4,2,1,70,0,0
66594,-100,4,2,62,50,0,0
66681,-100,4,2,1,70,0,0
66943,-100,4,2,62,70,0,0
67030,-100,4,2,1,70,0,0
67466,-100,4,2,62,50,0,0
67553,-100,4,2,1,70,0,0
67989,-100,4,2,62,70,0,0
68076,-100,4,2,1,70,0,0
68338,-100,4,2,62,50,0,0
68425,-100,4,2,1,70,0,0
68861,-100,4,2,62,50,0,0
68948,-100,4,2,1,70,0,0
69210,-100,4,2,62,70,0,0
69472,-100,4,2,1,70,0,0
69733,-100,4,2,62,60,0,0
69820,-100,4,2,1,70,0,0
70082,-100,4,2,1,70,0,0
70780,-100,4,2,62,40,0,0
70867,-100,4,2,1,70,0,0
71129,-100,4,2,62,40,0,0
71216,-100,4,2,1,70,0,0
73919,-100,4,2,1,20,0,0
75315,-100,4,2,71,80,0,1
76187,-100,4,2,1,80,0,1
76274,-100,4,2,71,80,0,1
77582,-100,4,2,1,80,0,1
77669,-100,4,2,71,80,0,1
77931,-100,4,2,1,80,0,1
78018,-100,4,2,71,80,0,1
78977,-100,4,2,1,80,0,1
79064,-100,4,2,71,80,0,1
80373,-100,4,2,1,80,0,1
80460,-100,4,2,71,80,0,1
83163,-100,4,2,1,80,0,1
83250,-100,4,2,71,80,0,1
84559,-100,4,2,1,80,0,1
84646,-100,4,2,71,80,0,1
85954,-100,4,2,71,80,0,1
86477,-100,4,2,71,80,0,1
90140,-100,4,2,1,80,0,1
90227,-100,4,2,71,80,0,1
94326,-100,4,2,1,80,0,1
94413,-100,4,2,71,80,0,1
96594,-100,4,2,71,80,0,1
97640,-100,4,2,71,70,0,1
99733,-100,4,2,72,70,0,1
99820,-100,4,2,71,70,0,1
100082,-100,4,2,72,70,0,1
100169,-100,4,2,71,70,0,1
100431,-100,4,2,72,70,0,1
100518,-100,4,2,71,70,0,1
102873,-100,4,2,71,70,0,1
103222,-100,4,2,71,70,0,0
106012,-100,4,2,71,70,0,0
108105,-100,4,2,71,70,0,0
108803,-100,4,2,71,70,0,0
110896,-100,4,2,72,70,0,0
110983,-100,4,2,71,70,0,0
111245,-100,4,2,72,70,0,0
111332,-100,4,2,71,70,0,0
111594,-100,4,2,72,70,0,0
111681,-100,4,2,71,70,0,0
114210,-100,4,2,71,70,0,0
117175,-100,4,2,72,50,0,0
117262,-100,4,2,1,70,0,0
117698,-100,4,2,72,50,0,0
117786,-100,4,2,1,70,0,0
118222,-100,4,2,72,50,0,0
118309,-100,4,2,1,70,0,0
118919,-100,4,2,1,70,0,0
119617,-100,4,2,1,70,0,0
119966,-100,4,2,71,60,0,0
120053,-100,4,2,71,10,0,0
120663,-100,4,2,73,20,0,0
121361,337.078651685393,4,2,73,20,1,0
121361,-100,4,2,73,20,0,0
121445,-100,4,2,73,10,0,0
122035,359.281437125748,4,2,73,20,1,0
122035,-100,4,2,73,20,0,0
122124,-100,4,2,73,10,0,0
122394,-100,4,2,73,20,0,0
122484,-100,4,2,73,10,0,0
122753,338.983050847458,4,2,74,20,1,0
123091,529.411764705882,4,2,73,20,1,0
123091,-100,4,2,73,20,0,0
123223,-100,4,2,73,10,0,0
124149,521.739130434783,4,2,74,20,1,0
124279,-100,4,2,74,10,0,0
124670,337.078651685393,4,2,73,20,1,0
125007,352.941176470588,4,2,73,20,1,0
125007,-100,4,2,73,20,0,0
125095,-100,4,2,73,10,0,0
125359,-100,4,2,73,20,0,0
125448,-100,4,2,73,10,0,0
125712,359.281437125748,4,2,74,20,1,0
126071,331.491712707182,4,2,73,20,1,0
126071,-100,4,2,73,20,0,0
126153,-100,4,2,73,10,0,0
126402,422.535211267606,4,2,73,40,1,0
126507,-100,4,2,73,20,0,0
128092,-100,4,2,73,10,0,0
129782,-100,4,2,73,5,0,0

[Colours]
Combo1 : 240,240,240
Combo2 : 128,255,255
Combo3 : 255,98,98
Combo4 : 176,98,255
Combo5 : 255,151,203
Combo6 : 255,0,0

[HitObjects]
374,304,8338,6,0,L|383:235,1,70,6|8,3:2|0:2,0:0:0:0:
336,147,9036,2,0,P|400:137|445:155,2,105,0|8|0,0:0|0:0|1:0,0:0:0:0:
279,230,10431,2,0,L|197:223,1,70,2|8,0:3|1:2,0:0:0:0:
120,272,11129,6,0,P|110:240|117:195,1,70,2|8,0:0|1:2,0:0:0:0:
165,116,11826,2,0,P|111:99|62:115,2,105,0|8|0,0:0|0:0|1:2,0:0:0:0:
254,162,13222,2,0,L|328:158,1,70,2|8,0:3|1:2,0:0:0:0:
379,72,13919,6,0,L|298:69,1,70,2|8,0:0|1:2,0:0:0:0:
211,77,14617,2,0,L|96:67,2,105,0|8|0,0:0|0:0|1:2,0:0:0:0:
278,154,16012,2,0,P|284:191|271:230,1,70,2|8,0:3|1:2,0:0:0:0:
194,279,16710,6,0,L|113:271,1,70,2|8,0:0|1:2,0:0:0:0:
44,213,17408,2,0,L|34:329,2,105,0|8|0,0:0|0:0|1:2,0:0:0:0:
115,141,18803,1,2,0:3:0:0:
201,189,19152,1,8,1:2:0:0:
288,143,19501,6,0,L|290:64,1,70,2|8,0:0|1:2,0:0:0:0:
386,53,20198,2,0,L|502:64,2,105,0|8|0,0:0|0:0|1:2,0:0:0:0:
290,73,21594,2,0,L|211:72,1,70,2|8,0:3|1:2,0:0:0:0:
123,51,22291,6,0,P|118:88|133:127,1,70,2|8,0:0|1:2,0:0:0:0:
175,205,22989,2,0,P|142:218|68:203,2,105,0|0|0,0:0|0:0|1:0,0:0:0:0:
272,183,24384,2,0,P|277:220|262:259,1,70,2|8,0:3|1:2,0:0:0:0:
175,205,25082,6,0,P|170:168|185:129,1,70,2|8,0:0|1:2,0:0:0:0:
269,87,25780,2,0,L|381:94,2,105,0|8|0,0:0|0:0|1:0,0:0:0:0:
172,66,27175,1,2,0:3:0:0:
86,118,27524,1,8,1:2:0:0:
106,217,27873,5,2,0:0:0:0:
256,192,28570,12,0,29791,0:0:0:0:
441,88,30663,6,0,P|447:122|436:159,1,70,6|8,3:2|3:2,0:0:0:0:
347,193,31361,2,0,P|341:159|352:122,1,70,0|4,3:2|3:2,0:0:0:0:
286,50,32059,2,0,L|209:48,1,70,4|0,3:2|3:2,0:0:0:0:
125,86,32757,1,2,3:3:0:0:
173,173,33105,1,8,3:2:0:0:
112,251,33454,6,0,L|6:259,2,105,2|2|4,3:2|0:3|3:2,0:0:0:0:
197,307,34850,2,0,P|245:322|274:319,1,70,4|0,3:2|3:2,0:0:0:0:
287,222,35547,2,0,P|239:207|210:210,1,70,2|8,3:3|3:2,0:0:0:0:
139,151,36245,6,0,B|126:105|126:105|141:8,1,140,2|0,3:2|3:2,0:0:0:0:
318,95,37640,2,0,B|331:141|331:141|316:238,1,140,4|2,3:3|3:3,0:0:0:0:
253,307,38687,1,8,3:2:0:0:
168,357,39036,6,0,P|153:319|156:289,1,70,2|8,3:2|3:2,0:0:0:0:
59,270,39733,2,0,P|75:232|98:213,1,70,0|4,3:2|3:2,0:0:0:0:
49,128,40431,2,0,P|86:112|116:116,1,70,4|0,3:2|3:2,0:0:0:0:
143,21,41129,2,0,P|180:37|199:60,1,70,2|8,3:3|3:2,0:0:0:0:
215,156,41826,6,0,L|370:148,1,140,6|0,3:2|3:2,0:0:0:0:
419,226,42873,1,4,3:2:0:0:
369,312,43222,2,0,L|214:320,1,140,4|2,3:2|3:3,0:0:0:0:
135,290,44268,1,8,3:2:0:0:
60,226,44617,6,0,L|53:153,1,70,2|8,3:2|3:2,0:0:0:0:
147,125,45315,2,0,L|153:201,1,70,0|4,3:2|3:2,0:0:0:0:
250,211,46012,2,0,L|255:141,1,70,4|0,3:2|3:2,0:0:0:0:
352,160,46710,2,0,L|346:229,1,70,2|8,3:3|3:2,0:0:0:0:
276,306,47408,6,0,P|325:330|409:304,1,140,6|0,3:2|3:2,0:0:0:0:
345,229,48454,1,4,3:2:0:0:
406,152,48803,2,0,P|357:128|273:154,1,140,4|2,3:2|3:3,0:0:0:0:
191,201,49850,1,8,3:2:0:0:
120,133,50198,6,0,L|40:130,2,70,6|4|0,3:2|3:3|3:2,0:0:0:0:
197,68,51245,2,0,L|203:23,1,35,2|8,3:2|0:2,0:0:0:0:
427,137,52291,5,8,0:0:0:0:
357,320,52989,6,0,B|308:306|308:306|216:321,1,140,6|0,3:2|3:2,0:0:0:0:
128,356,54036,1,8,0:0:0:0:
67,279,54384,2,0,L|61:208,1,70,4|8,3:2|0:0,0:0:0:0:
155,181,55082,2,0,L|149:250,1,70,2|8,3:0|0:0,0:0:0:0:
122,345,55780,6,0,P|97:368|19:371,2,105,8|8|8,3:3|0:0|0:0,0:0:0:0:
217,306,57175,6,0,L|295:302,1,70,6|8,3:2|0:0,0:0:0:0:
342,214,57873,2,0,L|264:210,1,70,2|8,3:2|3:0,0:0:0:0:
183,161,58570,6,0,B|173:109|173:109|181:80|181:80|170:14,1,140,6|0,3:2|3:2,0:0:0:0:
77,62,59617,1,8,0:0:0:0:
83,163,59966,2,0,L|101:242,1,70,10|8,3:2|0:0,0:0:0:0:
197,254,60663,2,0,P|236:253|268:235,1,70,0|8,3:2|0:0,0:0:0:0:
365,232,61361,6,0,L|377:344,2,105,2|4|8,3:2|0:2|1:2,0:0:0:0:
386,136,62757,2,0,P|396:90|390:62,1,70,0|8,3:2|0:0,0:0:0:0:
298,38,63454,2,0,P|288:84|294:112,1,70,8|2,3:2|3:3,0:0:0:0:
257,198,64152,6,0,L|116:181,1,140,6|0,3:2|3:2,0:0:0:0:
63,262,65198,1,8,0:0:0:0:
138,327,65547,2,0,L|215:322,1,70,8|8,3:2|0:0,0:0:0:0:
308,298,66245,2,0,L|377:302,1,70,0|4,3:2|1:3,0:0:0:0:
469,346,66943,6,0,P|480:291|437:221,1,140,2|0,3:0|3:2,0:0:0:0:
340,202,67989,1,2,1:3:0:0:
308,298,68338,2,0,L|167:283,1,140,8|0,3:1|3:2,0:0:0:0:
88,344,69384,1,8,1:0:0:0:
50,253,69733,6,0,B|35:205|35:205|49:110,1,140,6|0,3:1|3:2,0:0:0:0:
134,61,70780,1,2,1:1:0:0:
205,136,71129,2,0,L|287:137,1,70,2|8,3:1|0:0,0:0:0:0:
348,67,71826,2,0,L|417:66,1,70,0|8,3:2|0:0,0:0:0:0:
511,113,72524,6,0,B|486:170|414:171|414:171|483:234|465:318,1,280,6|2,3:2|0:0,0:0:0:0:
56,253,75315,6,0,L|45:182,1,70,4|0,3:2|1:2,0:0:0:0:
11,89,76012,2,0,P|51:78|91:91,1,70,2|0,3:3|1:2,0:0:0:0:
174,123,76710,2,0,L|188:12,2,105,2|8|0,3:2|3:2|1:2,0:0:0:0:
179,223,78105,6,0,L|264:211,1,70,0|0,3:2|1:2,0:0:0:0:
323,149,78803,2,0,L|392:158,1,70,4|0,3:3|1:2,0:0:0:0:
444,244,79501,2,0,P|451:271|427:346,2,105,8|8|2,3:3|0:0|1:3,0:0:0:0:
353,284,80896,6,0,L|200:277,1,140,6|2,3:2|3:3,0:0:0:0:
139,348,81943,1,2,1:2:0:0:
70,273,82291,2,0,B|54:218|54:218|59:158,2,105,2|2|2,3:1|0:1|1:1,0:0:0:0:
172,267,83687,5,4,3:1:0:0:
207,122,84210,2,0,P|250:106|308:126,1,105,4|4,0:1|1:1,0:0:0:0:
360,209,85082,2,0,L|353:280,1,70,2|4,3:2|1:2,0:0:0:0:
444,325,85780,2,0,L|451:254,1,70,0|0,3:2|1:2,0:0:0:0:
439,157,86477,6,0,P|389:123|303:132,1,140,4|2,3:2|3:3,0:0:0:0:
225,183,87524,1,0,1:2:0:0:
158,108,87873,2,0,B|137:66|137:66|146:-1,2,105,2|8|0,3:2|3:2|1:2,0:0:0:0:
225,183,89268,6,0,L|213:261,1,70,0|0,3:2|1:2,0:0:0:0:
304,300,89966,2,0,L|314:230,1,70,4|0,3:3|1:2,0:0:0:0:
361,143,90663,2,0,P|394:164|414:231,2,105,8|8|2,3:3|0:0|1:3,0:0:0:0:
259,149,92059,5,6,3:2:0:0:
111,148,92582,2,0,L|108:264,1,105,2|2,0:0|1:2,0:0:0:0:
174,328,93454,5,2,3:1:0:0:
323,299,93977,2,0,L|436:292,1,105,2|2,0:1|1:1,0:0:0:0:
486,209,94850,5,12,3:1:0:0:
397,83,95373,2,0,L|291:91,1,105,4|4,0:1|1:0,0:0:0:0:
232,172,96245,2,0,L|86:158,1,140,2|0,3:2|3:2,0:0:0:0:
54,64,97291,1,0,1:2:0:0:
149,29,97640,5,4,3:2:0:0:
230,92,97989,2,0,L|380:94,1,140,4|0,1:2|1:2,0:0:0:0:
452,152,99036,2,0,P|472:112|457:44,2,105,0|2|4,3:2|0:1|1:1,0:0:0:0:
374,218,100431,6,0,L|263:211,1,105,8|0,3:1|0:0,0:0:0:0:
161,318,101477,1,0,1:2:0:0:
83,252,101826,2,0,L|77:176,1,70,8|0,3:3|1:2,0:0:0:0:
160,121,102524,2,0,L|167:197,1,70,2|4,3:1|1:2,0:0:0:0:
211,284,103222,6,0,B|257:279|257:279|277:286|277:286|332:287,2,105,6|2|2,3:2|0:0|1:2,0:0:0:0:
124,336,104617,2,0,B|78:331|78:331|58:338|58:338|3:339,2,105,2|2|2,3:1|0:1|1:1,0:0:0:0:
199,269,106012,2,0,B|211:231|211:231|206:158,2,105,12|4|4,3:1|0:1|1:2,0:0:0:0:
105,224,107408,6,0,L|101:149,1,70,8|6,3:3|1:2,0:0:0:0:
157,71,108105,2,0,L|226:64,1,70,2|8,3:2|1:3,0:0:0:0:
328,61,108803,5,8,3:3:0:0:
419,103,109152,2,0,B|428:142|428:142|414:244,1,140,4|0,1:2|1:2,0:0:0:0:
338,302,110198,2,0,L|261:304,1,70,0|2,3:2|1:1,0:0:0:0:
222,214,110896,2,0,L|291:215,1,70,2|4,0:1|1:1,0:0:0:0:
382,167,111594,6,0,B|390:126|390:126|385:108|385:108|396:57,2,105,8|0|0,3:1|0:0|1:2,0:0:0:0:
426,256,112989,2,0,P|365:267|299:226,1,140,8|2,3:3|3:0,0:0:0:0:
221,166,114036,1,4,1:2:0:0:
171,254,114384,6,0,L|175:329,1,70,6|8,3:2|1:2,0:0:0:0:
73,342,115082,2,0,L|76:272,1,70,2|2,3:3|1:2,0:0:0:0:
83,172,115780,2,0,L|13:175,2,70,2|8|2,3:1|1:2|3:3,0:0:0:0:
170,121,116826,1,2,1:1:0:0:
244,193,117175,6,0,L|238:313,2,105,12|2|10,3:2|0:3|1:2,0:0:0:0:
170,121,118570,2,0,P|228:93|310:118,1,140,0|8,3:2|0:2,0:0:0:0:
370,182,119617,1,8,0:3:0:0:
386,284,119966,6,0,L|170:263,1,210,6|2,3:2|0:0,0:0:0:0:
91,317,121361,2,0,P|74:268|110:192,1,140,4|2,0:2|0:3,0:0:0:0:
203,158,122394,1,8,0:3:0:0:
278,233,122753,2,0,L|285:308,1,70,2|2,0:0|0:3,0:0:0:0:
476,227,124149,5,2,0:2:0:0:
256,192,124670,12,8,126402,0:1:0:0:
