osu file format v14

[General]
AudioFilename: audio.mp3
AudioLeadIn: 0
PreviewTime: 73919
Countdown: 0
SampleSet: Soft
StackLeniency: 0.7
Mode: 0
LetterboxInBreaks: 0
WidescreenStoryboard: 0

[Editor]
DistanceSpacing: 0.7
BeatDivisor: 4
GridSize: 32
TimelineZoom: 2.4

[Metadata]
Title:The Everlasting Guilty Crown
TitleUnicode:The Everlasting Guilty Crown
Artist:Roselia
ArtistUnicode:Roselia
Creator:Underdogs
Version:Insane
Source:バンドリ!ガールズバンドパーティ!
Tags:Gaia ryo supercell EGOIST Guilty Crown BanG Dream! Garupa Bandori ロゼリア ガルパ Girls Band Party! 湊友希那 Minato Yukina 相羽あいな Aiba Aina 宇田川あこ Udagawa Ako 櫻川めぐ Sakuragawa Megu 白金燐子 Shirokane Rinko 明坂聡美 Akesaka Satomi 氷川紗夜 Hikawa Sayo 工藤晴香 Kudou Haruka 今井リサ Imai Risa 遠藤ゆりか Endou Yurika
BeatmapID:1406451
BeatmapSetID:664522

[Difficulty]
HPDrainRate:6.5
CircleSize:4
OverallDifficulty:7
ApproachRate:8.8
SliderMultiplier:1.6
SliderTickRate:1

[Events]
//Background and Video events
0,0,"background.jpg",0,0
//Break Periods
//Storyboard Layer 0 (Background)
//Storyboard Layer 1 (Fail)
//Storyboard Layer 2 (Pass)
//Storyboard Layer 3 (Foreground)
//Storyboard Sound Samples

[TimingPoints]
2757,348.837209302326,4,2,1,30,1,0
8338,-133.333333333333,4,2,1,40,0,0
8425,-133.333333333333,4,2,21,40,0,0
29966,-133.333333333333,4,2,1,30,0,0
30315,-133.333333333333,4,2,1,20,0,0
30663,-133.333333333333,4,2,1,50,0,0
30838,-133.333333333333,4,2,22,50,0,0
41826,-133.333333333333,4,2,1,60,0,0
42001,-133.333333333333,4,2,22,50,0,0
47408,-133.333333333333,4,2,1,50,0,0
47582,-133.333333333333,4,2,22,50,0,0
50547,-133.333333333333,4,2,22,60,0,0
50722,-133.333333333333,4,2,22,70,0,0
50896,-133.333333333333,4,2,22,50,0,0
51245,-133.333333333333,4,2,1,70,0,0
52466,-76.9230769230769,4,2,1,70,0,0
52989,-100,4,2,1,70,0,0
53512,-100,4,2,22,70,0,0
53600,-100,4,2,1,70,0,0
54210,-100,4,2,22,70,0,0
54646,-100,4,2,1,70,0,0
55082,-100,4,2,22,70,0,0
55344,-100,4,2,1,70,0,0
55780,-100,4,2,22,70,0,0
55867,-100,4,2,1,70,0,0
56303,-100,4,2,22,70,0,0
56390,-100,4,2,1,70,0,0
57001,-100,4,2,22,70,0,0
57437,-100,4,2,1,70,0,0
58222,-100,4,2,22,70,0,0
58309,-100,4,2,1,70,0,0
59094,-100,4,2,22,70,0,0
59181,-100,4,2,1,70,0,0
59791,-100,4,2,22,70,0,0
60227,-100,4,2,1,70,0,0
61361,-100,4,2,62,50,0,0
61448,-100,4,2,1,70,0,0
61884,-100,4,2,62,50,0,0
61972,-100,4,2,1,70,0,0
62408,-100,4,2,62,50,0,0
62495,-100,4,2,1,70,0,0
62931,-100,4,2,62,50,0,0
63018,-100,4,2,1,70,0,0
63454,-100,4,2,22,70,0,0
63541,-100,4,2,1,70,0,0
63803,-100,4,2,62,50,0,0
63890,-100,4,2,1,70,0,0
65024,-100,4,2,22,70,0,0
65111,-100,4,2,1,70,0,0
65547,-100,4,2,22,70,0,0
65809,-100,4,2,1,70,0,0
66594,-100,4,2,62,50,0,0
66681,-100,4,2,1,70,0,0
66943,-100,4,2,62,70,0,0
67030,-100,4,2,1,70,0,0
67466,-100,4,2,62,50,0,0
67553,-100,4,2,1,70,0,0
67989,-100,4,2,62,70,0,0
68076,-100,4,2,1,70,0,0
68338,-100,4,2,62,50,0,0
68425,-100,4,2,1,70,0,0
68861,-100,4,2,62,50,0,0
68948,-100,4,2,1,70,0,0
69210,-100,4,2,62,70,0,0
69472,-100,4,2,1,70,0,0
69733,-100,4,2,62,60,0,0
69820,-100,4,2,1,70,0,0
70780,-100,4,2,62,40,0,0
70867,-100,4,2,1,70,0,0
71129,-100,4,2,62,40,0,0
71216,-100,4,2,1,70,0,0
73919,-166.666666666667,4,2,1,20,0,0
75315,-100,4,2,71,80,0,1
76187,-100,4,2,1,80,0,1
76274,-100,4,2,71,80,0,1
77582,-100,4,2,1,80,0,1
77669,-100,4,2,71,80,0,1
77931,-100,4,2,1,80,0,1
78018,-100,4,2,71,80,0,1
78977,-100,4,2,1,80,0,1
79064,-100,4,2,71,80,0,1
80373,-100,4,2,1,80,0,1
80460,-100,4,2,71,80,0,1
83163,-100,4,2,1,80,0,1
83250,-100,4,2,71,80,0,1
84559,-100,4,2,1,80,0,1
84646,-100,4,2,71,80,0,1
90140,-100,4,2,1,80,0,1
90227,-100,4,2,71,80,0,1
94326,-100,4,2,1,80,0,1
94413,-100,4,2,71,80,0,1
97640,-100,4,2,71,70,0,1
99733,-100,4,2,72,70,0,1
99820,-100,4,2,71,70,0,1
100082,-100,4,2,72,70,0,1
100169,-100,4,2,71,70,0,1
100431,-100,4,2,72,70,0,1
100518,-100,4,2,71,70,0,1
102873,-83.3333333333333,4,2,71,70,0,1
103222,-100,4,2,71,70,0,0
110896,-100,4,2,72,70,0,0
110983,-100,4,2,71,70,0,0
111245,-133.333333333333,4,2,72,70,0,0
111332,-133.333333333333,4,2,71,70,0,0
111594,-133.333333333333,4,2,72,70,0,0
111681,-133.333333333333,4,2,71,70,0,0
117175,-133.333333333333,4,2,72,50,0,0
117262,-133.333333333333,4,2,1,70,0,0
117698,-133.333333333333,4,2,72,50,0,0
117786,-133.333333333333,4,2,1,70,0,0
118222,-133.333333333333,4,2,72,50,0,0
118309,-133.333333333333,4,2,1,70,0,0
119268,-83.3333333333333,4,2,1,70,0,0
119966,-133.333333333333,4,2,71,60,0,0
120053,-133.333333333333,4,2,71,10,0,0
120663,-133.333333333333,4,2,73,20,0,0
121361,337.078651685393,4,2,73,20,1,0
121361,-166.666666666667,4,2,73,20,0,0
121445,-100,4,2,73,10,0,0
122035,359.281437125748,4,2,73,20,1,0
122753,338.983050847458,4,2,74,20,1,0
123091,529.411764705882,4,2,73,20,1,0
123091,-166.666666666667,4,2,73,20,0,0
123223,-100,4,2,73,10,0,0
123885,-166.666666666667,4,2,73,10,0,0
124149,521.739130434783,4,2,74,20,1,0
124149,-133.333333333333,4,2,74,20,0,0
124279,-100,4,2,74,10,0,0
124670,337.078651685393,4,2,73,20,1,0
125007,352.941176470588,4,2,73,20,1,0
125712,359.281437125748,4,2,74,20,1,0
126071,331.491712707182,4,2,73,20,1,0
126402,422.535211267606,4,2,73,40,1,0

[Colours]
Combo1 : 240,240,240
Combo2 : 128,255,255
Combo3 : 255,98,98
Combo4 : 176,98,255
Combo5 : 255,151,203
Combo6 : 255,0,0

[HitObjects]
149,276,2757,5,2,0:0:0:0:
149,276,2931,1,2,0:0:0:0:
415,222,3280,1,2,0:0:0:0:
415,222,3454,1,2,0:0:0:0:
218,191,3803,1,2,1:2:0:0:
218,191,3977,5,2,0:0:0:0:
343,311,4326,1,2,0:0:0:0:
343,311,4501,1,2,1:2:0:0:
381,138,4850,2,0,L|397:57,1,80,2|2,0:0|0:0,0:0:0:0:
396,59,5198,1,2,1:2:0:0:
312,235,5547,5,2,0:0:0:0:
312,235,5722,1,2,0:0:0:0:
75,66,6070,1,2,0:0:0:0:
75,66,6245,1,2,0:0:0:0:
172,281,6594,1,0,1:0:0:0:
172,281,6768,6,0,B|191:167|191:167|143:202,1,160,2|2,0:0|0:0,0:0:0:0:
114,344,7291,2,0,P|167:365|254:289,1,160,2|2,1:2|0:0,0:0:0:0:
278,216,7815,1,2,0:0:0:0:
120,184,7989,2,2,L|63:184,3,40,2|2|2|2,1:2|0:0|0:0|0:0,0:0:0:0:
55,203,8338,6,0,L|45:132,1,60.0000022888184,6|4,3:2|0:0,0:0:0:0:
142,41,8687,2,0,L|133:100,1,60.0000022888184,8|2,0:2|0:3,0:0:0:0:
91,337,9384,1,4,0:0:0:0:
91,337,9559,6,0,L|157:326,1,60.0000022888184,8|4,0:0|0:0,0:0:0:0:
250,256,9908,2,0,L|184:245,1,60.0000022888184,4|0,0:3|1:0,0:0:0:0:
288,342,10431,1,2,0:3:0:0:
341,361,10606,1,4,0:3:0:0:
388,349,10780,1,8,1:2:0:0:
412,316,10954,1,8,0:3:0:0:
427,273,11129,6,0,L|438:197,1,60.0000022888184,2|4,0:0|0:0,0:0:0:0:
331,161,11477,2,0,L|339:220,1,60.0000022888184,8|2,1:2|0:3,0:0:0:0:
175,108,12175,1,4,0:0:0:0:
175,108,12350,6,0,L|252:98,1,60.0000022888184,8|4,0:0|0:0,0:0:0:0:
134,36,12698,2,0,L|57:26,1,60.0000022888184,4|0,0:3|1:2,0:0:0:0:
156,203,13222,1,2,0:3:0:0:
197,161,13396,1,4,0:3:0:0:
253,154,13570,1,8,1:2:0:0:
293,168,13745,1,8,0:3:0:0:
316,195,13919,6,0,L|302:274,1,60.0000022888184,2|4,0:0|0:0,0:0:0:0:
403,321,14268,2,0,L|392:261,1,60.0000022888184,8|2,1:2|0:3,0:0:0:0:
143,327,14966,1,4,0:0:0:0:
143,327,15140,6,0,L|211:322,1,60.0000022888184,8|4,0:0|0:0,0:0:0:0:
289,244,15489,2,0,L|221:239,1,60.0000022888184,4|0,0:3|1:2,0:0:0:0:
64,26,16012,1,2,0:3:0:0:
49,73,16186,1,4,0:3:0:0:
61,113,16360,1,8,1:2:0:0:
90,137,16535,1,8,0:3:0:0:
117,137,16710,6,0,L|196:128,1,60.0000022888184,2|4,0:0|0:0,0:0:0:0:
276,46,17059,2,0,L|197:37,1,60.0000022888184,8|2,1:2|0:3,0:0:0:0:
295,266,17757,1,4,0:0:0:0:
295,266,17931,6,0,L|286:190,1,60.0000022888184,8|4,0:0|0:0,0:0:0:0:
383,95,18280,2,0,L|375:154,1,60.0000022888184,4|0,0:3|1:2,0:0:0:0:
181,142,18803,1,2,0:3:0:0:
135,140,18977,1,4,0:3:0:0:
98,154,19151,1,8,1:2:0:0:
82,179,19326,1,8,0:3:0:0:
73,196,19501,6,0,L|56:264,1,60.0000022888184,2|4,0:0|0:0,0:0:0:0:
161,339,19850,2,0,L|146:280,1,60.0000022888184,8|2,1:2|0:3,0:0:0:0:
311,209,20547,1,4,0:0:0:0:
311,209,20722,6,0,L|376:219,1,60.0000022888184,8|4,0:0|0:0,0:0:0:0:
436,311,21070,2,0,L|371:321,1,60.0000022888184,4|0,0:3|1:2,0:0:0:0:
210,116,21594,1,2,0:3:0:0:
211,170,21768,1,4,0:3:0:0:
232,212,21942,1,8,1:2:0:0:
277,224,22117,1,8,0:3:0:0:
312,209,22291,6,0,L|339:128,1,60.0000022888184,2|4,0:0|0:0,0:0:0:0:
225,76,22640,2,0,L|243:132,1,60.0000022888184,8|2,1:2|0:3,0:0:0:0:
406,277,23338,1,0,0:0:0:0:
406,277,23512,6,0,L|476:267,1,60.0000022888184,0|4,0:0|0:3,0:0:0:0:
505,150,23861,2,0,L|435:140,1,60.0000022888184,4|0,0:0|1:0,0:0:0:0:
183,156,24384,1,2,0:3:0:0:
162,200,24558,1,4,0:3:0:0:
160,243,24732,1,8,1:2:0:0:
172,276,24907,1,8,0:3:0:0:
191,296,25082,6,0,L|263:284,1,60.0000022888184,2|4,0:0|0:0,0:0:0:0:
316,181,25431,2,0,L|244:169,1,60.0000022888184,8|2,1:2|0:3,0:0:0:0:
37,79,26129,1,4,0:0:0:0:
37,79,26303,6,0,L|23:148,1,60.0000022888184,8|4,0:0|0:0,0:0:0:0:
134,179,26652,2,0,L|122:120,1,60.0000022888184,4|0,0:3|1:0,0:0:0:0:
33,282,27175,1,2,0:3:0:0:
73,305,27349,1,4,0:3:0:0:
110,307,27523,1,8,1:2:0:0:
139,297,27698,1,8,0:3:0:0:
157,280,27873,6,0,L|150:360,1,60.0000022888184,2|4,0:0|0:0,0:0:0:0:
264,361,28222,2,0,L|258:301,1,60.0000022888184,8|2,1:2|0:3,0:0:0:0:
202,87,28919,1,0,0:0:0:0:
202,87,29094,2,0,L|330:75,1,120.000004577637,8|4,0:0|0:3,0:0:0:0:
393,147,29617,1,0,1:0:0:0:
217,258,29791,1,0,0:0:0:0:
217,258,29879,1,0,0:0:0:0:
217,258,29966,6,0,L|226:206,3,30.0000011444092,2|2|2|2,0:0|0:0|0:0|0:0,0:0:0:0:
222,228,30315,6,0,L|235:344,1,90.0000034332277,6|0,0:0|0:0,0:0:0:0:
249,341,30663,6,0,P|298:328|362:360,1,120.000004577637,6|8,3:2|3:2,0:0:0:0:
425,203,31361,2,0,P|425:161|436:82,1,120.000004577637,0|4,3:2|3:2,0:0:0:0:
361,26,31884,1,8,0:0:0:0:
313,113,32059,2,0,P|265:128|193:96,1,120.000004577637,4|0,3:2|3:2,0:0:0:0:
53,101,32757,2,0,P|89:135|98:213,1,120.000004577637,2|8,3:3|3:2,0:0:0:0:
67,300,33280,1,8,2:3:0:0:
232,315,33454,6,0,L|297:308,1,60.0000022888184,2|4,3:2|0:0,0:0:0:0:
347,213,33803,2,0,L|282:206,1,60.0000022888184,8|2,3:2|0:3,0:0:0:0:
377,308,34152,2,0,L|452:306,1,60.0000022888184,0|0,3:2|0:0,0:0:0:0:
495,212,34501,1,4,3:2:0:0:
501,189,34675,1,8,0:0:0:0:
497,164,34850,6,0,B|406:157|406:157|381:114,1,120.000004577637,4|0,3:2|3:2,0:0:0:0:
341,52,35373,1,0,0:0:0:0:
277,137,35547,2,0,L|272:200,1,60.0000022888184,2|4,3:3|2:3,0:0:0:0:
360,282,35896,2,0,L|355:222,1,60.0000022888184,8|8,3:2|2:3,0:0:0:0:
189,215,36245,6,0,P|210:256|288:277,1,120.000004577637,2|8,3:2|3:2,0:0:0:0:
272,187,36768,1,2,0:3:0:0:
185,224,36943,2,0,P|206:265|284:286,1,120.000004577637,0|4,3:2|3:2,0:0:0:0:
273,186,37466,1,8,0:0:0:0:
355,157,37640,6,0,P|324:108|268:93,1,120.000004577637,4|0,3:3|3:2,0:0:0:0:
273,186,38163,1,0,0:0:0:0:
359,148,38338,2,0,P|328:99|272:84,1,120.000004577637,2|8,3:3|3:2,0:0:0:0:
272,187,38861,1,8,2:3:0:0:
419,273,39036,6,0,L|399:366,2,90.0000034332277,2|0|2,3:2|0:0|0:3,0:0:0:0:
361,147,39733,2,0,L|350:48,2,90.0000034332277,0|0|8,3:2|0:0|0:0,0:0:0:0:
300,249,40431,2,0,L|185:230,2,90.0000034332277,4|0|0,3:2|0:0|0:0,0:0:0:0:
256,346,41129,2,0,L|371:327,2,90.0000034332277,2|0|8,3:3|0:0|2:3,0:0:0:0:
140,264,41826,6,0,P|134:223|193:159,1,120.000004577637,6|8,3:2|3:2,0:0:0:0:
267,233,42350,1,2,0:3:0:0:
329,144,42524,2,0,L|319:75,1,60.0000022888184,0|0,3:2|0:0,0:0:0:0:
231,38,42873,2,0,L|222:97,1,60.0000022888184,4|8,3:2|0:0,0:0:0:0:
267,233,43222,6,0,P|307:226|411:218,1,120.000004577637,4|0,3:2|3:2,0:0:0:0:
330,324,43745,1,0,0:0:0:0:
213,316,43919,2,0,L|154:302,1,60.0000022888184,2|4,3:3|2:3,0:0:0:0:
81,209,44268,2,0,L|140:195,1,60.0000022888184,8|8,3:2|2:3,0:0:0:0:
223,45,44617,6,0,P|170:55|136:114,1,120.000004577637,2|8,3:2|3:2,0:0:0:0:
214,236,45140,1,2,0:3:0:0:
214,236,45315,2,0,P|221:207|212:118,1,120.000004577637,0|4,3:2|3:2,0:0:0:0:
112,204,45838,1,8,0:0:0:0:
121,332,46012,6,0,P|151:337|195:330,1,60.0000022888184,4|4,3:2|0:3,0:0:0:0:
286,310,46361,2,0,P|315:307|345:312,1,60.0000022888184,0|0,3:2|0:0,0:0:0:0:
483,331,46710,1,2,3:3:0:0:
407,373,46884,1,4,2:3:0:0:
419,266,47059,2,0,L|428:198,1,60.0000022888184,8|8,3:2|2:3,0:0:0:0:
347,47,47408,6,0,P|326:89|345:169,1,120.000004577637,6|8,3:2|3:2,0:0:0:0:
441,115,47931,1,2,0:3:0:0:
347,47,48105,2,0,L|277:55,1,60.0000022888184,0|0,3:2|0:0,0:0:0:0:
171,121,48454,2,0,L|241:129,1,60.0000022888184,4|8,3:2|0:0,0:0:0:0:
324,251,48803,6,0,B|317:205|317:205|327:181|327:181|319:128,1,120.000004577637,4|0,3:2|3:2,0:0:0:0:
228,204,49326,1,0,0:0:0:0:
398,216,49501,2,0,L|465:235,1,60.0000022888184,2|4,3:3|2:3,0:0:0:0:
473,326,49850,2,0,L|406:307,1,60.0000022888184,8|8,3:2|2:3,0:0:0:0:
315,179,50198,6,0,L|297:315,1,120.000004577637,6|4,3:2|3:3,0:0:0:0:
201,341,50722,1,4,0:1:0:0:
50,237,50896,1,0,3:2:0:0:
92,324,51070,1,0,0:0:0:0:
163,248,51245,1,2,3:2:0:0:
64,146,51419,5,8,0:2:0:0:
64,146,52291,5,8,0:0:0:0:
72,117,52378,1,8,0:0:0:0:
83,96,52466,1,8,0:0:0:0:
93,75,52553,1,8,0:0:0:0:
113,106,52640,5,8,0:0:0:0:
130,151,52727,1,8,0:0:0:0:
179,164,52814,1,8,0:0:0:0:
228,148,52901,1,8,0:0:0:0:
257,138,52989,6,0,P|260:100|253:48,1,80,6|0,3:2|0:0,0:0:0:0:
145,72,53338,1,8,0:0:0:0:
63,150,53512,2,0,P|58:189|61:229,1,80,8|0,0:2|3:2,0:0:0:0:
144,324,53861,2,0,L|236:310,1,80,2|8,3:2|0:0,0:0:0:0:
368,242,54210,6,0,P|416:229|501:300,1,160,8|4,0:3|0:3,0:0:0:0:
413,324,54733,1,8,0:0:0:0:
277,332,54908,1,2,0:0:0:0:
213,225,55082,2,0,L|226:135,1,80,2|4,3:0|3:0,0:0:0:0:
324,60,55431,1,8,0:0:0:0:
407,141,55605,1,2,0:0:0:0:
229,72,55780,6,0,P|185:53|99:113,1,160,8|8,3:3|0:0,0:0:0:0:
124,205,56303,2,0,P|168:224|254:164,1,160,8|2,0:0|3:2,0:0:0:0:
326,62,56826,1,8,0:0:0:0:
395,148,57001,1,12,0:0:0:0:
270,255,57175,6,0,P|257:213|251:157,1,80,6|12,3:2|0:3,0:0:0:0:
422,222,57524,2,0,P|392:254|346:287,1,80,8|2,0:0|0:0,0:0:0:0:
317,101,57873,2,0,P|359:110|411:133,1,80,2|0,3:2|0:0,0:0:0:0:
334,195,58222,1,8,3:0:0:0:
254,40,58396,1,10,0:0:0:0:
476,118,58570,6,0,P|395:104|310:100,1,160,6|8,3:2|0:0,0:0:0:0:
201,197,59094,1,12,0:0:0:0:
60,149,59268,2,0,L|68:61,1,80,0|2,3:2|3:2,0:0:0:0:
191,9,59617,2,0,L|198:88,1,80,8|10,0:0|0:0,0:0:0:0:
149,282,59966,6,0,P|90:305|-1:250,1,160,10|8,3:2|0:0,0:0:0:0:
88,193,60489,1,2,0:0:0:0:
223,247,60663,2,0,P|228:288|208:350,1,80,0|2,3:2|3:2,0:0:0:0:
335,348,61012,2,0,P|327:308|332:269,1,80,8|2,0:0|0:0,0:0:0:0:
261,75,61361,6,0,B|206:81|206:81|172:69|172:69|94:77,1,160,2|8,3:2|0:0,0:0:0:0:
238,153,61884,2,0,P|288:151|336:46,1,160,4|2,0:2|3:2,0:0:0:0:
241,0,62408,2,0,L|266:98,1,80,8|0,1:0|0:0,0:0:0:0:
325,241,62757,5,0,3:2:0:0:
251,304,62931,1,2,0:3:0:0:
163,247,63105,2,0,L|152:162,1,80,8|2,0:0|0:0,0:0:0:0:
52,228,63454,2,0,L|41:307,1,80,8|2,3:2|0:0,0:0:0:0:
190,345,63803,1,2,3:3:0:0:
32,326,63977,1,10,0:0:0:0:
183,252,64152,6,0,B|240:227|240:227|346:244,1,160,6|8,3:2|0:0,0:0:0:0:
466,126,64675,2,0,L|420:192,1,80,2|0,0:0|3:2,0:0:0:0:
471,359,65024,2,0,L|437:287,1,80,6|8,3:2|0:0,0:0:0:0:
337,150,65373,6,0,B|280:125|280:125|174:142,1,160,2|2,0:0|0:0,0:0:0:0:
98,219,65896,1,8,0:0:0:0:
178,317,66070,2,0,L|272:302,1,80,2|0,0:0|3:2,0:0:0:0:
322,226,66419,2,0,P|339:177|331:135,1,80,2|4,3:2|1:3,0:0:0:0:
198,217,66768,1,2,0:0:0:0:
383,296,66943,6,0,L|548:274,2,160,2|8|0,3:0|0:0|3:2,0:0:0:0:
295,359,67815,1,0,0:0:0:0:
209,282,67989,2,0,L|219:179,1,80,2|2,1:3|0:0,0:0:0:0:
115,76,68338,6,0,P|153:102|266:56,1,160,8|8,3:1|0:0,0:0:0:0:
351,18,68861,1,8,0:1:0:0:
435,100,69036,2,0,B|443:143|443:143|430:197,1,80,0|2,3:2|0:3,0:0:0:0:
321,249,69384,2,0,B|313:206|313:206|326:152,1,80,8|2,1:0|0:0,0:0:0:0:
441,335,69733,6,0,L|257:329,1,160,6|10,3:1|0:0,0:0:0:0:
176,344,70257,1,2,0:0:0:0:
80,269,70431,2,0,P|69:225|74:189,1,80,0|2,3:2|3:2,0:0:0:0:
224,171,70780,2,0,P|191:202|157:216,1,80,2|2,1:1|0:0,0:0:0:0:
31,75,71129,6,0,L|206:69,1,160,2|8,3:1|0:0,0:0:0:0:
294,41,71652,1,2,0:0:0:0:
409,111,71826,2,0,P|419:161|407:202,1,80,0|2,3:2|0:0,0:0:0:0:
265,245,72175,2,0,P|255:195|267:154,1,80,8|2,0:0|0:0,0:0:0:0:
430,319,72524,5,6,3:2:0:0:
232,344,72698,2,0,L|170:335,2,40,10|8|8,0:0|0:0|0:0,0:0:0:0:
353,210,73047,2,0,L|415:201,2,40,10|8|8,0:0|0:0|0:0,0:0:0:0:
128,137,73396,1,10,0:0:0:0:
128,137,73483,1,8,0:0:0:0:
128,137,73570,1,8,0:0:0:0:
223,236,73745,1,10,0:0:0:0:
176,62,73919,6,0,P|127:47|39:151,1,191.999994140625,2|0,0:0|0:0,0:0:0:0:
297,349,75315,6,0,L|396:343,1,80,4|2,3:2|0:3,0:0:0:0:
461,207,75663,2,0,L|362:201,1,80,0|0,1:2|0:0,0:0:0:0:
198,271,76012,2,0,B|173:225|173:225|192:107,1,160,2|0,3:3|1:2,0:0:0:0:
292,225,76536,1,0,0:0:0:0:
55,89,76710,5,2,3:2:0:0:
141,26,76884,1,2,0:3:0:0:
106,182,77059,1,4,1:3:0:0:
254,147,77233,2,0,P|323:141|385:222,1,160,8|2,3:2|3:2,0:0:0:0:
297,337,77757,1,0,1:2:0:0:
293,226,77931,1,2,3:2:0:0:
482,324,78105,6,0,P|441:322|394:330,1,80,0|4,3:2|0:3,0:0:0:0:
346,167,78454,2,0,P|315:194|288:233,1,80,0|0,1:2|0:0,0:0:0:0:
135,352,78803,2,0,L|311:336,1,160,4|0,3:3|1:2,0:0:0:0:
407,248,79326,1,0,0:0:0:0:
196,157,79501,5,8,3:3:0:0:
279,259,79675,1,0,0:0:0:0:
377,141,79850,1,0,1:2:0:0:
213,69,80024,2,0,P|137:85|105:175,1,160,0|2,0:0|3:2,0:0:0:0:
181,324,80547,2,0,P|190:281|185:205,1,120,0|0,1:2|0:0,0:0:0:0:
185,205,80896,6,0,L|301:186,1,80,6|2,3:2|0:3,0:0:0:0:
364,157,81245,1,8,1:2:0:0:
274,78,81419,2,0,L|158:58,1,80,2|2,0:0|3:3,0:0:0:0:
95,29,81768,1,8,3:2:0:0:
86,230,81943,2,0,L|107:150,1,80,2|2,1:2|3:3,0:0:0:0:
24,302,82291,6,0,P|75:323|170:266,1,160,2|0,3:1|1:2,0:0:0:0:
88,225,82815,1,2,0:1:0:0:
23,321,82989,2,0,P|74:342|169:285,1,160,0|2,3:2|1:1,0:0:0:0:
219,143,83512,1,0,0:0:0:0:
405,266,83687,5,4,3:1:0:0:
284,295,83861,1,0,0:0:0:0:
332,148,84036,1,4,1:3:0:0:
499,282,84210,2,0,P|478:330|373:358,1,160,4|2,0:1|3:2,0:0:0:0:
206,285,84733,2,0,L|295:298,1,80,4|0,1:1|0:0,0:0:0:0:
482,186,85082,6,0,L|393:199,1,80,2|2,3:2|0:3,0:0:0:0:
287,119,85431,1,4,1:2:0:0:
387,284,85605,1,8,0:0:0:0:
461,83,85780,2,0,L|367:94,1,80,0|0,3:2|1:2,0:0:0:0:
258,211,86129,1,0,1:2:0:0:
223,191,86216,1,0,1:2:0:0:
200,158,86303,1,0,1:2:0:0:
193,119,86390,1,0,1:2:0:0:
202,81,86477,6,0,P|159:84|101:72,1,80,4|2,3:2|0:3,0:0:0:0:
25,217,86826,2,0,P|68:214|126:226,1,80,0|0,1:2|0:0,0:0:0:0:
234,324,87175,2,0,P|231:281|243:223,1,80,2|0,3:3|3:2,0:0:0:0:
336,70,87524,2,0,P|339:113|327:171,1,80,0|0,1:2|0:0,0:0:0:0:
105,221,87873,5,2,3:2:0:0:
228,128,88047,1,2,0:3:0:0:
322,281,88222,1,4,1:3:0:0:
143,157,88396,2,0,P|145:103|227:43,1,160,8|0,3:2|3:2,0:0:0:0:
234,138,88919,2,0,P|233:183|202:230,1,80,0|0,1:2|3:2,0:0:0:0:
70,328,89268,6,0,P|104:337|155:328,1,80,0|4,3:2|0:3,0:0:0:0:
268,270,89617,1,0,1:2:0:0:
140,234,89791,1,0,0:0:0:0:
241,370,89966,2,0,L|416:343,1,160,4|0,3:3|1:2,0:0:0:0:
481,218,90489,1,0,0:0:0:0:
320,149,90663,5,8,3:3:0:0:
391,260,90838,1,8,0:0:0:0:
406,80,91012,1,2,1:2:0:0:
237,97,91187,2,0,L|212:255,1,160,8|8,0:0|3:2,0:0:0:0:
316,332,91710,2,0,L|306:244,1,80,2|8,1:3|0:0,0:0:0:0:
91,320,92059,5,6,3:2:0:0:
208,348,92233,1,2,0:3:0:0:
208,348,92408,1,8,1:2:0:0:
154,151,92582,1,2,0:0:0:0:
216,253,92756,1,2,3:3:0:0:
216,253,92931,1,8,3:2:0:0:
346,154,93105,2,0,L|340:70,1,80,2|2,1:2|3:3,0:0:0:0:
475,242,93454,5,2,3:1:0:0:
328,244,93629,1,0,0:0:0:0:
328,244,93803,1,0,1:2:0:0:
456,153,93977,1,2,0:1:0:0:
403,319,94152,1,0,3:2:0:0:
403,319,94326,1,2,3:2:0:0:
309,141,94501,2,0,L|222:130,1,80,2|0,1:1|0:0,0:0:0:0:
77,224,94850,5,12,3:1:0:0:
172,217,95024,1,0,0:0:0:0:
121,138,95198,1,4,1:3:0:0:
66,238,95373,1,4,0:1:0:0:
194,233,95547,1,0,3:2:0:0:
117,120,95722,1,0,0:0:0:0:
35,328,95896,2,0,L|130:316,1,80,4|0,1:0|0:3,0:0:0:0:
313,311,96245,6,0,P|257:320|194:236,1,160,2|4,3:2|1:2,0:0:0:0:
257,59,96768,1,0,0:0:0:0:
381,191,96943,2,0,L|290:177,1,80,0|0,3:2|1:2,0:0:0:0:
97,169,97291,1,0,1:2:0:0:
75,135,97378,1,0,1:2:0:0:
69,96,97465,1,0,1:2:0:0:
79,57,97552,1,0,1:2:0:0:
103,26,97639,1,4,3:2:0:0:
101,28,97989,6,0,B|171:37|171:37|275:24,1,160,4|2,1:2|3:3,0:0:0:0:
383,17,98512,1,0,3:2:0:0:
453,127,98687,2,0,L|466:212,1,80,0|0,1:2|0:0,0:0:0:0:
397,323,99036,6,0,P|350:318|311:215,1,160,0|2,3:2|1:1,0:0:0:0:
375,127,99559,1,0,3:2:0:0:
285,52,99733,2,0,L|190:60,1,80,2|0,0:1|3:2,0:0:0:0:
26,184,100082,1,4,1:1:0:0:
173,255,100257,1,0,3:2:0:0:
118,117,100431,6,0,P|113:71|112:10,1,80,8|0,3:1|0:3,0:0:0:0:
308,125,100780,2,0,P|306:164|301:204,1,80,0|0,1:2|0:0,0:0:0:0:
170,231,101129,2,0,L|86:218,1,80,4|0,3:1|3:2,0:0:0:0:
234,320,101477,2,0,L|318:307,1,80,0|0,1:2|0:0,0:0:0:0:
391,117,101826,2,0,P|345:114|302:209,1,160,8|0,3:3|1:2,0:0:0:0:
443,220,102350,1,0,0:0:0:0:
482,46,102524,2,0,L|383:35,1,80,2|4,3:1|3:2,0:0:0:0:
229,63,102873,1,4,1:2:0:0:
342,170,103047,6,0,L|353:101,1,47.9999985351563,0|0,0:0|0:0,0:0:0:0:
350,123,103222,6,0,L|364:230,1,80,6|2,3:2|0:3,0:0:0:0:
337,315,103570,1,8,1:2:0:0:
199,230,103745,2,0,L|213:146,1,80,2|2,0:0|3:3,0:0:0:0:
271,42,104094,1,8,3:2:0:0:
290,204,104268,1,2,1:2:0:0:
105,128,104443,1,2,3:3:0:0:
133,334,104617,6,0,P|176:327|217:311,1,80,2|2,3:1|0:3,0:0:0:0:
214,151,104966,1,8,1:2:0:0:
401,280,105140,2,0,P|358:273|317:257,1,80,2|2,0:1|3:3,0:0:0:0:
232,124,105489,1,8,3:2:0:0:
223,291,105663,2,0,L|208:387,1,80,2|0,1:1|0:0,0:0:0:0:
377,344,106012,6,0,P|428:309|412:221,1,160,12|4,3:1|1:3,0:0:0:0:
243,217,106536,2,0,B|268:224|281:238|281:238|331:247|400:205,1,160,4|0,0:1|0:0,0:0:0:0:
459,67,107059,2,0,L|371:75,1,80,4|0,1:2|0:0,0:0:0:0:
164,67,107408,5,8,3:3:0:0:
288,142,107582,1,2,1:1:0:0:
288,142,107669,1,0,0:0:0:0:
288,142,107757,1,6,1:2:0:0:
235,15,107931,1,2,0:1:0:0:
159,152,108105,6,0,L|175:246,1,80,2|2,3:2|1:1,0:0:0:0:
266,349,108454,1,8,1:3:0:0:
305,351,108541,1,0,1:2:0:0:
343,338,108628,1,4,1:1:0:0:
372,311,108715,1,0,0:0:0:0:
395,275,108803,6,0,L|384:177,1,80,8|0,3:3|0:0,0:0:0:0:
309,69,109152,2,0,P|254:84|145:70,1,160,4|2,1:2|3:3,0:0:0:0:
16,28,109675,1,0,3:2:0:0:
54,153,109850,2,0,L|45:240,1,80,0|0,1:2|0:0,0:0:0:0:
140,338,110198,2,0,B|192:320|192:320|316:333,1,160,0|2,3:2|1:1,0:0:0:0:
401,263,110722,1,0,3:2:0:0:
337,155,110896,2,0,L|245:163,1,80,2|0,0:1|3:2,0:0:0:0:
108,115,111245,1,4,1:1:0:0:
210,29,111419,1,0,3:2:0:0:
195,233,111594,6,0,P|194:278|200:313,1,60.0000022888184,8|0,3:1|0:0,0:0:0:0:
290,355,111943,1,0,1:2:0:0:
263,189,112117,2,0,P|208:154|135:176,1,120.000004577637,0|0,0:0|3:2,0:0:0:0:
28,257,112640,1,0,1:2:0:0:
139,312,112815,1,0,0:0:0:0:
138,174,112989,6,0,L|123:97,1,60.0000022888184,8|0,3:3|0:0,0:0:0:0:
262,20,113338,2,0,L|250:78,1,60.0000022888184,8|8,1:2|0:0,0:0:0:0:
248,192,113687,1,2,3:0:0:0:
157,44,113861,1,6,3:2:0:0:
350,88,114036,1,4,1:2:0:0:
146,57,114210,6,0,L|126:186,1,120.000004577637,2|2,1:1|0:3,0:0:0:0:
142,296,114733,2,0,P|157:294|205:266,1,60.0000022888184,8|2,1:2|0:0,0:0:0:0:
266,129,115082,2,0,P|260:142|260:198,1,60.0000022888184,2|8,3:3|3:2,0:0:0:0:
306,302,115431,1,2,1:2:0:0:
403,240,115605,1,2,3:3:0:0:
358,51,115780,6,0,L|274:60,1,60.0000022888184,2|2,3:1|0:3,0:0:0:0:
194,86,116129,1,8,1:2:0:0:
254,182,116303,2,0,L|340:187,1,60.0000022888184,2|2,0:1|3:3,0:0:0:0:
432,207,116652,1,8,3:2:0:0:
261,282,116826,1,2,1:1:0:0:
347,98,117001,1,8,0:3:0:0:
481,278,117175,6,0,P|445:293|361:260,1,120.000004577637,12|8,3:2|0:2,0:0:0:0:
272,157,117698,1,2,0:3:0:0:
148,242,117873,2,0,L|145:309,1,60.0000022888184,0|2,3:2|3:2,0:0:0:0:
242,358,118222,2,0,L|243:284,1,60.0000022888184,10|2,1:2|0:0,0:0:0:0:
128,108,118570,5,0,3:2:0:0:
210,178,118745,1,2,3:2:0:0:
283,103,118919,2,0,L|293:33,1,60.0000022888184,12|8,0:2|0:2,0:0:0:0:
358,228,119268,6,0,B|391:230|391:230|453:202,2,63.9999980468751,8|8|8,0:2|0:2|0:2,0:0:0:0:
244,281,119617,2,0,B|211:279|211:279|149:307,2,63.9999980468751,8|8|8,0:3|0:3|0:3,0:0:0:0:
384,353,119966,6,0,B|385:288|372:169|372:169|395:198|438:210,1,240.000009155274,6|4,3:2|0:3,0:0:0:0:
483,307,121012,1,2,0:0:0:0:
271,293,121361,2,0,B|182:280|182:280|165:306|134:324,1,143.999995605469,4|0,0:2|0:0,0:0:0:0:
143,317,122035,5,2,0:3:0:0:
157,182,122394,1,8,0:3:0:0:
280,285,122753,1,2,0:0:0:0:
272,115,123091,2,0,P|308:121|419:101,1,143.999995605469,2|0,0:3|0:0,0:0:0:0:
426,89,124149,6,0,P|415:144|448:208,1,120.000004577637,2|8,0:2|0:3,0:0:0:0:
488,290,125007,1,2,0:1:0:0:
396,352,125359,1,4,0:1:0:0:
283,280,125712,1,2,0:2:0:0:
397,56,126402,1,8,0:1:0:0:
