osu file format v14

[General]
AudioFilename: audio.mp3
AudioLeadIn: 0
PreviewTime: 111230
Countdown: 0
SampleSet: None
StackLeniency: 0.4
Mode: 0
LetterboxInBreaks: 0
WidescreenStoryboard: 0

[Editor]
Bookmarks: 38769,53538,68307,83076,86769,97846,112546
DistanceSpacing: 1
BeatDivisor: 4
GridSize: 32
TimelineZoom: 1.7

[Metadata]
Title:Tamashi no Refrain
TitleUnicode:魂のルフラン
Artist:Roselia
ArtistUnicode:Roselia
Creator:Cappu
Version:
Source:
Tags:
BeatmapID:1560232
BeatmapSetID:739405

[Difficulty]
HPDrainRate:6
CircleSize:3.8
OverallDifficulty:8.2
ApproachRate:9.2
SliderMultiplier:2.2
SliderTickRate:1

[Events]
//Background and Video events
0,0,"BG.jpg",0,0
//Break Periods
2,53276,104660
//Storyboard Layer 0 (Background)
//Storyboard Layer 1 (Fail)
//Storyboard Layer 2 (Pass)
//Storyboard Layer 3 (Foreground)
//Storyboard Sound Samples

[TimingPoints]
1846,461.538461538462,4,2,0,60,1,0
3692,-200,4,2,0,60,0,0
38769,-83.3333333333333,4,2,0,60,0,0
105230,-200,4,2,0,60,0,0
107076,-153.846153846154,4,2,0,60,0,0
107538,-125,4,2,0,60,0,0
107999,-105.263157894737,4,2,0,60,0,0
108461,-90.9090909090909,4,2,0,60,0,0
112615,-83.3333333333333,4,2,0,60,0,1
126922,-100,4,2,0,60,0,0
127384,-100,4,2,0,60,0,1
140307,-100,4,2,0,60,0,0

[HitObjects]
259,152,3693,6,0,P|283:168|311:189,1,55
303,278,4153,2,0,P|275:291|244:304,1,55
171,253,4615,2,0,P|173:223|177:189,1,55
268,139,5076,6,0,P|292:155|320:176,1,55
391,232,5538,2,0,P|393:202|397:168,1,55
410,78,5999,2,0,P|382:91|351:104,1,55
258,55,6461,6,0,B|234:39|209:28|209:28|182:29|145:35,2,110
185,149,7846,1,0,0:0:0:0:
185,149,8769,6,0,P|194:193|195:242,1,82.5
200,270,9230,6,0,P|234:270|268:261,1,55
353,234,9692,2,0,P|335:263|326:297,1,55
307,384,10153,2,0,P|289:354|265:329,1,55
166,329,10615,6,0,P|161:359|158:384,1,55
83,309,11076,2,0,P|78:282|75:255,1,55
161,195,11538,2,0,P|156:222|153:249,1,55
256,289,11999,6,0,B|312:303|312:277|364:288,2,110
341,376,13384,1,0,0:0:0:0:
341,376,14307,6,0,P|336:336|338:286,1,82.5
343,253,14769,6,0,P|372:256|418:258,1,55
499,243,15230,2,0,P|487:216|465:175,1,55
412,112,15692,2,0,P|394:135|370:174,1,55
327,266,16153,6,0,P|286:255|261:244,1,55
177,216,16615,2,0,P|211:191|231:172,1,55
300,117,17076,2,0,P|275:82|263:57,1,55
376,26,17538,6,0,B|447:22|447:22|473:33|492:49,2,110
417,127,18922,1,0,0:0:0:0:
421,147,19384,1,0,0:0:0:0:
425,167,19846,1,0,0:0:0:0:
356,253,20307,6,0,P|388:262|460:298,2,110
275,327,21692,6,0,P|247:278|196:231,1,110
108,198,22615,1,0,0:0:0:0:
209,128,22961,5,0,0:0:0:0:
211,113,23076,2,0,P|196:170|199:236,1,110
255,314,23999,1,0,0:0:0:0:
389,205,24461,6,0,B|359:210|335:210|335:210|312:192|286:158,2,110
251,33,25846,6,0,P|244:63|238:103,1,55
219,184,26307,2,0,P|248:175|286:160,1,55
365,136,26769,2,0,P|342:114|310:89,1,55
282,88,27115,2,0,L|280:114,1,13.75
239,86,27230,6,0,P|205:93|171:103,1,55
109,170,27692,2,0,P|138:188|167:209,1,55
202,293,28153,2,0,P|180:320|160:349,1,55
280,355,28615,6,0,P|345:365|395:355,2,110
333,244,29884,2,0,L|333:261,2,13.75
333,244,30922,6,0,P|377:240|415:231,1,82.5
450,216,31384,6,0,P|444:187|431:154,1,55
362,94,31846,2,0,P|356:123|343:156,1,55
279,219,32307,2,0,P|252:209|221:206,1,55
115,225,32769,6,0,P|128:177|129:166,1,55
158,77,33230,2,0,P|109:89|99:94,1,55
8,113,33692,2,0,P|43:148|52:154,1,55
167,169,34153,6,0,B|196:171|221:160|221:160|240:183|273:197,2,110
189,290,35422,2,0,L|192:276,2,13.75
196,183,38769,6,0,L|327:204,1,131.99999597168
397,239,39115,1,0,0:0:0:0:
386,263,39230,2,0,P|379:302|382:355,1,65.9999979858399
484,200,39461,6,0,P|455:139|455:65,1,131.99999597168
466,0,39807,1,0,0:0:0:0:
439,3,39922,2,0,L|375:15,1,65.9999979858399
288,129,40153,1,0,0:0:0:0:
250,59,40269,1,0,0:0:0:0:
172,49,40384,1,0,0:0:0:0:
109,97,40499,1,0,0:0:0:0:
48,184,40615,5,0,0:0:0:0:
73,193,40730,2,0,P|85:227|91:268,1,65.9999979858399
33,373,40961,2,0,B|116:346|116:346|176:361,1,131.99999597168
276,384,41307,5,0,0:0:0:0:
265,286,41422,1,0,0:0:0:0:
288,298,41538,2,0,P|354:312|417:296,1,131.99999597168
364,37,41999,1,0,0:0:0:0:
357,122,42115,1,0,0:0:0:0:
350,207,42230,1,0,0:0:0:0:
327,195,42461,5,0,0:0:0:0:
301,192,42576,2,0,P|263:194|220:203,1,65.9999979858399
149,296,42807,2,0,P|152:230|135:166,1,131.99999597168
68,77,43153,5,0,0:0:0:0:
93,85,43269,2,0,P|125:87|173:83,1,65.9999979858399
252,0,43499,2,0,B|239:58|281:63|249:136,1,131.99999597168
228,271,43846,1,0,0:0:0:0:
293,316,43961,1,0,0:0:0:0:
372,323,44076,1,0,0:0:0:0:
444,287,44192,1,0,0:0:0:0:
415,186,44307,5,0,0:0:0:0:
426,162,44422,2,0,P|426:125|418:87,1,65.9999979858399
336,1,44653,2,0,P|340:69|329:141,1,131.99999597168
222,177,44999,1,0,0:0:0:0:
224,150,45115,2,0,L|231:75,1,65.9999979858399
128,220,45346,1,0,0:0:0:0:
126,193,45462,2,0,L|119:118,1,65.9999979858399
33,275,45692,5,0,0:0:0:0:
80,354,45807,1,0,0:0:0:0:
171,367,45922,1,0,0:0:0:0:
248,315,46038,1,0,0:0:0:0:
346,268,46153,5,0,0:0:0:0:
343,295,46269,2,0,P|341:335|341:370,1,65.9999979858399
448,285,46499,2,0,P|432:216|437:143,1,131.99999597168
420,43,46846,5,0,0:0:0:0:
447,46,46962,2,0,P|487:48|522:48,1,65.9999979858399
416,137,47192,2,0,P|351:123|285:127,1,131.99999597168
199,243,47538,1,0,0:0:0:0:
160,174,47653,1,0,0:0:0:0:
155,95,47769,1,0,0:0:0:0:
179,20,47884,1,0,0:0:0:0:
284,11,47999,5,0,0:0:0:0:
294,35,48115,2,0,L|292:127,1,65.9999979858399
380,192,48346,2,0,B|388:104|388:104|419:151,1,131.99999597168
457,253,48692,1,0,0:0:0:0:
455,280,48807,2,0,L|447:363,1,65.9999979858399
337,309,49038,1,0,0:0:0:0:
319,302,49153,1,0,0:0:0:0:
300,299,49269,1,0,0:0:0:0:
197,318,49384,5,0,0:0:0:0:
228,245,49499,1,0,0:0:0:0:
226,165,49615,1,0,0:0:0:0:
208,88,49730,1,0,0:0:0:0:
115,35,49846,5,0,0:0:0:0:
108,61,49961,2,0,L|102:137,1,65.9999979858399
17,229,50192,2,0,P|84:213|160:245,1,131.99999597168
195,325,50538,5,0,0:0:0:0:
218,338,50653,2,0,L|295:335,1,65.9999979858399
407,383,50884,2,0,P|390:314|406:237,1,131.99999597168
491,142,51230,1,0,0:0:0:0:
427,93,51346,1,0,0:0:0:0:
348,82,51461,1,0,0:0:0:0:
272,105,51576,1,0,0:0:0:0:
173,144,51692,5,0,0:0:0:0:
180,170,51807,2,0,L|192:249,1,65.9999979858399
71,120,52038,1,0,0:0:0:0:
65,225,52153,2,0,L|61:292,2,65.9999979858399
155,25,52499,6,0,B|221:33,1,65.9999979858399
380,99,52730,1,0,0:0:0:0:
374,192,52846,1,0,0:0:0:0:
368,285,52961,1,0,0:0:0:0:
362,378,53076,1,0,0:0:0:0:
171,88,105230,6,0,P|155:111|144:139,1,55
281,122,105692,2,0,P|256:134|235:151,1,55
359,207,106153,2,0,P|331:204|304:208,1,55
383,318,106615,2,0,P|360:302|335:291,1,55
463,218,107076,6,0,L|457:271,3,35.749998363495
369,153,107538,2,0,L|375:206,3,44
483,82,107999,2,0,L|477:135,3,52.2499986047745
349,8,108461,2,0,L|355:69,3,60.5000018463135
237,89,108922,5,0,0:0:0:0:
206,83,109038,1,0,0:0:0:0:
176,90,109153,1,0,0:0:0:0:
150,108,109269,1,0,0:0:0:0:
115,158,109384,5,0,0:0:0:0:
158,149,109500,1,0,0:0:0:0:
200,159,109615,1,0,0:0:0:0:
236,184,109731,1,0,0:0:0:0:
291,243,109846,5,0,0:0:0:0:
239,232,109962,1,0,0:0:0:0:
189,244,110077,1,0,0:0:0:0:
145,274,110193,1,0,0:0:0:0:
203,343,110307,5,0,0:0:0:0:
265,357,110423,1,0,0:0:0:0:
333,345,110538,1,0,0:0:0:0:
393,298,110654,1,0,0:0:0:0:
430,209,110769,5,0,0:0:0:0:
430,209,111692,5,0,0:0:0:0:
424,185,111807,1,0,0:0:0:0:
418,161,111922,1,0,0:0:0:0:
354,104,112038,5,0,0:0:0:0:
348,128,112153,1,0,0:0:0:0:
342,152,112268,1,0,0:0:0:0:
262,200,112384,5,0,0:0:0:0:
262,200,112615,6,0,B|236:68|236:68|181:22,2,197.99999395752
49,218,113538,5,0,0:0:0:0:
150,124,113884,1,0,0:0:0:0:
180,258,114230,1,0,0:0:0:0:
149,98,114461,6,0,P|233:56|342:86,1,197.99999395752
330,78,115153,1,0,0:0:0:0:
330,88,115230,1,0,0:0:0:0:
330,98,115307,1,0,0:0:0:0:
330,108,115384,5,0,0:0:0:0:
419,214,115730,1,0,0:0:0:0:
356,336,116076,1,0,0:0:0:0:
205,188,116307,6,0,B|138:182|138:182|81:212|81:212|0:201,2,197.99999395752
67,349,117230,5,0,0:0:0:0:
109,219,117576,1,0,0:0:0:0:
64,91,117922,1,0,0:0:0:0:
229,44,118153,6,0,B|325:24|325:78|425:44,1,197.99999395752
423,44,118846,1,0,0:0:0:0:
423,54,118923,1,0,0:0:0:0:
423,64,119000,1,0,0:0:0:0:
423,74,119077,5,0,0:0:0:0:
358,225,119307,5,0,0:0:0:0:
335,142,119422,1,0,0:0:0:0:
473,255,119653,5,0,0:0:0:0:
496,172,119768,1,0,0:0:0:0:
