osu file format v14

[General]
AudioFilename: audio.mp3
AudioLeadIn: 0
PreviewTime: 68226
Countdown: 0
SampleSet: Soft
StackLeniency: 0.7
Mode: 0
LetterboxInBreaks: 0
WidescreenStoryboard: 0

[Editor]
Bookmarks: 5911,6306,15701,16016,31174,36227,39543,56437,58332,59595,59911,61174,78094,91806
DistanceSpacing: 1.8
BeatDivisor: 4
GridSize: 32
TimelineZoom: 2

[Metadata]
Title:Song I am.
TitleUnicode:Song I am.
Artist:Roselia
ArtistUnicode:Roselia
Creator:GodKei
Version:I am Song.
Source:バンドリ! ガールズバンドパーティ!
Tags:bang dream! girls band party bandori garupa pop video game 2nd second album Wahl 12 Noble Rose -A Song To Reach-. rock short ver game size cut ガルパ ロゼリア j-pop japanese gary00737 arronchu1207 MiyohashiKoori DreaM117er KwAIMSuckASFuk leo16834
BeatmapID:2581610
BeatmapSetID:1241753

[Difficulty]
HPDrainRate:6
CircleSize:4
OverallDifficulty:9.3
ApproachRate:9.6
SliderMultiplier:1.9
SliderTickRate:1

[Events]
//Background and Video events
0,0,"BG.jpg",0,0
//Break Periods
//Storyboard Layer 0 (Background)
//Storyboard Layer 1 (Fail)
//Storyboard Layer 2 (Pass)
//Storyboard Layer 3 (Foreground)
//Storyboard Layer 4 (Overlay)
//Storyboard Sound Samples

[TimingPoints]
2542,315.789473684211,4,2,1,60,1,0
7594,-125,4,2,1,60,0,0
12647,-100,4,2,1,70,0,0
17699,-100,4,2,1,70,0,0
32857,-125,4,2,1,60,0,0
37910,-125,4,2,1,60,0,0
58120,-100,4,2,1,70,0,0
68226,-83.3333333333333,4,2,1,80,0,1
88436,-100,4,2,1,70,0,0

[Colours]
Combo1 : 255,232,159
Combo2 : 153,153,255
Combo3 : 255,153,204
Combo4 : 255,191,128

[HitObjects]
122,30,7594,5,2,1:2:0:0:
136,130,7752,1,2,0:2:0:0:
43,93,7910,1,2,1:2:0:0:
57,193,8068,2,0,P|78:278|140:290,1,152,2|0,0:2|0:0,0:0:0:0:
136,130,8542,5,2,1:2:0:0:
236,116,8700,1,2,0:2:0:0:
199,209,8858,1,2,1:2:0:0:
299,195,9016,2,0,P|384:174|396:112,1,152,2|0,0:2|0:0,0:0:0:0:
323,65,9489,5,2,1:2:0:0:
408,28,9647,1,2,0:2:0:0:
493,65,9805,2,0,P|493:111|494:156,1,76,2|0,1:2|0:0,0:0:0:0:
299,195,10120,5,2,1:2:0:0:
366,247,10278,1,2,0:2:0:0:
433,299,10436,1,2,1:2:0:0:
355,332,10594,2,0,P|275:330|199:334,1,152,2|0,0:2|0:0,0:0:0:0:
20,208,11068,5,2,1:2:0:0:
36,296,11226,1,2,0:2:0:0:
48,380,11384,1,2,1:2:0:0:
115,329,11542,2,0,P|153:258|194:194,1,152,2|0,0:2|0:0,0:0:0:0:
240,109,12015,5,2,1:2:0:0:
140,110,12173,1,2,0:2:0:0:
291,196,12331,2,0,P|324:166|338:123,1,76,2|2,1:2|0:2,0:0:0:0:
191,197,12647,5,12,0:2:0:0:
342,283,12805,1,2,1:2:0:0:
240,109,12963,1,2,1:2:0:0:
142,285,13120,1,10,0:2:0:0:
142,285,13199,1,2,0:0:0:0:
142,285,13278,1,2,1:2:0:0:
291,196,13436,1,2,1:2:0:0:
76,198,13594,1,10,0:2:0:0:
242,284,13752,1,2,1:2:0:0:
189,22,13910,5,2,1:2:0:0:
76,198,14068,1,14,0:2:0:0:
240,109,14226,1,2,1:2:0:0:
40,111,14384,1,2,1:2:0:0:
291,196,14542,1,14,0:2:0:0:
42,286,14699,1,2,1:2:0:0:
140,110,14857,1,10,2:2:0:0:
140,110,14936,1,10,0:3:0:0:
140,110,15015,1,2,1:2:0:0:
342,283,15173,5,14,0:2:0:0:
191,197,15331,1,2,1:2:0:0:
340,108,15489,1,2,1:2:0:0:
242,284,15647,1,14,0:2:0:0:
242,284,15726,1,2,0:0:0:0:
242,284,15805,1,2,1:2:0:0:
240,109,15963,1,2,1:2:0:0:
445,198,16120,1,10,1:2:0:0:
463,211,16198,1,0,1:2:0:0:
477,229,16277,1,2,1:2:0:0:
487,249,16356,1,0,1:2:0:0:
491,270,16436,6,0,P|496:298|486:326,1,47.5,10|8,0:2|1:2,0:0:0:0:
333,326,16594,1,2,1:2:0:0:
308,297,16672,1,0,1:2:0:0:
275,279,16751,1,2,1:2:0:0:
237,274,16830,1,0,1:2:0:0:
201,283,16910,2,0,L|155:320,1,47.5,10|0,0:2|1:2,0:0:0:0:
406,384,17068,5,2,1:2:0:0:
418,348,17146,1,0,1:2:0:0:
417,310,17225,1,2,1:2:0:0:
403,275,17304,1,0,1:2:0:0:
377,248,17384,2,0,P|361:228|342:219,1,47.5,10|0,0:2|1:2,0:0:0:0:
218,383,17542,2,0,P|241:372|253:354,1,47.5,2|0,1:2|1:2,0:0:0:0:
29,111,17699,6,0,B|130:57|110:152|223:104,1,190,6|10,1:2|0:2,0:0:0:0:
359,51,18173,1,0,0:0:0:0:
167,37,18331,1,2,1:2:0:0:
244,191,18489,1,2,0:2:0:0:
359,51,18647,2,0,P|419:52|459:88,1,95,10|0,0:2|0:0,0:0:0:0:
338,199,18963,6,0,L|229:189,1,95,2|0,1:2|0:0,0:0:0:0:
137,113,19278,1,8,0:2:0:0:
161,299,19436,1,0,0:0:0:0:
223,149,19594,1,0,1:2:0:0:
248,336,19752,1,0,0:0:0:0:
149,206,19910,1,8,0:2:0:0:
63,353,20068,1,2,0:2:0:0:
63,353,20147,1,0,0:0:0:0:
63,353,20226,6,0,B|109:247|14:266|68:150,1,190,6|8,1:2|0:2,0:0:0:0:
224,31,20699,1,0,0:0:0:0:
149,206,20857,1,2,1:2:0:0:
35,54,21015,1,2,0:0:0:0:
224,31,21173,2,0,P|277:24|348:21,1,95,8|2,0:2|0:2,0:0:0:0:
479,174,21489,6,0,P|420:176|383:149,1,95,0|0,1:2|0:0,0:0:0:0:
285,126,21805,1,8,0:2:0:0:
451,62,21963,1,2,0:2:0:0:
232,219,22120,1,10,1:2:0:0:
208,202,22198,1,8,0:2:0:0:
190,180,22277,1,10,0:2:0:0:
178,155,22356,1,8,0:2:0:0:
173,127,22435,1,10,0:2:0:0:
176,98,22514,1,8,0:2:0:0:
186,72,22593,1,8,0:2:0:0:
202,49,22672,1,8,0:2:0:0:
224,31,22752,6,0,P|280:35|316:83,1,95,6|2,1:2|0:2,0:0:0:0:
167,271,23068,2,0,P|111:267|75:219,1,95,10|2,0:2|0:2,0:0:0:0:
80,210,23305,1,2,0:0:0:0:
80,210,23384,1,2,1:2:0:0:
275,149,23542,1,2,0:2:0:0:
275,149,23699,2,0,P|304:186|310:242,1,95,10|2,0:2|1:2,0:0:0:0:
177,355,24015,5,2,1:2:0:0:
232,219,24173,1,2,0:2:0:0:
311,355,24331,1,10,0:2:0:0:
154,187,24489,1,2,0:2:0:0:
378,303,24647,1,2,1:2:0:0:
244,303,24805,1,2,0:2:0:0:
425,230,24963,2,0,P|462:287|464:327,1,95,10|2,0:2|0:2,0:0:0:0:
224,75,25278,6,0,P|275:62|332:84,1,95,6|2,1:2|0:2,0:0:0:0:
122,265,25594,2,0,P|71:278|14:256,1,95,10|2,0:2|0:2,0:0:0:0:
2,236,25831,1,2,0:0:0:0:
2,236,25910,1,2,1:2:0:0:
154,187,26068,1,2,0:2:0:0:
154,187,26226,2,0,P|189:218|202:289,1,95,10|2,0:2|0:2,0:0:0:0:
65,137,26542,5,2,1:2:0:0:
274,150,26699,1,2,0:2:0:0:
122,265,26857,1,10,0:2:0:0:
319,324,27015,1,2,0:2:0:0:
213,36,27173,1,10,0:3:0:0:
231,267,27331,1,10,0:3:0:0:
319,11,27489,5,10,0:2:0:0:
363,24,27567,1,8,0:2:0:0:
396,58,27646,1,10,0:2:0:0:
409,103,27725,1,8,0:2:0:0:
398,149,27805,6,0,P|407:203|523:185,1,190,12|10,0:2|0:2,0:0:0:0:
314,106,28278,1,2,0:0:0:0:
386,323,28436,1,2,1:2:0:0:
506,129,28594,1,2,0:2:0:0:
309,201,28752,2,0,P|256:199|206:200,1,95,10|0,0:2|0:0,0:0:0:0:
54,330,29068,6,0,P|115:352|167:324,1,95,2|0,1:2|0:0,0:0:0:0:
189,172,29384,1,8,0:2:0:0:
263,322,29542,1,0,0:0:0:0:
114,242,29699,1,0,1:2:0:0:
281,220,29857,1,0,0:0:0:0:
160,336,30015,1,8,0:2:0:0:
256,87,30173,1,2,0:2:0:0:
256,87,30252,1,10,0:3:0:0:
256,87,30331,6,0,P|185:59|83:153,1,190,6|8,1:2|0:2,0:0:0:0:
245,359,30805,1,0,0:0:0:0:
189,172,30963,1,2,1:2:0:0:
56,314,31120,1,2,0:0:0:0:
245,359,31278,2,0,P|314:344|351:344,1,95,10|2,0:2|0:2,0:0:0:0:
445,225,31594,5,8,0:0:0:0:
472,216,31672,1,8,0:0:0:0:
494,199,31752,1,8,0:0:0:0:
509,174,31830,1,8,0:0:0:0:
512,147,31909,1,8,0:0:0:0:
509,119,31988,1,8,0:0:0:0:
494,95,32068,6,0,P|471:68|439:59,1,47.5,8|8,0:2|0:2,0:0:0:0:
400,238,32226,2,0,P|435:231|458:208,1,47.5,10|8,0:2|0:2,0:0:0:0:
323,84,32384,2,0,P|311:117|319:150,1,47.5,10|8,0:2|0:2,0:0:0:0:
409,144,32542,1,10,0:2:0:0:
65,360,32857,5,10,0:2:0:0:
65,333,32935,1,8,0:2:0:0:
65,306,33015,1,8,0:2:0:0:
65,280,33093,1,8,0:2:0:0:
65,253,33173,2,0,L|68:157,1,76,8|0,0:2|0:0,0:0:0:0:
281,100,33489,1,0,1:2:0:0:
229,167,33647,1,10,0:2:0:0:
209,143,33725,1,8,0:2:0:0:
198,115,33804,1,8,0:2:0:0:
199,85,33883,1,8,0:2:0:0:
209,57,33962,1,8,0:2:0:0:
229,34,34041,1,8,0:2:0:0:
256,20,34120,6,0,P|300:16|346:49,1,76,8|0,0:2|0:0,0:0:0:0:
408,230,34436,1,0,1:2:0:0:
211,254,34595,1,10,0:2:0:0:
240,260,34673,1,8,0:2:0:0:
270,255,34752,1,8,0:2:0:0:
296,240,34831,1,8,0:2:0:0:
315,216,34910,1,8,0:2:0:0:
325,188,34989,1,8,0:2:0:0:
327,159,35068,1,8,0:2:0:0:
24,0,35384,5,10,0:2:0:0:
24,27,35462,1,8,0:2:0:0:
24,54,35541,1,8,0:2:0:0:
24,80,35620,1,8,0:2:0:0:
24,107,35700,2,0,L|27:203,1,76,8|0,0:2|0:0,0:0:0:0:
194,232,36016,1,0,1:2:0:0:
142,165,36174,1,10,0:2:0:0:
122,188,36252,1,8,0:2:0:0:
111,216,36331,1,8,0:2:0:0:
112,246,36410,1,8,0:2:0:0:
122,274,36489,1,8,0:2:0:0:
142,297,36568,1,8,0:2:0:0:
169,311,36647,6,0,P|212:315|258:282,1,76,8|0,0:2|0:0,0:0:0:0:
321,102,36963,1,0,1:2:0:0:
124,78,37120,1,10,0:2:0:0:
153,72,37200,1,8,0:2:0:0:
183,77,37279,1,8,0:2:0:0:
209,92,37358,1,8,0:2:0:0:
228,116,37437,1,8,0:2:0:0:
238,144,37516,1,8,0:2:0:0:
240,173,37595,1,8,0:2:0:0:
485,375,37910,6,0,P|483:317|481:267,1,76,8|10,0:2|0:2,0:0:0:0:
387,212,38226,1,10,0:2:0:0:
479,208,38384,1,2,0:2:0:0:
390,303,38542,2,0,B|325:297|288:294,1,76,2|8,1:2|0:2,0:0:0:0:
281,302,38778,1,8,0:0:0:0:
281,302,38857,1,8,0:0:0:0:
311,205,39015,1,10,0:2:0:0:
311,205,39094,1,10,0:2:0:0:
311,205,39173,6,0,P|355:209|401:213,1,76,10|2,0:2|0:2,0:0:0:0:
482,299,39489,1,0,1:2:0:0:
452,134,39647,1,8,0:2:0:0:
425,130,39725,1,8,0:2:0:0:
398,128,39804,1,8,0:2:0:0:
372,125,39883,1,8,0:2:0:0:
346,123,39962,1,10,0:2:0:0:
319,121,40041,1,8,0:2:0:0:
293,118,40120,1,10,0:2:0:0:
226,177,40278,1,2,0:2:0:0:
311,205,40436,5,8,0:2:0:0:
205,68,40594,1,10,0:2:0:0:
205,68,40673,1,8,0:2:0:0:
205,68,40752,2,0,P|156:64|109:66,1,76,10|2,0:2|0:2,0:0:0:0:
43,170,41068,1,2,1:2:0:0:
134,276,41226,1,8,0:2:0:0:
134,253,41304,1,8,0:2:0:0:
134,230,41383,1,8,0:2:0:0:
135,207,41462,1,8,0:2:0:0:
135,184,41542,2,0,L|137:121,1,38,10|10,0:2|0:2,0:0:0:0:
41,256,41699,6,0,P|42:301|39:368,1,76,10|2,0:2|0:2,0:0:0:0:
131,381,42015,1,0,1:2:0:0:
218,327,42173,2,0,P|286:340|350:285,1,152,8|10,0:2|0:2,0:0:0:0:
269,257,42568,1,8,0:2:0:0:
269,257,42647,2,8,L|269:219,1,38,10|8,0:2|0:0,0:0:0:0:
356,168,42805,2,8,L|356:226,1,38,10|8,0:2|0:0,0:0:0:0:
439,354,42963,5,6,1:2:0:0:
438,316,43041,1,8,0:2:0:0:
437,278,43120,1,8,0:2:0:0:
436,240,43199,1,8,0:2:0:0:
436,202,43278,1,8,0:2:0:0:
352,79,43436,1,2,0:2:0:0:
431,119,43594,1,0,1:2:0:0:
277,128,43752,1,8,0:2:0:0:
277,128,43831,1,8,0:2:0:0:
277,128,43910,2,0,L|235:125,3,38,10|8|8|8,0:2|0:2|0:2|0:2,0:0:0:0:
217,83,44226,6,0,L|115:82,1,76,8|0,0:2|0:0,0:0:0:0:
26,171,44542,2,0,P|86:173|113:271,1,152,2|8,1:2|0:2,0:0:0:0:
207,352,45015,1,8,0:2:0:0:
207,352,45094,1,8,0:2:0:0:
207,352,45173,2,0,P|203:298|205:246,1,76,10|2,0:2|0:2,0:0:0:0:
277,128,45489,5,8,0:2:0:0:
303,128,45567,1,8,0:2:0:0:
327,139,45647,1,8,0:2:0:0:
343,160,45725,1,8,0:2:0:0:
350,185,45805,2,0,P|351:225|350:273,1,76,8|2,0:2|0:2,0:0:0:0:
263,216,46120,1,0,1:2:0:0:
449,346,46278,1,8,0:2:0:0:
449,346,46357,1,8,0:2:0:0:
449,346,46436,2,0,L|447:290,3,38,10|8|8|8,0:2|0:2|0:2|0:2,0:0:0:0:
460,277,46752,6,0,L|459:198,1,76,8|0,0:2|0:0,0:0:0:0:
378,89,47068,1,0,1:2:0:0:
263,216,47226,1,8,0:2:0:0:
227,204,47304,1,8,0:2:0:0:
199,178,47383,1,8,0:2:0:0:
184,144,47462,1,8,0:2:0:0:
184,106,47541,1,8,0:2:0:0:
200,72,47620,1,8,0:2:0:0:
229,47,47699,2,0,L|295:43,1,38,8|8,0:2|0:2,0:0:0:0:
415,91,47857,2,0,L|364:88,1,38,8|0,0:2|0:0,0:0:0:0:
277,128,48015,5,4,1:2:0:0:
110,66,48173,1,10,0:2:0:0:
28,123,48331,1,2,1:2:0:0:
20,23,48489,1,2,0:2:0:0:
118,166,48647,2,0,P|118:223|120:260,1,76,0|8,1:2|0:2,0:0:0:0:
119,269,48884,1,8,0:0:0:0:
119,269,48963,1,8,0:0:0:0:
332,227,49120,1,10,0:2:0:0:
332,227,49199,1,10,0:2:0:0:
332,227,49278,6,0,P|378:227|421:264,1,76,10|2,0:2|0:2,0:0:0:0:
318,380,49594,1,0,1:2:0:0:
227,296,49752,1,10,0:0:0:0:
226,273,49830,1,8,0:0:0:0:
226,250,49909,1,8,0:0:0:0:
226,227,49988,1,8,0:0:0:0:
227,204,50067,1,10,0:0:0:0:
227,182,50146,1,8,0:0:0:0:
228,158,50226,2,0,L|229:97,1,38,10|8,0:3|0:3,0:0:0:0:
332,227,50384,2,0,L|332:189,1,38,10|8,0:3|0:3,0:0:0:0:
206,44,50542,5,8,0:0:0:0:
181,53,50620,1,8,0:0:0:0:
161,71,50699,1,10,0:0:0:0:
148,94,50778,1,8,0:0:0:0:
144,120,50857,1,10,0:0:0:0:
332,227,51015,1,2,0:0:0:0:
142,312,51173,2,0,P|142:253|144:213,1,76,0|8,1:2|0:0,0:0:0:0:
343,150,51489,1,8,0:0:0:0:
368,155,51567,1,8,0:0:0:0:
391,169,51646,1,8,0:0:0:0:
407,190,51725,1,8,0:0:0:0:
414,216,51804,5,10,1:2:0:0:
318,380,51963,1,2,0:0:0:0:
332,227,52120,1,2,1:2:0:0:
505,364,52278,1,10,0:0:0:0:
503,336,52356,1,8,0:0:0:0:
503,310,52435,1,8,0:0:0:0:
502,282,52514,1,8,0:0:0:0:
502,257,52593,1,8,0:0:0:0:
501,230,52672,1,8,0:0:0:0:
501,204,52752,2,0,L|499:158,1,38,8|8,0:3|0:3,0:0:0:0:
417,43,52910,2,0,L|417:80,1,38,8|8,0:3|0:3,0:0:0:0:
332,227,53068,5,10,0:0:0:0:
297,213,53146,1,8,0:0:0:0:
271,185,53225,1,8,0:0:0:0:
261,148,53304,1,8,0:0:0:0:
268,111,53383,1,8,0:0:0:0:
339,21,53542,1,0,0:0:0:0:
343,150,53699,1,0,1:2:0:0:
156,31,53857,1,8,0:0:0:0:
156,31,53935,1,8,0:0:0:0:
156,31,54015,2,0,L|92:28,3,38,10|8|8|8,0:0|0:0|0:0|0:0,0:0:0:0:
89,31,54331,6,0,P|57:67|51:125,1,76,8|0,0:0|0:0,0:0:0:0:
114,201,54647,1,0,1:2:0:0:
8,237,54805,2,0,L|5:186,1,38,8|8,0:0|0:0,0:0:0:0:
189,278,54963,2,0,L|157:298,1,38,8|8,0:0|0:0,0:0:0:0:
135,101,55120,2,0,L|168:118,1,38,8|8,0:0|0:0,0:0:0:0:
282,237,55278,1,8,0:3:0:0:
310,248,55356,1,8,0:3:0:0:
340,250,55435,1,8,0:3:0:0:
369,242,55514,1,8,0:3:0:0:
394,225,55593,5,8,0:0:0:0:
428,197,55672,1,8,0:0:0:0:
440,159,55751,1,8,0:0:0:0:
438,119,55830,1,8,0:0:0:0:
422,82,55909,1,8,0:0:0:0:
276,57,56068,1,2,0:0:0:0:
343,150,56226,1,0,1:2:0:0:
156,31,56384,1,8,0:0:0:0:
125,28,56462,1,8,0:0:0:0:
97,38,56541,1,10,0:0:0:0:
75,59,56620,1,8,0:0:0:0:
63,87,56699,1,8,0:0:0:0:
63,117,56778,1,8,0:0:0:0:
76,144,56857,6,0,P|80:180|85:230,1,76,8|0,0:0|0:0,0:0:0:0:
258,289,57173,1,0,1:2:0:0:
175,343,57331,1,8,0:0:0:0:
161,315,57409,1,8,0:0:0:0:
157,285,57488,1,8,0:0:0:0:
162,255,57567,1,8,0:0:0:0:
176,229,57646,1,8,0:0:0:0:
198,207,57725,1,8,0:0:0:0:
225,194,57805,2,0,L|292:182,1,38,8|8,0:3|0:3,0:0:0:0:
364,191,57963,1,8,0:3:0:0:
138,43,58120,5,12,0:0:0:0:
258,289,58278,1,0,1:2:0:0:
268,61,58436,1,0,1:2:0:0:
34,159,58594,5,12,0:0:0:0:
364,191,58752,1,0,1:2:0:0:
211,4,58910,1,2,1:2:0:0:
258,289,59068,5,14,0:0:0:0:
138,43,59226,1,2,1:2:0:0:
422,115,59384,1,2,1:2:0:0:
157,263,59542,5,12,0:0:0:0:
268,61,59699,1,2,1:2:0:0:
401,279,59857,1,2,1:2:0:0:
152,124,60015,5,12,0:0:0:0:
274,367,60173,1,2,1:2:0:0:
233,135,60331,5,12,0:2:0:0:
178,358,60489,1,2,1:2:0:0:
485,351,60647,6,0,P|485:290|482:238,1,95,12|2,0:0|1:2,0:0:0:0:
374,200,60963,1,0,1:2:0:0:
274,367,61120,5,12,0:0:0:0:
362,170,61278,1,2,1:2:0:0:
148,192,61436,1,0,1:2:0:0:
308,353,61594,5,12,0:0:0:0:
333,148,61752,1,0,1:2:0:0:
143,228,61910,1,2,1:2:0:0:
331,322,62068,5,12,0:0:0:0:
296,142,62226,1,0,1:2:0:0:
157,263,62384,1,0,1:2:0:0:
424,296,62542,5,14,0:0:0:0:
195,132,62699,1,0,1:2:0:0:
155,383,62857,1,12,0:2:0:0:
155,383,62936,1,8,0:0:0:0:
155,383,63015,1,8,0:0:0:0:
421,206,63173,5,12,0:0:0:0:
255,49,63331,1,0,1:2:0:0:
331,322,63489,1,0,1:2:0:0:
418,116,63647,5,12,0:0:0:0:
195,132,63805,1,0,1:2:0:0:
424,296,63963,1,2,1:2:0:0:
64,219,64120,5,14,0:0:0:0:
296,142,64278,1,2,1:2:0:0:
53,29,64436,1,2,1:2:0:0:
235,264,64594,5,12,0:0:0:0:
154,39,64752,1,2,1:2:0:0:
16,302,64910,1,2,1:2:0:0:
296,142,65068,5,12,0:0:0:0:
17,136,65226,1,2,1:2:0:0:
235,264,65384,1,8,0:2:0:0:
235,264,65463,1,8,0:3:0:0:
235,264,65542,1,8,0:3:0:0:
394,31,65699,6,0,P|390:68|381:134,1,95,12|0,0:0|0:0,0:0:0:0:
334,294,66015,1,10,0:0:0:0:
188,81,66173,1,10,0:0:0:0:
410,224,66331,1,8,0:0:0:0:
167,347,66489,1,10,0:0:0:0:
278,48,66647,1,10,0:0:0:0:
433,324,66805,1,10,0:0:0:0:
256,192,66963,12,0,68068,0:0:0:0:
368,67,68226,6,0,P|425:102|381:258,1,227.999993041992,6|10,1:2|0:0,0:0:0:0:
178,161,68699,2,0,B|358:162|358:162|319:183|313:212,1,227.999993041992,2|0,0:0|0:0,0:0:0:0:
142,308,69173,2,0,P|92:257|180:162,1,227.999993041992,10|0,0:0|1:2,0:0:0:0:
308,293,69647,5,2,0:0:0:0:
315,40,69805,1,10,0:0:0:0:
167,235,69963,1,2,0:0:0:0:
21,58,70120,2,0,P|84:57|146:55,1,113.999996520996,2|2,1:2|0:0,0:0:0:0:
266,193,70436,1,10,0:0:0:0:
39,375,70594,6,0,B|56:297|56:297|29:221|29:221|47:146,1,227.999993041992,2|2,0:0|0:0,0:0:0:0:
274,109,71068,2,0,P|326:131|357:193,1,113.999996520996,10|2,0:0|0:0,0:0:0:0:
209,335,71384,1,2,1:2:0:0:
504,259,71542,1,2,0:0:0:0:
266,193,71699,1,8,0:0:0:0:
459,383,71857,6,0,B|442:305|442:305|469:229|469:229|451:154,1,227.999993041992,2|2,0:0|0:0,0:0:0:0:
202,65,72331,2,0,P|247:30|316:35,1,113.999996520996,10|2,0:0|0:0,0:0:0:0:
173,227,72647,1,0,1:2:0:0:
117,71,72805,1,0,0:0:0:0:
266,193,72963,1,10,0:0:0:0:
265,242,73041,1,8,0:0:0:0:
241,287,73120,1,8,0:0:0:0:
200,315,73199,1,8,0:0:0:0:
150,321,73278,6,0,B|252:299|296:348|296:348|394:283,1,227.999993041992,4|8,1:2|0:2,0:0:0:0:
104,157,73752,2,0,P|38:171|33:318,1,227.999993041992,2|0,0:0|0:0,0:0:0:0:
202,108,74226,2,0,B|331:46|320:157|441:87,1,227.999993041992,10|0,0:2|1:2,0:0:0:0:
279,217,74699,5,2,0:0:0:0:
176,14,74857,1,8,0:0:0:0:
461,189,75015,2,0,P|463:268|333:320,1,227.999993041992,2|0,0:0|0:0,0:0:0:0:
104,157,75489,1,10,0:0:0:0:
382,238,75647,1,2,0:0:0:0:
140,379,75805,6,0,L|148:249,1,113.999996520996,0|0,1:2|0:0,0:0:0:0:
349,137,76120,1,8,0:0:0:0:
158,89,76278,2,0,P|93:72|44:94,1,113.999996520996,2|0,0:0|1:2,0:0:0:0:
24,363,76593,1,8,0:0:0:0:
104,157,76751,1,2,1:2:0:0:
276,320,76910,6,0,B|396:269|395:385|505:312,1,227.999993041992,10|0,0:0|0:0,0:0:0:0:
422,98,77384,1,12,0:0:0:0:
333,384,77542,1,2,0:0:0:0:
190,170,77699,1,0,1:2:0:0:
465,193,77857,1,8,0:0:0:0:
507,156,77935,1,8,0:0:0:0:
512,102,78014,1,8,0:0:0:0:
508,48,78093,1,8,0:0:0:0:
466,11,78172,1,8,0:0:0:0:
410,4,78251,1,8,0:0:0:0:
359,27,78331,6,0,P|295:27|225:26,1,113.999996520996,12|0,0:0|1:2,0:0:0:0:
437,191,78647,1,2,1:2:0:0:
279,113,78805,6,0,P|215:113|145:112,1,113.999996520996,12|2,0:0|1:2,0:0:0:0:
385,279,79121,1,0,1:2:0:0:
199,199,79278,6,0,P|135:199|65:198,1,113.999996520996,14|0,0:0|1:2,0:0:0:0:
333,367,79594,1,2,1:2:0:0:
422,98,79752,5,12,0:0:0:0:
283,277,79910,1,2,1:2:0:0:
487,281,80068,1,0,1:2:0:0:
325,68,80226,5,12,0:0:0:0:
434,368,80384,1,0,1:2:0:0:
24,234,80542,1,10,1:2:0:0:
5,176,80620,1,8,0:0:0:0:
26,120,80699,1,10,0:0:0:0:
77,89,80778,1,8,0:0:0:0:
137,96,80857,5,12,0:0:0:0:
345,170,81015,1,0,1:2:0:0:
94,178,81173,1,2,1:2:0:0:
422,98,81331,5,14,0:0:0:0:
232,366,81489,1,0,1:2:0:0:
221,64,81647,1,0,1:2:0:0:
364,278,81805,5,14,0:0:0:0:
115,92,81963,1,2,1:2:0:0:
447,208,82120,1,0,1:2:0:0:
171,274,82278,5,12,0:0:0:0:
373,6,82436,1,2,1:2:0:0:
466,314,82594,1,2,1:2:0:0:
192,169,82752,5,12,0:0:0:0:
422,98,82910,1,0,1:2:0:0:
228,338,83068,1,10,0:2:0:0:
172,355,83146,1,8,0:0:0:0:
118,335,83225,1,8,0:2:0:0:
88,286,83304,1,8,0:0:0:0:
95,228,83384,5,14,0:2:0:0:
319,100,83542,1,0,1:2:0:0:
317,346,83699,1,0,1:2:0:0:
111,194,83857,5,12,0:2:0:0:
339,119,84014,1,0,1:2:0:0:
290,353,84173,1,0,1:2:0:0:
126,169,84331,5,12,0:2:0:0:
353,144,84488,1,0,1:2:0:0:
261,353,84647,1,0,1:2:0:0:
56,99,84805,6,0,P|108:75|164:80,1,113.999996520996,14|0,0:0|1:2,0:0:0:0:
421,278,85120,1,0,1:2:0:0:
300,27,85278,1,14,0:0:0:0:
214,273,85436,1,2,1:2:0:0:
438,179,85594,1,10,0:0:0:0:
438,179,85673,1,8,0:0:0:0:
438,179,85752,1,10,0:0:0:0:
261,353,85910,6,0,P|191:359|146:334,1,113.999996520996,12|2,0:0|1:2,0:0:0:0:
56,99,86226,1,2,1:2:0:0:
324,277,86384,1,14,0:0:0:0:
300,27,86542,1,2,1:2:0:0:
212,282,86699,1,2,1:2:0:0:
372,113,86857,1,14,0:2:0:0:
384,371,87015,1,2,1:2:0:0:
213,99,87173,5,0,1:2:0:0:
512,242,87331,1,12,0:0:0:0:
126,171,87489,1,2,1:2:0:0:
512,101,87647,1,0,1:2:0:0:
151,384,87805,1,12,0:0:0:0:
476,0,87963,1,0,1:2:0:0:
512,383,88120,1,12,0:0:0:0:
126,171,88436,6,0,P|53:169|-3:172,1,95,6|2,1:2|0:2,0:0:0:0:
212,282,88752,2,0,P|261:235|273:182,1,95,10|2,0:2|0:2,0:0:0:0:
265,166,88989,1,2,0:0:0:0:
265,166,89068,1,2,1:2:0:0:
121,262,89226,1,2,0:2:0:0:
121,262,89384,2,0,P|137:327|177:364,1,95,10|2,0:2|0:2,0:0:0:0:
377,214,89699,5,2,1:2:0:0:
214,273,89857,1,2,0:2:0:0:
446,288,90015,1,10,0:2:0:0:
338,131,90173,1,2,0:2:0:0:
372,357,90331,1,2,1:2:0:0:
451,145,90489,1,2,0:2:0:0:
308,279,90647,2,0,P|231:273|193:273,1,95,10|2,0:2|0:2,0:0:0:0:
46,202,90963,6,0,P|12:147|21:86,1,95,2|2,1:2|0:2,0:0:0:0:
181,46,91278,2,0,P|150:102|93:125,1,95,10|2,0:2|0:2,0:0:0:0:
90,100,91515,1,2,0:0:0:0:
90,100,91594,1,2,1:2:0:0:
233,149,91752,1,2,0:2:0:0:
233,149,91910,2,0,P|294:144|343:183,1,95,10|2,0:2|0:2,0:0:0:0:
390,384,92226,5,2,1:2:0:0:
271,231,92384,1,2,0:0:0:0:
501,151,92542,1,14,0:0:0:0:
350,72,92699,1,2,0:0:0:0:
468,286,92857,1,2,1:2:0:0:
224,373,93015,1,10,0:0:0:0:
178,377,93093,1,8,0:0:0:0:
136,361,93172,1,10,0:0:0:0:
105,328,93251,1,8,0:0:0:0:
91,285,93330,1,10,0:0:0:0:
97,241,93409,1,8,0:0:0:0:
121,203,93489,6,0,B|222:149|202:244|315:196,1,190,12|8,0:0|0:2,0:0:0:0:
417,61,93963,1,0,0:0:0:0:
225,47,94121,1,2,1:2:0:0:
302,201,94279,1,2,0:2:0:0:
417,61,94437,2,0,P|477:62|517:98,1,95,10|0,0:2|0:0,0:0:0:0:
264,339,94753,6,0,L|159:328,1,95,2|0,1:2|0:0,0:0:0:0:
350,113,95068,1,8,0:2:0:0:
373,299,95226,1,0,0:0:0:0:
436,149,95384,1,0,1:2:0:0:
461,336,95542,1,0,0:0:0:0:
362,206,95700,1,8,0:2:0:0:
170,330,95858,1,2,0:0:0:0:
170,330,95936,1,2,0:0:0:0:
170,330,96016,6,0,B|124:224|219:243|165:127,1,190,6|10,1:2|0:2,0:0:0:0:
59,33,96489,1,0,0:0:0:0:
0,181,96647,2,0,P|57:184|114:185,1,95,0|0,1:2|0:0,0:0:0:0:
276,144,96963,1,12,0:2:0:0:
200,14,97120,1,2,0:2:0:0:
414,125,97278,5,14,0:3:0:0:
414,125,97357,1,8,0:3:0:0:
414,125,97436,2,0,L|415:181,1,47.5,8|8,0:3|0:3,0:0:0:0:
272,281,97594,1,8,0:3:0:0:
272,281,97673,1,8,0:3:0:0:
272,281,97752,2,0,L|272:233,1,47.5,10|8,0:3|0:3,0:0:0:0:
384,44,97910,2,0,P|360:43|337:45,1,47.5,10|8,0:0|0:0,0:0:0:0:
135,157,98068,2,0,P|158:155|182:157,1,47.5,10|8,0:0|0:0,0:0:0:0:
367,284,98226,2,0,L|367:236,1,47.5,10|8,0:0|0:0,0:0:0:0:
202,13,98384,2,0,L|201:60,1,47.5,10|8,0:0|0:0,0:0:0:0:
276,144,98542,5,2,1:2:0:0:
256,192,98620,12,2,100910,0:0:0:0:
