osu file format v14

[General]
AudioFilename: audio.mp3
AudioLeadIn: 0
PreviewTime: 68226
Countdown: 0
SampleSet: Soft
StackLeniency: 0.2
Mode: 0
LetterboxInBreaks: 0
WidescreenStoryboard: 1

[Editor]
Bookmarks: 3385
DistanceSpacing: 1.3
BeatDivisor: 4
GridSize: 32
TimelineZoom: 2

[Metadata]
Title:Song I am.
TitleUnicode:Song I am.
Artist:Roselia
ArtistUnicode:Roselia
Creator:GodKei
Version:Chu's Insane
Source:バンドリ! ガールズバンドパーティ!
Tags:bang dream! girls band party bandori garupa pop video game 2nd second album Wahl 12 Noble Rose -A Song To Reach-. rock short ver game size cut ガルパ ロゼリア j-pop japanese gary00737 arronchu1207 MiyohashiKoori DreaM117er KwAIMSuckASFuk leo16834
BeatmapID:2583315
BeatmapSetID:1241753

[Difficulty]
HPDrainRate:5
CircleSize:4
OverallDifficulty:8
ApproachRate:9
SliderMultiplier:1.6
SliderTickRate:1

[Events]
//Background and Video events
0,0,"BG.jpg",0,0
//Break Periods
//Storyboard Layer 0 (Background)
//Storyboard Layer 1 (Fail)
//Storyboard Layer 2 (Pass)
//Storyboard Layer 3 (Foreground)
//Storyboard Layer 4 (Overlay)
//Storyboard Sound Samples

[TimingPoints]
2542,315.789473684211,4,2,1,60,1,0
7594,-100,4,2,1,60,0,0
12331,-166.666666666667,4,2,1,60,0,0
12647,-83.3333333333333,4,2,1,70,0,0
16436,-100,4,2,1,70,0,0
17384,-66.6666666666667,4,2,1,70,0,0
17699,-100,4,2,1,70,0,0
22752,-100,4,2,1,70,0,0
32857,-100,4,2,1,60,0,0
37910,-125,4,2,1,60,0,0
39884,-125,4,2,1,60,0,0
39963,-125,4,2,1,60,0,0
42410,-125,4,2,1,60,0,0
42489,-125,4,2,1,60,0,0
49989,-125,4,2,1,60,0,0
50068,-125,4,2,1,60,0,0
58120,-100,4,2,1,70,0,0
68147,-100,4,2,1,5,0,0
68226,-83.3333333333333,4,2,1,80,0,0
88436,-100,4,2,1,70,0,0
93489,-100,4,2,1,70,0,0
98542,-166.666666666667,4,2,1,70,0,0

[Colours]
Combo1 : 255,232,159
Combo2 : 153,153,255
Combo3 : 255,153,204
Combo4 : 255,191,128

[HitObjects]
256,192,2542,12,0,7278,0:0:0:0:
173,204,7594,5,2,1:2:0:0:
173,204,7752,2,0,L|177:124,1,80,2|2,0:2|1:2,0:0:0:0:
333,55,8068,2,0,B|313:89|260:85|260:85|240:36|181:26,1,160,2|0,0:2|0:0,0:0:0:0:
350,159,8542,1,2,1:2:0:0:
350,159,8699,2,0,P|389:160|440:178,1,80,2|2,0:2|1:2,0:0:0:0:
473,328,9015,2,0,B|435:351|393:337|393:337|367:302|370:248,1,160,2|0,0:2|0:0,0:0:0:0:
270,109,9489,5,2,1:2:0:0:
256,204,9647,1,2,0:2:0:0:
242,299,9805,2,0,P|197:300|164:280,1,80,2|0,1:2|0:0,0:0:0:0:
71,142,10120,5,2,1:2:0:0:
71,142,10278,2,0,P|79:187|79:223,1,80,2|2,0:2|1:2,0:0:0:0:
48,44,10594,2,0,B|136:25|120:95|214:69,1,160,2|0,0:2|0:0,0:0:0:0:
368,46,11068,1,2,1:2:0:0:
368,46,11226,2,0,L|287:32,1,80,2|2,0:2|1:2,0:0:0:0:
442,197,11542,2,0,B|454:135|454:135|451:117|451:117|461:99|461:99|476:35,1,160,2|0,0:2|0:0,0:0:0:0:
319,138,12015,5,2,1:2:0:0:
342,231,12173,1,2,0:2:0:0:
366,323,12331,2,0,P|377:346|372:320,1,71.9999978027344,2|0,1:2|0:0,0:0:0:0:
287,372,12647,6,0,L|185:361,1,95.9999970703126,12|2,0:2|1:2,0:0:0:0:
115,227,12963,1,2,1:2:0:0:
29,369,13120,1,10,0:2:0:0:
29,369,13199,1,2,0:0:0:0:
29,369,13278,2,0,P|16:316|37:271,1,95.9999970703126,2|2,1:2|1:2,0:0:0:0:
113,136,13594,2,0,P|127:180|114:226,1,95.9999970703126,10|2,0:2|1:2,0:0:0:0:
33,86,13910,5,2,1:2:0:0:
203,57,14068,1,14,0:2:0:0:
47,180,14226,2,0,L|32:83,1,95.9999970703126,2|2,1:2|1:2,0:0:0:0:
280,21,14542,2,0,B|291:66|291:66|271:114,1,95.9999970703126,14|2,0:2|1:2,0:0:0:0:
159,258,14857,1,8,2:2:0:0:
182,256,14935,1,8,0:3:0:0:
206,254,15014,1,0,1:2:0:0:
230,253,15093,1,0,0:0:0:0:
255,251,15173,6,0,L|350:244,1,95.9999970703126,14|2,0:2|1:2,0:0:0:0:
481,127,15489,1,2,1:2:0:0:
454,322,15647,1,14,0:2:0:0:
454,322,15726,1,2,0:0:0:0:
454,322,15805,2,0,B|434:274|434:274|446:227,1,95.9999970703126,2|2,1:2|1:2,0:0:0:0:
377,82,16120,1,10,1:2:0:0:
360,92,16198,1,0,1:2:0:0:
341,99,16277,1,2,1:2:0:0:
321,100,16356,1,0,1:2:0:0:
303,96,16436,6,0,L|313:143,4,40,10|8|2|0|2,0:2|1:2|1:2|1:2|1:2,0:0:0:0:
193,28,16910,1,10,0:2:0:0:
175,35,16989,1,0,1:2:0:0:
157,42,17068,2,0,L|147:89,3,40,2|0|2|0,1:2|1:2|1:2|1:2,0:0:0:0:
79,127,17384,6,0,B|85:208|85:208|78:219|78:219|85:308,1,180.000006866455,10|0,0:2|1:2,0:0:0:0:
150,357,17699,6,0,B|181:337|181:337|237:353,1,80,6|0,1:2|0:0,0:0:0:0:
374,302,18015,2,0,B|343:282|343:282|287:298,1,80,10|0,0:2|0:0,0:0:0:0:
168,252,18331,1,2,1:2:0:0:
178,240,18489,2,0,L|171:160,1,80,2|10,0:2|0:2,0:0:0:0:
296,90,18805,6,0,B|220:103|228:45|138:66,1,160,2|0,0:0|0:0,0:0:0:0:
58,217,19278,2,0,P|56:173|38:124,1,80,8|0,0:2|0:0,0:0:0:0:
155,283,19594,2,0,P|143:321|142:361,1,80,0|0,1:2|0:0,0:0:0:0:
326,243,19910,2,0,L|245:228,1,80,8|2,0:2|0:2,0:0:0:0:
372,325,20226,6,0,P|413:283|416:218,1,120,6|0,1:2|0:0,0:0:0:0:
410,204,20542,2,0,L|501:187,1,80,8|0,0:2|0:0,0:0:0:0:
345,43,20857,1,2,1:2:0:0:
354,55,21015,2,0,P|360:99|349:139,1,80,2|8,0:0|0:2,0:0:0:0:
140,155,21331,6,0,P|179:101|275:92,1,160,2|0,0:2|0:0,0:0:0:0:
250,251,21805,2,0,L|162:243,1,80,8|2,0:2|0:2,0:0:0:0:
42,351,22120,1,10,1:2:0:0:
42,351,22199,1,8,0:2:0:0:
42,351,22278,2,0,L|34:299,1,40,10|8,0:2|0:2,0:0:0:0:
83,234,22436,1,10,0:2:0:0:
83,234,22515,1,8,0:2:0:0:
83,234,22594,2,0,L|91:182,1,40,8|8,0:2|0:2,0:0:0:0:
30,125,22752,6,0,P|23:78|36:45,1,80,6|2,1:2|0:2,0:0:0:0:
118,1,23068,1,10,0:2:0:0:
168,186,23226,1,2,0:2:0:0:
168,186,23305,1,2,0:0:0:0:
168,186,23384,2,0,L|84:194,1,80,2|2,1:2|0:2,0:0:0:0:
230,113,23699,2,0,L|314:121,1,80,10|2,0:2|1:2,0:0:0:0:
426,230,24015,5,2,1:2:0:0:
331,212,24173,1,2,0:2:0:0:
397,139,24331,2,0,P|435:133|481:153,1,80,10|2,0:2|0:2,0:0:0:0:
337,291,24647,2,0,L|330:204,1,80,2|2,1:2|0:2,0:0:0:0:
495,299,24963,2,0,L|488:378,1,80,10|2,0:2|0:2,0:0:0:0:
337,291,25278,6,0,B|320:256|320:256|329:212,1,80,6|2,1:2|0:2,0:0:0:0:
419,246,25594,1,10,0:2:0:0:
325,384,25752,1,2,0:2:0:0:
325,384,25831,1,2,0:0:0:0:
325,384,25910,2,0,P|280:371|246:365,1,80,2|2,1:2|0:2,0:0:0:0:
103,284,26226,2,0,P|148:271|182:265,1,80,10|2,0:2|0:2,0:0:0:0:
327,198,26542,5,2,1:2:0:0:
270,274,26699,1,2,0:2:0:0:
235,185,26857,2,0,P|252:142|279:118,1,80,10|2,0:2|0:2,0:0:0:0:
426,130,27173,5,10,0:3:0:0:
327,198,27331,1,10,0:3:0:0:
427,44,27489,1,10,0:2:0:0:
446,45,27567,1,8,0:2:0:0:
465,52,27646,1,10,0:2:0:0:
482,63,27725,1,8,0:2:0:0:
495,78,27805,6,0,L|503:162,1,80,12|0,0:2|0:0,0:0:0:0:
327,198,28120,2,0,L|334:118,1,80,10|0,0:2|0:0,0:0:0:0:
485,260,28436,1,2,1:2:0:0:
474,272,28594,2,0,P|426:263|386:273,1,80,2|10,0:2|0:2,0:0:0:0:
241,371,28910,6,0,B|287:376|305:334|305:334|300:286|251:276,1,160,2|0,0:0|0:0,0:0:0:0:
92,295,29384,2,0,P|130:310|175:303,1,80,8|0,0:2|0:0,0:0:0:0:
40,140,29699,2,0,L|31:229,1,80,0|0,1:2|0:0,0:0:0:0:
218,196,30015,2,0,L|209:116,1,80,8|2,0:2|0:2,0:0:0:0:
59,13,30331,6,0,P|100:38|181:20,1,120,6|0,1:2|0:0,0:0:0:0:
186,18,30647,2,0,L|276:24,1,80,8|0,0:2|0:0,0:0:0:0:
420,120,30963,1,2,1:2:0:0:
407,112,31120,2,0,P|363:108|321:126,1,80,2|10,0:0|0:2,0:0:0:0:
227,176,31436,1,2,0:2:0:0:
374,239,31594,5,0,0:2:0:0:
374,239,31673,1,8,0:2:0:0:
374,239,31752,2,0,L|377:193,3,40,8|8|8|8,0:2|0:2|0:2|0:2,0:2:0:0:
303,305,32068,5,8,0:2:0:0:
303,305,32147,1,8,0:2:0:0:
303,305,32226,2,0,L|310:351,3,40,10|8|10|8,0:2|0:2|0:2|0:2,0:0:0:0:
226,252,32542,6,0,P|258:221|303:214,1,80,10|0,0:2|0:0,0:0:0:0:
217,367,32857,5,10,0:2:0:0:
197,364,32935,1,8,0:2:0:0:
177,362,33014,1,8,0:2:0:0:
157,360,33093,1,8,0:2:0:0:
137,358,33172,1,8,0:2:0:0:
123,367,33489,5,0,1:2:0:0:
7,277,33647,1,10,0:2:0:0:
26,274,33725,1,8,0:2:0:0:
44,270,33805,2,0,L|59:228,4,40,8|8|8|8|8,0:2|0:2|0:2|0:2|0:2,0:0:0:0:
179,183,34594,5,10,0:2:0:0:
160,180,34672,1,8,0:2:0:0:
142,176,34752,2,0,L|127:134,4,40,8|8|8|8|8,0:2|0:2|0:2|0:2|0:2,0:0:0:0:
295,17,35384,5,10,0:2:0:0:
315,20,35462,1,8,0:2:0:0:
335,22,35541,1,8,0:2:0:0:
355,24,35620,1,8,0:2:0:0:
375,26,35699,1,8,0:2:0:0:
389,17,36016,5,0,1:2:0:0:
505,107,36174,1,10,0:2:0:0:
486,110,36252,1,8,0:2:0:0:
468,114,36332,2,0,L|453:156,4,40,8|8|8|8|8,0:2|0:2|0:2|0:2|0:2,0:0:0:0:
333,201,37121,5,10,0:2:0:0:
352,204,37199,1,8,0:2:0:0:
370,208,37279,2,0,L|385:250,4,40,8|8|8|8|8,0:2|0:2|0:2|0:2|0:2,0:0:0:0:
272,325,37910,6,0,L|229:337,1,32,8|8,0:2|0:2,0:0:0:0:
161,370,38068,2,0,L|118:358,1,32,10|8,0:2|0:2,0:0:0:0:
78,287,38226,2,0,P|73:238|82:215,1,64,10|2,0:2|0:2,0:0:0:0:
150,161,38542,2,0,B|140:89|140:89|145:77|145:77|138:20,1,128,2|8,1:2|0:2,0:0:0:0:
241,105,39015,1,10,0:2:0:0:
241,105,39094,1,10,0:2:0:0:
241,105,39173,6,0,L|316:95,1,64,10|2,0:2|0:2,0:0:0:0:
373,29,39489,1,0,1:2:0:0:
492,153,39647,2,0,P|447:162|393:114,1,96,8|8,0:2|0:2,0:0:0:0:
396,122,39963,1,10,0:2:0:0:
338,249,40120,2,0,P|328:205|328:182,1,64,10|2,0:2|0:2,0:0:0:0:
472,272,40436,6,0,P|487:296|490:316,1,32,8|8,0:2|0:2,0:0:0:0:
410,328,40594,2,0,P|418:355|415:375,1,32,10|8,0:2|0:2,0:0:0:0:
335,365,40752,2,0,L|256:355,1,64,10|2,0:2|0:2,0:0:0:0:
189,305,41068,2,0,B|121:288|127:353|37:318,1,128,2|8,1:2|0:2,0:0:0:0:
10,247,41542,1,10,0:2:0:0:
10,247,41620,1,10,0:2:0:0:
10,247,41699,6,0,L|21:180,1,64,10|2,0:2|0:2,0:0:0:0:
87,114,42015,1,0,1:2:0:0:
256,206,42173,2,0,P|211:216|167:194,1,96,8|8,0:2|0:2,0:0:0:0:
158,179,42489,1,10,0:2:0:0:
107,321,42647,2,0,P|100:282|106:240,1,64,2|2,0:2|0:2,0:0:0:0:
253,359,42963,5,6,1:2:0:0:
237,360,43041,1,8,0:2:0:0:
221,362,43120,1,8,0:2:0:0:
205,363,43199,1,8,0:2:0:0:
189,365,43278,2,0,L|204:223,1,128,8|0,0:2|1:2,0:0:0:0:
311,127,43752,5,8,0:2:0:0:
320,139,43831,1,8,0:2:0:0:
328,151,43910,2,0,L|332:186,3,32,10|8|8|8,0:2|0:2|0:2|0:2,0:0:0:0:
316,204,44226,2,0,P|365:188|428:230,1,128,8|2,0:2|1:2,0:0:0:0:
432,375,44699,5,8,0:2:0:0:
419,366,44778,1,8,0:2:0:0:
405,357,44857,2,0,L|369:364,3,32,8|8|8|8,0:2|0:2|0:2|0:2,0:0:0:0:
352,349,45173,2,0,L|359:279,1,64,10|2,0:2|0:2,0:0:0:0:
319,141,45489,5,8,0:2:0:0:
314,157,45567,1,8,0:2:0:0:
312,173,45646,1,8,0:2:0:0:
312,189,45725,1,8,0:2:0:0:
316,204,45805,2,0,L|177:185,1,128,8|0,0:2|1:2,0:0:0:0:
56,137,46278,5,8,0:2:0:0:
68,128,46357,1,8,0:2:0:0:
80,119,46436,2,0,L|77:79,3,32,10|8|8|8,0:2|0:2|0:2|0:2,0:0:0:0:
64,66,46752,2,0,P|105:80|173:37,1,128,8|0,0:2|1:2,0:0:0:0:
323,20,47226,5,8,0:2:0:0:
329,35,47305,1,8,0:2:0:0:
335,50,47384,2,0,L|377:46,3,32,8|8|8|8,0:2|0:2|0:2|0:2,0:0:0:0:
267,106,47699,6,0,L|230:101,1,32,8|8,0:2|0:2,0:0:0:0:
167,158,47857,1,8,0:2:0:0:
272,245,48015,6,0,P|273:272|281:289,1,32,4|8,1:2|0:2,0:0:0:0:
195,301,48173,2,0,P|202:326|215:341,1,32,10|8,0:2|0:2,0:0:0:0:
280,376,48331,2,0,P|321:367|360:380,1,64,2|2,1:2|0:2,0:0:0:0:
465,333,48647,2,0,B|466:302|466:302|461:282|461:282|452:194,1,128,0|8,1:2|0:2,0:0:0:0:
403,124,49120,1,10,0:2:0:0:
403,124,49199,1,10,0:2:0:0:
403,124,49278,6,0,P|414:81|414:53,1,64,10|2,0:2|0:2,0:0:0:0:
339,0,49594,1,0,1:2:0:0:
209,150,49752,2,0,L|311:163,1,96,10|8,0:0|0:0,0:0:0:0:
321,165,50068,1,10,0:0:0:0:
212,256,50226,2,0,L|279:251,1,64,10|10,0:3|0:3,0:0:0:0:
210,380,50542,6,0,L|176:378,1,32,8|8,0:0|0:0,0:0:0:0:
106,332,50699,2,0,L|72:334,1,32,10|8,0:0|0:0,0:0:0:0:
21,266,50857,2,0,P|15:230|21:199,1,64,10|2,0:0|0:0,0:0:0:0:
117,129,51173,2,0,B|173:133|173:133|185:129|185:129|252:133,1,128,0|8,1:2|0:0,0:0:0:0:
316,196,51647,1,8,0:0:0:0:
402,131,51805,6,0,P|413:88|402:53,1,64,10|2,1:2|0:0,0:0:0:0:
398,42,52042,1,0,0:3:0:0:
398,42,52120,1,2,1:2:0:0:
238,100,52278,1,10,0:0:0:0:
238,100,52357,1,8,0:0:0:0:
238,100,52436,6,0,L|247:154,3,32,8|8|8|8,0:0|0:0|0:0|0:0,0:0:0:0:
229,219,52752,2,0,L|220:273,3,32,8|8|8|8,0:3|0:3|0:3|0:3,0:0:0:0:
299,301,53068,6,0,P|326:297|342:301,3,32,10|8|8|8,0:0|0:0|0:0|0:0,0:0:0:0:
359,307,53384,2,0,L|351:175,1,128,8|0,0:0|1:2,0:0:0:0:
263,17,53857,5,8,0:0:0:0:
254,30,53936,1,8,0:0:0:0:
246,41,54015,2,0,L|200:34,3,32,10|8|8|8,0:0|0:0|0:0|0:0,0:0:0:0:
194,19,54331,2,0,P|205:71|151:132,1,128,8|0,0:0|1:2,0:0:0:0:
47,262,54805,5,8,0:0:0:0:
56,248,54884,1,8,0:0:0:0:
65,235,54963,2,0,L|107:240,3,32,8|8|8|8,0:0|0:0|0:0|0:0,0:0:0:0:
177,205,55278,6,0,P|198:206|216:214,1,32,8|8,0:3|0:3,0:0:0:0:
197,295,55436,2,0,P|176:294|158:286,1,32,8|8,0:3|0:3,0:0:0:0:
279,263,55594,6,0,P|300:264|318:272,3,32,8|8|8|8,0:0|0:0|0:0|0:0,0:0:0:0:
337,280,55910,2,0,L|319:135,1,128,8|0,0:0|1:2,0:0:0:0:
421,10,56384,5,8,0:0:0:0:
411,22,56463,1,8,0:0:0:0:
402,33,56542,2,0,L|359:24,3,32,10|8|8|8,0:0|0:0|0:0|0:0,0:0:0:0:
351,12,56857,2,0,P|331:39|246:27,1,128,8|0,0:0|1:2,0:0:0:0:
91,156,57331,5,8,0:0:0:0:
104,145,57410,1,8,0:0:0:0:
116,135,57489,2,0,L|156:141,3,32,8|8|8|8,0:0|0:0|0:0|0:0,0:0:0:0:
215,199,57805,2,0,L|257:194,1,32,8|8,0:3|0:3,0:0:0:0:
150,261,57963,1,8,0:3:0:0:
330,137,58120,6,0,P|367:131|412:150,1,80,12|0,0:0|1:2,0:0:0:0:
460,225,58436,1,0,1:2:0:0:
254,274,58594,6,0,L|244:176,1,80,12|0,0:0|1:2,0:0:0:0:
331,330,58910,1,2,1:2:0:0:
172,384,59068,6,0,B|158:345|158:345|169:301,1,80,14|2,0:0|1:2,0:0:0:0:
245,194,59384,1,2,1:2:0:0:
71,200,59542,6,0,L|153:213,1,80,12|2,0:0|1:2,0:0:0:0:
261,288,59857,1,2,1:2:0:0:
262,116,60015,6,0,P|248:156|246:207,1,80,12|2,0:0|1:2,0:0:0:0:
345,349,60331,2,0,P|359:309|361:258,1,80,12|2,0:2|1:2,0:0:0:0:
244,192,60647,6,0,L|165:198,1,80,12|2,0:0|1:2,0:0:0:0:
36,316,60963,1,0,1:2:0:0:
214,364,61120,6,0,B|226:321|226:321|207:272,1,80,12|2,0:0|1:2,0:0:0:0:
100,144,61436,1,0,1:2:0:0:
47,332,61594,6,0,L|131:328,1,80,12|0,0:0|1:2,0:0:0:0:
244,192,61910,1,2,1:2:0:0:
83,158,62068,6,0,P|72:198|88:244,1,80,12|0,0:0|1:2,0:0:0:0:
178,83,62384,1,0,1:2:0:0:
322,207,62542,6,0,P|271:196|223:188,1,80,14|0,0:0|1:2,0:0:0:0:
126,328,62857,1,12,0:2:0:0:
126,328,62936,1,8,0:0:0:0:
126,328,63015,1,8,0:0:0:0:
126,328,63094,1,0,0:0:0:0:
126,328,63173,6,0,P|177:317|225:309,1,80,12|0,0:0|1:2,0:0:0:0:
359,358,63489,1,0,1:2:0:0:
302,179,63647,6,0,L|309:269,1,80,12|0,0:0|1:2,0:0:0:0:
251,384,63963,1,2,1:2:0:0:
128,190,64120,6,0,P|164:170|218:173,1,80,14|2,0:0|1:2,0:0:0:0:
308,258,64436,1,2,1:2:0:0:
127,367,64594,6,0,P|119:309|112:273,1,80,12|2,0:0|1:2,0:0:0:0:
19,158,64910,1,2,1:2:0:0:
212,304,65068,2,0,P|220:246|227:210,1,80,12|2,0:0|1:2,0:0:0:0:
325,107,65384,1,8,0:2:0:0:
325,107,65463,1,8,0:3:0:0:
325,107,65542,1,8,0:3:0:0:
445,274,65699,5,12,0:0:0:0:
445,274,66015,5,10,0:0:0:0:
364,256,66173,1,10,0:0:0:0:
420,194,66331,1,8,0:0:0:0:
389,336,66489,5,10,0:0:0:0:
339,176,66647,1,10,0:0:0:0:
501,212,66805,1,10,0:0:0:0:
256,192,66884,12,0,68147,0:0:0:0:
372,105,68226,6,0,B|355:54|403:23|403:23|460:36|459:89,1,191.999994140625,6|10,1:2|0:0,0:0:0:0:
386,205,68699,2,0,B|301:212|296:138|197:159,1,191.999994140625,2|0,0:0|0:0,0:0:0:0:
217,348,69173,2,0,P|261:322|175:278,1,191.999994140625,10|0,0:0|1:2,0:0:0:0:
54,248,69647,5,2,0:0:0:0:
72,342,69805,2,0,P|65:287|52:242,1,95.9999970703126,10|2,0:0|0:0,0:0:0:0:
200,172,70120,2,0,P|187:218|182:265,1,95.9999970703126,2|2,1:2|0:0,0:0:0:0:
108,112,70436,1,10,0:0:0:0:
298,239,70594,6,0,L|493:212,1,191.999994140625,2|2,0:0|0:0,0:0:0:0:
320,359,71068,2,0,P|272:344|226:336,1,95.9999970703126,10|2,0:0|0:0,0:0:0:0:
149,237,71384,1,2,1:2:0:0:
57,261,71542,2,0,P|104:252|149:238,1,95.9999970703126,2|8,0:0|0:0,0:0:0:0:
141,18,71857,6,0,B|107:0|69:10|54:49|54:49|68:86|75:137,1,191.999994140625,2|2,0:0|0:0,0:0:0:0:
149,238,72331,1,10,0:0:0:0:
264,107,72489,2,0,P|172:123|63:132,1,191.999994140625,2|0,0:0|0:0,0:0:0:0:
18,314,72963,1,10,0:0:0:0:
18,314,73042,1,8,0:0:0:0:
18,314,73120,1,8,0:0:0:0:
18,314,73199,1,8,0:0:0:0:
18,314,73278,6,0,B|52:331|91:322|110:307|110:307|166:313|195:362,1,191.999994140625,4|8,1:2|0:2,0:0:0:0:
305,203,73752,2,0,B|266:225|233:266|233:266|193:234|149:223,1,191.999994140625,2|0,0:0|0:0,0:0:0:0:
292,338,74226,2,0,B|326:290|365:276|365:276|414:273|475:316,1,191.999994140625,10|0,0:2|1:2,0:0:0:0:
390,384,74699,1,2,0:0:0:0:
390,384,74857,1,8,0:0:0:0:
344,184,75015,6,0,P|281:139|375:114,1,191.999994140625,2|0,0:0|0:0,0:0:0:0:
452,149,75489,1,10,0:0:0:0:
222,231,75647,6,0,P|187:122|217:45,1,191.999994140625,2|0,0:0|0:0,0:0:0:0:
344,184,76120,2,0,P|354:229|341:283,1,95.9999970703126,8|2,0:0|0:0,0:0:0:0:
271,367,76436,1,0,1:2:0:0:
177,308,76594,1,8,0:0:0:0:
177,308,76752,1,2,1:2:0:0:
38,384,76910,6,0,B|24:295|24:295|27:280|27:280|14:192,1,191.999994140625,10|0,0:0|0:0,0:0:0:0:
134,16,77384,2,0,P|121:64|116:112,1,95.9999970703126,12|2,0:0|0:0,0:0:0:0:
226,217,77699,1,0,1:2:0:0:
297,71,77857,5,8,0:0:0:0:
297,71,77936,1,8,0:0:0:0:
297,71,78015,2,0,L|235:77,1,47.9999985351563,8|8,0:0|0:0,0:0:0:0:
372,14,78173,2,0,L|434:20,1,47.9999985351563,8|8,0:0|0:0,0:0:0:0:
493,107,78331,6,0,B|487:208,1,95.9999970703126,12|0,0:0|1:2,0:0:0:0:
408,307,78647,1,2,1:2:0:0:
281,183,78805,6,0,P|325:177|377:199,1,95.9999970703126,12|2,0:0|1:2,0:0:0:0:
414,324,79120,1,0,1:2:0:0:
240,350,79278,6,0,P|236:304|223:255,1,95.9999970703126,14|0,0:0|1:2,0:0:0:0:
128,166,79594,1,2,1:2:0:0:
87,378,79752,6,0,P|74:331|70:283,1,95.9999970703126,12|2,0:0|1:2,0:0:0:0:
125,146,80068,1,0,1:2:0:0:
318,265,80226,6,0,L|213:254,1,95.9999970703126,12|0,0:0|1:2,0:0:0:0:
290,80,80542,1,10,1:2:0:0:
290,80,80620,1,8,0:0:0:0:
290,80,80699,1,10,0:0:0:0:
290,80,80778,1,8,0:0:0:0:
290,80,80857,6,0,L|395:69,1,95.9999970703126,12|0,0:0|1:2,0:0:0:0:
465,156,81173,1,2,1:2:0:0:
370,271,81331,6,0,P|352:229|360:173,1,95.9999970703126,14|0,0:0|1:2,0:0:0:0:
483,150,81647,1,0,1:2:0:0:
512,350,81805,6,0,P|461:346|416:354,1,95.9999970703126,14|2,0:0|1:2,0:0:0:0:
305,372,82120,1,0,1:2:0:0:
301,173,82278,6,0,L|316:278,1,95.9999970703126,12|2,0:0|1:2,0:0:0:0:
295,383,82594,1,2,1:2:0:0:
123,324,82752,6,0,P|176:304|230:314,1,95.9999970703126,12|0,0:0|1:2,0:0:0:0:
405,284,83068,1,10,0:2:0:0:
405,284,83147,1,8,0:0:0:0:
405,284,83226,1,8,0:2:0:0:
405,284,83305,1,8,0:0:0:0:
405,284,83384,6,0,P|357:286|313:267,1,95.9999970703126,14|0,0:2|1:2,0:0:0:0:
264,171,83699,1,0,1:2:0:0:
435,117,83857,6,0,P|412:159|374:188,1,95.9999970703126,12|0,0:2|1:2,0:0:0:0:
264,171,84173,1,0,1:2:0:0:
305,8,84331,6,0,P|330:48|336:96,1,95.9999970703126,12|0,0:2|1:2,0:0:0:0:
264,171,84646,1,0,1:2:0:0:
144,100,84805,6,0,L|241:83,1,95.9999970703126,14|0,0:0|1:2,0:0:0:0:
69,35,85120,1,0,1:2:0:0:
159,193,85278,6,0,P|157:144|140:93,1,95.9999970703126,14|2,0:0|1:2,0:0:0:0:
61,28,85594,1,10,0:2:0:0:
61,28,85673,1,8,0:2:0:0:
61,28,85752,1,10,0:2:0:0:
261,22,85910,6,0,L|256:117,1,95.9999970703126,12|2,0:0|1:2,0:0:0:0:
332,217,86226,1,2,1:2:0:0:
209,306,86384,6,0,L|204:211,1,95.9999970703126,14|2,0:0|1:2,0:0:0:0:
353,122,86700,1,2,1:2:0:0:
178,16,86857,6,0,L|173:111,1,95.9999970703126,14|2,0:2|1:2,0:0:0:0:
332,217,87173,1,0,1:2:0:0:
101,181,87331,6,0,P|149:205|194:198,1,95.9999970703126,12|2,0:0|1:2,0:0:0:0:
336,110,87647,1,0,1:2:0:0:
223,285,87805,6,0,P|234:332|236:380,1,95.9999970703126,12|0,0:0|1:2,0:0:0:0:
397,291,88120,2,0,P|369:230|422:189,1,143.999995605469,12|0,0:0|0:0,0:0:0:0:
482,259,88436,6,0,P|489:306|476:339,1,80,6|2,1:2|0:2,0:0:0:0:
394,383,88752,1,10,0:2:0:0:
344,198,88910,1,2,0:2:0:0:
344,198,88989,1,2,0:0:0:0:
344,198,89068,2,0,L|428:190,1,80,2|2,1:2|0:2,0:0:0:0:
282,271,89384,2,0,L|198:263,1,80,10|2,0:2|0:2,0:0:0:0:
88,154,89699,5,2,1:2:0:0:
181,172,89857,1,2,0:2:0:0:
116,245,90015,2,0,P|78:251|32:231,1,80,10|2,0:2|0:2,0:0:0:0:
175,93,90331,2,0,L|182:180,1,80,2|2,1:2|0:2,0:0:0:0:
17,85,90647,2,0,L|24:6,1,80,10|2,0:2|0:2,0:0:0:0:
175,93,90963,6,0,B|192:128|192:128|183:172,1,80,2|2,1:2|0:2,0:0:0:0:
93,138,91278,1,10,0:2:0:0:
187,0,91436,1,2,0:2:0:0:
187,0,91515,1,2,0:0:0:0:
187,0,91594,2,0,P|232:13|266:19,1,80,2|2,1:2|0:2,0:0:0:0:
409,100,91910,2,0,P|364:113|330:119,1,80,10|2,0:2|0:2,0:0:0:0:
185,186,92226,5,2,1:2:0:0:
242,110,92383,1,2,0:0:0:0:
277,199,92541,2,0,P|260:242|233:266,1,80,14|2,0:0|0:0,0:0:0:0:
86,254,92857,5,2,1:2:0:0:
185,186,93015,1,10,0:0:0:0:
177,172,93094,1,10,0:0:0:0:
171,158,93173,2,0,L|176:116,3,40,10|8|10|8,0:0|0:0|0:0|0:0,0:0:0:0:
163,96,93489,6,0,L|247:88,1,80,12|0,0:0|0:0,0:0:0:0:
315,271,93805,2,0,L|235:264,1,80,8|0,0:2|0:0,0:0:0:0:
393,111,94120,1,2,1:2:0:0:
384,121,94278,2,0,P|375:169|385:209,1,80,2|10,0:2|0:2,0:0:0:0:
330,364,94594,6,0,B|284:369|266:327|266:327|271:279|320:269,1,160,2|0,0:0|0:0,0:0:0:0:
479,288,95068,2,0,P|441:303|396:296,1,80,8|0,0:2|0:0,0:0:0:0:
495,120,95384,2,0,L|504:209,1,80,0|0,1:2|0:0,0:0:0:0:
332,186,95699,2,0,L|341:106,1,80,8|2,0:2|0:0,0:0:0:0:
462,1,96015,6,0,P|421:26|340:8,1,120,6|0,1:2|0:0,0:0:0:0:
335,6,96331,2,0,L|245:12,1,80,10|0,0:2|0:0,0:0:0:0:
92,120,96647,1,0,1:2:0:0:
105,112,96805,2,0,P|149:108|191:126,1,80,2|12,0:0|0:2,0:0:0:0:
285,176,97120,1,2,0:2:0:0:
135,199,97278,1,12,0:3:0:0:
290,301,97436,5,8,0:3:0:0:
290,301,97515,1,8,0:3:0:0:
290,301,97594,2,0,L|287:255,3,40,8|8|10|8,0:3|0:3|0:3|0:3,0:0:0:0:
239,185,97910,6,0,L|246:139,3,40,10|8|10|8,0:0|0:0|0:0|0:0,0:0:0:0:
210,60,98226,6,0,L|203:14,1,40,10|8,0:0|0:0,0:0:0:0:
291,9,98384,2,0,L|296:48,1,40,10|8,0:0|0:0,0:0:0:0:
375,124,98542,6,0,P|413:125|439:113,2,47.9999985351563,2|2|2,1:2|0:0|0:0,0:0:0:0:
328,205,99015,2,0,L|341:314,1,95.9999970703126,2|0,0:0|0:0,0:0:0:0:
198,356,99489,6,0,P|160:355|134:367,2,47.9999985351563,2|2|2,1:2|0:0|0:0,0:0:0:0:
245,275,99962,2,0,L|232:166,1,95.9999970703126,2|0,0:0|0:0,0:0:0:0:
166,85,100436,2,0,L|173:31,3,47.9999985351563,2|2|2|2,0:0|0:0|0:0|0:0,0:0:0:0:
