osu file format v14

[General]
AudioFilename: audio.mp3
AudioLeadIn: 0
PreviewTime: 52358
Countdown: 0
SampleSet: Soft
StackLeniency: 0.4
Mode: 0
LetterboxInBreaks: 0
WidescreenStoryboard: 0

[Editor]
Bookmarks: 36,11793,22116,32438,42761,53083,63406,73729,84051,96148
DistanceSpacing: 2.1
BeatDivisor: 4
GridSize: 32
TimelineZoom: 2.599999

[Metadata]
Title:Six Trillion Years and Overnight Story
TitleUnicode:六兆年と一夜物語
Artist:Roselia
ArtistUnicode:Roselia
Creator:lit120
Version:Normal
Source:バンドリ!ガールズバンドパーティ!
Tags:BanG Dream! Girls Band Party bandori garupa ガルパ ロゼリア kemu IA vocaloid 6 Rokuchounen to Ichiya Monogatari A Tale of Six Trillion Years and a Night cover game size minato yukina 湊友希那 aiba aina 相羽あいな hikawa sayo 氷川紗夜 kudou haruka 工藤晴香 imai lisa 今井リサ endou yurika 遠藤ゆりか nakashima yuki 中島由貴 udagawa ako 宇田川あこ sakuragawa megu 櫻川めぐ shirokane rinko 白金燐子 akesaka satomi 明坂聡美 -Hakurei- Yukiyo thzz Lasse val0108 Nao Tomori Naotoshi
BeatmapID:1657950
BeatmapSetID:790060

[Difficulty]
HPDrainRate:5
CircleSize:3.5
OverallDifficulty:5
ApproachRate:6
SliderMultiplier:1.1
SliderTickRate:1

[Events]
//Background and Video events
0,0,"bg.jpg",0,0
//Break Periods
2,22316,26077
//Storyboard Layer 0 (Background)
//Storyboard Layer 1 (Fail)
//Storyboard Layer 2 (Pass)
//Storyboard Layer 3 (Foreground)
//Storyboard Sound Samples

[TimingPoints]
-2081,705.882352941176,4,2,1,50,1,0
9213,322.58064516129,4,2,1,60,1,0
22116,-100,4,2,1,40,0,0
27277,-100,4,2,1,60,0,0
31793,-100,4,2,1,40,0,0
31954,-100,4,2,1,60,0,0
47922,-100,4,2,1,40,0,0
50180,-100,4,2,1,50,0,0
50503,-100,4,2,1,60,0,0
53083,-100,4,2,1,80,0,1
63406,-100,4,2,1,50,0,0
63729,-100,4,2,1,80,0,1
73729,-100,4,2,1,60,0,0

[Colours]
Combo1 : 169,144,204
Combo2 : 255,49,98
Combo3 : 144,71,140
Combo4 : 211,152,144

[HitObjects]
256,192,9213,12,0,10503,0:0:0:0:
69,84,11471,6,0,L|69:143,1,55,2|2,0:0|0:0,0:0:0:0:
52,191,11793,2,0,P|121:166|186:185,1,110,10|2,0:0|0:0,0:0:0:0:
255,218,12438,2,0,L|386:212,1,110,2|2,0:0|0:0,0:0:0:0:
416,192,12922,1,2,0:0:0:0:
416,192,13083,2,0,P|413:146|402:121,2,55,10|8|2,0:0|0:0|0:0,0:0:0:0:
376,295,13729,2,0,L|245:301,1,110,2|2,0:0|0:0,0:0:0:0:
158,322,14374,6,0,P|78:309|47:259,1,110,10|2,0:0|0:0,0:0:0:0:
66,180,15019,2,0,L|44:92,2,55,2|2|2,0:0|0:0|0:0,0:0:0:0:
176,185,15664,2,0,L|244:183,1,55,10|10,0:0|0:0,0:0:0:0:
275,150,15987,2,0,L|342:152,1,55,10|2,0:0|0:0,0:0:0:0:
374,183,16309,1,6,3:2:0:0:
476,142,16632,2,0,L|478:209,1,55,10|10,0:0|0:0,0:0:0:0:
503,245,16954,6,0,P|431:261|401:317,1,110,6|10,3:2|0:0,0:0:0:0:
332,366,17600,2,0,L|196:354,1,110,2|10,3:2|0:0,0:0:0:0:
167,361,18083,1,2,0:0:0:0:
167,361,18245,2,0,P|178:298|163:227,1,110,2|10,3:2|0:0,0:0:0:0:
109,162,18890,2,0,L|114:102,1,55,2|2,3:2|3:2,0:0:0:0:
125,53,19212,1,14,0:0:0:0:
224,99,19535,6,0,P|293:103|348:39,1,110,10|10,0:0|0:0,0:0:0:0:
359,38,20019,2,0,P|376:104|454:137,1,110,10|10,0:0|0:0,0:0:0:0:
458,147,20503,2,0,P|399:184|392:268,1,110,10|10,0:0|0:0,0:0:0:0:
384,275,20987,2,0,P|330:231|248:250,1,110,10|10,0:0|0:0,0:0:0:0:
238,244,21471,1,4,0:3:0:0:
178,336,21793,1,4,0:3:0:0:
128,238,22116,1,6,3:2:0:0:
176,126,27277,6,0,P|105:134|67:105,1,110,6|0,3:2|3:2,0:0:0:0:
33,78,27761,1,2,0:0:0:0:
33,78,27922,2,0,L|28:200,1,110,2|0,3:2|3:2,0:0:0:0:
97,273,28567,2,0,P|146:247|214:255,1,110,2|0,3:2|3:2,0:0:0:0:
247,276,29051,1,2,0:0:0:0:
247,276,29212,2,0,L|367:272,1,110,2|2,3:2|3:2,0:0:0:0:
460,310,29858,6,0,P|443:222|453:192,1,110,2|2,3:2|3:2,0:0:0:0:
469,153,30342,1,2,0:0:0:0:
469,153,30503,2,0,P|381:170|351:160,1,110,0|2,3:2|3:2,0:0:0:0:
312,144,30987,1,2,3:2:0:0:
53,49,31793,2,0,L|51:137,1,55,2|2,0:0|3:2,0:0:0:0:
55,159,32116,1,10,0:0:0:0:
138,230,32438,6,0,P|226:213|256:223,1,110,6|8,3:2|0:0,0:0:0:0:
293,240,32922,1,2,0:0:0:0:
293,240,33083,2,0,L|294:372,1,110,2|8,3:2|0:0,0:0:0:0:
185,373,33729,2,0,P|111:358|73:300,1,110,2|10,3:2|0:0,0:0:0:0:
56,229,34374,1,2,3:2:0:0:
102,129,34696,2,0,L|177:125,1,55,10|2,0:0|0:0,0:0:0:0:
203,96,35019,6,0,P|232:134|305:139,1,110,2|8,3:2|0:0,0:0:0:0:
342,123,35503,1,2,0:0:0:0:
342,123,35664,2,0,P|395:129|429:171,1,110,2|8,3:2|0:0,0:0:0:0:
419,280,36309,2,0,P|345:296|299:275,1,110,2|10,3:2|0:0,0:0:0:0:
266,257,36793,1,2,0:0:0:0:
266,257,36954,2,0,L|154:262,1,110,2|8,3:2|0:0,0:0:0:0:
64,323,37600,6,0,P|46:271|54:217,1,110,6|8,3:2|0:0,0:0:0:0:
90,176,38083,1,2,0:0:0:0:
90,176,38245,2,0,L|199:171,1,110,2|8,3:2|0:0,0:0:0:0:
280,95,38890,2,0,L|277:40,2,55,2|0|8,3:2|3:2|0:0,0:0:0:0:
321,131,39374,1,2,0:0:0:0:
321,131,39536,2,0,L|430:126,1,110,2|10,3:2|0:0,0:0:0:0:
496,214,40180,6,0,P|509:266|496:319,1,110,2|10,3:2|0:0,0:0:0:0:
446,343,40664,2,0,L|331:339,1,110,2|0,0:0|3:2,0:0:0:0:
297,299,41148,1,10,0:0:0:0:
297,299,41309,2,0,L|182:303,1,110,2|0,0:0|3:2,0:0:0:0:
145,339,41793,1,8,0:0:0:0:
59,269,42116,1,2,3:2:0:0:
129,183,42438,2,0,L|126:127,1,55,10|4,0:0|0:3,0:0:0:0:
96,81,42761,6,0,P|162:92|236:49,1,110,14|0,0:0|3:2,0:0:0:0:
234,34,43245,2,0,P|257:96|331:139,1,110,14|2,0:0|3:2,0:0:0:0:
343,130,43729,2,0,P|300:181|300:267,1,110,14|0,0:0|3:2,0:0:0:0:
314,272,44212,2,0,P|247:261|173:304,1,110,14|0,0:0|3:2,0:0:0:0:
176,318,44696,1,10,0:0:0:0:
270,373,45019,1,8,0:3:0:0:
314,272,45342,6,0,P|370:255|427:265,1,110,14|2,0:0|3:2,0:0:0:0:
470,284,45825,2,0,P|453:228|463:171,1,110,14|2,0:0|3:2,0:0:0:0:
482,128,46309,2,0,P|426:145|369:135,1,110,14|0,0:0|3:2,0:0:0:0:
326,116,46793,2,0,P|343:172|333:229,1,110,10|0,0:0|3:2,0:0:0:0:
314,272,47277,1,10,0:0:0:0:
221,332,47600,1,4,0:3:0:0:
160,238,47922,6,0,P|67:254|111:338,2,220,6|2|2,3:2|0:0|0:0,0:0:0:0:
346,357,49858,1,2,0:0:0:0:
420,275,50180,2,0,L|417:200,1,55,10|4,0:0|0:3,0:0:0:0:
408,165,50503,5,12,0:0:0:0:
346,73,50825,1,0,3:2:0:0:
240,104,51148,1,8,0:0:0:0:
237,215,51471,1,8,0:0:0:0:
341,252,51793,1,10,0:0:0:0:
341,251,53083,6,0,P|307:299|251:326,1,110,6|10,3:2|0:0,0:0:0:0:
155,291,53729,2,0,P|130:243|128:188,1,110,2|10,3:2|0:0,0:0:0:0:
237,215,54374,2,0,L|268:109,1,110,2|10,3:2|0:0,0:0:0:0:
283,56,54858,1,2,0:0:0:0:
283,56,55019,2,0,P|234:31|181:42,1,110,2|10,3:2|0:0,0:0:0:0:
148,86,55503,1,2,0:0:0:0:
148,86,55664,6,0,P|95:96|46:72,1,110,2|10,3:2|0:0,0:0:0:0:
0,172,56309,2,0,L|0:246,1,55,2|2,3:2|0:0,0:0:0:0:
48,253,56632,2,0,L|48:327,1,55,10|2,0:0|0:0,0:0:0:0:
24,357,56954,2,0,P|100:337|165:362,1,110,2|10,3:2|0:0,0:0:0:0:
177,369,57438,1,2,0:0:0:0:
177,369,57600,2,0,L|296:352,1,110,2|10,3:2|0:0,0:0:0:0:
321,311,58083,1,8,0:0:0:0:
321,311,58245,6,0,P|325:238|308:193,1,110,6|10,3:2|0:0,0:0:0:0:
254,111,58890,2,0,P|327:115|372:98,1,110,2|10,3:2|0:0,0:0:0:0:
414,89,59374,1,2,0:0:0:0:
414,89,59535,2,0,L|417:160,1,55,2|2,3:2|0:0,0:0:0:0:
459,178,59858,2,0,L|456:249,1,55,10|2,0:0|0:0,0:0:0:0:
427,279,60180,1,2,3:2:0:0:
321,311,60503,2,0,L|241:303,1,55,10|2,0:0|0:0,0:0:0:0:
211,298,60825,5,2,3:2:0:0:
118,238,61148,1,10,0:0:0:0:
146,131,61471,1,2,3:2:0:0:
256,124,61793,1,10,0:0:0:0:
296,227,62116,2,0,L|373:220,1,55,10|8,0:0|0:3,0:0:0:0:
391,184,62438,2,0,L|468:191,1,55,8|4,0:3|0:3,0:0:0:0:
497,207,62761,1,10,0:0:0:0:
512,98,63083,1,4,0:3:0:0:
413,49,63406,5,2,0:0:0:0:
338,128,63729,2,0,L|283:123,1,55,14|2,0:0|0:0,0:0:0:0:
238,91,64051,2,0,P|216:152|167:175,1,110,10|10,0:0|0:0,0:0:0:0:
75,134,64696,2,0,L|79:271,1,110,10|10,0:0|0:0,0:0:0:0:
66,297,65180,1,2,3:2:0:0:
66,297,65342,2,0,P|133:278|194:300,1,110,10|10,0:0|0:0,0:0:0:0:
266,341,65987,6,0,L|404:326,1,110,10|10,0:0|0:0,0:0:0:0:
443,242,66632,2,0,L|438:172,1,55,10|2,0:0|3:2,0:0:0:0:
393,156,66954,2,0,L|398:86,1,55,10|10,0:0|0:0,0:0:0:0:
424,53,67277,1,6,3:2:0:0:
319,16,67600,1,6,3:2:0:0:
282,121,67922,1,6,3:2:0:0:
177,84,68245,2,0,L|158:136,1,55,10|10,0:0|0:0,0:0:0:0:
140,189,68567,6,0,P|208:203|237:254,1,110,6|10,3:2|0:0,0:0:0:0:
214,285,69051,1,2,3:2:0:0:
214,285,69212,2,0,L|99:281,1,110,10|10,0:0|0:0,0:0:0:0:
5,230,69858,2,0,L|13:158,1,55,10|2,0:0|3:2,0:0:0:0:
59,149,70180,2,0,L|51:77,1,55,10|2,0:0|3:2,0:0:0:0:
31,43,70503,1,10,0:0:0:0:
138,65,70825,2,0,L|192:58,1,55,10|2,0:0|0:0,0:0:0:0:
246,47,71148,5,4,3:2:0:0:
340,104,71471,1,0,0:0:0:0:
243,156,71793,1,4,3:2:0:0:
337,213,72116,1,0,0:0:0:0:
240,265,72438,2,0,L|173:263,1,55,10|10,0:0|0:0,0:0:0:0:
147,223,72761,2,0,L|80:225,1,55,10|10,0:0|0:0,0:0:0:0:
46,255,73083,1,6,3:2:0:0:
27,363,73406,2,0,L|94:361,1,55,10|10,0:0|0:0,0:0:0:0:
135,348,73729,6,0,L|269:344,1,110,6|10,3:2|0:0,0:0:0:0:
349,377,74374,2,0,P|408:329|399:257,1,110,2|10,3:2|0:0,0:0:0:0:
394,247,74858,1,2,0:0:0:0:
394,247,75019,2,0,L|391:126,1,110,2|10,3:2|0:0,0:0:0:0:
299,76,75664,2,0,L|297:15,2,55,2|2|10,3:2|0:0|0:0,0:0:0:0:
264,119,76148,1,2,0:0:0:0:
264,119,76309,6,0,P|196:126|139:98,1,110,2|10,3:2|0:0,0:0:0:0:
62,57,76954,2,0,L|69:193,1,110,2|10,3:2|0:0,0:0:0:0:
62,221,77438,1,2,0:0:0:0:
62,221,77600,2,0,P|130:214|187:242,1,110,2|10,3:2|0:0,0:0:0:0:
228,320,78245,1,2,3:2:0:0:
277,222,78567,2,0,L|346:220,1,55,10|2,0:0|0:0,0:0:0:0:
385,236,78890,6,0,P|376:182|391:129,1,110,6|10,3:2|0:0,0:0:0:0:
488,182,79535,2,0,P|496:235|481:288,1,110,2|10,3:2|0:0,0:0:0:0:
436,320,80019,1,2,0:0:0:0:
436,320,80180,2,0,L|309:322,1,110,2|10,3:2|0:0,0:0:0:0:
218,345,80825,2,0,L|154:344,1,55,2|2,3:2|0:0,0:0:0:0:
110,326,81148,1,10,0:0:0:0:
51,232,81471,6,0,P|56:139|85:103,1,110,6|10,3:2|0:0,0:0:0:0:
147,55,82116,2,0,L|257:62,1,110,2|10,3:2|0:0,0:0:0:0:
334,139,82761,2,0,L|444:132,1,110,2|10,3:2|0:0,0:0:0:0:
495,111,83245,1,10,0:0:0:0:
495,111,83406,2,0,P|471:174|496:253,1,110,10|10,0:0|0:0,0:0:0:0:
493,267,83890,1,4,0:3:0:0:
493,267,84051,6,0,P|430:243|351:268,1,110,14|10,0:0|0:0,0:0:0:0:
298,310,84696,2,0,L|170:302,1,110,10|10,0:0|0:0,0:0:0:0:
133,307,85180,1,2,3:2:0:0:
133,307,85342,2,0,P|150:231|119:173,1,110,10|10,0:0|0:0,0:0:0:0:
100,165,85825,1,0,3:2:0:0:
100,165,85987,2,0,P|174:141|209:85,1,110,10|10,0:0|0:0,0:0:0:0:
228,14,86632,6,0,P|285:66|351:68,1,110,10|10,0:0|0:0,0:0:0:0:
414,26,87277,2,0,L|419:157,1,110,10|10,0:0|0:0,0:0:0:0:
439,243,87922,1,10,0:0:0:0:
343,295,88245,1,10,0:0:0:0:
264,220,88567,1,10,0:0:0:0:
168,272,88890,2,0,L|111:272,1,55,10|10,0:0|0:0,0:0:0:0:
60,286,89212,6,0,P|77:200|60:158,1,110,6|10,3:2|0:0,0:0:0:0:
47,72,89858,2,0,L|14:10,2,55,2|2|10,3:2|0:0|0:0,0:0:0:0:
90,106,90342,1,2,0:0:0:0:
90,106,90503,2,0,P|153:107|205:82,1,110,2|10,3:2|0:0,0:0:0:0:
234,49,90987,1,10,0:0:0:0:
234,49,91148,2,0,L|296:47,1,55,8|8,0:0|0:3,0:0:0:0:
330,83,91471,2,0,L|392:81,1,55,8|4,0:3|0:3,0:0:0:0:
430,48,91793,6,0,P|415:101|431:153,1,110,10|10,0:0|0:0,0:0:0:0:
482,173,92277,2,0,P|434:199|409:247,1,110,10|10,0:0|0:0,0:0:0:0:
431,297,92761,2,0,P|378:282|326:298,1,110,10|10,0:0|0:0,0:0:0:0:
306,348,93245,2,0,P|279:300|231:275,1,110,10|10,0:0|0:0,0:0:0:0:
181,297,93729,1,8,0:0:0:0:
107,378,94051,1,12,0:0:0:0:
73,273,94374,6,0,L|76:150,1,110,10|10,0:0|0:0,0:0:0:0:
57,109,94858,2,0,P|108:128|162:117,1,110,10|10,0:0|0:0,0:0:0:0:
208,88,95342,2,0,P|261:76|312:95,1,110,10|10,0:0|0:0,0:0:0:0:
338,144,95825,2,0,L|346:221,1,55,10|10,0:0|0:0,0:0:0:0:
349,253,96148,1,6,3:2:0:0:
