osu file format v14

[General]
AudioFilename: Roku-chou.mp3
AudioLeadIn: 0
PreviewTime: 52586
Countdown: 0
SampleSet: None
StackLeniency: 0.7
Mode: 3
LetterboxInBreaks: 0
SpecialStyle: 0
WidescreenStoryboard: 0

[Editor]
DistanceSpacing: 0.8
BeatDivisor: 4
GridSize: 8
TimelineZoom: 1.8

[Metadata]
Title:Six Trillion Years and Overnight Story
TitleUnicode:六兆年と一夜物語
Artist:Roselia
ArtistUnicode:Roselia
Creator:GottaGoFast
Version:Expert
Source:バンドリ! ガールズバンドパーティ!
Tags:bang dream! girls band party bandori game size rokuchou nen to ichiya monogatari a tale of six
BeatmapID:1682659
BeatmapSetID:801657

[Difficulty]
HPDrainRate:7
CircleSize:4
OverallDifficulty:8
ApproachRate:5
SliderMultiplier:1.4
SliderTickRate:1

[Events]
//Background and Video events
0,0,"bg.png",0,0
//Break Periods
//Storyboard Layer 0 (Background)
//Storyboard Layer 1 (Fail)
//Storyboard Layer 2 (Pass)
//Storyboard Layer 3 (Foreground)
//Storyboard Sound Samples

[TimingPoints]
335,322.5407,4,1,0,15,1,0
53231,-100,4,1,0,15,0,1
63230,-100,4,1,0,15,0,0
63875,-100,4,1,0,15,0,1
73874,-100,4,1,0,15,0,0
84195,-100,4,1,0,15,0,1
89356,-100,4,1,0,15,0,0

[HitObjects]
64,192,173,5,0,0:0:0:0:
320,192,536,1,0,0:0:0:0:
192,192,899,1,0,0:0:0:0:
320,192,1584,1,0,0:0:0:0:
448,192,1907,1,0,0:0:0:0:
192,192,2270,1,0,0:0:0:0:
320,192,3036,1,0,0:0:0:0:
192,192,3399,1,0,0:0:0:0:
192,192,3721,1,0,0:0:0:0:
64,192,4084,1,0,0:0:0:0:
64,192,4447,1,0,0:0:0:0:
192,192,4769,1,0,0:0:0:0:
320,192,5132,1,0,0:0:0:0:
64,192,5818,1,0,0:0:0:0:
192,192,6221,1,0,0:0:0:0:
320,192,6584,1,0,0:0:0:0:
192,192,6906,1,0,0:0:0:0:
448,192,7269,1,0,0:0:0:0:
192,192,7632,1,0,0:0:0:0:
320,192,7995,1,0,0:0:0:0:
64,192,8317,1,0,0:0:0:0:
192,192,8519,1,0,0:0:0:0:
448,192,8721,1,0,0:0:0:0:
64,192,8721,1,0,0:0:0:0:
320,192,9043,1,0,0:0:0:0:
192,0,9366,128,0,11462:1:0:0:0:
320,192,9366,1,0,0:0:0:0:
320,192,11623,1,0,0:0:0:0:
448,192,11704,1,0,0:0:0:0:
320,192,11785,1,0,0:0:0:0:
192,192,11865,1,0,0:0:0:0:
64,192,11946,1,0,0:0:0:0:
448,192,11946,1,0,0:0:0:0:
192,192,12107,1,0,0:0:0:0:
448,192,12107,1,0,0:0:0:0:
320,192,12269,1,0,0:0:0:0:
448,192,12430,1,0,0:0:0:0:
192,192,12591,1,0,0:0:0:0:
64,192,12672,1,0,0:0:0:0:
192,192,12752,1,0,0:0:0:0:
320,192,12833,1,0,0:0:0:0:
448,192,12914,1,0,0:0:0:0:
64,192,13075,1,0,0:0:0:0:
192,192,13236,1,0,0:0:0:0:
448,192,13236,1,0,0:0:0:0:
320,192,13397,1,0,0:0:0:0:
448,192,13397,1,0,0:0:0:0:
64,192,13559,1,0,0:0:0:0:
448,192,13720,1,0,0:0:0:0:
192,192,13881,1,0,0:0:0:0:
320,192,13962,1,0,0:0:0:0:
64,192,14042,1,0,0:0:0:0:
192,192,14123,1,0,0:0:0:0:
320,192,14204,1,0,0:0:0:0:
192,192,14365,1,0,0:0:0:0:
64,192,14526,1,0,0:0:0:0:
448,192,14526,1,0,0:0:0:0:
64,192,14688,1,0,0:0:0:0:
320,192,14688,1,0,0:0:0:0:
192,192,14849,1,0,0:0:0:0:
448,192,15010,1,0,0:0:0:0:
320,192,15171,1,0,0:0:0:0:
448,192,15252,1,0,0:0:0:0:
192,192,15333,1,0,0:0:0:0:
448,192,15413,1,0,0:0:0:0:
64,192,15494,1,0,0:0:0:0:
320,192,15655,1,0,0:0:0:0:
192,192,15816,1,0,0:0:0:0:
448,192,15816,1,0,0:0:0:0:
64,192,15978,1,0,0:0:0:0:
320,192,15978,1,0,0:0:0:0:
64,192,16139,1,0,0:0:0:0:
448,192,16139,1,0,0:0:0:0:
192,192,16220,1,0,0:0:0:0:
320,192,16300,1,0,0:0:0:0:
448,192,16300,1,0,0:0:0:0:
192,192,16462,1,0,0:0:0:0:
64,192,16623,1,0,0:0:0:0:
192,192,16623,1,0,0:0:0:0:
320,192,16703,1,0,0:0:0:0:
448,192,16703,1,0,0:0:0:0:
64,192,16784,1,0,0:0:0:0:
192,192,16784,1,0,0:0:0:0:
320,192,16865,1,0,0:0:0:0:
448,192,16865,1,0,0:0:0:0:
64,192,16945,1,0,0:0:0:0:
192,192,16945,1,0,0:0:0:0:
320,192,17026,1,0,0:0:0:0:
448,192,17026,1,0,0:0:0:0:
64,192,17107,1,0,0:0:0:0:
192,192,17107,1,0,0:0:0:0:
320,192,17268,1,0,0:0:0:0:
64,192,17429,1,0,0:0:0:0:
192,192,17429,1,0,0:0:0:0:
448,192,17590,1,0,0:0:0:0:
320,192,17752,1,0,0:0:0:0:
64,192,17832,1,0,0:0:0:0:
192,192,17913,1,0,0:0:0:0:
64,192,17994,1,0,0:0:0:0:
192,192,18074,1,0,0:0:0:0:
448,192,18074,1,0,0:0:0:0:
320,192,18236,1,0,0:0:0:0:
192,192,18397,1,0,0:0:0:0:
64,192,18558,1,0,0:0:0:0:
192,192,18719,1,0,0:0:0:0:
448,192,18719,1,0,0:0:0:0:
320,192,18881,1,0,0:0:0:0:
64,192,19042,1,0,0:0:0:0:
320,192,19122,1,0,0:0:0:0:
192,192,19203,1,0,0:0:0:0:
320,192,19284,1,0,0:0:0:0:
448,192,19364,1,0,0:0:0:0:
64,192,19364,1,0,0:0:0:0:
192,192,19364,1,0,0:0:0:0:
320,192,19526,1,0,0:0:0:0:
64,192,19687,1,0,0:0:0:0:
192,192,19687,1,0,0:0:0:0:
320,192,19768,1,0,0:0:0:0:
448,192,19768,1,0,0:0:0:0:
64,192,19848,1,0,0:0:0:0:
192,192,19848,1,0,0:0:0:0:
320,192,19929,1,0,0:0:0:0:
448,192,19929,1,0,0:0:0:0:
64,192,20009,1,0,0:0:0:0:
192,192,20009,1,0,0:0:0:0:
192,192,20171,1,0,0:0:0:0:
320,192,20171,1,0,0:0:0:0:
448,192,20251,1,0,0:0:0:0:
64,192,20251,1,0,0:0:0:0:
192,192,20332,1,0,0:0:0:0:
320,192,20332,1,0,0:0:0:0:
448,192,20413,1,0,0:0:0:0:
64,192,20413,1,0,0:0:0:0:
320,192,20493,1,0,0:0:0:0:
192,192,20493,1,0,0:0:0:0:
320,192,20655,1,0,0:0:0:0:
448,192,20655,1,0,0:0:0:0:
64,192,20735,1,0,0:0:0:0:
192,192,20735,1,0,0:0:0:0:
320,192,20816,1,0,0:0:0:0:
448,192,20816,1,0,0:0:0:0:
64,192,20896,1,0,0:0:0:0:
192,192,20896,1,0,0:0:0:0:
320,192,20977,1,0,0:0:0:0:
448,192,20977,1,0,0:0:0:0:
192,192,21138,1,0,0:0:0:0:
320,192,21138,1,0,0:0:0:0:
64,192,21219,1,0,0:0:0:0:
448,192,21219,1,0,0:0:0:0:
192,192,21300,1,0,0:0:0:0:
320,192,21300,1,0,0:0:0:0:
64,192,21380,1,0,0:0:0:0:
448,192,21380,1,0,0:0:0:0:
192,192,21461,1,0,0:0:0:0:
320,192,21461,1,0,0:0:0:0:
64,192,21622,1,0,0:0:0:0:
448,192,21945,1,0,0:0:0:0:
320,192,22267,1,0,0:0:0:0:
448,192,22267,1,0,0:0:0:0:
64,0,22267,128,0,23557:1:0:0:0:
192,192,22429,1,0,0:0:0:0:
320,192,22590,1,0,0:0:0:0:
192,192,22751,1,0,0:0:0:0:
320,192,22912,1,0,0:0:0:0:
448,192,23074,1,0,0:0:0:0:
192,192,23235,1,0,0:0:0:0:
320,192,23396,1,0,0:0:0:0:
192,192,23557,1,0,0:0:0:0:
448,0,23557,128,0,24848:1:0:0:0:
192,192,23719,1,0,0:0:0:0:
320,192,23880,1,0,0:0:0:0:
192,192,24041,1,0,0:0:0:0:
320,192,24203,1,0,0:0:0:0:
192,192,24364,1,0,0:0:0:0:
64,192,24525,1,0,0:0:0:0:
320,192,24686,1,0,0:0:0:0:
64,192,24848,1,0,0:0:0:0:
192,0,24848,128,0,26138:1:0:0:0:
320,192,25009,1,0,0:0:0:0:
448,192,25170,1,0,0:0:0:0:
320,192,25331,1,0,0:0:0:0:
320,192,25493,1,0,0:0:0:0:
448,192,25654,1,0,0:0:0:0:
64,192,25815,1,0,0:0:0:0:
320,192,25976,1,0,0:0:0:0:
448,192,26138,1,0,0:0:0:0:
64,0,26138,128,0,27428:1:0:0:0:
320,192,26299,1,0,0:0:0:0:
448,192,26460,1,0,0:0:0:0:
320,192,26622,1,0,0:0:0:0:
192,192,26783,1,0,0:0:0:0:
448,192,26863,1,0,0:0:0:0:
320,192,26944,1,0,0:0:0:0:
192,192,27025,1,0,0:0:0:0:
448,192,27105,1,0,0:0:0:0:
192,192,27267,1,0,0:0:0:0:
192,192,27428,1,0,0:0:0:0:
320,192,27428,1,0,0:0:0:0:
448,192,27589,1,0,0:0:0:0:
192,192,27589,1,0,0:0:0:0:
64,192,27750,1,0,0:0:0:0:
320,192,27750,1,0,0:0:0:0:
448,192,27912,1,0,0:0:0:0:
192,192,27912,1,0,0:0:0:0:
320,192,28073,1,0,0:0:0:0:
64,192,28073,1,0,0:0:0:0:
320,192,28234,1,0,0:0:0:0:
64,192,28234,1,0,0:0:0:0:
192,192,28396,1,0,0:0:0:0:
448,192,28396,1,0,0:0:0:0:
448,192,28557,1,0,0:0:0:0:
320,192,28557,1,0,0:0:0:0:
64,192,28718,1,0,0:0:0:0:
192,192,28718,1,0,0:0:0:0:
448,192,28879,1,0,0:0:0:0:
320,192,28879,1,0,0:0:0:0:
192,192,29041,1,0,0:0:0:0:
320,192,29041,1,0,0:0:0:0:
192,192,29202,1,0,0:0:0:0:
448,192,29202,1,0,0:0:0:0:
320,192,29363,1,0,0:0:0:0:
64,192,29363,1,0,0:0:0:0:
192,192,29524,1,0,0:0:0:0:
448,192,29524,1,0,0:0:0:0:
320,192,29686,1,0,0:0:0:0:
192,192,29686,1,0,0:0:0:0:
448,192,29847,1,0,0:0:0:0:
192,192,29847,1,0,0:0:0:0:
64,192,30008,1,0,0:0:0:0:
320,192,30008,1,0,0:0:0:0:
192,192,30170,1,0,0:0:0:0:
448,192,30170,1,0,0:0:0:0:
64,192,30331,1,0,0:0:0:0:
320,192,30331,1,0,0:0:0:0:
192,192,30492,1,0,0:0:0:0:
448,192,30492,1,0,0:0:0:0:
192,192,30653,1,0,0:0:0:0:
320,192,30653,1,0,0:0:0:0:
448,192,30815,1,0,0:0:0:0:
64,192,30815,1,0,0:0:0:0:
320,192,30976,1,0,0:0:0:0:
64,192,30976,1,0,0:0:0:0:
192,192,31137,1,0,0:0:0:0:
64,192,31137,1,0,0:0:0:0:
320,0,31460,128,0,31621:1:0:0:0:
64,0,31621,128,0,31782:1:0:0:0:
448,0,31782,128,0,31943:1:0:0:0:
64,0,31943,128,0,32105:1:0:0:0:
448,192,32105,128,0,32266:0:0:0:0:
64,192,32266,1,0,0:0:0:0:
192,192,32266,128,0,32427:0:0:0:0:
320,192,32427,128,0,32589:0:0:0:0:
64,192,32589,1,0,0:0:0:0:
192,192,32589,1,0,0:0:0:0:
448,192,32750,1,0,0:0:0:0:
192,192,32911,1,0,0:0:0:0:
320,192,32911,1,0,0:0:0:0:
64,192,33072,1,0,0:0:0:0:
320,192,33234,1,0,0:0:0:0:
448,192,33234,1,0,0:0:0:0:
64,192,33395,1,0,0:0:0:0:
192,192,33395,1,0,0:0:0:0:
192,192,33556,1,0,0:0:0:0:
320,192,33556,1,0,0:0:0:0:
448,192,33717,1,0,0:0:0:0:
64,192,33879,1,0,0:0:0:0:
192,192,33879,1,0,0:0:0:0:
64,192,34040,1,0,0:0:0:0:
192,192,34040,1,0,0:0:0:0:
320,192,34201,1,0,0:0:0:0:
448,192,34201,1,0,0:0:0:0:
64,192,34363,1,0,0:0:0:0:
192,192,34524,1,0,0:0:0:0:
320,192,34524,1,0,0:0:0:0:
64,192,34685,1,0,0:0:0:0:
320,192,34685,1,0,0:0:0:0:
192,192,34846,1,0,0:0:0:0:
448,192,34846,1,0,0:0:0:0:
320,192,35008,1,0,0:0:0:0:
64,192,35169,1,0,0:0:0:0:
448,192,35169,1,0,0:0:0:0:
320,192,35330,1,0,0:0:0:0:
64,192,35491,1,0,0:0:0:0:
192,192,35491,1,0,0:0:0:0:
320,192,35653,1,0,0:0:0:0:
64,192,35814,1,0,0:0:0:0:
448,192,35814,1,0,0:0:0:0:
192,192,35975,1,0,0:0:0:0:
320,192,35975,1,0,0:0:0:0:
320,192,36137,1,0,0:0:0:0:
448,192,36137,1,0,0:0:0:0:
192,192,36298,1,0,0:0:0:0:
64,192,36459,1,0,0:0:0:0:
320,192,36459,1,0,0:0:0:0:
64,192,36620,1,0,0:0:0:0:
192,192,36620,1,0,0:0:0:0:
64,192,36782,1,0,0:0:0:0:
320,192,36782,1,0,0:0:0:0:
448,192,36943,1,0,0:0:0:0:
192,192,37104,1,0,0:0:0:0:
320,192,37104,1,0,0:0:0:0:
192,192,37265,1,0,0:0:0:0:
448,192,37265,1,0,0:0:0:0:
64,192,37427,1,0,0:0:0:0:
320,192,37427,1,0,0:0:0:0:
192,192,37588,1,0,0:0:0:0:
64,192,37749,1,0,0:0:0:0:
192,192,37749,1,0,0:0:0:0:
448,192,37749,1,0,0:0:0:0:
320,192,37910,1,0,0:0:0:0:
64,192,38072,1,0,0:0:0:0:
448,192,38072,1,0,0:0:0:0:
192,192,38233,1,0,0:0:0:0:
320,192,38394,1,0,0:0:0:0:
448,192,38394,1,0,0:0:0:0:
64,192,38556,1,0,0:0:0:0:
192,192,38556,1,0,0:0:0:0:
320,192,38717,1,0,0:0:0:0:
448,192,38717,1,0,0:0:0:0:
192,192,38878,1,0,0:0:0:0:
64,192,39039,1,0,0:0:0:0:
192,192,39039,1,0,0:0:0:0:
320,192,39201,1,0,0:0:0:0:
448,192,39201,1,0,0:0:0:0:
64,192,39362,1,0,0:0:0:0:
192,192,39362,1,0,0:0:0:0:
320,192,39523,1,0,0:0:0:0:
64,192,39684,1,0,0:0:0:0:
448,192,39684,1,0,0:0:0:0:
64,192,39846,1,0,0:0:0:0:
192,192,39846,1,0,0:0:0:0:
320,192,40007,1,0,0:0:0:0:
448,192,40007,1,0,0:0:0:0:
192,192,40168,1,0,0:0:0:0:
64,192,40330,1,0,0:0:0:0:
192,192,40330,1,0,0:0:0:0:
448,192,40491,1,0,0:0:0:0:
192,192,40652,1,0,0:0:0:0:
320,192,40652,1,0,0:0:0:0:
64,192,40813,1,0,0:0:0:0:
320,192,40975,1,0,0:0:0:0:
448,192,40975,1,0,0:0:0:0:
192,192,41136,1,0,0:0:0:0:
448,192,41136,1,0,0:0:0:0:
64,192,41297,1,0,0:0:0:0:
320,192,41297,1,0,0:0:0:0:
192,192,41458,1,0,0:0:0:0:
320,192,41620,1,0,0:0:0:0:
448,192,41620,1,0,0:0:0:0:
192,192,41781,1,0,0:0:0:0:
320,192,41781,1,0,0:0:0:0:
64,192,41942,1,0,0:0:0:0:
448,192,41942,1,0,0:0:0:0:
192,192,42104,1,0,0:0:0:0:
320,192,42265,1,0,0:0:0:0:
192,192,42426,1,0,0:0:0:0:
320,192,42587,1,0,0:0:0:0:
448,192,42587,1,0,0:0:0:0:
64,192,42668,1,0,0:0:0:0:
192,192,42668,1,0,0:0:0:0:
320,192,42749,1,0,0:0:0:0:
448,192,42749,1,0,0:0:0:0:
64,192,42829,1,0,0:0:0:0:
192,192,42829,1,0,0:0:0:0:
64,192,42910,1,0,0:0:0:0:
320,192,42910,1,0,0:0:0:0:
448,192,42910,1,0,0:0:0:0:
320,192,43071,1,0,0:0:0:0:
64,192,43232,1,0,0:0:0:0:
192,192,43232,1,0,0:0:0:0:
64,192,43394,1,0,0:0:0:0:
320,192,43394,1,0,0:0:0:0:
448,192,43394,1,0,0:0:0:0:
192,192,43555,1,0,0:0:0:0:
64,192,43716,1,0,0:0:0:0:
320,192,43716,1,0,0:0:0:0:
64,192,43877,1,0,0:0:0:0:
192,192,43877,1,0,0:0:0:0:
448,192,43877,1,0,0:0:0:0:
64,192,44200,1,0,0:0:0:0:
192,192,44200,1,0,0:0:0:0:
192,192,44361,1,0,0:0:0:0:
320,192,44361,1,0,0:0:0:0:
448,192,44361,1,0,0:0:0:0:
64,192,44523,1,0,0:0:0:0:
448,192,44684,1,0,0:0:0:0:
320,192,44684,1,0,0:0:0:0:
192,192,44845,1,0,0:0:0:0:
64,192,44845,1,0,0:0:0:0:
320,192,45006,1,0,0:0:0:0:
192,192,45168,1,0,0:0:0:0:
448,192,45329,1,0,0:0:0:0:
64,192,45490,1,0,0:0:0:0:
192,192,45490,1,0,0:0:0:0:
320,192,45490,1,0,0:0:0:0:
448,192,45651,1,0,0:0:0:0:
192,192,45813,1,0,0:0:0:0:
320,192,45813,1,0,0:0:0:0:
64,192,45974,1,0,0:0:0:0:
320,192,45974,1,0,0:0:0:0:
448,192,45974,1,0,0:0:0:0:
192,192,46135,1,0,0:0:0:0:
192,192,46297,1,0,0:0:0:0:
320,192,46297,1,0,0:0:0:0:
64,192,46458,1,0,0:0:0:0:
192,192,46458,1,0,0:0:0:0:
448,192,46458,1,0,0:0:0:0:
192,192,46619,1,0,0:0:0:0:
320,192,46780,1,0,0:0:0:0:
448,192,46780,1,0,0:0:0:0:
192,192,46942,1,0,0:0:0:0:
64,192,46942,1,0,0:0:0:0:
64,192,47103,1,0,0:0:0:0:
320,192,47264,1,0,0:0:0:0:
192,192,47425,1,0,0:0:0:0:
320,192,47425,1,0,0:0:0:0:
448,192,47587,1,0,0:0:0:0:
320,192,47748,1,0,0:0:0:0:
448,192,47909,1,0,0:0:0:0:
64,192,48071,1,0,0:0:0:0:
192,192,48071,1,0,0:0:0:0:
320,192,48071,1,0,0:0:0:0:
64,192,48393,1,0,0:0:0:0:
192,192,48716,1,0,0:0:0:0:
448,192,49038,1,0,0:0:0:0:
192,192,49320,1,0,0:0:0:0:
64,192,49361,1,0,0:0:0:0:
320,192,49522,1,0,0:0:0:0:
448,192,49683,1,0,0:0:0:0:
448,192,49844,128,0,50651:0:0:0:0:
192,192,49844,1,0,0:0:0:0:
64,192,50006,1,0,0:0:0:0:
192,192,50167,1,0,0:0:0:0:
320,192,50328,1,0,0:0:0:0:
64,192,50409,1,0,0:0:0:0:
192,192,50490,1,0,0:0:0:0:
320,192,50570,1,0,0:0:0:0:
64,192,50651,1,0,0:0:0:0:
192,192,50651,1,0,0:0:0:0:
320,192,50812,1,0,0:0:0:0:
448,192,50812,1,0,0:0:0:0:
192,192,50973,1,0,0:0:0:0:
320,192,50973,1,0,0:0:0:0:
64,192,51135,1,0,0:0:0:0:
192,192,51135,1,0,0:0:0:0:
320,192,51296,1,0,0:0:0:0:
448,192,51296,1,0,0:0:0:0:
64,192,51457,1,0,0:0:0:0:
192,192,51457,1,0,0:0:0:0:
192,192,51618,1,0,0:0:0:0:
320,192,51618,1,0,0:0:0:0:
320,192,51780,1,0,0:0:0:0:
448,192,51780,1,0,0:0:0:0:
192,192,51941,1,0,0:0:0:0:
448,192,51941,1,0,0:0:0:0:
448,192,52586,1,0,0:0:0:0:
64,0,52586,128,0,52909:1:0:0:0:
448,192,52909,1,0,0:0:0:0:
320,192,52909,128,0,53231:0:0:0:0:
64,192,53231,1,0,0:0:0:0:
192,192,53231,1,0,0:0:0:0:
448,192,53231,1,0,0:0:0:0:
64,192,53554,1,0,0:0:0:0:
320,192,53554,1,0,0:0:0:0:
192,192,53715,1,0,0:0:0:0:
448,192,53876,1,0,0:0:0:0:
320,192,53957,1,0,0:0:0:0:
192,0,54118,128,0,54199:1:0:0:0:
64,192,54199,1,0,0:0:0:0:
320,192,54199,1,0,0:0:0:0:
448,192,54360,1,0,0:0:0:0:
192,192,54521,1,0,0:0:0:0:
320,192,54602,1,0,0:0:0:0:
320,0,54763,128,0,54844:1:0:0:0:
64,192,54844,1,0,0:0:0:0:
448,192,54844,1,0,0:0:0:0:
192,192,55005,1,0,0:0:0:0:
320,192,55166,1,0,0:0:0:0:
192,192,55328,1,0,0:0:0:0:
64,192,55489,1,0,0:0:0:0:
448,192,55489,1,0,0:0:0:0:
320,192,55650,1,0,0:0:0:0:
192,192,55812,1,0,0:0:0:0:
64,192,55973,1,0,0:0:0:0:
192,192,56134,1,0,0:0:0:0:
448,192,56134,1,0,0:0:0:0:
320,192,56295,1,0,0:0:0:0:
448,192,56457,1,0,0:0:0:0:
320,192,56618,1,0,0:0:0:0:
64,192,56779,1,0,0:0:0:0:
192,192,56779,1,0,0:0:0:0:
448,192,56940,1,0,0:0:0:0:
64,192,57102,1,0,0:0:0:0:
448,192,57263,1,0,0:0:0:0:
320,192,57424,1,0,0:0:0:0:
192,192,57424,1,0,0:0:0:0:
448,192,57424,1,0,0:0:0:0:
192,192,57585,1,0,0:0:0:0:
448,192,57747,1,0,0:0:0:0:
64,192,57908,1,0,0:0:0:0:
192,192,57908,1,0,0:0:0:0:
320,192,57989,1,0,0:0:0:0:
448,192,57989,1,0,0:0:0:0:
64,192,58069,1,0,0:0:0:0:
192,192,58069,1,0,0:0:0:0:
320,192,58231,1,0,0:0:0:0:
448,192,58231,1,0,0:0:0:0:
64,192,58311,1,0,0:0:0:0:
192,192,58311,1,0,0:0:0:0:
320,192,58392,1,0,0:0:0:0:
448,192,58392,1,0,0:0:0:0:
192,192,58553,1,0,0:0:0:0:
64,192,58714,1,0,0:0:0:0:
448,192,58714,1,0,0:0:0:0:
320,192,58876,1,0,0:0:0:0:
192,192,59037,1,0,0:0:0:0:
64,192,59198,1,0,0:0:0:0:
320,192,59359,1,0,0:0:0:0:
448,192,59359,1,0,0:0:0:0:
64,192,59521,1,0,0:0:0:0:
192,192,59682,1,0,0:0:0:0:
320,192,59843,1,0,0:0:0:0:
192,192,60005,1,0,0:0:0:0:
448,192,60005,1,0,0:0:0:0:
64,192,60166,1,0,0:0:0:0:
320,192,60327,1,0,0:0:0:0:
192,192,60488,1,0,0:0:0:0:
64,192,60650,1,0,0:0:0:0:
448,192,60650,1,0,0:0:0:0:
320,192,60811,1,0,0:0:0:0:
192,192,60892,1,0,0:0:0:0:
320,192,60972,1,0,0:0:0:0:
192,192,61133,1,0,0:0:0:0:
64,192,61214,1,0,0:0:0:0:
192,192,61295,1,0,0:0:0:0:
448,192,61295,1,0,0:0:0:0:
320,192,61456,1,0,0:0:0:0:
448,192,61537,1,0,0:0:0:0:
64,192,61617,1,0,0:0:0:0:
320,192,61617,1,0,0:0:0:0:
64,192,61779,1,0,0:0:0:0:
192,192,61779,1,0,0:0:0:0:
320,192,61859,1,0,0:0:0:0:
64,192,61940,1,0,0:0:0:0:
192,192,61940,1,0,0:0:0:0:
320,192,62101,1,0,0:0:0:0:
192,192,62182,1,0,0:0:0:0:
320,192,62262,128,0,62343:0:0:0:0:
448,192,62262,128,0,62343:0:0:0:0:
192,192,62424,128,0,62504:0:0:0:0:
64,192,62424,128,0,62504:0:0:0:0:
192,192,62585,128,0,62665:0:0:0:0:
448,192,62585,128,0,62665:0:0:0:0:
320,192,62746,128,0,62827:0:0:0:0:
64,192,62746,128,0,62827:0:0:0:0:
192,192,62907,128,0,62988:0:0:0:0:
320,192,62907,128,0,62988:0:0:0:0:
448,192,63230,1,0,0:0:0:0:
192,192,63391,1,0,0:0:0:0:
448,192,63552,1,0,0:0:0:0:
64,192,63875,1,0,0:0:0:0:
320,192,63875,1,0,0:0:0:0:
448,192,63875,1,0,0:0:0:0:
192,192,64036,1,0,0:0:0:0:
320,192,64198,1,0,0:0:0:0:
448,192,64198,1,0,0:0:0:0:
192,192,64278,1,0,0:0:0:0:
192,192,64439,1,0,0:0:0:0:
64,0,64439,128,0,64520:1:0:0:0:
320,192,64520,1,0,0:0:0:0:
448,192,64520,1,0,0:0:0:0:
192,192,64681,1,0,0:0:0:0:
320,192,64681,1,0,0:0:0:0:
64,192,64843,1,0,0:0:0:0:
448,192,64843,1,0,0:0:0:0:
320,192,64923,1,0,0:0:0:0:
448,192,65085,1,0,0:0:0:0:
320,0,65085,128,0,65165:1:0:0:0:
64,192,65165,1,0,0:0:0:0:
192,192,65165,1,0,0:0:0:0:
192,192,65326,1,0,0:0:0:0:
320,192,65326,1,0,0:0:0:0:
64,192,65488,1,0,0:0:0:0:
448,192,65488,1,0,0:0:0:0:
192,192,65649,1,0,0:0:0:0:
320,192,65649,1,0,0:0:0:0:
64,192,65810,1,0,0:0:0:0:
448,192,65810,1,0,0:0:0:0:
320,192,65972,1,0,0:0:0:0:
448,192,65972,1,0,0:0:0:0:
64,192,66133,1,0,0:0:0:0:
192,192,66133,1,0,0:0:0:0:
320,192,66294,1,0,0:0:0:0:
448,192,66294,1,0,0:0:0:0:
64,192,66455,1,0,0:0:0:0:
192,192,66455,1,0,0:0:0:0:
64,192,66617,1,0,0:0:0:0:
320,192,66617,1,0,0:0:0:0:
192,192,66778,1,0,0:0:0:0:
448,192,66778,1,0,0:0:0:0:
64,192,66939,1,0,0:0:0:0:
320,192,66939,1,0,0:0:0:0:
320,192,67100,1,0,0:0:0:0:
448,192,67100,1,0,0:0:0:0:
64,192,67181,1,0,0:0:0:0:
192,192,67262,1,0,0:0:0:0:
320,192,67342,1,0,0:0:0:0:
64,192,67423,1,0,0:0:0:0:
448,192,67423,1,0,0:0:0:0:
192,192,67423,1,0,0:0:0:0:
64,192,67746,1,0,0:0:0:0:
448,192,67746,1,0,0:0:0:0:
320,192,67746,1,0,0:0:0:0:
192,192,68068,1,0,0:0:0:0:
320,192,68068,1,0,0:0:0:0:
448,192,68068,1,0,0:0:0:0:
320,192,68391,1,0,0:0:0:0:
448,192,68391,1,0,0:0:0:0:
64,192,68471,1,0,0:0:0:0:
192,192,68552,1,0,0:0:0:0:
320,192,68632,1,0,0:0:0:0:
192,192,68713,1,0,0:0:0:0:
448,192,68713,1,0,0:0:0:0:
64,192,68713,1,0,0:0:0:0:
320,192,68874,1,0,0:0:0:0:
448,192,68874,1,0,0:0:0:0:
192,192,69036,1,0,0:0:0:0:
320,192,69036,1,0,0:0:0:0:
448,192,69036,1,0,0:0:0:0:
64,192,69197,1,0,0:0:0:0:
448,192,69197,1,0,0:0:0:0:
64,192,69358,1,0,0:0:0:0:
320,192,69358,1,0,0:0:0:0:
320,192,69519,1,0,0:0:0:0:
448,192,69519,1,0,0:0:0:0:
64,192,69681,1,0,0:0:0:0:
192,192,69681,1,0,0:0:0:0:
320,192,69842,1,0,0:0:0:0:
448,192,69842,1,0,0:0:0:0:
64,192,70003,1,0,0:0:0:0:
192,192,70003,1,0,0:0:0:0:
320,192,70165,1,0,0:0:0:0:
448,192,70165,1,0,0:0:0:0:
192,192,70326,1,0,0:0:0:0:
448,192,70326,1,0,0:0:0:0:
192,192,70487,1,0,0:0:0:0:
320,192,70487,1,0,0:0:0:0:
64,192,70648,1,0,0:0:0:0:
448,192,70648,1,0,0:0:0:0:
192,192,70810,1,0,0:0:0:0:
320,192,70810,1,0,0:0:0:0:
64,192,70971,1,0,0:0:0:0:
448,192,70971,1,0,0:0:0:0:
320,192,71132,1,0,0:0:0:0:
448,192,71132,1,0,0:0:0:0:
64,192,71293,1,0,0:0:0:0:
192,192,71293,1,0,0:0:0:0:
320,192,71293,1,0,0:0:0:0:
448,192,71455,1,0,0:0:0:0:
192,192,71535,1,0,0:0:0:0:
320,192,71616,1,0,0:0:0:0:
448,192,71777,1,0,0:0:0:0:
64,192,71858,1,0,0:0:0:0:
192,192,71939,1,0,0:0:0:0:
320,192,71939,1,0,0:0:0:0:
448,192,71939,1,0,0:0:0:0:
448,192,72100,1,0,0:0:0:0:
192,192,72180,1,0,0:0:0:0:
320,192,72261,1,0,0:0:0:0:
320,192,72422,1,0,0:0:0:0:
192,192,72503,1,0,0:0:0:0:
64,192,72584,1,0,0:0:0:0:
320,192,72584,1,0,0:0:0:0:
320,192,72745,1,0,0:0:0:0:
448,192,72745,1,0,0:0:0:0:
64,192,72906,1,0,0:0:0:0:
192,192,72906,1,0,0:0:0:0:
192,192,73067,1,0,0:0:0:0:
320,192,73067,1,0,0:0:0:0:
64,192,73229,1,0,0:0:0:0:
448,192,73229,1,0,0:0:0:0:
64,192,73551,1,0,0:0:0:0:
448,192,73551,1,0,0:0:0:0:
192,192,73632,1,0,0:0:0:0:
320,192,73632,1,0,0:0:0:0:
64,192,73713,1,0,0:0:0:0:
448,192,73713,1,0,0:0:0:0:
192,192,73793,1,0,0:0:0:0:
320,192,73793,1,0,0:0:0:0:
448,192,73874,1,0,0:0:0:0:
64,192,73874,128,0,74035:0:0:0:0:
320,192,73874,1,0,0:0:0:0:
192,192,74035,128,0,74196:0:0:0:0:
448,192,74196,128,0,74358:0:0:0:0:
320,192,74196,1,0,0:0:0:0:
192,192,74358,128,0,74519:0:0:0:0:
448,192,74519,128,0,74680:0:0:0:0:
320,192,74599,1,0,0:0:0:0:
64,192,74680,128,0,74841:0:0:0:0:
320,192,74761,1,0,0:0:0:0:
192,192,74841,128,0,75003:0:0:0:0:
448,192,74841,1,0,0:0:0:0:
320,192,75003,128,0,75164:0:0:0:0:
448,192,75164,128,0,75325:0:0:0:0:
192,192,75325,128,0,75486:0:0:0:0:
448,192,75486,128,0,75648:0:0:0:0:
64,192,75486,1,0,0:0:0:0:
192,192,75648,128,0,75809:0:0:0:0:
448,192,75809,128,0,75970:0:0:0:0:
64,192,75890,1,0,0:0:0:0:
320,192,75970,128,0,76132:0:0:0:0:
64,192,76051,1,0,0:0:0:0:
192,192,76132,128,0,76293:0:0:0:0:
448,192,76132,1,0,0:0:0:0:
64,192,76293,128,0,76454:0:0:0:0:
192,192,76454,128,0,76615:0:0:0:0:
320,192,76615,128,0,76777:0:0:0:0:
64,192,76777,128,0,76938:0:0:0:0:
448,192,76777,1,0,0:0:0:0:
192,192,76938,128,0,77099:0:0:0:0:
64,192,77099,128,0,77260:0:0:0:0:
448,192,77180,1,0,0:0:0:0:
192,192,77260,128,0,77422:0:0:0:0:
448,192,77341,1,0,0:0:0:0:
64,192,77422,128,0,77583:0:0:0:0:
320,192,77422,1,0,0:0:0:0:
320,192,77583,128,0,77744:0:0:0:0:
448,0,77744,128,0,77906:1:0:0:0:
192,192,77906,128,0,78067:0:0:0:0:
448,192,78067,128,0,78228:0:0:0:0:
64,192,78067,1,0,0:0:0:0:
320,192,78147,1,0,0:0:0:0:
192,192,78228,128,0,78389:0:0:0:0:
64,192,78309,1,0,0:0:0:0:
320,192,78389,128,0,78551:0:0:0:0:
448,192,78551,128,0,78712:0:0:0:0:
320,192,78712,128,0,78873:0:0:0:0:
192,192,78712,1,0,0:0:0:0:
64,192,78873,128,0,79034:0:0:0:0:
320,192,79034,128,0,79196:0:0:0:0:
448,192,79034,1,0,0:0:0:0:
64,192,79196,128,0,79357:0:0:0:0:
448,192,79357,128,0,79518:0:0:0:0:
192,192,79518,128,0,79680:0:0:0:0:
448,0,79680,128,0,79841:1:0:0:0:
320,192,79760,1,0,0:0:0:0:
192,192,79841,128,0,80002:0:0:0:0:
320,192,79921,1,0,0:0:0:0:
64,192,80002,128,0,80163:0:0:0:0:
448,192,80002,1,0,0:0:0:0:
320,192,80163,128,0,80325:0:0:0:0:
64,192,80325,128,0,80486:0:0:0:0:
192,192,80486,128,0,80647:0:0:0:0:
448,192,80647,128,0,80808:0:0:0:0:
320,192,80647,1,0,0:0:0:0:
64,192,80808,128,0,80970:0:0:0:0:
448,0,80970,128,0,81131:1:0:0:0:
192,192,81050,1,0,0:0:0:0:
320,192,81131,128,0,81292:0:0:0:0:
192,192,81212,1,0,0:0:0:0:
64,192,81292,128,0,81453:0:0:0:0:
448,192,81292,1,0,0:0:0:0:
192,192,81453,128,0,81615:0:0:0:0:
320,192,81615,128,0,81776:0:0:0:0:
448,192,81615,1,0,0:0:0:0:
64,192,81776,128,0,81937:0:0:0:0:
448,192,81937,128,0,82099:0:0:0:0:
192,192,81937,1,0,0:0:0:0:
192,192,82099,128,0,82260:0:0:0:0:
320,192,82260,128,0,82421:0:0:0:0:
64,192,82421,128,0,82582:0:0:0:0:
320,192,82582,128,0,82744:0:0:0:0:
448,192,82582,1,0,0:0:0:0:
448,192,82744,128,0,82905:0:0:0:0:
64,192,82905,128,0,83066:0:0:0:0:
320,192,83066,1,0,0:0:0:0:
448,192,83066,1,0,0:0:0:0:
64,192,83147,1,0,0:0:0:0:
192,192,83147,1,0,0:0:0:0:
320,192,83227,1,0,0:0:0:0:
448,192,83227,1,0,0:0:0:0:
64,192,83389,1,0,0:0:0:0:
192,192,83389,1,0,0:0:0:0:
320,192,83469,1,0,0:0:0:0:
448,192,83469,1,0,0:0:0:0:
64,192,83550,1,0,0:0:0:0:
192,192,83550,1,0,0:0:0:0:
64,192,83711,1,0,0:0:0:0:
192,192,83711,1,0,0:0:0:0:
320,192,83792,1,0,0:0:0:0:
448,192,83792,1,0,0:0:0:0:
64,192,83873,1,0,0:0:0:0:
192,192,83873,1,0,0:0:0:0:
192,192,84034,1,0,0:0:0:0:
448,192,84034,1,0,0:0:0:0:
320,192,84195,1,0,0:0:0:0:
448,192,84195,1,0,0:0:0:0:
64,192,84195,128,0,84356:0:0:0:0:
192,192,84356,1,0,0:0:0:0:
448,192,84356,1,0,0:0:0:0:
192,192,84518,1,0,0:0:0:0:
320,192,84518,1,0,0:0:0:0:
64,192,84518,128,0,84679:0:0:0:0:
320,192,84679,1,0,0:0:0:0:
448,192,84679,1,0,0:0:0:0:
320,192,84840,1,0,0:0:0:0:
64,192,84840,1,0,0:0:0:0:
448,192,84921,1,0,0:0:0:0:
192,192,85001,1,0,0:0:0:0:
320,192,85001,1,0,0:0:0:0:
448,192,85082,1,0,0:0:0:0:
192,192,85163,1,0,0:0:0:0:
320,192,85163,1,0,0:0:0:0:
192,192,85324,1,0,0:0:0:0:
448,192,85324,1,0,0:0:0:0:
320,192,85324,128,0,85485:0:0:0:0:
448,192,85485,1,0,0:0:0:0:
64,192,85485,128,0,85647:0:0:0:0:
192,192,85647,1,0,0:0:0:0:
320,192,85647,1,0,0:0:0:0:
320,192,85808,1,0,0:0:0:0:
448,192,85808,1,0,0:0:0:0:
64,192,85808,128,0,85969:0:0:0:0:
192,192,85969,1,0,0:0:0:0:
320,192,85969,1,0,0:0:0:0:
192,192,86130,1,0,0:0:0:0:
448,192,86130,1,0,0:0:0:0:
64,192,86211,1,0,0:0:0:0:
192,192,86292,1,0,0:0:0:0:
320,192,86292,1,0,0:0:0:0:
64,192,86372,1,0,0:0:0:0:
192,192,86453,1,0,0:0:0:0:
320,192,86453,1,0,0:0:0:0:
64,192,86614,1,0,0:0:0:0:
320,192,86614,1,0,0:0:0:0:
448,192,86614,128,0,86775:0:0:0:0:
64,192,86775,1,0,0:0:0:0:
192,192,86775,128,0,86937:0:0:0:0:
448,192,86937,1,0,0:0:0:0:
192,192,87098,1,0,0:0:0:0:
448,192,87098,128,0,87259:0:0:0:0:
320,192,87098,1,0,0:0:0:0:
64,192,87259,1,0,0:0:0:0:
320,192,87420,1,0,0:0:0:0:
448,192,87420,1,0,0:0:0:0:
192,192,87420,1,0,0:0:0:0:
64,192,87582,1,0,0:0:0:0:
192,192,87582,1,0,0:0:0:0:
448,192,87662,1,0,0:0:0:0:
192,192,87743,1,0,0:0:0:0:
320,192,87743,1,0,0:0:0:0:
192,192,87904,1,0,0:0:0:0:
64,192,87904,1,0,0:0:0:0:
448,192,87904,128,0,88066:0:0:0:0:
64,192,88066,1,0,0:0:0:0:
192,192,88066,128,0,88227:0:0:0:0:
448,192,88227,1,0,0:0:0:0:
320,192,88227,1,0,0:0:0:0:
320,192,88388,1,0,0:0:0:0:
448,192,88388,1,0,0:0:0:0:
64,192,88388,128,0,88549:0:0:0:0:
192,192,88549,1,0,0:0:0:0:
320,192,88549,1,0,0:0:0:0:
320,192,88711,1,0,0:0:0:0:
64,192,88711,1,0,0:0:0:0:
448,192,88711,128,0,88872:0:0:0:0:
192,192,88872,1,0,0:0:0:0:
320,192,89033,1,0,0:0:0:0:
64,192,89033,1,0,0:0:0:0:
448,192,89033,128,0,89194:0:0:0:0:
192,192,89114,1,0,0:0:0:0:
320,192,89194,1,0,0:0:0:0:
192,192,89275,1,0,0:0:0:0:
448,192,89356,1,0,0:0:0:0:
320,192,89356,1,0,0:0:0:0:
64,192,89356,1,0,0:0:0:0:
320,192,89517,1,0,0:0:0:0:
64,192,89678,1,0,0:0:0:0:
192,192,89678,1,0,0:0:0:0:
192,192,89840,1,0,0:0:0:0:
64,192,90001,1,0,0:0:0:0:
448,192,90081,1,0,0:0:0:0:
320,192,90162,1,0,0:0:0:0:
64,192,90243,1,0,0:0:0:0:
192,192,90323,1,0,0:0:0:0:
448,192,90323,1,0,0:0:0:0:
320,192,90485,1,0,0:0:0:0:
448,192,90646,1,0,0:0:0:0:
192,192,90807,1,0,0:0:0:0:
64,192,90968,1,0,0:0:0:0:
320,192,90968,1,0,0:0:0:0:
192,192,91049,1,0,0:0:0:0:
448,192,91130,1,0,0:0:0:0:
320,192,91210,1,0,0:0:0:0:
192,192,91291,1,0,0:0:0:0:
64,192,91372,1,0,0:0:0:0:
320,192,91452,1,0,0:0:0:0:
192,192,91533,1,0,0:0:0:0:
64,192,91614,1,0,0:0:0:0:
320,192,91694,1,0,0:0:0:0:
448,192,91775,1,0,0:0:0:0:
192,192,91855,1,0,0:0:0:0:
320,192,91936,1,0,0:0:0:0:
448,192,91936,1,0,0:0:0:0:
64,192,92017,1,0,0:0:0:0:
192,192,92017,1,0,0:0:0:0:
320,192,92097,1,0,0:0:0:0:
448,192,92097,1,0,0:0:0:0:
64,192,92178,1,0,0:0:0:0:
192,192,92178,1,0,0:0:0:0:
320,192,92259,1,0,0:0:0:0:
448,192,92259,1,0,0:0:0:0:
64,192,92420,1,0,0:0:0:0:
192,192,92420,1,0,0:0:0:0:
320,192,92501,1,0,0:0:0:0:
448,192,92501,1,0,0:0:0:0:
64,192,92581,1,0,0:0:0:0:
192,192,92581,1,0,0:0:0:0:
320,192,92662,1,0,0:0:0:0:
448,192,92662,1,0,0:0:0:0:
64,192,92742,1,0,0:0:0:0:
192,192,92742,1,0,0:0:0:0:
64,192,92904,1,0,0:0:0:0:
320,192,92904,1,0,0:0:0:0:
192,192,92984,1,0,0:0:0:0:
448,192,92984,1,0,0:0:0:0:
64,192,93065,1,0,0:0:0:0:
320,192,93065,1,0,0:0:0:0:
192,192,93146,1,0,0:0:0:0:
448,192,93146,1,0,0:0:0:0:
64,192,93226,1,0,0:0:0:0:
320,192,93226,1,0,0:0:0:0:
64,192,93408,1,0,0:0:0:0:
448,192,93408,1,0,0:0:0:0:
192,192,93468,1,0,0:0:0:0:
320,192,93468,1,0,0:0:0:0:
64,192,93549,1,0,0:0:0:0:
448,192,93549,1,0,0:0:0:0:
192,192,93650,1,0,0:0:0:0:
320,192,93650,1,0,0:0:0:0:
64,192,93710,1,0,0:0:0:0:
448,192,93710,1,0,0:0:0:0:
64,192,93871,1,0,0:0:0:0:
448,192,93952,1,0,0:0:0:0:
64,192,94033,1,0,0:0:0:0:
448,192,94113,1,0,0:0:0:0:
64,192,94194,1,0,0:0:0:0:
320,0,94516,128,0,94597:1:0:0:0:
192,0,94516,128,0,94597:1:0:0:0:
64,0,94597,128,0,94678:1:0:0:0:
448,0,94597,128,0,94678:1:0:0:0:
192,0,94678,128,0,94758:1:0:0:0:
320,0,94678,128,0,94758:1:0:0:0:
64,0,94758,128,0,94839:1:0:0:0:
448,0,94758,128,0,94839:1:0:0:0:
192,0,94839,128,0,94920:1:0:0:0:
320,0,94839,128,0,94920:1:0:0:0:
192,0,95000,128,0,95081:1:0:0:0:
64,0,95000,128,0,95081:1:0:0:0:
320,0,95081,128,0,95161:1:0:0:0:
448,0,95081,128,0,95161:1:0:0:0:
64,0,95161,128,0,95242:1:0:0:0:
192,0,95161,128,0,95242:1:0:0:0:
320,0,95242,128,0,95323:1:0:0:0:
448,0,95242,128,0,95323:1:0:0:0:
64,0,95323,128,0,95403:1:0:0:0:
192,0,95323,128,0,95403:1:0:0:0:
320,0,95484,128,0,95565:1:0:0:0:
448,0,95484,128,0,95565:1:0:0:0:
64,0,95565,128,0,95645:1:0:0:0:
192,0,95565,128,0,95645:1:0:0:0:
320,0,95645,128,0,95726:1:0:0:0:
448,0,95645,128,0,95726:1:0:0:0:
64,0,95726,128,0,95807:1:0:0:0:
192,0,95726,128,0,95807:1:0:0:0:
320,0,95807,128,0,95887:1:0:0:0:
448,0,95807,128,0,95887:1:0:0:0:
64,0,95968,128,0,96048:1:0:0:0:
192,0,95968,128,0,96048:1:0:0:0:
320,0,96048,128,0,96129:1:0:0:0:
448,0,96048,128,0,96129:1:0:0:0:
192,0,96129,128,0,96210:1:0:0:0:
64,0,96129,128,0,96210:1:0:0:0:
320,0,96210,128,0,96290:1:0:0:0:
448,0,96210,128,0,96290:1:0:0:0:
64,192,96290,1,0,0:0:0:0:
192,192,96290,1,0,0:0:0:0:
