osu file format v14

[General]
AudioFilename: audio.mp3
AudioLeadIn: 0
PreviewTime: 51589
Countdown: 0
SampleSet: Soft
StackLeniency: 0.6
Mode: 0
LetterboxInBreaks: 0
EpilepsyWarning: 1
WidescreenStoryboard: 1

[Editor]
Bookmarks: 11742,20819,32666,42512,86819,97896,107742,117589,122512,137281,171742,191435,211127,238204,252973,287435,312054
DistanceSpacing: 0.9
BeatDivisor: 2
GridSize: 32
TimelineZoom: 2.999999

[Metadata]
Title:Sing Alive
TitleUnicode:Sing Alive
Artist:Roselia
ArtistUnicode:Roselia
Creator:HeTo
Version:I sing, Alive
Source:BanG Dream! Episode of Roselia II : Song I am.
Tags:バンドリ! ガールズバンドパーティ! BanG Dream! Girls Band Party bandori japanese rock j-rock jrock video game anime garupa ガルパ ロゼリア film movie IAmWayneKing [Arcadia]
BeatmapID:3902542
BeatmapSetID:1893790

[Difficulty]
HPDrainRate:6
CircleSize:4.2
OverallDifficulty:9.4
ApproachRate:9.5
SliderMultiplier:1.82
SliderTickRate:1

[Events]
//Background and Video events
0,0,"123.jpg",0,0
//Break Periods
//Storyboard Layer 0 (Background)
//Storyboard Layer 1 (Fail)
//Storyboard Layer 2 (Pass)
//Storyboard Layer 3 (Foreground)
//Storyboard Layer 4 (Overlay)
//Storyboard Sound Samples

[TimingPoints]
658,307.692307692308,4,3,10,35,1,0
658,-416.666666666665,4,2,1,35,0,0
1119,-416.666666666665,4,2,1,35,0,0
2811,-416.666666666665,4,3,10,5,0,0
3119,-416.666666666665,4,2,1,35,0,0
3581,-416.666666666665,4,2,1,35,0,0
5273,-416.666666666665,4,3,10,5,0,0
5581,-416.666666666665,4,2,1,35,0,0
6042,-416.666666666665,4,2,1,35,0,0
7734,-416.666666666665,4,3,10,5,0,0
8042,-416.666666666665,4,2,1,35,0,0
8504,-416.666666666665,4,2,1,35,0,0
9273,-416.666666666665,4,2,5,45,0,0
11119,-80.6451612903226,4,3,10,55,0,0
11734,-96.1538461538461,4,3,10,65,0,0
19119,-80.6451612903226,4,3,10,65,0,0
19196,-80.6451612903226,4,3,11,65,0,0
19581,-80.6451612903226,4,3,10,65,0,0
19658,-80.6451612903226,4,3,11,65,0,0
20042,-80.6451612903226,4,3,10,65,0,0
20119,-80.6451612903226,4,3,11,65,0,0
20350,-69.4444444444444,4,3,10,65,0,0
20427,-69.4444444444444,4,3,11,65,0,0
20658,-69.4444444444444,4,3,10,65,0,0
20811,-57.4712643678161,4,3,10,65,0,0
20888,-57.4712643678161,4,3,10,5,0,0
21119,-294.117647058823,4,3,10,65,0,0
21196,-294.117647058823,4,2,1,65,0,0
22811,-185.185185185185,4,3,10,40,0,0
23273,-185.185185185185,4,2,1,40,0,0
23427,-185.185185185185,4,2,1,40,0,0
27734,-185.185185185185,4,3,10,40,0,0
27811,-185.185185185185,4,2,1,40,0,0
30119,-185.185185185185,4,3,10,5,0,0
30196,-185.185185185185,4,2,1,40,0,0
32196,-185.185185185185,4,3,10,50,0,0
32581,-185.185185185185,4,3,10,5,0,0
32658,-106.382978723404,4,3,10,55,0,0
41196,-106.382978723404,4,3,10,5,0,0
41273,-106.382978723404,4,3,10,55,0,0
41888,-80.6451612903224,4,3,20,65,0,0
41965,-80.6451612903224,4,3,11,65,0,0
42196,-80.6451612903224,4,3,12,65,0,0
42504,-96.1538461538461,4,3,10,65,0,0
42965,-96.1538461538461,4,3,14,65,0,0
43427,-96.1538461538461,4,3,15,65,0,0
43888,-96.1538461538461,4,3,10,65,0,0
45427,-96.1538461538461,4,3,14,65,0,0
45888,-96.1538461538461,4,3,15,65,0,0
46350,-96.1538461538461,4,3,10,65,0,0
47119,-96.1538461538461,4,3,10,65,0,0
47350,-96.1538461538461,4,3,10,5,0,0
47427,-227.272727272726,4,3,10,45,0,0
48042,-227.272727272726,4,2,1,45,0,0
48581,-227.272727272726,4,2,1,5,0,0
48658,-227.272727272726,4,2,1,45,0,0
49811,-227.272727272726,4,2,1,5,0,0
49888,-227.272727272726,4,2,1,45,0,0
51581,-416.666666666663,4,2,1,45,0,0
52273,-416.666666666663,4,2,1,5,0,0
52350,-89.2857142857143,4,3,10,75,0,1
57273,-75.7575757575758,4,3,10,75,0,1
57581,-89.2857142857143,4,3,10,75,0,1
65888,-75.7575757575758,4,3,10,75,0,1
66811,-65.7894736842105,4,3,10,75,0,1
67119,-89.2857142857143,4,3,10,75,0,1
72042,-75.7575757575758,4,3,10,75,0,1
72273,-89.2857142857143,4,3,10,5,0,1
72350,-89.2857142857143,4,3,10,75,0,1
80581,-89.2857142857143,4,3,10,5,0,1
80658,-89.2857142857143,4,3,10,75,0,1
82119,-89.2857142857143,4,3,10,5,0,1
82196,-89.2857142857143,4,3,10,75,0,1
82504,-89.2857142857143,4,3,30,75,0,1
82965,-89.2857142857143,4,3,10,75,0,1
83427,-89.2857142857143,4,3,30,75,0,1
84042,-89.2857142857143,4,3,10,75,0,1
84350,-75.7575757575758,4,3,10,75,0,1
84427,-75.7575757575758,4,3,11,75,0,1
84811,-75.7575757575758,4,3,10,75,0,1
84888,-75.7575757575758,4,3,11,75,0,1
85273,-75.7575757575758,4,3,10,75,0,1
85581,-138.888888888889,4,3,10,75,0,1
85658,-138.888888888889,4,2,1,75,0,1
86119,-138.888888888889,4,2,1,5,0,1
86196,-98.0392156862745,4,2,1,60,0,1
86811,-96.1538461538461,4,3,10,70,0,0
90811,-96.1538461538461,4,3,14,70,0,0
91734,-96.1538461538461,4,3,10,70,0,0
92350,-96.1538461538461,4,3,30,70,0,0
94196,-80.6451612903226,4,3,10,70,0,0
94273,-80.6451612903226,4,3,11,70,0,0
94658,-80.6451612903226,4,3,10,70,0,0
94734,-80.6451612903226,4,3,11,70,0,0
95119,-80.6451612903226,4,3,10,70,0,0
95196,-80.6451612903226,4,3,11,70,0,0
95427,-69.4444444444444,4,3,10,70,0,0
95888,-57.4712643678161,4,3,10,70,0,0
95965,-57.4712643678161,4,3,10,5,0,0
96196,-227.272727272727,4,3,10,70,0,0
97888,-119.047619047619,4,3,10,55,0,0
100042,-119.047619047619,4,3,11,55,0,0
100350,-119.047619047619,4,3,11,55,0,0
100504,-119.047619047619,4,3,10,55,0,0
104965,-119.047619047619,4,3,11,55,0,0
105273,-119.047619047619,4,3,10,55,0,0
107273,-96.1538461538461,4,3,10,55,0,0
107734,-106.382978723404,4,3,10,60,0,0
116965,-106.382978723404,4,3,20,60,0,0
117196,-106.382978723404,4,3,11,60,0,0
117427,-106.382978723404,4,3,12,60,0,0
117581,-106.382978723404,4,3,10,60,0,0
118119,-106.382978723404,4,3,11,60,0,0
118196,-106.382978723404,4,3,12,60,0,0
118504,-106.382978723404,4,3,10,60,0,0
119350,-106.382978723404,4,3,11,60,0,0
119427,-106.382978723404,4,3,12,60,0,0
119734,-106.382978723404,4,3,10,60,0,0
119965,-106.382978723404,4,3,10,5,0,0
120042,-106.382978723404,4,3,10,60,0,0
120581,-106.382978723404,4,3,11,60,0,0
120658,-106.382978723404,4,3,12,60,0,0
120965,-106.382978723404,4,3,10,60,0,0
121888,-96.153846153846,4,3,10,60,0,0
122196,-96.153846153846,4,3,11,60,0,0
122504,-96.153846153846,4,3,10,60,0,0
122965,-96.153846153846,4,3,14,60,0,0
123427,-96.153846153846,4,3,15,60,0,0
123888,-96.153846153846,4,3,10,60,0,0
125427,-96.153846153846,4,3,14,60,0,0
125888,-96.153846153846,4,3,15,60,0,0
126350,-96.153846153846,4,3,10,60,0,0
127350,-96.153846153846,4,3,10,5,0,0
127427,-106.382978723404,4,3,10,60,0,0
127965,-106.382978723404,4,3,11,60,0,0
128042,-106.382978723404,4,3,12,60,0,0
128350,-106.382978723404,4,3,10,60,0,0
129196,-106.382978723404,4,3,11,60,0,0
129273,-106.382978723404,4,3,12,60,0,0
129581,-106.382978723404,4,3,10,60,0,0
130427,-106.382978723404,4,3,11,60,0,0
130504,-106.382978723404,4,3,12,60,0,0
130811,-106.382978723404,4,3,10,60,0,0
132350,-119.047619047619,4,3,10,60,0,0
132504,-119.047619047619,4,3,10,40,0,0
132658,-119.047619047619,4,3,10,40,0,0
132965,-119.047619047619,4,3,10,45,0,0
133273,-119.047619047619,4,3,10,50,0,0
133581,-119.047619047619,4,3,10,55,0,0
133888,-119.047619047619,4,3,10,60,0,0
134196,-119.047619047619,4,3,10,65,0,0
134811,-119.047619047619,4,2,1,55,0,0
136658,-119.047619047619,4,3,10,55,0,0
136965,-96.1538461538461,4,3,10,55,0,0
137273,-89.2857142857143,4,3,10,75,0,1
150965,-89.2857142857143,4,3,10,40,0,1
151119,-108.695652173913,4,3,10,50,0,1
151427,-75.7575757575758,4,3,10,60,0,1
151734,-75.7575757575758,4,3,10,70,0,1
152042,-89.2857142857143,4,3,10,75,0,1
156965,-75.7575757575758,4,3,10,75,0,1
157196,-89.2857142857143,4,3,10,5,0,1
157273,-89.2857142857143,4,3,10,75,0,1
160888,-89.2857142857143,4,3,10,5,0,1
160965,-89.2857142857143,4,3,10,75,0,1
166196,-89.2857142857143,4,3,11,75,0,1
166273,-89.2857142857143,4,3,12,75,0,1
166350,-89.2857142857143,4,3,13,75,0,1
166427,-89.2857142857143,4,3,14,75,0,1
166504,-89.2857142857143,4,3,10,75,0,1
166734,-89.2857142857143,4,3,10,5,0,1
166811,-89.2857142857143,4,3,10,75,0,1
167350,-89.2857142857143,4,3,10,75,0,1
167427,-89.2857142857143,4,3,30,75,0,1
167888,-89.2857142857143,4,3,10,75,0,1
168195,-89.2857142857143,4,3,30,75,0,1
168965,-89.2857142857143,4,3,10,75,0,1
169273,-75.7575757575758,4,3,10,75,0,1
169734,-75.7575757575758,4,3,11,75,0,1
169888,-89.2857142857143,4,3,12,75,0,1
170042,-89.2857142857143,4,3,13,75,0,1
170196,-70.4225352112676,4,3,10,75,0,1
170504,-185.185185185185,4,3,10,55,0,0
170581,-185.185185185185,4,2,1,55,0,0
171734,-227.272727272727,4,3,10,40,0,0
171811,-227.272727272727,4,2,1,40,0,0
172196,-227.272727272727,4,2,1,40,0,0
176658,-227.272727272727,4,3,10,40,0,0
176734,-227.272727272727,4,2,1,40,0,0
177119,-227.272727272727,4,2,1,40,0,0
179119,-227.272727272727,4,3,10,40,0,0
179196,-227.272727272727,4,2,1,40,0,0
181581,-156.25,4,3,10,50,0,0
191427,-135.135135135135,4,3,10,55,0,0
211042,-135.135135135135,4,3,10,5,0,0
211119,-96.1538461538461,4,3,10,70,0,1
211581,-96.1538461538461,4,3,14,70,0,1
212042,-96.1538461538461,4,3,15,70,0,1
212504,-96.1538461538461,4,3,14,70,0,1
212965,-96.1538461538461,4,3,10,70,0,1
214042,-96.1538461538461,4,3,14,70,0,1
214504,-96.1538461538461,4,3,15,70,0,1
214965,-96.1538461538461,4,3,14,70,0,1
215427,-96.1538461538461,4,3,10,70,0,1
216504,-96.1538461538461,4,3,14,70,0,1
216965,-96.1538461538461,4,3,15,70,0,1
217435,-96.1538461538461,4,3,14,70,0,1
217888,-96.1538461538461,4,3,10,70,0,1
218965,-96.1538461538461,4,3,14,70,0,1
219427,-96.1538461538461,4,3,15,70,0,1
219734,-96.1538461538461,4,3,10,70,0,1
220888,-96.1538461538461,4,3,10,5,0,1
220965,-106.382978723404,4,3,10,70,0,0
223658,-106.382978723404,4,3,10,5,0,0
223734,-106.382978723404,4,3,10,70,0,0
225811,-106.382978723404,4,3,10,70,0,0
225888,-106.382978723404,4,3,10,70,0,0
226196,-106.382978723404,4,3,30,70,0,0
228273,-106.382978723404,4,3,10,5,0,0
228350,-106.382978723404,4,3,10,70,0,0
230273,-106.382978723404,4,3,11,70,0,0
230504,-106.382978723404,4,3,12,70,0,0
230811,-96.1538461538461,4,3,10,65,0,0
230965,-96.1538461538461,4,3,11,65,0,0
231273,-74.6268656716418,4,3,10,65,0,0
231350,-74.6268656716418,4,3,11,65,0,0
231734,-96.1538461538461,4,3,10,65,0,0
231888,-96.1538461538461,4,3,11,65,0,0
232196,-80.6451612903226,4,3,10,65,0,0
232273,-80.6451612903226,4,3,11,65,0,0
232658,-69.4444444444444,4,3,10,65,0,0
232965,-96.1538461538461,4,3,11,65,0,0
233119,-96.1538461538461,4,3,12,65,0,0
233273,-196.078431372549,4,3,10,65,0,0
233350,-196.078431372549,4,2,1,65,0,0
235734,-227.272727272727,4,2,5,65,0,0
238196,-227.272727272727,4,2,1,40,0,0
250504,-185.185185185185,4,2,1,40,0,0
252965,-89.2857142857143,4,3,10,85,0,1
257888,-72.992700729927,4,3,10,85,0,1
258196,-89.2857142857143,4,3,10,85,0,1
266504,-70.4225352112676,4,3,10,85,0,1
267734,-89.2857142857143,4,3,10,85,0,1
272504,-75.7575757575758,4,3,10,85,0,1
272965,-89.2857142857143,4,3,10,85,0,1
281888,-89.2857142857143,4,3,11,85,0,0
282196,-89.2857142857143,4,3,20,85,0,0
282504,-89.2857142857143,4,3,10,85,0,1
282734,-89.2857142857143,4,3,10,5,0,1
282811,-89.2857142857143,4,3,10,85,0,1
283119,-89.2857142857143,4,3,14,85,0,1
283734,-89.2857142857143,4,3,10,85,0,1
284042,-89.2857142857143,4,3,14,85,0,1
284350,-89.2857142857143,4,3,15,85,0,1
284658,-89.2857142857143,4,3,14,85,0,1
284965,-70.4225352112676,4,3,10,85,0,1
285042,-70.4225352112676,4,3,11,85,0,1
285427,-75.7575757575758,4,3,10,85,0,1
285504,-75.7575757575758,4,3,11,85,0,1
285888,-61.7283950617284,4,3,10,85,0,1
286196,-138.888888888889,4,3,10,85,0,0
286273,-138.888888888889,4,2,1,85,0,0
286734,-138.888888888889,4,2,1,5,0,0
286811,-98.0392156862745,4,2,1,75,0,0
287273,-98.0392156862745,4,3,10,75,0,0
287427,-89.2857142857143,4,3,10,85,0,1
296658,-89.2857142857143,4,3,10,85,0,1
297273,-89.2857142857143,4,3,10,85,0,0
297581,-89.2857142857143,4,3,10,75,0,1
297811,-89.2857142857143,4,3,10,5,0,1
297888,-89.2857142857143,4,3,10,75,0,1
302811,-89.2857142857143,4,3,30,75,0,1
304350,-89.2857142857143,4,3,10,75,0,1
304658,-70.4225352112676,4,3,10,75,0,1
304734,-70.4225352112676,4,3,11,75,0,1
305119,-70.4225352112676,4,3,10,75,0,1
305196,-70.4225352112676,4,3,11,75,0,1
305581,-70.4225352112676,4,3,10,75,0,1
306196,-65.7894736842105,4,3,10,75,0,1
306427,-65.7894736842105,4,3,10,75,0,1
306658,-222.222222222222,4,3,10,75,0,0
306734,-222.222222222222,4,2,1,75,0,0
307119,-222.222222222222,4,2,1,40,0,0
308273,-222.222222222222,4,3,5,5,0,0
308350,-222.222222222222,4,2,1,40,0,0
308965,-222.222222222222,4,2,1,38,0,0
309581,-222.222222222222,4,2,1,36,0,0
310196,-222.222222222222,4,2,1,33,0,0
310504,-222.222222222222,4,2,1,30,0,0
312042,-294.117647058823,4,3,10,5,0,0

[Colours]
Combo1 : 255,150,45
Combo2 : 247,30,122
Combo3 : 0,174,174
Combo4 : 215,133,250

[HitObjects]
225,45,658,5,2,0:0:0:0:
367,149,1119,1,2,0:0:0:0:
498,20,1581,2,0,B|378:32|439:60|333:72,1,174.720004265625,2|0,0:0|0:0,0:0:0:0:
334,72,3119,5,2,0:0:0:0:
458,211,3581,1,2,0:0:0:0:
356,318,4042,2,0,P|361:275|367:144,1,174.720004265625,2|0,0:0|0:0,0:0:0:0:
366,143,5581,5,2,0:0:0:0:
222,234,6042,1,2,0:0:0:0:
58,79,6504,2,0,B|171:91|117:119|223:131,1,174.720004265625,2|0,0:0|0:0,0:0:0:0:
222,130,8042,6,0,P|226:96|229:57,2,65.5200015996094,2|2|2,0:0|0:0|0:0,0:0:0:0:
147,155,9273,1,0,3:0:0:0:
147,232,9580,1,0,3:0:0:0:
222,257,9888,1,0,3:0:0:0:
266,194,10196,1,0,3:0:0:0:
266,194,11119,5,8,0:0:0:0:
210,192,11195,1,8,0:0:0:0:
164,224,11272,1,8,0:0:0:0:
145,276,11349,1,8,0:0:0:0:
160,329,11426,1,8,0:0:0:0:
204,364,11503,1,8,0:0:0:0:
259,367,11580,1,8,0:0:0:0:
306,336,11657,1,8,0:0:0:0:
326,285,11734,6,0,P|375:301|449:319,1,94.6399994223633,4|0,0:0|0:0,0:0:0:0:
266,194,12042,1,12,0:2:0:0:
157,119,12196,1,0,0:0:0:0:
157,119,12273,1,8,0:0:0:0:
157,119,12350,2,0,P|111:130|59:143,1,94.6399994223633,2|0,0:0|0:0,0:0:0:0:
245,270,12658,1,10,0:0:0:0:
374,89,12811,1,0,0:0:0:0:
296,38,12965,6,0,B|280:88|280:88|302:139,1,94.6399994223633,2|0,0:0|0:0,0:0:0:0:
488,275,13273,1,10,0:0:0:0:
348,384,13427,1,0,0:0:0:0:
348,384,13504,1,8,0:0:0:0:
348,384,13581,2,0,P|358:332|362:273,1,94.6399994223633,2|0,0:0|0:0,0:0:0:0:
475,174,13888,1,10,0:0:0:0:
296,38,14042,1,0,0:0:0:0:
391,0,14196,6,0,P|382:48|377:93,1,94.6399994223633,4|0,0:0|0:0,0:0:0:0:
219,248,14504,1,10,0:0:0:0:
52,72,14658,1,0,0:0:0:0:
52,72,14734,1,8,0:0:0:0:
52,72,14811,2,0,P|101:86|166:101,1,94.6399994223633,2|0,0:0|0:0,0:0:0:0:
329,238,15119,1,10,0:0:0:0:
116,344,15273,1,0,0:0:0:0:
104,323,15350,1,0,0:0:0:0:
115,302,15427,5,12,0:0:0:0:
350,376,15581,1,0,0:0:0:0:
131,214,15734,5,12,0:2:0:0:
390,193,15888,1,0,0:0:0:0:
116,128,16042,5,12,0:2:0:0:
373,12,16196,1,0,0:0:0:0:
241,330,16350,5,8,0:0:0:0:
241,330,16427,1,8,0:0:0:0:
241,330,16504,1,8,0:0:0:0:
241,330,16581,1,8,0:0:0:0:
241,330,16658,2,0,P|249:279|252:229,1,94.6399994223633,4|0,0:0|0:0,0:0:0:0:
6,9,16965,2,0,P|13:55|15:103,1,94.6399994223633,12|0,0:2|0:0,0:0:0:0:
90,109,17196,1,8,0:0:0:0:
96,101,17273,2,0,P|93:53|86:6,1,94.6399994223633,2|0,0:0|0:0,0:0:0:0:
261,162,17581,1,10,0:0:0:0:
406,16,17734,5,0,0:0:0:0:
406,16,17811,1,0,0:0:0:0:
406,16,17888,2,0,P|359:26|314:38,1,94.6399994223633,2|0,0:0|0:0,0:0:0:0:
115,243,18196,2,0,B|94:166|94:166|117:107|184:129,1,189.279998844727,10|2,0:0|0:0,0:0:0:0:
261,162,18658,1,0,0:0:0:0:
448,317,18811,2,0,P|401:327|356:339,1,94.6399994223633,10|0,0:0|0:0,0:0:0:0:
184,129,19119,5,8,0:0:0:0:
173,74,19196,1,8,0:0:0:0:
200,26,19273,1,8,0:0:0:0:
251,5,19350,1,8,0:0:0:0:
303,23,19427,2,0,P|313:93|319:109,1,56.4199977616578
127,274,19581,5,8,0:0:0:0:
78,299,19657,1,0,0:0:0:0:
25,283,19734,1,0,0:0:0:0:
0,234,19811,1,0,0:0:0:0:
17,182,19888,2,0,P|79:172|101:167,1,56.4199977616578
220,301,20042,1,8,0:0:0:0:
220,301,20119,1,8,0:0:0:0:
220,301,20196,2,0,P|267:309|303:320,1,56.4199977616578
512,168,20350,5,8,0:0:0:0:
457,133,20427,1,8,0:0:0:0:
391,140,20504,1,8,0:0:0:0:
356,195,20581,1,8,0:0:0:0:
365,260,20659,2,0,P|378:346|381:358,1,65.5200015996094,8|0,0:0|0:0,0:0:0:0:
135,120,20811,6,0,P|148:34|148:13,1,79.1700006644211,12|0,0:2|0:0,0:0:0:0:
147,42,21119,6,0,P|162:205|182:392,1,340.340002077271,4|4,0:0|0:0,0:0:0:0:
180,380,23273,5,2,0:0:0:0:
180,380,23427,2,0,P|217:374|297:362,1,98.2800023994141,2|0,0:0|0:0,0:0:0:0:
128,326,23888,2,0,P|90:335|14:349,1,98.2800023994141,2|0,0:0|0:0,0:0:0:0:
185,220,24350,2,0,B|276:232|243:254|345:264,1,147.420003599121,2|0,0:0|0:0,0:0:0:0:
391,227,24965,1,2,0:0:0:0:
391,227,25119,1,2,0:0:0:0:
475,340,25273,6,0,P|482:301|485:228,1,98.2800023994141,2|0,0:0|0:0,0:0:0:0:
432,80,25734,2,0,P|434:129|442:177,1,98.2800023994141,2|0,0:0|0:0,0:0:0:0:
442,177,26350,2,0,B|382:175|411:163|334:158,1,98.2800023994141,2|0,0:0|0:0,0:0:0:0:
261,261,26811,2,0,B|241:172|263:199|239:100,1,147.420003599121,2|0,0:0|0:0,0:0:0:0:
242,115,27427,1,2,0:0:0:0:
179,259,27581,5,0,3:0:0:0:
179,259,27658,1,0,3:0:0:0:
179,259,27734,2,0,P|129:270|69:292,1,98.2800023994141,4|0,0:1|0:0,0:0:0:0:
332,211,28196,2,0,P|378:226|426:237,1,98.2800023994141,2|0,0:0|0:0,0:0:0:0:
426,237,28811,2,0,P|433:188|403:146,1,98.2800023994141,2|0,0:0|0:0,0:0:0:0:
319,294,29273,2,0,P|370:305|418:321,1,98.2800023994141,2|0,0:0|0:0,0:0:0:0:
199,141,29888,6,0,P|206:186|212:232,1,73.7100017995606,2|0,0:0|0:0,0:0:0:0:
209,213,30196,6,0,P|162:228|114:238,1,98.2800023994141,2|0,0:2|0:0,0:0:0:0:
287,105,30658,2,0,P|297:56|312:10,1,98.2800023994141,2|0,0:0|0:0,0:0:0:0:
129,126,31119,1,2,0:0:0:0:
129,126,31273,2,0,B|245:132|194:192|326:198,1,196.560004798828,2|2,0:0|0:0,0:0:0:0:
307,196,32196,5,0,0:0:0:0:
307,196,32273,1,0,0:0:0:0:
307,196,32350,2,0,P|303:247|300:281,1,73.7100017995606,8|0,0:0|0:0,0:0:0:0:
301,269,32658,6,0,B|300:157|273:206|277:86,1,171.079997389526,4|10,0:0|0:0,0:0:0:0:
151,231,33119,1,0,0:0:0:0:
30,97,33273,2,0,P|79:110|137:115,1,85.5399986947632,2|0,0:0|0:0,0:0:0:0:
25,206,33581,5,10,0:0:0:0:
165,60,33734,2,0,P|160:131|148:258,1,171.079997389526
354,369,34196,2,0,P|352:293|259:268,1,171.079997389526,10|2,0:0|0:0,0:0:0:0:
206,298,34658,1,0,0:0:0:0:
390,176,34811,2,0,P|435:189|481:200,1,85.5399986947632,10|0,0:0|0:0,0:0:0:0:
291,333,35119,6,0,P|302:249|305:162,1,171.079997389526,6|10,0:2|0:0,0:0:0:0:
137,0,35581,2,0,P|138:45|144:91,1,85.5399986947632,0|2,0:0|0:0,0:0:0:0:
217,24,35888,1,0,0:0:0:0:
390,176,36042,2,0,P|395:133|396:90,1,85.5399986947632,10|0,0:0|0:0,0:0:0:0:
382,22,36273,5,8,0:0:0:0:
376,13,36350,1,2,0:0:0:0:
201,191,36504,1,0,0:0:0:0:
60,64,36658,2,0,P|109:79|168:87,1,85.5399986947632,10|0,0:0|0:0,0:0:0:0:
307,237,36965,6,0,B|260:245|260:245|235:262|235:262|178:273,1,128.309998042145,2|0,0:0|0:0,0:0:0:0:
124,314,37273,1,10,0:0:0:0:
310,227,37427,1,0,0:0:0:0:
226,359,37581,6,0,P|221:297|197:177,1,171.079997389526,4|10,0:0|0:0,0:0:0:0:
402,351,38042,2,0,P|347:344|309:332,1,85.5399986947632,0|2,0:0|0:0,0:0:0:0:
120,237,38350,1,0,0:0:0:0:
281,193,38504,5,10,0:0:0:0:
137,323,38658,2,0,P|80:326|39:228,1,171.079997389526
171,22,39119,2,0,P|178:78|187:124,1,85.5399986947632,10|0,0:0|0:0,0:0:0:0:
301,245,39427,1,2,0:0:0:0:
301,245,39581,1,0,0:0:0:0:
406,85,39734,1,10,0:0:0:0:
288,152,39888,5,0,0:0:0:0:
288,152,39965,1,0,0:0:0:0:
288,152,40042,2,0,B|333:129|379:156|379:156|404:196|470:192,1,171.079997389526,6|10,0:0|0:0,0:0:0:0:
176,52,40504,2,0,P|105:70|-26:94,1,171.079997389526
174,268,40965,2,0,B|211:220|211:220|177:146,1,128.309998042145,10|0,0:0|0:0,0:0:0:0:
182,158,41273,6,0,P|142:168|81:181,1,85.5399986947632,2|0,0:0|0:0,0:0:0:0:
423,33,41581,2,0,P|463:43|524:56,1,85.5399986947632,12|0,0:0|0:0,0:0:0:0:
321,229,41888,6,0,P|310:166|302:133,1,56.4199977616578,10|8,0:1|0:0,0:0:0:0:
141,3,42042,1,8,0:0:0:0:
141,3,42119,1,8,0:0:0:0:
141,3,42196,6,0,P|201:24|233:34,1,56.4199977616578,8|8,0:0|0:0,0:0:0:0:
465,145,42350,2,0,P|438:154|412:164,1,56.4199977616578,8|8,0:0|0:0,0:0:0:0:
215,340,42504,5,12,0:0:0:0:
358,97,42658,1,0,0:0:0:0:
218,330,42811,1,0,0:0:0:0:
221,93,42965,5,12,0:1:0:0:
353,343,43119,1,0,0:0:0:0:
224,103,43272,1,0,0:0:0:0:
37,344,43427,6,0,P|89:333|137:323,1,94.6399994223633,12|0,0:1|0:0,0:0:0:0:
344,180,43734,1,0,0:0:0:0:
124,50,43888,6,0,P|134:114|141:166,1,94.6399994223633,12|0,0:2|0:0,0:0:0:0:
353,343,44196,1,0,0:0:0:0:
464,96,44350,5,12,0:0:0:0:
178,225,44504,1,0,0:0:0:0:
468,353,44658,5,12,0:2:0:0:
166,224,44811,1,0,0:0:0:0:
346,79,44965,5,12,0:0:0:0:
220,298,45119,1,0,0:0:0:0:
90,81,45273,1,0,0:0:0:0:
361,345,45427,5,12,0:1:0:0:
204,138,45581,1,0,0:0:0:0:
109,374,45735,1,0,0:0:0:0:
395,193,45888,6,0,P|353:207|287:220,1,94.6399994223633,12|0,0:1|0:0,0:0:0:0:
10,121,46196,1,0,0:0:0:0:
109,374,46350,6,0,P|115:326|120:260,1,94.6399994223633,12|0,0:2|0:0,0:0:0:0:
234,38,46658,1,0,0:0:0:0:
300,343,46811,5,12,0:0:0:0:
12,205,46965,1,0,0:0:0:0:
300,343,47119,6,0,B|359:329|359:329|379:312|379:312|437:300,1,141.959999133545,12|0,0:2|0:0,0:0:0:0:
506,329,47427,5,4,0:0:0:0:
9,13,48042,5,2,0:0:0:0:
9,13,48350,2,0,P|14:56|16:85,1,60.0600018328858,2|0,0:0|0:0,0:0:0:0:
2,146,48658,1,2,0:0:0:0:
506,329,49273,5,2,0:0:0:0:
506,329,49581,2,0,P|511:286|513:257,1,60.0600018328858,2|0,0:0|0:0,0:0:0:0:
512,269,49888,5,6,0:2:0:0:
436,256,50042,1,2,0:0:0:0:
414,329,50196,1,2,0:0:0:0:
419,339,50504,1,2,0:0:0:0:
424,348,50811,5,2,0:0:0:0:
276,236,50965,1,2,0:0:0:0:
277,249,51273,5,2,0:0:0:0:
423,145,51427,1,2,0:0:0:0:
349,108,51581,5,2,0:0:0:0:
349,108,51734,2,0,B|335:149|335:149|353:182,1,76.440001866211
361,190,52350,5,4,0:0:0:0:
150,63,52504,2,0,P|102:77|51:88,1,101.920001244141,0|10,0:0|0:0,0:0:0:0:
222,288,52811,1,0,0:0:0:0:
222,288,52888,1,8,0:0:0:0:
222,288,52965,2,0,P|227:238|235:171,1,101.920001244141,2|0,0:0|0:0,0:0:0:0:
117,247,53273,1,10,0:0:0:0:
299,384,53427,6,0,B|324:339|324:339|309:278,1,101.920001244141,0|2,0:0|0:0,0:0:0:0:
116,151,53734,1,0,0:0:0:0:
319,31,53888,1,10,0:0:0:0:
232,186,54042,1,0,0:0:0:0:
232,186,54119,1,8,0:0:0:0:
232,186,54196,2,0,P|223:133|216:77,1,101.920001244141,2|0,0:0|0:0,0:0:0:0:
317,124,54504,1,10,0:0:0:0:
99,266,54658,5,0,0:0:0:0:
87,249,54734,1,0,0:0:0:0:
96,230,54811,1,6,0:0:0:0:
216,85,54965,1,0,0:0:0:0:
85,0,55119,2,0,P|93:50|100:100,1,101.920001244141,10|0,0:0|0:0,0:0:0:0:
134,166,55350,1,8,0:0:0:0:
142,173,55427,2,0,B|190:193|190:193|235:171,1,101.920001244141,2|0,0:0|0:0,0:0:0:0:
19,334,55734,1,10,0:0:0:0:
19,334,56042,6,0,P|27:283|32:233,1,101.920001244141,2|0,0:0|0:0,0:0:0:0:
32,232,56350,1,10,0:0:0:0:
200,60,56504,1,0,0:0:0:0:
200,60,56581,1,8,0:0:0:0:
200,60,56658,2,0,P|249:72|303:82,1,101.920001244141,2|0,0:0|0:0,0:0:0:0:
101,269,56965,5,14,0:2:0:0:
299,81,57119,1,8,0:0:0:0:
299,81,57196,1,8,0:0:0:0:
299,81,57273,2,0,B|149:86|239:170|61:177,1,240.239999266846,4|12,0:0|0:1,0:0:0:0:
392,307,57734,1,0,0:0:0:0:
392,307,57811,1,8,0:0:0:0:
392,307,57888,2,0,P|475:326|520:331,1,101.920001244141,4|0,0:1|0:0,0:0:0:0:
450,229,58196,5,12,0:1:0:0:
250,380,58350,2,0,P|259:328|272:159,1,203.840002488281
392,307,58811,1,12,0:1:0:0:
177,165,58965,1,0,0:0:0:0:
177,165,59042,1,8,0:0:0:0:
177,165,59119,1,4,0:1:0:0:
390,56,59273,1,0,0:0:0:0:
271,177,59427,1,12,0:1:0:0:
84,8,59581,5,0,0:0:0:0:
84,8,59658,1,0,0:0:0:0:
84,8,59734,2,0,P|137:25|212:35,1,101.920001244141,6|0,0:2|0:0,0:0:0:0:
27,246,60042,2,0,P|15:191|-13:121,1,101.920001244141,12|0,0:1|0:0,0:0:0:0:
72,117,60273,1,8,0:0:0:0:
79,120,60350,2,0,P|96:167|109:220,1,101.920001244141,4|0,0:1|0:0,0:0:0:0:
303,341,60658,2,0,P|328:305|312:243,1,101.920001244141,12|0,0:1|0:0,0:0:0:0:
119,355,60965,6,0,P|63:370|7:382,1,101.920001244141,4|0,0:1|0:0,0:0:0:0:
176,198,61273,1,12,0:0:0:0:
303,341,61427,1,0,0:0:0:0:
176,198,61581,6,0,P|168:131|162:88,1,101.920001244141,4|8,0:2|0:0,0:0:0:0:
137,21,61811,1,8,0:0:0:0:
147,15,61888,1,8,0:0:0:0:
196,6,61964,1,8,0:0:0:0:
240,30,62041,1,8,0:0:0:0:
259,76,62118,1,8,0:0:0:0:
245,124,62196,6,0,B|174:102|131:151|131:151|112:199|42:196,1,203.840002488281,4|14,0:0|0:2,0:0:0:0:
269,355,62658,1,0,0:0:0:0:
269,355,62734,1,8,0:0:0:0:
269,355,62811,2,0,P|277:288|278:239,1,101.920001244141,2|0,0:0|0:0,0:0:0:0:
161,323,63119,5,10,0:0:0:0:
283,245,63273,2,0,B|357:260|357:260|400:295|400:295|496:310,1,203.840002488281
271,129,63734,1,10,0:0:0:0:
271,129,63888,1,0,0:0:0:0:
454,233,64042,1,2,0:0:0:0:
242,374,64196,1,0,0:0:0:0:
361,204,64350,1,10,0:0:0:0:
464,378,64504,1,0,0:0:0:0:
442,374,64581,1,0,0:0:0:0:
421,371,64658,5,12,0:2:0:0:
242,295,64811,1,0,0:0:0:0:
454,233,64965,5,12,0:0:0:0:
217,219,65119,1,0,0:0:0:0:
441,96,65273,5,8,0:0:0:0:
155,172,65427,1,0,0:0:0:0:
325,0,65581,5,12,0:2:0:0:
76,171,65734,1,0,0:0:0:0:
346,307,65888,5,8,0:0:0:0:
357,249,65964,1,8,0:0:0:0:
324,200,66041,1,8,0:0:0:0:
267,188,66119,1,8,0:0:0:0:
217,219,66196,2,0,P|228:291|232:310,1,60.0599998167114
76,384,66350,2,0,P|72:354|68:324,1,60.0599998167114,8|8,0:0|0:0,0:0:0:0:
7,108,66504,5,8,0:0:0:0:
54,73,66581,1,8,0:0:0:0:
111,83,66658,1,8,0:0:0:0:
143,132,66734,1,0,0:0:0:0:
130,189,66811,2,0,P|50:205|30:209,1,69.1599991557617,8|8,0:0|0:0,0:0:0:0:
312,20,66965,2,0,B|343:28|383:36,1,69.1599991557617,8|8,0:0|0:0,0:0:0:0:
486,198,67119,5,4,0:0:0:0:
196,23,67273,2,0,B|152:35|70:51,1,101.920001244141,0|12,0:0|0:2,0:0:0:0:
294,261,67581,2,0,B|298:215|313:133,1,101.920001244141,0|2,0:0|0:0,0:0:0:0:
160,209,67888,1,0,0:0:0:0:
363,372,68042,1,10,0:0:0:0:
160,209,68196,6,0,B|116:221|34:237,1,101.920001244141,0|2,0:0|0:0,0:0:0:0:
306,64,68504,2,0,B|290:120|290:120|314:173,1,101.920001244141,0|10,0:0|0:0,0:0:0:0:
456,291,68811,1,0,0:0:0:0:
373,118,68965,1,2,0:0:0:0:
298,272,69119,1,0,0:0:0:0:
480,159,69273,1,10,0:0:0:0:
234,11,69427,5,8,0:0:0:0:
234,11,69504,1,8,0:0:0:0:
234,11,69581,2,0,P|189:23|119:35,1,101.920001244141,4|0,0:0|0:0,0:0:0:0:
437,231,69888,2,0,B|454:179|468:137|468:137|425:89|360:124,1,203.840002488281,10|2,0:0|0:0,0:0:0:0:
305,172,70350,1,0,0:0:0:0:
132,290,70504,2,0,B|105:248|105:248|116:198,1,101.920001244141,10|0,0:0|0:0,0:0:0:0:
301,304,70811,6,0,B|176:305|240:370|85:374,1,203.840002488281,2|10,0:0|0:0,0:0:0:0:
114,372,71273,1,0,0:0:0:0:
266,101,71427,5,14,0:2:0:0:
312,114,71503,1,8,0:0:0:0:
329,161,71580,1,8,0:0:0:0:
304,208,71657,1,8,0:0:0:0:
291,213,71734,5,8,0:0:0:0:
241,245,71812,1,8,0:0:0:0:
227,301,71889,1,8,0:0:0:0:
257,352,71966,1,8,0:0:0:0:
304,372,72042,6,0,B|359:364|359:364|413:333|413:333|476:324,1,180.179999450134,4|0,0:0|0:0,0:0:0:0:
473,334,72350,1,12,0:2:0:0:
192,180,72504,2,0,P|129:196|74:206,1,101.920001244141,0|4,0:0|0:1,0:0:0:0:
387,36,72811,2,0,P|436:46|486:58,1,101.920001244141,0|12,0:0|0:1,0:0:0:0:
311,226,73119,6,0,P|300:176|293:125,1,101.920001244141,0|4,0:0|0:1,0:0:0:0:
411,206,73427,1,0,0:0:0:0:
234,351,73581,1,12,0:1:0:0:
411,206,73734,2,0,P|460:216|510:228,1,101.920001244141,0|4,0:0|0:1,0:0:0:0:
203,51,74042,2,0,P|153:63|103:73,1,101.920001244141,0|12,0:0|0:1,0:0:0:0:
311,226,74350,5,0,0:0:0:0:
311,226,74427,1,0,0:0:0:0:
311,226,74504,2,0,B|300:102|337:161|322:16,2,203.840002488281,6|12|4,0:0|0:1|0:1,0:0:0:0:
389,179,75273,1,0,0:0:0:0:
203,51,75427,1,12,0:1:0:0:
203,51,75734,6,0,P|153:63|103:73,1,101.920001244141,4|0,0:1|0:0,0:0:0:0:
254,266,76042,2,0,P|303:276|353:287,1,101.920001244141,12|0,0:2|0:0,0:0:0:0:
242,163,76350,1,0,0:0:0:0:
102,324,76504,1,8,0:0:0:0:
102,324,76581,1,8,0:0:0:0:
102,324,76658,1,8,0:0:0:0:
53,335,76734,1,8,0:0:0:0:
11,309,76811,1,8,0:0:0:0:
1,260,76888,1,8,0:0:0:0:
27,219,76965,6,0,P|87:236|137:244,1,101.920001244141,4|0,0:0|0:0,0:0:0:0:
291,56,77273,2,0,P|217:52|153:171,1,203.840002488281,12|2,0:2|0:0,0:0:0:0:
341,287,77734,1,0,0:0:0:0:
238,140,77888,5,10,0:0:0:0:
56,309,78042,2,0,B|109:270|162:300|162:300|184:348|258:337,1,203.840002488281
448,168,78504,2,0,P|391:180|320:192,1,101.920001244141,10|0,0:0|0:0,0:0:0:0:
358,262,78734,1,8,0:0:0:0:
365,269,78811,2,0,P|414:258|464:249,1,101.920001244141,2|0,0:0|0:0,0:0:0:0:
323,112,79119,1,10,0:0:0:0:
162,314,79273,5,0,0:0:0:0:
162,314,79350,1,0,0:0:0:0:
162,314,79427,2,0,B|137:268|137:268|158:194,1,101.920001244141,4|0,0:0|0:0,0:0:0:0:
333,11,79734,2,0,P|327:81|323:121,1,101.920001244141,10|0,0:0|0:0,0:0:0:0:
319,186,79965,1,8,0:0:0:0:
318,201,80042,1,2,0:0:0:0:
180,25,80196,1,0,0:0:0:0:
391,140,80350,2,0,P|320:151|209:176,1,152.880001866211,10|0,0:0|0:0,0:0:0:0:
232,174,80658,5,2,0:0:0:0:
377,287,80811,1,0,0:0:0:0:
251,384,80965,2,0,P|261:317|264:258,1,101.920001244141,12|0,0:0|0:0,0:0:0:0:
452,35,81273,2,0,P|456:85|464:136,1,101.920001244141,2|0,0:0|0:0,0:0:0:0:
497,206,81581,1,12,0:2:0:0:
266,49,81734,5,0,0:0:0:0:
266,49,81811,1,0,0:0:0:0:
266,49,81888,2,0,B|207:58|207:58|177:82|177:82|115:93,1,152.880001866211,4|0,0:0|0:0,0:0:0:0:
123,91,82196,2,0,B|92:49|92:49|104:0,1,101.920001244141,12|0,0:2|0:2,0:0:0:0:
242,125,82427,1,8,0:0:0:0:
244,135,82504,2,0,P|238:202|234:252,1,101.920001244141,6|0,0:1|0:0,0:0:0:0:
83,371,82811,5,14,0:1:0:0:
239,245,82965,2,0,P|293:255|358:380,1,203.840002488281
115,236,83427,2,0,P|126:171|130:121,1,101.920001244141,14|0,0:1|0:0,0:0:0:0:
319,0,83734,1,6,0:1:0:0:
216,165,83888,1,0,0:0:0:0:
68,0,84042,2,0,P|129:17|177:25,1,101.920001244141,14|0,0:2|0:0,0:0:0:0:
445,197,84350,5,8,0:0:0:0:
465,141,84426,1,8,0:0:0:0:
441,89,84503,1,8,0:0:0:0:
385,70,84580,1,8,0:0:0:0:
333,97,84658,2,0,P|340:174|342:187,1,60.0599998167114
178,321,84811,5,8,0:0:0:0:
132,357,84888,1,8,0:0:0:0:
75,347,84965,1,8,0:0:0:0:
46,296,85041,1,8,0:0:0:0:
68,241,85119,2,0,P|118:234|156:223,1,60.0599998167114
253,63,85273,5,8,0:0:0:0:
257,127,85349,1,8,0:0:0:0:
263,193,85426,1,8,0:0:0:0:
269,258,85503,1,8,0:0:0:0:
274,324,85581,6,0,B|136:314|210:251|56:240,1,229.320005598633,4|0,0:0|0:0,0:0:0:0:
70,320,86196,6,0,B|249:311|158:226|332:219,1,278.460001699585,2|0,0:2|0:0,0:0:0:0:
425,299,86734,5,2,0:0:0:0:
435,298,86811,2,0,B|453:250|453:250|433:196,1,94.6399994223633,4|0,0:0|0:0,0:0:0:0:
210,62,87119,1,10,0:0:0:0:
318,2,87273,1,0,0:0:0:0:
318,2,87350,1,8,0:0:0:0:
318,2,87427,2,0,P|314:80|311:108,1,94.6399994223633,2|0,0:0|0:0,0:0:0:0:
190,256,87734,1,10,0:0:0:0:
50,106,87888,1,0,0:0:0:0:
175,163,88042,6,0,P|123:179|71:191,1,94.6399994223633,2|0,0:0|0:0,0:0:0:0:
263,296,88350,1,10,0:0:0:0:
364,341,88504,1,0,0:0:0:0:
364,341,88581,1,8,0:0:0:0:
364,341,88658,2,0,P|409:352|456:363,1,94.6399994223633,2|0,0:0|0:0,0:0:0:0:
275,174,88965,1,10,0:0:0:0:
133,376,89119,1,0,0:0:0:0:
275,174,89273,6,0,P|282:100|283:63,1,94.6399994223633,4|0,0:0|0:0,0:0:0:0:
341,246,89581,1,10,0:0:0:0:
93,130,89734,1,0,0:0:0:0:
93,130,89811,1,8,0:0:0:0:
93,130,89888,2,0,P|139:123|185:113,1,94.6399994223633,2|0,0:0|0:0,0:0:0:0:
438,240,90196,1,10,0:0:0:0:
253,373,90350,1,0,0:0:0:0:
254,354,90427,1,0,0:0:0:0:
256,334,90504,5,12,0:0:0:0:
391,80,90658,1,0,0:0:0:0:
143,278,90811,5,12,0:1:0:0:
452,148,90965,1,0,0:0:0:0:
116,165,91119,5,12,0:1:0:0:
438,240,91273,1,0,0:0:0:0:
203,28,91427,5,8,0:2:0:0:
203,28,91504,1,8,0:2:0:0:
203,28,91581,1,8,0:2:0:0:
203,28,91658,1,8,0:2:0:0:
203,28,91734,6,0,P|208:85|212:125,1,94.6399994223633,4|0,0:0|0:0,0:0:0:0:
368,266,92042,1,12,0:2:0:0:
288,328,92196,1,0,0:0:0:0:
288,328,92273,1,8,0:0:0:0:
288,328,92350,2,0,B|266:282|266:282|284:238,1,94.6399994223633,6|0,0:1|0:0,0:0:0:0:
457,87,92658,1,14,0:1:0:0:
368,266,92811,1,0,0:0:0:0:
194,80,92965,6,0,P|243:92|289:102,1,94.6399994223633,2|0,0:1|0:0,0:0:0:0:
489,302,93273,2,0,B|435:310|435:310|408:335|408:335|342:346,1,141.959999133545,14|0,0:1|0:0,0:0:0:0:
344,338,93581,1,6,0:1:0:0:
150,197,93734,1,0,0:0:0:0:
368,266,93888,1,14,0:1:0:0:
142,339,94042,1,0,0:0:0:0:
369,97,94196,5,8,0:0:0:0:
421,81,94272,1,8,0:0:0:0:
469,107,94349,1,8,0:0:0:0:
483,160,94427,1,8,0:0:0:0:
455,208,94504,2,0,P|393:197|364:197,1,56.4199977616578
139,89,94658,5,8,0:0:0:0:
85,73,94734,1,8,0:0:0:0:
38,102,94811,1,8,0:0:0:0:
26,155,94888,1,8,0:0:0:0:
57,200,94965,2,0,P|119:189|148:189,1,56.4199977616578
255,28,95119,5,8,0:0:0:0:
290,49,95196,1,8,0:0:0:0:
300,92,95272,1,8,0:0:0:0:
280,131,95349,1,8,0:0:0:0:
244,146,95427,5,8,0:0:0:0:
193,185,95503,1,0,0:0:0:0:
180,249,95580,1,0,0:0:0:0:
211,307,95657,1,0,0:0:0:0:
273,329,95734,1,8,0:0:0:0:
139,89,95888,2,0,P|96:102|32:110,1,79.1700006644211,12|0,0:2|0:0,0:0:0:0:
62,107,96196,6,0,P|235:143|421:191,1,360.360010997315,12|2,0:0|0:0,0:0:0:0:
60,325,97888,5,4,0:0:0:0:
60,325,98196,2,0,P|70:266|71:230,1,76.4399976672364,2|0,0:0|0:0,0:0:0:0:
121,107,98504,2,0,P|131:166|132:202,1,76.4399976672364,2|0,0:0|0:0,0:0:0:0:
172,246,98811,1,2,0:0:0:0:
277,326,98965,6,0,B|377:313|321:288|440:278,1,152.879995334473
261,157,99427,2,0,P|219:158|186:273,1,152.879995334473,2|2,0:0|0:0,0:0:0:0:
172,246,99888,1,0,0:0:0:0:
261,157,100042,1,4,0:0:0:0:
215,96,100196,1,0,0:0:0:0:
261,157,100350,6,0,P|307:168|422:191,1,152.879995334473,4|2,0:0|0:0,0:0:0:0:
336,95,100811,2,0,B|325:181|349:147|333:249,1,152.879995334473
344,321,101273,1,2,0:0:0:0:
187,203,101427,6,0,P|142:210|23:241,1,152.879995334473
91,66,101888,2,0,P|99:120|107:157,1,76.4399976672364,2|0,0:0|0:0,0:0:0:0:
260,252,102196,2,0,B|272:214|272:214|256:170,1,76.4399976672364,2|0,0:0|0:0,0:0:0:0:
364,18,102504,1,2,0:0:0:0:
408,85,102658,1,0,0:0:0:0:
364,18,102811,6,0,B|306:29|306:29|272:53|272:53|202:68,1,152.879995334473,6|2,0:0|0:0,0:0:0:0:
55,7,103273,2,0,P|106:16|155:21,1,76.4399976672364,0|2,0:0|0:0,0:0:0:0:
330,133,103581,2,0,P|292:139|255:148,1,76.4399976672364,0|2,0:0|0:0,0:0:0:0:
82,205,103888,6,0,P|69:154|142:96,1,152.879995334473
249,226,104350,2,0,B|149:236|203:277|95:291,1,152.879995334473,2|2,0:0|0:0,0:0:0:0:
113,288,104811,1,0,0:0:0:0:
249,226,104965,1,4,0:0:0:0:
202,161,105119,1,0,0:0:0:0:
249,226,105273,6,0,P|245:288|239:382,1,152.879995334473,4|0,0:0|0:0,0:0:0:0:
363,165,105734,2,0,P|311:130|232:78,1,152.879995334473
361,289,106196,1,2,0:0:0:0:
361,289,106350,2,0,P|416:261|501:219,1,152.879995334473
367,88,106811,2,0,P|365:135|361:177,1,76.4399976672364,6|0,0:2|0:0,0:0:0:0:
498,306,107119,1,0,0:0:0:0:
257,120,107273,5,8,0:0:0:0:
257,120,107350,1,8,0:0:0:0:
257,120,107427,1,8,0:0:0:0:
211,111,107503,1,8,0:0:0:0:
171,134,107580,1,8,0:0:0:0:
155,177,107657,1,8,0:0:0:0:
172,220,107734,6,0,P|221:229|276:249,1,85.5399986947632,4|0,0:0|0:0,0:0:0:0:
458,60,108042,2,0,P|417:72|375:79,1,85.5399986947632,10|0,0:0|0:0,0:0:0:0:
422,148,108350,1,2,0:0:0:0:
246,0,108504,2,0,P|255:54|259:97,1,85.5399986947632,0|10,0:0|0:0,0:0:0:0:
125,273,108811,6,0,P|70:276|34:175,1,171.079997389526,8|0,0:0|0:0,0:0:0:0:
262,93,109273,2,0,B|321:107|321:107|352:132|352:132|444:152,1,171.079997389526,10|2,0:0|0:0,0:0:0:0:
231,244,109734,1,0,0:0:0:0:
392,352,109888,1,10,0:0:0:0:
329,236,110042,5,0,0:0:0:0:
329,236,110119,1,0,0:0:0:0:
329,236,110196,2,0,P|321:310|313:349,1,85.5399986947632,4|0,0:0|0:0,0:0:0:0:
265,384,110504,1,10,0:0:0:0:
508,294,110658,2,0,P|465:288|423:277,1,85.5399986947632,0|2,0:0|0:0,0:0:0:0:
167,199,110965,2,0,P|208:188|250:182,1,85.5399986947632,0|10,0:0|0:0,0:0:0:0:
418,26,111273,6,0,P|477:43|490:147,1,171.079997389526,8|0,0:0|0:0,0:0:0:0:
336,265,111734,2,0,P|348:212|355:165,1,85.5399986947632,10|0,0:0|0:0,0:0:0:0:
425,273,112042,1,2,0:0:0:0:
425,273,112196,1,0,0:0:0:0:
250,182,112350,1,10,0:0:0:0:
429,102,112504,1,0,0:0:0:0:
250,182,112658,6,0,P|212:190|155:201,1,85.5399986947632,4|0,0:0|0:0,0:0:0:0:
326,84,112965,1,10,0:0:0:0:
209,0,113119,2,0,P|214:47|222:88,1,85.5399986947632,0|2,0:0|0:0,0:0:0:0:
349,271,113427,1,0,0:0:0:0:
349,271,113734,6,0,B|413:280|413:280|450:303|450:303|528:312,1,171.079997389526,8|0,0:0|0:0,0:0:0:0:
226,166,114196,2,0,B|162:175|162:175|125:198|125:198|47:207,1,171.079997389526,10|2,0:0|0:0,0:0:0:0:
203,312,114658,1,0,0:0:0:0:
124,368,114811,2,0,B|105:332|105:332|123:287,1,85.5399986947632,10|0,0:0|0:0,0:0:0:0:
316,157,115119,6,0,P|303:249|294:335,1,171.079997389526,4|10,0:0|0:0,0:0:0:0:
62,205,115581,2,0,P|56:162|176:121,1,171.079997389526
6,260,116042,5,10,0:0:0:0:
157,114,116196,2,0,P|216:126|267:137,1,85.5399986947632,8|0,0:0|0:0,0:0:0:0:
78,10,116504,1,0,0:0:0:0:
282,65,116657,5,10,0:0:0:0:
62,205,116811,1,0,0:0:0:0:
282,65,116965,2,0,B|330:73|330:73|356:91|356:91|427:103,1,128.309998042145,10|8,0:1|0:0,0:0:0:0:
411,92,117273,1,8,0:0:0:0:
210,233,117427,1,8,0:0:0:0:
363,354,117581,6,0,B|368:313|368:313|351:271,1,85.5399986947632,4|0,0:0|0:0,0:0:0:0:
291,322,117888,1,10,0:0:0:0:
126,251,118042,1,0,0:0:0:0:
126,251,118119,1,8,0:0:0:0:
126,251,118196,2,0,P|168:243|211:232,1,85.5399986947632,8|0,0:0|0:0,0:0:0:0:
411,169,118504,5,10,0:0:0:0:
295,40,118658,2,0,B|291:148|318:88|310:224,1,171.079997389526
489,8,119119,2,0,P|437:19|382:25,1,85.5399986947632,10|0,0:0|0:0,0:0:0:0:
418,94,119350,1,8,0:0:0:0:
422,101,119427,2,0,P|463:91|505:85,1,85.5399986947632,8|0,0:0|0:0,0:0:0:0:
304,214,119734,2,0,P|241:199|178:189,1,128.309998042145,10|0,0:0|0:0,0:0:0:0:
178,189,120042,6,0,P|187:135|191:92,1,85.5399986947632,4|0,0:0|0:0,0:0:0:0:
304,214,120350,1,10,0:0:0:0:
120,300,120504,1,0,0:0:0:0:
120,300,120581,1,8,0:0:0:0:
120,300,120658,2,0,P|169:311|217:326,1,85.5399986947632,8|0,0:0|0:0,0:0:0:0:
32,211,120965,5,10,0:0:0:0:
204,328,121119,2,0,B|91:333|142:374|27:382,1,171.079997389526
318,259,121581,2,0,P|371:269|420:278,1,85.5399986947632,10|0,0:0|0:0,0:0:0:0:
190,84,121888,5,8,0:0:0:0:
145,73,121964,1,8,0:0:0:0:
104,95,122042,1,8,0:0:0:0:
91,139,122119,1,8,0:0:0:0:
111,181,122196,1,8,0:0:0:0:
129,176,122272,1,8,0:0:0:0:
147,172,122350,1,8,0:0:0:0:
166,168,122427,1,8,0:0:0:0:
184,164,122504,5,12,0:0:0:0:
389,261,122658,1,0,0:0:0:0:
172,371,122811,1,0,0:0:0:0:
486,151,122965,5,12,0:1:0:0:
281,275,123119,1,0,0:0:0:0:
494,371,123273,1,0,0:0:0:0:
359,86,123427,6,0,P|364:133|372:179,1,94.6399994223633,12|0,0:1|0:0,0:0:0:0:
253,371,123734,1,0,0:0:0:0:
72,172,123888,6,0,P|118:184|165:190,1,94.6399994223633,12|0,0:2|0:0,0:0:0:0:
395,299,124196,1,0,0:0:0:0:
126,309,124350,5,12,0:0:0:0:
372,179,124504,1,0,0:0:0:0:
123,51,124658,5,12,0:2:0:0:
386,178,124811,1,0,0:0:0:0:
255,359,124965,5,12,0:0:0:0:
342,107,125119,1,0,0:0:0:0:
492,341,125273,1,0,0:0:0:0:
212,73,125427,5,12,0:1:0:0:
380,278,125581,1,0,0:0:0:0:
443,33,125735,1,0,0:0:0:0:
209,257,125888,5,12,0:1:0:0:
497,138,126042,1,0,0:0:0:0:
220,252,126196,1,0,0:0:0:0:
512,248,126350,5,12,0:2:0:0:
215,141,126504,1,0,0:0:0:0:
500,243,126658,1,0,0:0:0:0:
372,374,126811,5,12,0:0:0:0:
372,374,126888,1,0,0:0:0:0:
372,374,126965,1,0,0:0:0:0:
372,374,127042,1,0,0:0:0:0:
372,374,127119,2,0,P|379:322|380:217,1,141.959999133545,12|0,0:2|0:0,0:0:0:0:
380,232,127427,6,0,P|325:246|280:253,1,85.5399986947632,4|0,0:0|0:0,0:0:0:0:
136,40,127734,2,0,P|190:45|239:133,1,128.309998042145,10|8,0:0|0:0,0:0:0:0:
236,98,128042,2,0,P|230:149|224:199,1,85.5399986947632,8|0,0:0|0:0,0:0:0:0:
307,134,128350,5,10,0:0:0:0:
87,221,128504,2,0,B|199:226|146:273|262:280,1,171.079997389526
97,384,128965,2,0,P|105:335|107:291,1,85.5399986947632,10|0,0:0|0:0,0:0:0:0:
246,185,129196,1,8,0:0:0:0:
254,193,129273,2,0,P|246:242|244:286,1,85.5399986947632,8|0,0:0|0:0,0:0:0:0:
82,122,129581,1,14,0:2:0:0:
82,122,129888,5,4,0:0:0:0:
244,277,130042,1,0,0:0:0:0:
403,105,130196,2,0,P|350:120|310:127,1,85.5399986947632,10|0,0:0|0:0,0:0:0:0:
420,245,130427,1,8,0:0:0:0:
427,253,130504,2,0,P|469:260|509:274,1,85.5399986947632,8|0,0:0|0:0,0:0:0:0:
480,184,130811,5,10,0:0:0:0:
338,333,130965,2,0,B|297:352|260:357|260:357|219:324|232:261,1,171.079997389526
308,40,131427,2,0,P|313:88|320:126,1,85.5399986947632,12|0,0:2|0:0,0:0:0:0:
427,253,131734,1,0,0:0:0:0:
185,110,131888,5,8,0:0:0:0:
185,110,131965,1,8,0:0:0:0:
185,110,132042,1,8,0:0:0:0:
143,101,132118,1,8,0:0:0:0:
107,122,132195,1,8,0:0:0:0:
94,162,132272,1,8,0:0:0:0:
110,200,132350,6,0,P|146:210|195:219,1,76.4399976672364,0|8,0:0|0:0,0:0:0:0:
151,357,132658,2,0,P|141:322|124:275,1,76.4399976672364,0|8,0:0|0:0,0:0:0:0:
269,242,132965,2,0,P|243:267|211:305,1,76.4399976672364,0|8,0:0|0:0,0:0:0:0:
299,328,133273,1,0,0:0:0:0:
184,217,133427,1,8,0:0:0:0:
151,357,133581,5,8,0:0:0:0:
357,200,133734,1,8,0:0:0:0:
118,144,133888,1,8,0:0:0:0:
299,328,134042,1,8,0:0:0:0:
118,129,134196,5,8,0:0:0:0:
10,380,134350,1,8,0:0:0:0:
289,230,134504,1,8,0:0:0:0:
18,54,134658,1,8,0:0:0:0:
42,144,134811,5,2,0:2:0:0:
118,119,134965,1,2,0:0:0:0:
113,48,135119,1,2,0:0:0:0:
112,38,135427,1,2,0:0:0:0:
111,28,135734,5,2,0:0:0:0:
269,122,135888,1,2,0:0:0:0:
269,112,136196,5,2,0:0:0:0:
103,206,136350,1,2,0:0:0:0:
103,206,136658,5,0,0:0:0:0:
104,190,136734,1,0,0:0:0:0:
105,175,136811,1,0,0:0:0:0:
106,160,136888,1,0,0:0:0:0:
107,144,136965,2,0,B|157:157|157:157|182:187|182:187|253:200,1,141.959999133545,12|0,0:2|0:0,0:0:0:0:
241,185,137273,5,4,0:0:0:0:
33,372,137427,2,0,P|43:315|52:254,1,101.920001244141,0|10,0:0|0:0,0:0:0:0:
226,380,137734,1,0,0:0:0:0:
226,380,137811,1,8,0:0:0:0:
226,380,137888,2,0,P|218:329|208:279,1,101.920001244141,2|0,0:0|0:0,0:0:0:0:
137,342,138196,5,10,0:0:0:0:
336,170,138350,2,0,B|388:142|441:184|441:184|462:231|521:233,1,203.840002488281
336,170,138811,1,10,0:0:0:0:
163,98,138965,1,0,0:0:0:0:
163,98,139042,1,8,0:0:0:0:
163,98,139119,2,0,P|102:111|57:119,1,101.920001244141,2|0,0:0|0:0,0:0:0:0:
270,245,139427,1,10,0:0:0:0:
168,365,139581,2,0,P|161:297|159:281,1,50.9600006220703
127,251,139734,5,4,0:0:0:0:
288,112,139888,1,0,0:0:0:0:
172,0,140042,2,0,P|168:60|161:111,1,101.920001244141,10|0,0:0|0:0,0:0:0:0:
144,169,140273,1,8,0:0:0:0:
140,178,140350,1,2,0:0:0:0:
312,26,140504,1,0,0:0:0:0:
481,204,140658,2,0,P|430:192|381:175,1,101.920001244141,10|0,0:0|0:0,0:0:0:0:
162,101,140965,5,2,0:0:0:0:
162,101,141119,1,0,0:0:0:0:
275,332,141273,2,0,P|283:262|289:204,1,101.920001244141,10|0,0:0|0:0,0:0:0:0:
189,333,141581,1,2,0:0:0:0:
356,289,141734,1,0,0:0:0:0:
130,276,141888,1,14,0:2:0:0:
405,347,142042,1,0,0:0:0:0:
124,183,142196,6,0,P|60:196|24:329,1,203.840002488281,4|12,0:0|0:1,0:0:0:0:
266,141,142658,2,0,P|272:85|277:33,1,101.920001244141,0|4,0:0|0:1,0:0:0:0:
124,183,142965,1,0,0:0:0:0:
323,258,143119,5,12,0:1:0:0:
180,111,143273,2,0,B|53:125|123:180|-1:202,1,203.840002488281
180,111,143734,1,12,0:1:0:0:
305,53,143888,1,0,0:0:0:0:
305,53,143965,1,8,0:0:0:0:
305,53,144042,2,0,P|371:67|416:78,1,101.920001244141,4|0,0:1|0:0,0:0:0:0:
253,209,144350,5,12,0:1:0:0:
487,57,144504,1,0,0:0:0:0:
487,57,144581,1,0,0:0:0:0:
487,57,144658,2,0,P|437:83|397:223,1,203.840002488281,4|12,0:2|0:1,0:0:0:0:
276,384,145119,2,0,P|283:338|289:283,1,101.920001244141,0|4,0:0|0:1,0:0:0:0:
363,355,145427,1,0,0:0:0:0:
149,222,145581,1,12,0:1:0:0:
149,222,145888,6,0,P|202:211|247:197,1,101.920001244141,4|0,0:1|0:0,0:0:0:0:
472,112,146196,1,12,0:0:0:0:
242,10,146350,1,0,0:0:0:0:
363,147,146504,5,6,0:2:0:0:
482,14,146658,1,8,0:0:0:0:
482,14,146734,1,8,0:0:0:0:
482,14,146811,2,0,P|426:29|412:32,1,50.9600006220703,8|8,0:0|0:0,0:0:0:0:
247,196,146965,1,8,0:0:0:0:
247,196,147042,1,8,0:0:0:0:
247,196,147119,6,0,B|258:143|258:143|241:91,1,101.920001244141,4|0,0:0|0:0,0:0:0:0:
170,141,147427,1,12,0:2:0:0:
103,221,147581,2,0,P|38:237|-31:248,1,101.920001244141,0|2,0:0|0:0,0:0:0:0:
243,97,147888,2,0,P|293:106|342:119,1,101.920001244141,0|10,0:0|0:0,0:0:0:0:
149,9,148196,6,0,P|167:110|178:213,1,203.840002488281
295,356,148658,2,0,P|305:298|311:239,1,101.920001244141,10|0,0:0|0:0,0:0:0:0:
193,309,148965,1,2,0:0:0:0:
412,183,149119,1,0,0:0:0:0:
185,74,149273,1,10,0:0:0:0:
310,255,149427,1,0,0:0:0:0:
318,236,149504,1,0,0:0:0:0:
313,215,149581,5,12,0:2:0:0:
114,344,149734,1,0,0:0:0:0:
386,253,149888,5,12,0:0:0:0:
110,184,150042,1,0,0:0:0:0:
401,325,150196,5,8,0:0:0:0:
263,33,150350,1,0,0:0:0:0:
352,384,150504,5,12,0:2:0:0:
509,71,150658,1,0,0:0:0:0:
246,260,150811,6,0,B|192:268|222:276|131:290,1,101.920001244141,8|8,0:0|0:0,0:0:0:0:
85,332,151042,1,8,0:0:0:0:
73,332,151119,1,8,0:0:0:0:
42,305,151195,1,8,0:0:0:0:
32,265,151272,1,8,0:0:0:0:
45,226,151349,1,8,0:0:0:0:
79,202,151427,1,8,0:0:0:0:
131,175,151503,1,8,0:0:0:0:
150,119,151580,1,8,0:0:0:0:
126,66,151657,1,8,0:0:0:0:
72,43,151734,6,0,P|1:63|-15:67,1,60.0599998167114,8|8,0:0|0:0,0:0:0:0:
259,166,151888,2,0,P|288:173|317:182,1,60.0599998167114,8|8,0:0|0:0,0:0:0:0:
257,79,152042,5,4,0:0:0:0:
90,303,152196,2,0,P|82:227|73:169,1,101.920001244141,0|12,0:0|0:2,0:0:0:0:
225,353,152504,1,0,0:0:0:0:
3,249,152658,1,2,0:0:0:0:
259,166,152811,2,0,P|308:181|371:195,1,101.920001244141,0|10,0:0|0:0,0:0:0:0:
154,1,153119,6,0,B|147:124|184:62|176:212,1,203.840002488281
262,19,153581,1,10,0:0:0:0:
0,134,153734,2,0,P|51:142|109:156,1,101.920001244141,0|2,0:0|0:0,0:0:0:0:
338,279,154042,2,0,P|288:290|238:298,1,101.920001244141,0|10,0:0|0:0,0:0:0:0:
62,384,154350,5,8,0:0:0:0:
62,384,154427,1,8,0:0:0:0:
62,384,154504,2,0,P|72:325|75:268,1,101.920001244141,4|0,0:0|0:0,0:0:0:0:
286,95,154811,2,0,B|359:108|359:108|402:147|402:147|500:164,1,203.840002488281,10|2,0:0|0:0,0:0:0:0:
472,159,155273,1,0,0:0:0:0:
224,39,155427,2,0,P|151:55|113:62,1,101.920001244141,10|0,0:0|0:0,0:0:0:0:
231,296,155734,6,0,P|294:292|302:155,1,203.840002488281,2|10,0:0|0:0,0:0:0:0:
169,362,156196,1,0,0:0:0:0:
404,257,156350,1,6,0:2:0:0:
152,143,156504,1,0,0:0:0:0:
415,261,156658,1,10,0:0:0:0:
330,20,156811,5,0,0:0:0:0:
330,20,156888,1,0,0:0:0:0:
330,20,156965,2,0,P|327:102|315:215,1,180.179999450134,4|0,0:0|0:0,0:0:0:0:
325,211,157273,1,12,0:1:0:0:
112,289,157427,2,0,B|23:312|23:312|-26:260|24:191,1,203.840002488281
112,289,157888,5,12,0:1:0:0:
325,121,158042,2,0,B|438:140|398:181|514:195,1,203.840002488281
291,291,158504,1,12,0:1:0:0:
391,378,158658,2,0,P|396:320|407:243,1,101.920001244141,0|4,0:0|0:1,0:0:0:0:
171,43,158965,2,0,B|147:91|147:91|170:144,1,101.920001244141,0|12,0:0|0:1,0:0:0:0:
401,276,159273,5,0,0:0:0:0:
401,276,159350,1,0,0:0:0:0:
401,276,159427,2,0,B|327:290|327:290|286:331|286:331|203:352,2,203.840002488281,4|12|4,0:0|0:1|0:1,0:0:0:0:
414,281,160350,2,0,P|442:230|418:179,1,101.920001244141,12|0,0:1|0:0,0:0:0:0:
247,63,160658,6,0,B|156:75|197:101|90:117,1,152.880001866211,4|0,0:1|0:0,0:0:0:0:
104,114,160965,2,0,P|115:55|120:0,1,101.920001244141,12|0,0:2|0:0,0:0:0:0:
295,200,161273,1,0,0:0:0:0:
295,200,161350,1,0,0:0:0:0:
295,200,161427,2,0,P|244:213|227:220,1,50.9600006220703,8|8,0:0|0:0,0:0:0:0:
62,312,161581,1,8,0:0:0:0:
41,266,161657,1,8,0:0:0:0:
60,220,161734,1,8,0:0:0:0:
105,200,161811,1,8,0:0:0:0:
151,219,161888,6,0,P|143:278|134:338,1,101.920001244141,4|0,0:0|0:0,0:0:0:0:
382,217,162196,2,0,P|367:108|350:-2,1,203.840002488281,12|2,0:2|0:0,0:0:0:0:
237,170,162658,1,0,0:0:0:0:
468,211,162811,5,10,0:0:0:0:
244,41,162965,2,0,B|176:14|131:56|131:56|110:108|44:103,1,203.840002488281
247,292,163427,2,0,P|252:241|262:173,1,101.920001244141,10|0,0:0|0:0,0:0:0:0:
164,313,163734,1,2,0:0:0:0:
335,246,163888,1,0,0:0:0:0:
171,194,164042,1,10,0:0:0:0:
332,347,164196,5,0,0:0:0:0:
332,347,164273,1,0,0:0:0:0:
332,347,164350,2,0,P|387:334|452:320,1,101.920001244141,6|0,0:0|0:0,0:0:0:0:
199,106,164658,2,0,B|121:118|121:118|80:158|80:158|0:175,1,203.840002488281,10|2,0:0|0:0,0:0:0:0:
39,90,165119,1,0,0:0:0:0:
179,291,165273,2,0,B|189:241|189:241|167:183,1,101.920001244141,12|0,0:2|0:0,0:0:0:0:
94,313,165581,5,2,0:0:0:0:
270,140,165734,1,0,0:0:0:0:
437,326,165888,2,0,P|389:317|337:303,1,101.920001244141,12|0,0:0|0:0,0:0:0:0:
156,109,166196,5,8,0:0:0:0:
157,94,166274,1,8,0:0:0:0:
158,79,166350,1,8,0:0:0:0:
159,64,166427,1,8,0:0:0:0:
160,49,166504,2,0,P|243:56|259:124,1,152.880001866211,12|0,0:2|0:0,0:0:0:0:
261,113,166811,6,0,P|254:174|249:221,1,101.920001244141,4|0,0:0|0:0,0:0:0:0:
474,375,167119,2,0,B|413:364|413:364|387:337|387:337|313:320,1,152.880001866211,12|0,0:2|0:0,0:0:0:0:
323,331,167427,1,6,0:1:0:0:
118,221,167581,1,0,0:0:0:0:
333,120,167734,5,14,0:1:0:0:
220,334,167888,2,0,P|235:239|246:119,1,203.840002488281
32,328,168350,2,0,P|80:313|131:306,1,101.920001244141,14|0,0:1|0:0,0:0:0:0:
433,142,168658,2,0,P|382:134|333:120,1,101.920001244141,6|0,0:1|0:0,0:0:0:0:
127,0,168965,1,14,0:2:0:0:
333,120,169119,1,0,0:0:0:0:
87,199,169273,5,8,0:0:0:0:
77,141,169349,1,8,0:0:0:0:
112,94,169426,1,8,0:0:0:0:
169,88,169503,1,8,0:0:0:0:
214,125,169581,1,0,0:0:0:0:
213,137,169658,1,0,0:0:0:0:
212,148,169734,1,8,0:0:0:0:
210,159,169811,1,8,0:0:0:0:
209,170,169888,2,0,P|204:203|198:236,1,50.9600006220703,8|8,0:0|0:0,0:0:0:0:
335,366,170042,2,0,P|339:340|342:315,1,50.9600006220703,8|8,0:0|0:0,0:0:0:0:
480,100,170196,5,8,0:0:0:0:
430,61,170272,1,8,0:0:0:0:
367,68,170349,1,8,0:0:0:0:
328,118,170426,1,8,0:0:0:0:
336,181,170504,6,0,B|456:193|396:240|513:255,1,196.560004798828,4|0,0:0|0:0,0:0:0:0:
512,254,171734,6,0,P|502:299|487:373,2,120.120003665772,4|2|2,0:0|0:0|0:0,0:0:0:0:
142,55,174196,6,0,P|153:100|167:174,2,120.120003665772,2|2|2,0:0|0:0|0:0,0:0:0:0:
133,51,175734,1,2,0:0:0:0:
60,83,176042,1,2,0:0:0:0:
75,161,176350,1,2,0:0:0:0:
75,161,176427,1,2,0:0:0:0:
75,161,176504,1,2,0:0:0:0:
75,161,176581,1,2,0:0:0:0:
75,161,176658,6,0,P|129:172|204:187,2,120.120003665772,4|2|2,0:1|0:0|0:0,0:0:0:0:
71,170,178196,2,0,P|78:209|83:248,1,80.0800024438477,2|2,0:0|0:0,0:0:0:0:
14,351,178811,1,2,0:0:0:0:
14,351,178888,1,2,0:0:0:0:
14,351,178965,1,2,0:0:0:0:
14,351,179042,1,2,0:0:0:0:
14,351,179119,6,0,B|58:345|58:345|84:328|84:328|137:322,1,120.120003665772,4|2,0:1|0:0,0:0:0:0:
297,375,180042,1,4,0:0:0:0:
297,375,180658,5,0,0:0:0:0:
343,313,180965,1,4,0:2:0:0:
298,249,181273,1,0,0:0:0:0:
150,322,181581,6,0,P|107:335|45:348,2,87.36,4|0|0,0:0|0:0|0:0,0:0:0:0:
298,249,182196,2,0,P|347:259|432:286,1,116.48,10|2,0:0|0:0,0:0:0:0:
410,278,182811,1,2,0:0:0:0:
410,278,183119,1,2,0:0:0:0:
409,205,183273,1,0,0:0:0:0:
272,311,183427,2,0,P|323:335|340:345,1,58.24,10|0,0:0|0:0,0:0:0:0:
314,169,183734,2,0,P|266:201|249:210,1,58.24,2|0,0:0|0:0,0:0:0:0:
122,54,184042,6,0,P|164:63|206:76,2,87.36,2|0|0,0:0|0:0|0:0,0:0:0:0:
265,201,184658,2,0,P|302:201|342:123,1,116.48,10|2,0:0|0:0,0:0:0:0:
359,70,185273,1,2,0:0:0:0:
359,70,185581,1,2,0:0:0:0:
263,202,185734,1,0,0:0:0:0:
116,67,185888,1,10,0:0:0:0:
116,67,186042,2,0,P|154:80|254:100,1,116.48
414,194,186504,6,0,P|442:156|441:101,2,87.36,4|0|0,0:0|0:0|0:0,0:0:0:0:
507,339,187119,2,0,P|452:328|391:322,1,116.48,10|2,0:0|0:0,0:0:0:0:
391,322,187734,2,0,P|395:287|401:255,1,58.24,2|0,0:0|0:0,0:0:0:0:
241,308,188042,1,2,0:0:0:0:
293,359,188196,1,0,0:0:0:0:
331,202,188350,2,0,P|298:216|267:226,1,58.24,10|0,0:0|0:0,0:0:0:0:
155,334,188658,2,0,P|122:319|91:309,1,58.24,2|0,0:0|0:0,0:0:0:0:
1,187,188965,6,0,P|8:240|14:297,2,87.36,2|0|0,0:0|0:0|0:0,0:0:0:0:
127,49,189581,1,8,0:0:0:0:
127,49,189888,2,0,P|175:61|245:72,1,116.48,2|2,0:0|0:0,0:0:0:0:
241,71,190504,1,2,0:0:0:0:
117,161,190658,1,0,0:0:0:0:
269,233,190811,5,10,0:0:0:0:
223,170,190965,1,0,0:0:0:0:
269,233,191119,2,0,P|264:274|257:307,1,58.24,2|0,0:0|0:0,0:0:0:0:
117,367,191427,6,0,P|122:326|193:296,2,101.010002466064,4|0|0,0:0|0:0|0:0,0:0:0:0:
260,290,192042,1,10,0:0:0:0:
324,336,192196,2,0,P|362:348|412:355,1,67.340001644043,0|2,0:0|0:0,0:0:0:0:
218,177,192504,6,0,P|180:183|61:220,1,134.680003288086
294,123,192965,2,0,P|305:91|312:58,1,67.340001644043,2|0,0:0|0:0,0:0:0:0:
306,218,193273,2,0,P|327:243|352:265,1,67.340001644043,10|0,0:0|0:0,0:0:0:0:
205,103,193581,2,0,P|183:77|158:55,1,67.340001644043,2|0,0:0|0:0,0:0:0:0:
372,161,193888,6,0,P|405:155|478:131,2,101.010002466064,2|0|0,0:0|0:0|0:0,0:0:0:0:
235,284,194504,1,10,0:0:0:0:
174,233,194658,2,0,P|167:193|164:156,1,67.340001644043,0|2,0:0|0:0,0:0:0:0:
308,317,194965,6,0,P|253:327|166:359,1,134.680003288086
178,352,195581,1,0,0:0:0:0:
178,352,195657,1,0,0:0:0:0:
178,352,195734,2,0,P|186:312|186:271,1,67.340001644043,10|0,0:0|0:0,0:0:0:0:
313,145,196042,2,0,P|321:185|327:227,1,67.340001644043,2|0,0:0|0:0,0:0:0:0:
432,335,196350,6,0,P|489:332|512:275,2,101.010002466064,4|0|0,0:0|0:0|0:0,0:0:0:0:
320,286,196965,1,10,0:0:0:0:
212,213,197119,2,0,P|155:225|126:234,1,67.340001644043,0|2,0:0|0:0,0:0:0:0:
345,353,197427,6,0,P|357:290|362:196,1,134.680003288086
187,314,197888,1,2,0:0:0:0:
244,368,198042,1,0,0:0:0:0:
276,192,198196,2,0,P|225:208|191:217,1,67.340001644043,10|0,0:0|0:0,0:0:0:0:
345,353,198504,2,0,P|377:362|409:373,1,67.340001644043,2|0,0:0|0:0,0:0:0:0:
204,207,198811,6,0,P|166:219|150:294,2,101.010002466064,2|0|0,0:0|0:0|0:0,0:0:0:0:
381,109,199427,1,10,0:0:0:0:
381,109,199734,2,0,P|428:120|537:141,1,134.680003288086,2|2,0:0|0:0,0:0:0:0:
512,136,200196,1,0,0:0:0:0:
311,63,200350,2,0,P|244:77|221:84,1,67.340001644043,10|0,0:0|0:0,0:0:0:0:
366,242,200658,1,10,0:0:0:0:
366,242,200811,2,0,B|367:156|380:193|381:92,1,134.680003288086
186,243,201273,6,0,P|133:256|67:275,2,101.010002466064,4|0|0,0:0|0:0|0:0,0:0:0:0:
269,224,201888,1,10,0:0:0:0:
418,176,202042,2,0,P|456:186|496:196,1,67.340001644043,0|2,0:0|0:0,0:0:0:0:
290,7,202350,6,0,P|299:67|309:154,1,134.680003288086
134,144,202811,2,0,P|162:121|204:90,1,67.340001644043,2|0,0:0|0:0,0:0:0:0:
279,253,203119,2,0,P|245:239|197:219,1,67.340001644043,10|0,0:0|0:0,0:0:0:0:
44,35,203427,2,0,P|77:48|125:68,1,67.340001644043,2|0,0:0|0:0,0:0:0:0:
243,155,203734,6,0,B|182:171|210:181|139:199,2,101.010002466064,2|0|0,0:0|0:0|0:0,0:0:0:0:
121,280,204350,1,10,0:0:0:0:
0,183,204504,2,0,P|10:228|13:270,1,67.340001644043,0|2,0:0|0:0,0:0:0:0:
211,384,204811,6,0,P|219:337|218:226,1,134.680003288086
73,104,205273,1,2,0:0:0:0:
101,175,205427,1,0,0:0:0:0:
73,104,205581,2,0,P|16:119|1:121,1,67.340001644043,10|0,0:0|0:0,0:0:0:0:
250,164,205888,2,0,P|283:170|315:180,1,67.340001644043,2|0,0:0|0:0,0:0:0:0:
183,16,206196,6,0,P|182:58|173:130,2,101.010002466064,4|0|0,0:0|0:0|0:0,0:0:0:0:
326,185,206811,2,0,P|321:145|320:106,1,67.340001644043,10|0,0:0|0:0,0:0:0:0:
132,240,207119,2,0,B|218:249|179:268|286:281,1,134.680003288086,2|2,0:0|0:0,0:0:0:0:
260,277,207734,5,2,0:0:0:0:
294,346,207888,1,0,0:0:0:0:
387,220,208042,1,10,0:0:0:0:
311,215,208196,1,0,0:0:0:0:
395,358,208350,2,0,P|416:314|429:287,1,67.340001644043,2|0,0:0|0:0,0:0:0:0:
255,116,208658,6,0,P|219:123|193:200,2,101.010002466064,4|0|0,0:0|0:0|0:0,0:0:0:0:
468,200,209273,2,0,P|415:191|393:189,1,67.340001644043,10|0,0:0|0:0,0:0:0:0:
344,8,209581,2,0,P|339:64|323:165,1,134.680003288086,2|2,0:0|0:0,0:0:0:0:
327,141,210196,1,2,0:0:0:0:
110,251,210350,5,0,0:0:0:0:
110,251,210427,1,0,0:0:0:0:
110,251,210504,2,0,P|52:260|35:263,1,67.340001644043,10|0,0:0|0:0,0:0:0:0:
386,206,210811,2,0,P|419:211|505:224,1,101.010002466064,2|0,0:0|0:0,0:0:0:0:
495,227,211119,5,12,0:0:0:0:
304,132,211273,1,0,0:0:0:0:
202,325,211427,1,0,0:0:0:0:
423,41,211581,5,12,0:1:0:0:
171,150,211734,1,0,0:0:0:0:
424,294,211888,1,0,0:0:0:0:
271,11,212042,6,0,P|264:80|258:117,1,94.6399994223633,12|0,0:1|0:0,0:0:0:0:
202,325,212350,1,0,0:0:0:0:
0,141,212504,6,0,P|62:165|99:170,1,94.6399994223633,12|0,0:1|0:0,0:0:0:0:
379,66,212811,1,0,0:0:0:0:
134,31,212965,5,12,0:0:0:0:
398,180,213119,1,0,0:0:0:0:
132,247,213273,5,12,0:2:0:0:
388,62,213427,1,0,0:0:0:0:
114,161,213581,5,12,0:0:0:0:
395,280,213734,1,0,0:0:0:0:
127,167,213888,1,0,0:0:0:0:
411,174,214042,5,12,0:1:0:0:
126,326,214195,1,0,0:0:0:0:
398,180,214349,1,0,0:0:0:0:
273,384,214504,6,0,P|264:320|260:258,1,94.6399994223633,12|0,0:1|0:0,0:0:0:0:
358,27,214811,1,0,0:0:0:0:
34,148,214965,6,0,P|92:159|146:171,1,94.6399994223633,12|0,0:1|0:0,0:0:0:0:
395,280,215273,1,0,0:0:0:0:
157,357,215427,5,12,0:0:0:0:
331,110,215581,2,0,P|321:167|319:198,1,47.3199997111816
396,353,215734,5,12,0:2:0:0:
204,107,215888,1,0,0:0:0:0:
421,190,216042,5,12,0:0:0:0:
157,357,216196,1,0,0:0:0:0:
395,280,216350,1,0,0:0:0:0:
132,89,216504,5,12,0:1:0:0:
319,310,216658,1,0,0:0:0:0:
380,56,216811,1,0,0:0:0:0:
129,284,216965,6,0,P|79:302|21:313,1,94.6399994223633,12|0,0:1|0:0,0:0:0:0:
267,127,217273,1,0,0:0:0:0:
433,367,217427,6,0,B|443:318|443:318|421:260,1,94.6399994223633,12|0,0:1|0:0,0:0:0:0:
265,114,217734,1,0,0:0:0:0:
129,284,217888,5,12,0:0:0:0:
438,160,218042,1,0,0:0:0:0:
124,15,218196,5,12,0:2:0:0:
449,164,218350,1,0,0:0:0:0:
129,173,218504,5,12,0:0:0:0:
451,81,218658,1,0,0:0:0:0:
98,91,218811,1,0,0:0:0:0:
447,273,218965,5,12,0:1:0:0:
241,46,219119,1,0,0:0:0:0:
150,364,219273,1,0,0:0:0:0:
88,84,219427,5,12,0:1:0:0:
298,354,219581,1,0,0:0:0:0:
451,81,219734,5,8,0:0:0:0:
405,42,219811,1,8,0:0:0:0:
347,50,219887,1,8,0:0:0:0:
313,99,219964,1,8,0:0:0:0:
327,157,220042,2,0,P|379:168|394:174,1,47.3199997111816
173,303,220197,5,12,0:2:0:0:
115,316,220273,1,8,0:0:0:0:
65,284,220350,1,8,0:0:0:0:
55,225,220427,1,8,0:0:0:0:
90,178,220504,2,0,P|100:128|97:103,1,47.3199997111816
352,293,220658,6,0,B|302:304|302:304|277:338|277:338|223:357,1,141.959999133545,12|0,0:0|0:0,0:0:0:0:
219,352,220965,6,0,P|228:295|230:243,1,85.5399986947632,4|0,0:0|0:0,0:0:0:0:
389,368,221273,1,12,0:2:0:0:
504,230,221427,2,0,P|461:244|424:259,1,85.5399986947632,0|2,0:0|0:0,0:0:0:0:
230,129,221734,1,0,0:0:0:0:
365,74,221888,1,10,0:0:0:0:
294,40,222042,5,0,0:0:0:0:
294,40,222119,1,0,0:0:0:0:
294,40,222196,2,0,B|287:146|314:98|305:220,2,171.079997389526,2|10|2,0:0|0:0|0:0,0:0:0:0:
406,157,222965,1,0,0:0:0:0:
253,268,223119,1,10,0:0:0:0:
102,143,223273,5,8,0:0:0:0:
102,143,223350,1,8,0:0:0:0:
102,143,223427,2,0,P|173:147|238:205,1,128.309998042145,4|0,0:0|0:0,0:0:0:0:
227,187,223734,1,10,0:0:0:0:
82,326,223888,2,0,P|41:341|0:351,1,85.5399986947632,0|2,0:0|0:0,0:0:0:0:
253,268,224196,2,0,P|294:278|334:292,1,85.5399986947632,0|10,0:0|0:0,0:0:0:0:
142,81,224504,5,0,0:0:0:0:
142,81,224581,1,0,0:0:0:0:
142,81,224658,2,0,B|117:168|117:168|146:206|211:179,1,171.079997389526,2|10,0:0|0:0,0:0:0:0:
405,55,225119,1,0,0:0:0:0:
261,101,225273,1,2,0:0:0:0:
416,178,225427,1,0,0:0:0:0:
155,2,225581,2,0,B|105:15|105:15|78:39|78:39|7:57,1,128.309998042145,12|0,0:2|0:0,0:0:0:0:
42,41,225888,6,0,P|54:91|61:140,1,85.5399986947632,4|0,0:0|0:0,0:0:0:0:
326,256,226196,2,0,P|308:193|200:164,1,171.079997389526,14|4,0:1|0:1,0:0:0:0:
41,346,226658,1,0,0:0:0:0:
238,243,226811,1,14,0:1:0:0:
12,278,226965,1,0,0:0:0:0:
270,324,227119,6,0,P|321:339|377:351,1,85.5399986947632,4|0,0:1|0:0,0:0:0:0:
137,179,227427,2,0,P|145:137|150:69,1,85.5399986947632,14|0,0:1|0:0,0:0:0:0:
226,170,227734,1,6,0:1:0:0:
52,250,227888,1,0,0:0:0:0:
226,170,228042,2,0,B|301:183|273:200|375:215,1,128.309998042145,14|0,0:1|0:0,0:0:0:0:
353,203,228350,6,0,B|367:163|367:163|349:122,1,85.5399986947632,4|0,0:0|0:0,0:0:0:0:
211,0,228658,2,0,P|219:68|227:175,1,171.079997389526,12|2,0:2|0:0,0:0:0:0:
421,323,229119,1,0,0:0:0:0:
491,362,229273,2,0,B|501:321|501:321|478:259,1,85.5399986947632,10|0,0:0|0:0,0:0:0:0:
263,333,229581,5,12,0:2:0:0:
489,205,229734,1,0,0:0:0:0:
253,257,229888,5,12,0:0:0:0:
491,362,230042,1,0,0:0:0:0:
307,197,230196,5,8,0:0:0:0:
270,162,230273,1,8,0:0:0:0:
220,159,230350,1,8,0:0:0:0:
182,193,230426,1,8,0:0:0:0:
182,207,230504,5,8,0:0:0:0:
158,251,230581,1,8,0:0:0:0:
113,271,230658,1,8,0:0:0:0:
64,256,230735,1,8,0:0:0:0:
43,215,230811,6,0,P|49:164|53:108,1,94.6399994223633,4|8,0:0|0:0,0:0:0:0:
54,48,231042,1,8,0:0:0:0:
54,40,231119,2,0,P|87:46|123:51,1,47.3199997111816,8|8,0:0|0:0,0:0:0:0:
310,182,231273,5,8,0:0:0:0:
364,207,231349,1,8,0:0:0:0:
424,201,231427,1,8,0:0:0:0:
471,164,231503,1,8,0:0:0:0:
492,107,231580,1,8,0:0:0:0:
479,48,231657,1,8,0:0:0:0:
438,5,231734,6,0,P|376:23|328:32,1,94.6399994223633,4|8,0:0|0:0,0:0:0:0:
270,27,231965,1,8,0:0:0:0:
263,33,232042,2,0,P|275:98|277:114,1,47.3199997111816,8|8,0:0|0:0,0:0:0:0:
167,183,232196,5,8,0:0:0:0:
154,128,232272,1,8,0:0:0:0:
110,95,232350,1,8,0:0:0:0:
55,100,232427,1,8,0:0:0:0:
17,140,232504,2,0,P|22:180|30:213,1,56.4199977616578,8|8,0:0|0:0,0:0:0:0:
113,312,232658,5,8,0:0:0:0:
163,369,232734,1,8,0:0:0:0:
233,372,232811,1,8,0:0:0:0:
277,334,232888,1,8,0:0:0:0:
291,296,232965,1,8,0:0:0:0:
323,283,233041,1,8,0:0:0:0:
356,284,233118,1,8,0:0:0:0:
377,297,233195,1,8,0:0:0:0:
382,311,233273,6,0,B|339:369|277:365|236:322|236:277|236:277|202:186|118:137|9:179|-22:256|-13:349|80:381|80:381|69:321|109:285,1,742.560004532227,4|0,0:0|0:0,0:0:0:0:
256,192,235811,12,0,238119,0:0:0:0:
136,139,238196,6,0,P|81:155|9:174,2,120.120003665772,2|2|2,0:0|0:0|0:0,0:0:0:0:
142,146,240042,1,2,0:0:0:0:
202,193,240350,1,2,0:0:0:0:
269,160,240658,6,0,P|278:116|291:37,2,120.120003665772,2|2|2,0:0|0:0|0:0,0:0:0:0:
265,165,242042,1,2,0:0:0:0:
367,270,242504,1,2,0:0:0:0:
367,270,243119,6,0,P|422:285|493:302,2,120.120003665772,2|2|2,0:0|0:0|0:0,0:0:0:0:
361,261,244504,1,2,0:0:0:0:
180,102,244965,1,2,0:0:0:0:
238,50,245273,1,2,0:0:0:0:
307,78,245581,6,0,P|313:115|313:204,2,120.120003665772,2|2|2,0:0|0:0|0:0,0:0:0:0:
304,71,246965,1,2,0:0:0:0:
146,216,247427,2,0,P|110:228|61:240,1,80.0800024438477,2|2,0:0|0:0,0:0:0:0:
3,199,247888,1,2,0:0:0:0:
210,257,248042,6,0,P|272:241|332:220,1,120.120003665772,2|2,0:0|0:0,0:0:0:0:
156,319,248965,2,0,P|99:338|40:352,1,120.120003665772,2|2,0:0|0:0,0:0:0:0:
33,346,249888,1,2,0:0:0:0:
327,104,250504,6,0,P|324:160|322:208,1,98.2800023994141,2|0,0:0|0:0,0:0:0:0:
270,258,250965,1,2,0:0:0:0:
199,225,251119,1,0,0:0:0:0:
199,225,251273,2,0,B|191:198|191:198|199:167,1,49.1400011997071,2|0,0:0|0:0,0:0:0:0:
348,276,251581,1,2,0:0:0:0:
360,275,251888,5,2,0:0:0:0:
199,377,252042,1,2,0:0:0:0:
199,377,252965,6,0,P|207:314|210:258,1,101.920001244141,4|0,0:0|0:0,0:0:0:0:
293,352,253273,1,14,0:2:0:0:
494,178,253427,1,0,0:0:0:0:
494,178,253504,1,8,0:0:0:0:
494,178,253581,2,0,P|436:198|379:211,1,101.920001244141,2|0,0:0|0:0,0:0:0:0:
331,245,253888,1,10,0:0:0:0:
116,20,254042,6,0,P|192:21|261:128,1,203.840002488281
81,278,254504,1,10,0:0:0:0:
179,349,254658,1,0,0:0:0:0:
179,349,254734,1,8,0:0:0:0:
179,349,254811,2,0,B|193:299|193:299|172:245,1,101.920001244141,2|0,0:0|0:0,0:0:0:0:
87,361,255119,1,10,0:0:0:0:
283,228,255273,2,0,P|317:238|359:246,1,50.9600006220703
398,290,255427,5,4,0:0:0:0:
186,130,255581,1,0,0:0:0:0:
360,5,255734,2,0,P|353:74|347:117,1,101.920001244141,10|0,0:0|0:0,0:0:0:0:
168,317,256042,2,0,P|175:248|181:205,1,101.920001244141,2|0,0:0|0:0,0:0:0:0:
323,348,256350,1,10,0:0:0:0:
323,348,256658,6,0,P|373:364|435:377,1,101.920001244141,2|0,0:0|0:0,0:0:0:0:
421,374,256965,1,10,0:0:0:0:
217,141,257119,1,0,0:0:0:0:
217,141,257196,1,8,0:0:0:0:
217,141,257273,2,0,P|168:125|118:114,1,101.920001244141,2|0,0:0|0:0,0:0:0:0:
160,211,257581,5,14,0:2:0:0:
425,22,257734,1,0,0:0:0:0:
425,22,257811,1,0,0:0:0:0:
425,22,257888,2,0,B|413:88|399:132|399:132|449:197|524:134,1,249.340007038559,6|12,0:0|0:2,0:0:0:0:
258,353,258350,1,0,0:0:0:0:
258,353,258427,1,0,0:0:0:0:
258,353,258504,2,0,B|233:306|233:306|246:244,1,101.920001244141,4|0,0:1|0:0,0:0:0:0:
410,384,258811,1,12,0:1:0:0:
242,258,258965,5,0,0:0:0:0:
242,258,259042,1,0,0:0:0:0:
242,258,259119,2,0,P|188:271|129:281,1,101.920001244141,4|0,0:1|0:0,0:0:0:0:
412,122,259427,2,0,P|462:131|511:143,1,101.920001244141,12|0,0:1|0:0,0:0:0:0:
503,218,259658,1,8,0:0:0:0:
499,226,259734,2,0,P|448:216|399:204,1,101.920001244141,4|0,0:1|0:0,0:0:0:0:
462,57,260042,5,12,0:1:0:0:
242,258,260196,1,0,0:0:0:0:
242,258,260273,1,0,0:0:0:0:
242,258,260350,2,0,B|195:214|211:159|211:159|246:124|233:65,1,203.840002488281,4|12,0:0|0:1,0:0:0:0:
325,170,260811,2,0,B|197:172|264:208|113:206,1,203.840002488281
312,363,261273,2,0,P|338:302|324:265,1,101.920001244141,12|0,0:1|0:0,0:0:0:0:
108,105,261581,6,0,P|120:161|127:215,1,101.920001244141,4|0,0:1|0:0,0:0:0:0:
238,72,261888,1,14,0:0:0:0:
26,189,262042,1,0,0:0:0:0:
239,267,262196,1,6,0:2:0:0:
36,28,262350,5,8,0:0:0:0:
36,28,262427,1,8,0:0:0:0:
36,28,262504,1,8,0:0:0:0:
36,28,262581,1,8,0:0:0:0:
36,28,262658,1,8,0:0:0:0:
36,28,262734,1,8,0:0:0:0:
36,28,262811,2,0,B|94:0|144:39|144:39|160:88|244:90,1,203.840002488281,4|12,0:0|0:2,0:0:0:0:
414,1,263273,1,0,0:0:0:0:
414,1,263350,1,8,0:0:0:0:
414,1,263427,2,0,P|351:11|303:23,1,101.920001244141,2|0,0:0|0:0,0:0:0:0:
116,147,263734,5,10,0:0:0:0:
313,19,263888,2,0,P|378:35|410:179,1,203.840002488281
137,45,264350,2,0,P|87:55|37:68,1,101.920001244141,10|0,0:0|0:0,0:0:0:0:
243,249,264658,2,0,P|292:261|342:271,1,101.920001244141,2|0,0:0|0:0,0:0:0:0:
253,157,264965,1,10,0:0:0:0:
78,343,265119,1,0,0:0:0:0:
63,328,265196,1,0,0:0:0:0:
66,307,265273,5,12,0:2:0:0:
138,110,265427,1,0,0:0:0:0:
188,359,265581,5,12,0:0:0:0:
213,94,265734,1,0,0:0:0:0:
359,352,265888,5,8,0:0:0:0:
285,59,266042,1,0,0:0:0:0:
512,285,266196,5,12,0:2:0:0:
340,0,266350,1,0,0:0:0:0:
155,288,266504,5,8,0:0:0:0:
97,313,266580,1,8,0:0:0:0:
38,290,266657,1,8,0:0:0:0:
14,232,266734,1,8,0:0:0:0:
38,174,266811,2,0,P|108:192|129:197,1,64.609996746628
374,126,266965,5,8,0:0:0:0:
377,62,267041,1,8,0:0:0:0:
339,12,267118,1,8,0:0:0:0:
277,0,267195,1,8,0:0:0:0:
223,33,267273,2,0,P|231:76|237:121,1,64.609996746628
334,268,267427,5,8,0:0:0:0:
382,309,267504,1,8,0:0:0:0:
445,305,267581,1,8,0:0:0:0:
488,259,267658,1,8,0:0:0:0:
487,195,267734,5,4,0:0:0:0:
264,332,267888,2,0,P|207:344|144:355,1,101.920001244141,0|12,0:0|0:2,0:0:0:0:
390,126,268196,2,0,P|401:204|410:242,1,101.920001244141,0|2,0:0|0:0,0:0:0:0:
181,100,268504,2,0,P|192:22|201:-16,1,101.920001244141,0|10,0:0|0:0,0:0:0:0:
486,164,268811,6,0,B|363:176|425:210|294:227,1,203.840002488281
87,318,269273,1,10,0:0:0:0:
174,383,269427,2,0,B|195:335|195:335|174:280,1,101.920001244141,0|2,0:0|0:0,0:0:0:0:
17,184,269734,1,0,0:0:0:0:
185,66,269888,1,10,0:0:0:0:
77,0,270042,5,0,0:0:0:0:
77,0,270119,1,0,0:0:0:0:
77,0,270196,2,0,P|84:52|89:108,1,101.920001244141,4|0,0:0|0:0,0:0:0:0:
322,288,270504,2,0,P|334:206|210:157,1,203.840002488281,10|2,0:0|0:0,0:0:0:0:
78,314,270965,1,0,0:0:0:0:
0,196,271119,2,0,P|49:208|98:220,1,101.920001244141,10|0,0:0|0:0,0:0:0:0:
430,163,271427,6,0,B|351:180|351:180|310:214|310:214|222:237,1,203.840002488281,2|10,0:0|0:0,0:0:0:0:
393,255,271888,1,0,0:0:0:0:
223,152,272042,1,2,0:0:0:0:
383,67,272196,1,0,0:0:0:0:
326,189,272350,5,10,0:0:0:0:
73,0,272504,2,0,P|92:108|109:274,1,240.239999266846,12|0,0:0|0:0,0:0:0:0:
183,96,272965,1,12,0:1:0:0:
393,255,273119,2,0,P|383:199|374:115,1,101.920001244141,0|6,0:0|0:1,0:0:0:0:
192,284,273427,2,0,P|182:339|173:423,1,101.920001244141,0|12,0:0|0:1,0:0:0:0:
480,201,273734,6,0,B|411:210|411:210|344:191|344:191|260:200,1,203.840002488281
89,35,274196,1,12,0:1:0:0:
278,122,274350,1,0,0:0:0:0:
80,256,274504,1,6,0:1:0:0:
171,107,274658,1,0,0:0:0:0:
261,271,274811,1,12,0:1:0:0:
30,148,274965,5,0,0:0:0:0:
30,148,275042,1,0,0:0:0:0:
30,148,275119,2,0,B|165:153|94:187|237:198,1,203.840002488281,4|12,0:0|0:1,0:0:0:0:
387,20,275581,2,0,P|291:27|238:134,1,203.840002488281
423,304,276042,1,12,0:1:0:0:
327,115,276196,1,0,0:0:0:0:
199,280,276350,5,4,0:1:0:0:
199,280,276658,2,0,P|248:266|297:254,1,101.920001244141,14|0,0:2|0:0,0:0:0:0:
182,363,276965,1,4,0:0:0:0:
0,167,277119,1,8,0:0:0:0:
0,167,277196,1,8,0:0:0:0:
0,167,277273,1,8,0:0:0:0:
43,143,277349,1,8,0:0:0:0:
91,154,277426,1,8,0:0:0:0:
118,195,277503,1,8,0:0:0:0:
111,245,277581,6,0,P|61:258|12:270,1,101.920001244141,4|0,0:0|0:0,0:0:0:0:
171,122,277888,1,12,0:2:0:0:
302,281,278042,1,0,0:0:0:0:
302,281,278119,1,8,0:0:0:0:
302,281,278196,2,0,B|319:227|319:227|301:178,1,101.920001244141,2|0,0:0|0:0,0:0:0:0:
236,229,278504,1,10,0:0:0:0:
413,346,278658,6,0,B|291:344|346:381|198:385,1,203.840002488281
416,207,279119,2,0,P|427:146|429:99,1,101.920001244141,10|0,0:0|0:0,0:0:0:0:
303,184,279427,1,2,0:0:0:0:
512,308,279581,1,0,0:0:0:0:
297,361,279734,5,10,0:0:0:0:
430,107,279888,1,0,0:0:0:0:
430,107,279965,1,0,0:0:0:0:
430,107,280042,2,0,P|431:198|438:328,2,203.840002488281,2|10|2,0:0|0:0|0:0,0:0:0:0:
298,264,280811,1,0,0:0:0:0:
186,83,280965,2,0,P|256:104|285:113,1,101.920001244141,10|0,0:0|0:0,0:0:0:0:
162,202,281273,5,2,0:0:0:0:
376,60,281427,1,0,0:0:0:0:
123,134,281581,1,14,0:2:0:0:
400,133,281734,1,0,0:0:0:0:
132,12,281888,1,8,0:0:0:0:
132,12,281965,1,8,0:0:0:0:
132,12,282042,1,8,0:0:0:0:
132,12,282119,1,8,0:0:0:0:
132,12,282196,2,0,P|71:30|63:31,1,50.9600006220703,10|0,0:1|0:0,0:0:0:0:
307,201,282350,5,0,0:0:0:0:
307,201,282427,1,0,0:0:0:0:
307,201,282504,2,0,B|362:210|362:210|396:236|396:236|477:247,1,152.880001866211,4|0,0:0|0:0,0:0:0:0:
458,251,282811,5,12,0:2:0:0:
379,13,282965,1,0,0:0:0:0:
317,293,283119,5,12,0:1:0:0:
375,27,283273,1,0,0:0:0:0:
248,318,283427,5,12,0:1:0:0:
215,66,283581,1,0,0:0:0:0:
55,337,283734,5,12,0:0:0:0:
146,23,283888,1,0,0:0:0:0:
143,361,284042,5,12,0:1:0:0:
63,29,284196,1,0,0:0:0:0:
317,293,284350,5,12,0:1:0:0:
9,116,284504,1,0,0:0:0:0:
378,99,284658,5,12,0:1:0:0:
21,248,284811,1,0,0:0:0:0:
330,26,284965,5,8,0:0:0:0:
269,6,285041,1,8,0:0:0:0:
213,34,285118,1,8,0:0:0:0:
191,93,285195,1,8,0:0:0:0:
215,151,285273,2,0,P|251:158|295:178,1,64.609996746628,8|8,0:0|0:0,0:0:0:0:
512,350,285427,5,8,0:0:0:0:
493,291,285503,1,8,0:0:0:0:
443,272,285580,1,8,0:0:0:0:
400,279,285657,1,8,0:0:0:0:
380,291,285734,1,8,0:0:0:0:
368,312,285811,1,8,0:0:0:0:
366,325,285888,5,8,0:0:0:0:
306,365,285964,1,8,0:0:0:0:
234,357,286041,1,8,0:0:0:0:
186,304,286118,1,8,0:0:0:0:
186,232,286196,6,0,B|263:218|263:218|316:183|316:183|420:164,1,229.320005598633,4|0,0:0|0:0,0:0:0:0:
286,62,286811,6,0,B|284:209|312:157|303:360,1,278.460001699585,2|0,2:2|0:0,0:0:0:0:
226,384,287350,5,0,0:0:0:0:
218,377,287427,2,0,P|185:333|202:281,1,101.920001244141,12|0,0:0|0:0,0:0:0:0:
375,76,287734,1,0,0:0:0:0:
512,340,287888,6,0,P|434:321|378:314,1,101.920001244141,12|0,0:2|0:0,0:0:0:0:
177,147,288196,1,0,0:0:0:0:
385,66,288350,5,12,0:0:0:0:
194,290,288504,1,0,0:0:0:0:
92,32,288658,1,0,0:0:0:0:
357,175,288811,5,12,0:2:0:0:
51,280,288965,1,0,0:0:0:0:
344,178,289119,1,0,0:0:0:0:
40,134,289273,5,12,0:0:0:0:
360,269,289427,1,0,0:0:0:0:
58,376,289581,5,12,0:2:0:0:
372,269,289734,1,0,0:0:0:0:
176,13,289888,6,0,P|171:90|164:129,1,101.920001244141,12|0,0:0|0:0,0:0:0:0:
304,354,290196,1,0,0:0:0:0:
492,78,290350,6,0,P|421:90|373:106,1,101.920001244141,12|0,0:2|0:0,0:0:0:0:
157,227,290658,1,0,0:0:0:0:
304,354,290811,5,12,0:0:0:0:
166,114,290965,1,0,0:0:0:0:
50,358,291119,1,0,0:0:0:0:
311,169,291273,5,12,0:2:0:0:
23,30,291427,1,0,0:0:0:0:
318,174,291581,1,0,0:0:0:0:
35,276,291734,5,12,0:0:0:0:
180,22,291888,1,0,0:0:0:0:
236,315,292042,5,12,0:2:0:0:
106,66,292196,1,0,0:0:0:0:
106,66,292273,1,0,0:0:0:0:
106,66,292350,6,0,P|104:136|100:174,1,101.920001244141,12|0,0:0|0:0,0:0:0:0:
24,376,292658,1,0,0:0:0:0:
225,178,292811,6,0,P|229:127|230:76,1,101.920001244141,12|0,0:2|0:0,0:0:0:0:
351,324,293119,1,0,0:0:0:0:
105,240,293273,5,12,0:0:0:0:
346,127,293427,1,0,0:0:0:0:
109,11,293581,1,0,0:0:0:0:
435,226,293734,5,12,0:2:0:0:
181,146,293888,1,0,0:0:0:0:
448,14,294042,1,0,0:0:0:0:
233,246,294196,5,12,0:0:0:0:
323,4,294350,1,0,0:0:0:0:
408,354,294504,5,12,0:2:0:0:
254,55,294658,1,0,0:0:0:0:
254,55,294734,1,0,0:0:0:0:
254,55,294811,5,12,0:0:0:0:
482,230,294965,1,0,0:0:0:0:
213,347,295119,1,12,0:2:0:0:
364,66,295273,5,0,0:1:0:0:
408,354,295427,1,12,0:2:0:0:
135,230,295581,1,0,0:0:0:0:
444,149,295734,5,12,0:2:0:0:
213,347,295888,1,0,0:0:0:0:
176,60,296042,1,12,0:2:0:0:
408,354,296196,5,4,0:1:0:0:
135,230,296350,1,12,0:2:0:0:
364,66,296504,1,0,0:0:0:0:
213,347,296658,6,0,P|220:290|221:234,1,101.920001244141,4|8,0:0|0:0,0:0:0:0:
131,118,296888,1,8,0:0:0:0:
122,119,296965,2,0,P|65:134|52:136,1,50.9600006220703,8|8,0:0|0:0,0:0:0:0:
322,202,297119,2,0,P|346:207|371:215,1,50.9600006220703,8|8,0:0|0:0,0:0:0:0:
133,339,297273,5,0,0:0:0:0:
133,339,297350,1,0,0:0:0:0:
133,339,297427,1,0,0:0:0:0:
133,339,297504,1,0,0:0:0:0:
133,339,297581,6,0,B|196:353|196:353|226:373|226:373|308:387,1,152.880001866211,12|0,0:0|0:0,0:0:0:0:
292,378,297888,1,2,0:0:0:0:
102,234,298042,1,0,0:0:0:0:
289,155,298196,1,10,0:0:0:0:
202,245,298350,1,0,0:0:0:0:
202,245,298427,1,0,0:0:0:0:
202,245,298504,6,0,P|197:182|190:126,1,101.920001244141,2|0,0:0|0:0,0:0:0:0:
379,285,298811,1,10,0:0:0:0:
487,110,298965,1,0,0:0:0:0:
487,110,299042,1,8,0:0:0:0:
487,110,299119,2,0,P|428:132|383:142,1,101.920001244141,2|0,0:0|0:0,0:0:0:0:
202,245,299427,1,10,0:0:0:0:
411,350,299581,1,0,0:0:0:0:
340,226,299734,5,4,0:0:0:0:
236,365,299888,1,0,0:0:0:0:
75,240,300042,2,0,P|146:258|190:264,1,101.920001244141,10|0,0:0|0:0,0:0:0:0:
161,339,300273,1,8,0:0:0:0:
151,342,300350,2,0,P|100:333|51:319,1,101.920001244141,2|0,0:0|0:0,0:0:0:0:
244,174,300658,1,10,0:0:0:0:
126,66,300811,2,0,P|133:134|135:146,1,50.9600006220703
253,288,300965,5,12,0:0:0:0:
380,55,301119,1,0,0:0:0:0:
174,262,301273,5,12,0:2:0:0:
435,112,301427,1,0,0:0:0:0:
119,197,301581,5,12,0:2:0:0:
455,277,301734,1,0,0:0:0:0:
237,32,301888,5,8,0:0:0:0:
237,32,301965,1,8,0:0:0:0:
237,32,302042,1,8,0:0:0:0:
237,32,302119,1,8,0:0:0:0:
237,32,302196,6,0,P|234:111|231:145,1,101.920001244141,4|0,0:0|0:0,0:0:0:0:
316,79,302504,1,12,0:2:0:0:
52,64,302658,1,0,0:0:0:0:
52,64,302734,1,8,0:0:0:0:
52,64,302811,2,0,P|115:84|174:96,1,101.920001244141,6|0,0:1|0:0,0:0:0:0:
343,218,303119,1,14,0:1:0:0:
171,338,303273,5,0,0:0:0:0:
171,338,303350,1,0,0:0:0:0:
171,338,303427,2,0,B|153:291|153:291|177:225,1,101.920001244141,6|0,0:1|0:0,0:0:0:0:
316,79,303734,2,0,B|380:86|357:94|415:102,1,101.920001244141,14|0,0:1|0:0,0:0:0:0:
482,136,303965,1,0,0:0:0:0:
491,141,304042,1,6,0:1:0:0:
282,245,304196,1,0,0:0:0:0:
510,345,304350,5,12,0:0:0:0:
282,162,304504,1,0,0:0:0:0:
132,346,304658,5,8,0:0:0:0:
76,374,304734,1,8,0:0:0:0:
17,352,304811,1,8,0:0:0:0:
0,294,304888,1,8,0:0:0:0:
21,237,304965,2,0,P|97:256|116:260,1,64.609996746628
368,168,305119,5,8,0:0:0:0:
389,108,305195,1,8,0:0:0:0:
366,49,305272,1,8,0:0:0:0:
309,20,305349,1,8,0:0:0:0:
248,36,305427,2,0,P|255:90|258:124,1,64.609996746628
475,315,305581,5,8,0:0:0:0:
446,264,305657,1,0,0:0:0:0:
388,245,305734,1,0,0:0:0:0:
339,277,305811,1,0,0:0:0:0:
336,294,305888,5,8,0:0:0:0:
286,342,305964,1,0,0:0:0:0:
217,344,306041,1,0,0:0:0:0:
163,299,306118,1,0,0:0:0:0:
154,231,306195,1,8,0:0:0:0:
445,35,306350,6,0,P|530:55|544:59,1,69.1599991557617,4|0,0:2|0:0,0:0:0:0:
512,50,306658,6,0,P|324:89|80:163,1,429.974986878205,4|0,0:0|0:0,0:0:0:0:
89,163,308350,5,0,3:0:0:0:
136,223,308658,1,0,3:0:0:0:
246,135,308965,5,0,3:0:0:0:
221,199,309273,1,0,3:0:0:0:
326,258,309581,5,0,3:0:0:0:
272,270,309889,1,0,3:0:0:0:
256,372,310196,5,0,3:0:0:0:
240,353,310504,1,0,3:0:0:0:
