osu file format v14

[General]
AudioFilename: Shin Ai.mp3
AudioLeadIn: 0
PreviewTime: 74048
Countdown: 0
SampleSet: Soft
StackLeniency: 0.7
Mode: 0
LetterboxInBreaks: 0
WidescreenStoryboard: 1

[Editor]
DistanceSpacing: 0.5
BeatDivisor: 4
GridSize: 32
TimelineZoom: 2.7

[Metadata]
Title:Shin'ai
TitleUnicode:深愛
Artist:Roselia
ArtistUnicode:Roselia
Creator:-Aqua
Version:scanter's Insane
Source:バンドリ! ガールズバンドパーティ!
Tags:BanG Dream! Bandori! Girls Band Party! ガルパ Garupa insert cover original song single album Bandori project Girl Party Garupa! Fries Fried Potato Anfang Rozeria ロゼリア Minato Yukina 湊友希那 Hikawa Sayo 氷川紗夜 Imai Lisa 今井リサ Udagawa Ako 宇田川あこ Shirokane Rinko 白金燐子 Aiba Aina Aiai 相羽あいな Kudō Haruka Kudo Kudou Kudoharu Kdhr 工藤晴香 Endō Yurika Endo Endou Yurishii 遠藤ゆりか Sakuragawa Megu Meguchii 桜川めぐ Akesaka Satomi Akeko 明坂聡美 Noriyasu Agematsu Nana Mizuki 奈々水樹 WHITE ALBUM ホワイトアルバム Deep Love ShinAi Shin Ai Shin_Ai scanter Yukiyo Yonaka Yonaka- Moge-ko Mogeko Moge ko Moge_ko Reform Kujinn Japanese Pop Anime Video Game La+ Laplus- La+- Laplus
BeatmapID:1676788
BeatmapSetID:765499

[Difficulty]
HPDrainRate:6
CircleSize:4
OverallDifficulty:8
ApproachRate:9
SliderMultiplier:1.7
SliderTickRate:1

[Events]
//Background and Video events
0,0,"Sayo hot.jpg",0,0
//Break Periods
//Storyboard Layer 0 (Background)
//Storyboard Layer 1 (Fail)
//Storyboard Layer 2 (Pass)
//Storyboard Layer 3 (Foreground)
//Storyboard Layer 4 (Overlay)
//Storyboard Sound Samples

[TimingPoints]
3505,434.782608695652,4,2,12,30,1,0
3939,-100,4,2,12,45,0,0
4374,-100,4,2,12,40,0,0
4700,-100,4,2,12,45,0,0
5026,-100,4,2,12,40,0,0
5244,-100,4,2,12,30,0,0
5896,-100,4,2,12,20,0,0
6113,-100,4,2,12,30,0,0
6439,-100,4,2,12,40,0,0
6548,-100,4,2,12,30,0,0
6983,-100,4,2,12,25,0,0
8722,-100,4,2,12,15,0,0
9374,-100,4,2,12,25,0,0
9591,-100,4,2,12,30,0,0
10461,-100,4,2,12,40,0,0
11331,-100,4,2,11,70,0,0
12200,-66.6666666666667,4,2,11,80,0,1
24374,-100,4,2,11,50,0,0
24591,-100,4,2,12,50,0,0
27852,-125,4,2,12,40,0,0
28287,-125,4,2,12,20,0,0
28504,-125,4,2,12,40,0,0
29157,-125,4,2,12,20,0,0
29374,-125,4,2,12,40,0,0
30244,-125,4,2,12,30,0,0
30461,-125,4,2,12,50,0,0
30678,-125,4,2,12,40,0,0
30896,-125,4,2,12,30,0,0
31331,-125,4,2,12,40,0,0
31765,-125,4,2,12,20,0,0
31983,-125,4,2,12,40,0,0
32635,-125,4,2,12,20,0,0
33070,-125,4,2,12,40,0,0
33504,-125,4,2,12,30,0,0
33722,-125,4,2,12,40,0,0
33939,-125,4,2,12,60,0,0
34157,-125,4,2,12,45,0,0
34374,-125,4,2,12,30,0,0
34809,-125,4,2,12,40,0,0
35244,-125,4,2,12,30,0,0
35461,-125,4,2,12,40,0,0
36113,-125,4,2,12,30,0,0
36548,-125,4,2,12,40,0,0
38287,-125,4,2,12,50,0,0
39157,-100,4,2,12,55,0,0
40026,-83.3333333333333,4,2,12,60,0,0
40461,-83.3333333333333,4,2,12,50,0,0
40678,-83.3333333333333,4,2,11,50,0,0
40896,-66.6666666666667,4,2,11,70,0,0
41765,-83.3333333333333,4,2,11,80,0,0
48722,-100,4,2,11,80,0,0
49591,-66.6666666666667,4,2,11,80,0,0
50461,-100,4,2,11,80,0,0
51331,-66.6666666666667,4,2,11,80,0,0
52200,-100,4,2,11,60,0,0
53070,-66.6666666666667,4,2,11,80,0,0
53722,-100,4,2,11,60,0,0
54374,-100,4,2,11,50,0,0
54591,-90.9090909090909,4,2,11,55,0,0
54809,-83.3333333333333,4,2,11,60,0,0
55026,-76.9230769230769,4,2,11,65,0,0
55244,-71.4285714285714,4,2,11,70,0,0
55461,-66.6666666666667,4,2,11,75,0,0
55678,-66.6666666666667,4,2,11,80,0,0
57418,-66.6666666666667,4,2,11,90,0,0
63504,-83.3333333333333,4,2,11,90,0,0
63939,-66.6666666666667,4,2,11,70,0,0
64374,-125,4,2,11,50,0,0
65026,-125,4,2,12,40,0,0
65678,-125,4,2,12,45,0,0
66113,-125,4,2,12,50,0,0
66765,-125,4,2,12,55,0,0
67418,-125,4,2,11,70,0,0
67635,-100,4,2,11,60,0,0
67852,-83.3333333333333,4,2,11,80,0,0
71331,-83.3333333333333,4,2,11,90,0,0
72200,-76.9230769230769,4,2,11,60,0,0
73070,-71.4285714285714,4,2,11,60,0,0
73939,-66.6666666666667,4,2,11,60,0,0
74809,-58.8235294117647,4,2,11,100,0,1
81765,-83.3333333333333,4,2,11,90,0,0
82635,-66.6666666666667,4,2,11,90,0,0
83504,-83.3333333333333,4,2,11,90,0,0
85244,-66.6666666666667,4,2,11,100,0,1
86983,-62.5,4,2,11,100,0,1
87635,-58.8235294117647,4,2,11,90,0,0
88287,-55.5555555555556,4,2,11,90,0,0
88722,-50,4,2,11,100,0,1
89157,-50,4,2,11,80,0,1
89591,-83.3333333333333,4,2,11,80,0,1
95352,-83.3333333333333,4,2,11,90,0,0
95461,-66.6666666666667,4,2,11,75,0,1
98939,-100,4,2,11,60,0,0
100026,-90.9090909090909,4,2,11,60,0,0
100678,-83.3333333333333,4,2,11,60,0,0
102418,-66.6666666666667,4,2,11,80,0,1
103070,-100,4,2,11,50,0,1
103287,-90.9090909090909,4,2,11,55,0,1
103504,-83.3333333333333,4,2,11,60,0,1
103722,-71.4285714285714,4,2,11,65,0,1
103939,-62.5,4,2,11,70,0,1
104157,-55.5555555555556,4,2,11,100,0,0
105461,-83.3333333333333,4,2,11,70,0,0
105678,-66.6666666666667,4,2,11,80,0,0
106113,-83.3333333333333,4,2,11,70,0,1
106765,-100,4,2,11,60,0,0
111331,-100,4,2,12,40,0,0

[Colours]
Combo1 : 170,240,233
Combo2 : 64,224,208
Combo3 : 162,168,249
Combo4 : 92,99,240

[HitObjects]
154,319,3287,5,0,0:0:0:0:
158,330,3396,1,2,0:0:0:0:
161,341,3505,6,0,L|66:330,1,85,2|0,0:0|0:0,0:0:0:0:
236,287,3939,2,0,P|281:280|331:299,1,85,2|0,0:0|0:0,0:0:0:0:
166,163,4374,2,0,L|155:258,1,85,2|0,0:0|0:0,0:0:0:0:
258,384,4700,1,2,0:0:0:0:
273,370,4809,2,0,L|283:286,1,85,0|2,0:0|0:0,0:0:0:0:
180,144,5244,5,0,0:0:0:0:
165,60,5461,1,2,0:0:0:0:
244,88,5678,1,0,0:0:0:0:
259,172,5896,1,2,0:0:0:0:
99,114,6113,2,0,L|2:107,1,85,2|0,0:0|0:0,0:0:0:0:
180,144,6439,1,2,0:0:0:0:
199,153,6548,2,0,P|230:197|233:245,1,85,0|2,0:0|0:0,0:0:0:0:
259,84,6983,6,0,L|364:80,1,85,2|0,0:0|0:0,0:0:0:0:
424,37,7418,1,0,0:0:0:0:
475,269,7852,2,0,L|471:164,1,85,2|0,0:0|0:0,0:0:0:0:
356,261,8178,1,2,0:0:0:0:
367,283,8287,2,0,L|370:367,1,85,0|2,0:0|0:0,0:0:0:0:
300,196,8722,6,0,P|342:176|393:185,1,85,0|2,0:0|0:0,0:0:0:0:
225,153,9157,1,0,0:0:0:0:
356,261,9374,1,2,0:0:0:0:
433,112,9591,2,0,L|443:13,1,85,2|0,0:0|0:0,0:0:0:0:
334,158,9918,1,2,0:0:0:0:
322,175,10026,2,0,L|330:259,1,85,0|2,0:0|0:0,0:0:0:0:
474,327,10461,6,0,P|433:341|379:327,2,85,2|0|0,0:0|0:0|0:0,0:0:0:0:
149,228,11331,2,0,L|144:270,1,42.5,0|0,1:0|0:0,0:0:0:0:
228,63,11548,2,0,L|223:20,1,42.5,0|8,1:0|0:0,0:0:0:0:
68,178,11765,1,8,0:0:0:0:
60,233,11873,1,8,0:0:0:0:
54,288,11982,1,8,3:0:0:0:
52,301,12091,1,0,0:0:0:0:
51,313,12200,6,0,P|109:294|180:340,1,127.500004863739,6|0,1:2|0:0,0:0:0:0:
375,198,12635,2,0,P|315:179|286:124,1,127.500004863739,10|0,0:0|0:0,0:0:0:0:
36,119,13070,2,0,P|73:170|64:232,1,127.500004863739,2|0,1:2|0:0,0:0:0:0:
266,384,13504,2,0,P|266:321|309:276,1,127.500004863739,10|0,0:0|0:0,0:0:0:0:
232,37,13939,6,0,P|195:88|133:99,1,127.500004863739,2|0,1:2|0:0,0:0:0:0:
421,180,14374,2,0,L|501:172,1,63.7500024318696,10|0,0:0|0:0,0:0:0:0:
264,135,14591,1,2,0:0:0:0:
257,101,14700,1,2,0:0:0:0:
250,67,14809,2,0,L|203:1,1,63.7500024318696,2|0,1:2|0:0,0:0:0:0:
314,224,15026,1,2,0:0:0:0:
288,247,15135,1,2,0:0:0:0:
263,270,15244,2,0,L|229:343,1,63.7500024318696,10|0,0:2|0:0,0:0:0:0:
365,139,15461,1,2,0:0:0:0:
393,160,15569,1,2,0:0:0:0:
421,180,15678,6,0,P|476:169|513:111,1,127.500004863739,2|0,1:2|0:0,0:0:0:0:
343,240,16004,1,2,0:0:0:0:
314,224,16113,2,0,P|254:239|223:293,1,127.500004863739,10|2,0:0|0:0,0:0:0:0:
74,111,16548,2,0,L|201:121,1,127.500004863739,2|0,1:2|0:0,0:0:0:0:
222,293,16874,1,2,0:0:0:0:
194,312,16983,2,0,L|66:301,1,127.500004863739,8|2,0:0|0:0,0:0:0:0:
46,130,17309,1,0,0:0:0:0:
74,111,17418,6,0,L|202:122,1,127.500004863739,2|0,1:2|0:0,0:0:0:0:
325,191,17744,1,2,0:0:0:0:
349,212,17852,2,0,P|364:277|330:336,1,127.500004863739,8|2,0:0|0:0,0:0:0:0:
510,7,18287,1,2,1:2:0:0:
502,57,18396,1,8,0:0:0:0:
495,107,18504,1,0,1:0:0:0:
272,260,18722,2,0,P|296:263|339:251,1,63.7500024318696,8|0,0:0|0:0,0:0:0:0:
74,109,18939,1,10,0:0:0:0:
58,157,19048,1,10,0:0:0:0:
57,208,19157,6,0,P|70:258|86:279,1,63.7500024318696,6|2,1:2|0:0,0:0:0:0:
170,106,19374,2,0,P|157:56|141:35,1,63.7500024318696,2|2,0:0|0:0,0:0:0:0:
178,315,19591,2,0,P|209:310|238:296,1,63.7500024318696,10|0,0:0|0:0,0:0:0:0:
74,109,19809,2,0,P|24:122|3:138,1,63.7500024318696,2|0,0:0|0:0,0:0:0:0:
214,187,20026,2,0,L|344:182,1,127.500004863739,2|0,1:2|0:0,0:0:0:0:
504,342,20461,1,8,0:0:0:0:
430,103,20678,1,2,0:0:0:0:
431,153,20786,1,2,0:0:0:0:
433,204,20896,6,0,L|435:269,1,63.7500024318696,2|2,1:2|0:0,0:0:0:0:
292,96,21113,2,0,L|294:31,1,63.7500024318696,2|2,0:0|0:0,0:0:0:0:
327,266,21331,2,0,L|262:268,1,63.7500024318696,10|0,0:0|0:0,0:0:0:0:
113,125,21548,2,0,L|176:127,1,63.7500024318696,2|0,0:0|0:0,0:0:0:0:
178,315,21765,1,2,1:2:0:0:
137,340,21874,2,0,P|71:347|2:308,1,127.500004863739,8|0,0:0|1:0,0:0:0:0:
210,131,22200,2,0,L|207:194,1,63.7500024318696,8|0,0:0|0:0,0:0:0:0:
378,340,22418,1,2,1:2:0:0:
377,320,22526,1,2,0:0:0:0:
420,246,22635,6,0,P|368:235|300:281,1,127.500004863739,14|0,0:0|0:0,0:0:0:0:
245,17,22961,2,0,P|261:67|335:103,1,127.500004863739,10|0,0:0|0:0,0:0:0:0:
146,221,23287,2,0,P|163:194|166:162,1,63.7500024318696,10|0,0:0|0:0,0:0:0:0:
339,13,23504,1,6,1:2:0:0:
306,270,23722,1,0,1:0:0:0:
254,267,23831,1,8,0:0:0:0:
203,264,23939,1,8,0:0:0:0:
151,261,24048,1,8,0:0:0:0:
99,258,24157,2,0,L|33:254,1,63.7500024318696,8|0,3:0|0:0,0:0:0:0:
267,171,24374,6,0,P|301:165|385:193,2,85,6|2|2,0:0|0:0|0:0,0:0:0:0:
170,104,25026,2,0,P|137:88|93:17,2,85,2|2|2,0:0|0:0|0:0,0:0:0:0:
207,215,25678,2,0,P|222:247|222:335,2,85,2|0|2,0:0|3:0|3:2,0:0:0:0:
243,104,26331,2,0,P|247:69|293:-3,2,85,2|2|2,0:0|0:0|0:0,0:0:0:0:
148,173,26983,2,0,P|122:199|43:231,1,85,2|0,0:0|0:0,0:0:0:0:
230,209,27418,1,0,0:0:0:0:
246,210,27635,1,0,0:0:0:0:
366,146,27852,6,0,B|376:119|376:119|373:64,2,68,2|0|0,0:0|0:0|0:0,0:0:0:0:
405,228,28504,1,0,0:0:0:0:
372,362,28722,2,0,L|282:358,1,68,2|0,0:0|0:0,0:0:0:0:
278,367,29048,1,0,0:0:0:0:
252,375,29157,2,0,L|162:371,1,68,0|0,0:0|0:0,0:0:0:0:
81,301,29591,5,2,0:0:0:0:
73,313,29809,1,0,0:0:0:0:
157,240,30026,1,0,0:0:0:0:
171,240,30244,1,2,0:0:0:0:
72,207,30461,1,2,0:0:0:0:
65,194,30679,1,2,0:0:0:0:
0,263,30896,1,2,0:0:0:0:
144,149,31113,1,2,0:0:0:0:
0,67,31331,6,0,B|-5:44|-5:44|1:-3,2,68,2|0|0,0:0|0:0|0:0,0:0:0:0:
72,207,31983,1,0,0:0:0:0:
231,65,32200,2,0,P|192:57|141:70,1,68,2|0,0:0|0:0,0:0:0:0:
281,145,32635,1,2,0:0:0:0:
325,59,32852,1,0,0:0:0:0:
192,152,33070,6,0,L|104:156,1,68,2|0,0:0|0:0,0:0:0:0:
100,168,33396,1,0,0:0:0:0:
76,182,33504,2,0,L|-12:186,1,68,0|2,0:0|0:0,0:0:0:0:
242,234,33939,1,2,0:0:0:0:
124,155,34157,1,2,0:0:0:0:
155,238,34374,1,2,0:0:0:0:
131,322,34591,1,2,0:0:0:0:
327,268,34809,6,0,P|334:232|327:199,1,68,2|0,0:0|0:0,0:0:0:0:
293,114,35244,1,2,0:0:0:0:
453,121,35461,1,2,0:0:0:0:
453,121,35678,2,0,L|385:125,1,68,2|0,0:0|0:0,0:0:0:0:
358,118,36004,1,0,0:0:0:0:
331,111,36113,2,0,L|263:115,1,68,2|0,0:0|0:0,0:0:0:0:
207,247,36548,6,0,P|195:210|205:168,1,68,2|0,0:0|0:0,0:0:0:0:
261,30,36983,2,0,P|273:67|263:109,1,68,0|0,0:0|0:0,0:0:0:0:
128,282,37418,2,0,P|112:233|123:142,1,136,2|0,0:0|0:0,0:0:0:0:
287,212,38070,1,0,0:0:0:0:
287,212,38178,1,0,0:0:0:0:
287,212,38287,6,0,L|370:206,2,68,2|0|0,0:0|0:0|0:0,0:0:0:0:
471,342,38939,1,2,0:0:0:0:
471,342,39157,2,0,L|382:338,1,85,2|0,0:0|0:0,0:0:0:0:
436,257,39591,2,0,P|448:218|436:160,1,85,0|2,0:0|0:0,0:0:0:0:
325,0,39918,1,0,0:0:0:0:
305,38,40026,2,0,P|296:80|314:143,1,101.999996887207,2|2,0:0|0:0,0:0:0:0:
206,259,40461,2,0,L|147:253,1,50.9999984436036,2|2,0:0|0:0,0:0:0:0:
282,290,40678,2,0,L|320:287,2,33.9999989624024,0|0|0,1:0|1:0|1:0,0:0:0:0:
133,252,40896,6,0,P|129:218|142:186,1,63.7500024318696,8|0,0:0|0:0,0:0:0:0:
391,264,41222,2,0,P|395:298|382:330,1,63.7500024318696,8|0,0:0|0:0,0:0:0:0:
290,384,41439,1,8,0:0:0:0:
290,384,41548,2,0,L|218:379,1,63.7500024318696,8|0,0:0|0:0,0:0:0:0:
458,184,41765,6,0,L|312:174,1,101.999996887207,6|0,1:2|0:0,0:0:0:0:
155,253,42200,1,8,0:0:0:0:
236,32,42418,1,0,0:0:0:0:
34,59,42635,2,0,P|22:110|43:170,1,101.999996887207,2|0,1:2|0:0,0:0:0:0:
270,148,43070,2,0,L|124:158,1,101.999996887207,8|0,0:0|0:0,0:0:0:0:
78,375,43504,6,0,P|90:324|69:264,1,101.999996887207,2|0,1:2|0:0,0:0:0:0:
58,240,43831,1,0,0:0:0:0:
37,204,43939,2,0,P|24:155|36:106,1,101.999996887207,8|2,0:0|0:0,0:0:0:0:
172,254,44374,1,0,1:0:0:0:
242,67,44591,1,0,0:0:0:0:
123,155,44809,1,8,0:0:0:0:
299,287,45026,1,0,0:0:0:0:
428,100,45244,6,0,B|437:72|437:72|430:-2,1,101.999996887207,2|0,1:2|0:0,0:0:0:0:
494,175,45678,1,8,0:0:0:0:
346,57,45896,1,0,0:0:0:0:
385,281,46113,1,2,1:2:0:0:
428,100,46331,1,0,0:0:0:0:
203,182,46548,1,8,0:0:0:0:
346,365,46765,1,0,0:0:0:0:
472,189,46983,6,0,L|358:193,1,101.999996887207,0|2,1:0|0:0,0:0:0:0:
332,209,47309,1,0,0:0:0:0:
295,226,47418,2,0,L|181:230,1,101.999996887207,8|2,0:0|0:0,0:0:0:0:
92,45,47852,1,0,1:0:0:0:
63,74,47961,2,0,P|52:124|71:180,1,101.999996887207,8|2,0:0|0:0,0:0:0:0:
236,252,48287,2,0,P|217:235|192:228,1,50.9999984436036,10|0,0:0|0:0,0:0:0:0:
37,329,48504,2,0,P|61:321|78:303,1,50.9999984436036,2|0,1:2|0:0,0:0:0:0:
191,118,48722,6,0,L|149:120,1,42.5,6|0,1:2|0:0,0:0:0:0:
332,209,48939,1,0,1:0:0:0:
347,209,49048,1,8,3:0:0:0:
362,210,49156,1,0,1:0:0:0:
377,210,49265,1,8,3:0:0:0:
393,211,49374,2,0,L|462:212,1,42.5,4|0,3:0|0:0,0:0:0:0:
282,17,49591,6,0,B|264:80|264:80|287:147,1,127.500004863739,14|0,0:0|0:0,0:0:0:0:
417,346,49918,2,0,B|371:298|371:298|301:285,1,127.500004863739,10|0,0:0|0:0,0:0:0:0:
119,255,50244,2,0,B|150:247|150:247|174:220,1,63.7500024318696,10|0,0:0|0:0,0:0:0:0:
77,335,50461,6,0,L|11:332,1,42.5,6|0,0:0|0:0,0:0:0:0:
178,145,50678,1,8,0:0:0:0:
232,141,50786,1,8,0:0:0:0:
284,138,50895,1,8,0:0:0:0:
298,136,51004,1,8,3:0:0:0:
312,136,51113,2,0,L|389:131,1,42.5,0|0,1:0|1:0,0:0:0:0:
93,93,51331,6,0,P|80:156|109:216,1,127.500004863739,14|0,0:0|0:0,0:0:0:0:
354,133,51657,2,0,P|367:70|338:10,1,127.500004863739,10|0,0:0|0:0,0:0:0:0:
188,236,51983,2,0,L|269:229,1,63.7500024318696,10|0,0:0|0:0,0:0:0:0:
420,285,52200,6,0,B|396:298|396:298|322:292,1,85,6|0,1:2|0:0,0:0:0:0:
450,189,52635,1,0,0:0:0:0:
278,83,52852,1,8,3:0:0:0:
278,83,52961,1,8,3:0:0:0:
278,83,53070,2,0,P|206:88|160:132,1,127.500004863739,14|0,0:0|0:0,0:0:0:0:
308,323,53396,2,0,P|380:318|426:274,1,127.500004863739,10|0,0:0|0:0,0:0:0:0:
159,224,53722,6,0,B|22:205|22:205|69:236,1,170,6|0,0:0|0:0,0:0:0:0:
241,256,54374,2,0,P|246:240|242:195,1,42.5,8|0,0:0|0:0,0:0:0:0:
100,305,54591,2,0,P|106:334|102:368,1,46.7500014266968,8|0,0:0|0:0,0:0:0:0:
159,224,54809,2,0,P|149:200|128:176,1,50.9999984436036,8|0,0:0|0:0,0:0:0:0:
291,335,55026,2,0,P|248:350|213:343,1,55.2499974708558,8|0,0:0|0:0,0:0:0:0:
404,202,55244,2,0,P|441:205|468:224,1,59.4999981842042,8|0,0:0|0:0,0:0:0:0:
208,106,55461,2,0,P|176:104|131:84,1,63.7500024318696,8|0,0:0|0:0,0:0:0:0:
378,41,55678,6,0,L|450:36,1,63.7500024318696,2|0,1:2|0:0,0:0:0:0:
328,260,55896,1,8,0:0:0:0:
328,260,56004,1,8,0:0:0:0:
328,260,56113,2,0,L|323:188,1,63.7500024318696,10|4,0:0|3:0,0:0:0:0:
150,29,56331,2,0,L|145:101,1,63.7500024318696,2|2,1:2|1:2,0:0:0:0:
262,329,56548,1,8,0:0:0:0:
233,306,56656,1,4,3:0:0:0:
196,301,56765,1,4,3:0:0:0:
162,315,56874,1,4,3:0:0:0:
99,356,56983,2,0,P|77:359|33:351,1,63.7500024318696,8|0,0:0|0:0,0:0:0:0:
166,216,57200,2,0,P|200:211|234:220,1,63.7500024318696,2|0,0:0|0:0,0:0:0:0:
485,366,57418,5,14,0:0:0:0:
433,371,57526,1,8,0:0:0:0:
381,377,57635,1,8,0:0:0:0:
329,384,57744,1,8,0:0:0:0:
0,159,58070,5,10,0:0:0:0:
52,166,58178,1,8,0:0:0:0:
104,172,58287,1,8,0:0:0:0:
156,177,58396,1,8,0:0:0:0:
512,0,58722,5,10,0:0:0:0:
460,5,58830,1,8,0:0:0:0:
408,11,58939,1,8,0:0:0:0:
356,18,59048,1,8,0:0:0:0:
278,24,59157,5,10,0:0:0:0:
232,2,59265,1,8,0:0:0:0:
181,6,59374,1,8,0:0:0:0:
136,30,59483,1,8,0:0:0:0:
370,268,59809,5,10,0:0:0:0:
416,246,59917,1,8,0:0:0:0:
467,250,60026,1,8,0:0:0:0:
512,274,60135,1,8,0:0:0:0:
185,351,60461,5,10,0:0:0:0:
139,329,60569,1,8,0:0:0:0:
88,333,60678,1,8,0:0:0:0:
43,357,60787,1,8,0:0:0:0:
5,283,60896,5,10,0:0:0:0:
9,231,61004,1,8,0:0:0:0:
14,180,61113,1,8,0:0:0:0:
19,129,61222,1,8,0:0:0:0:
267,230,61548,5,10,0:0:0:0:
271,282,61656,1,8,0:0:0:0:
276,333,61765,1,8,0:0:0:0:
281,384,61874,1,8,0:0:0:0:
495,202,62200,5,10,0:0:0:0:
499,150,62308,1,8,0:0:0:0:
504,99,62417,1,8,0:0:0:0:
509,48,62526,1,8,0:0:0:0:
444,7,62635,5,10,0:0:0:0:
405,40,62743,1,8,0:0:0:0:
354,49,62852,1,8,0:0:0:0:
305,37,62961,1,8,0:0:0:0:
17,163,63287,5,10,0:0:0:0:
60,190,63396,1,8,0:0:0:0:
111,188,63504,2,0,L|176:181,1,50.9999984436036,0|8,1:2|0:0,0:0:0:0:
68,274,63722,2,0,P|40:273|8:260,1,50.9999984436036,8|8,3:0|3:0,0:0:0:0:
218,112,63939,2,0,L|344:124,1,127.500004863739,8|0,0:0|0:0,0:0:0:0:
463,384,64374,6,0,P|429:326|446:262,1,136,4|0,0:0|0:0,0:0:0:0:
430,176,65026,2,0,P|446:111|413:54,1,136,2|0,0:0|0:0,0:0:0:0:
330,87,65678,1,2,0:0:0:0:
256,45,65896,1,0,0:0:0:0:
174,79,66113,6,0,B|151:86|151:86|49:74,2,102,2|0|2,0:0|0:0|0:0,0:0:0:0:
75,288,67418,1,8,0:0:0:0:
122,292,67526,1,8,3:0:0:0:
169,296,67635,2,0,L|234:301,1,42.5,4|4,3:0|3:0,0:0:0:0:
399,189,67852,6,0,L|283:199,1,101.999996887207,6|0,0:0|0:0,0:0:0:0:
261,193,68178,1,0,0:0:0:0:
236,167,68287,2,0,P|214:123|225:58,1,101.999996887207,8|0,0:0|0:0,0:0:0:0:
361,281,68722,1,2,1:2:0:0:
310,104,68939,1,0,0:0:0:0:
131,161,69157,2,0,L|7:155,1,101.999996887207,8|0,0:0|0:0,0:0:0:0:
310,358,69591,6,0,P|350:374|412:357,1,101.999996887207,2|0,1:2|0:0,0:0:0:0:
434,339,69918,1,0,0:0:0:0:
447,306,70026,2,0,L|453:194,1,101.999996887207,8|0,0:0|0:0,0:0:0:0:
226,117,70461,1,2,1:2:0:0:
361,281,70678,1,2,1:2:0:0:
482,91,70896,1,8,0:0:0:0:
482,91,71004,1,8,0:0:0:0:
482,91,71113,2,0,L|486:30,1,50.9999984436036,8|0,3:0|0:0,0:0:0:0:
344,192,71331,6,0,B|309:210|309:210|247:205,1,101.999996887207,14|0,0:0|0:0,0:0:0:0:
145,57,71620,2,0,B|181:81|181:81|204:135,1,101.999996887207,10|0,0:0|0:0,0:0:0:0:
132,302,71910,2,0,B|134:261|134:261|170:211,1,101.999996887207,10|0,0:0|0:0,0:0:0:0:
288,119,72200,6,0,P|300:65|273:-2,1,110.499994941712,10|0,0:0|0:0,0:0:0:0:
227,288,72490,2,0,P|267:325|339:335,1,110.499994941712,10|0,0:0|0:0,0:0:0:0:
108,146,72780,2,0,P|55:161|10:219,1,110.499994941712,10|0,0:0|0:0,0:0:0:0:
317,238,73070,5,12,0:0:0:0:
334,236,73178,1,8,0:0:0:0:
352,233,73287,1,8,3:0:0:0:
369,229,73396,1,8,3:0:0:0:
412,208,73504,5,4,3:0:0:0:
427,198,73612,1,4,3:0:0:0:
440,187,73721,1,2,1:2:0:0:
453,175,73830,1,0,1:0:0:0:
481,97,73939,6,0,L|473:251,1,127.500004863739,12|0,0:0|0:0,0:0:0:0:
204,135,74374,2,0,L|196:-19,1,127.500004863739,12|0,0:0|0:0,0:0:0:0:
404,276,74809,6,0,P|330:306|260:268,1,144.500002756119,6|0,1:2|0:0,0:0:0:0:
101,16,75244,1,8,0:0:0:0:
219,193,75461,1,2,0:0:0:0:
187,227,75570,2,0,P|168:281|174:316,1,72.2500013780594,0|0,0:0|1:0,0:0:0:0:
74,114,75896,1,0,0:0:0:0:
336,206,76113,1,10,0:0:0:0:
145,381,76331,6,0,L|-13:385,1,144.500002756119,2|2,0:0|1:2,0:0:0:0:
164,114,76765,1,0,0:0:0:0:
345,338,76983,1,10,0:0:0:0:
483,55,77200,1,0,0:0:0:0:
483,55,77309,1,0,0:0:0:0:
483,55,77418,1,2,1:2:0:0:
191,134,77635,1,0,0:0:0:0:
353,363,77852,1,8,0:0:0:0:
264,71,78070,6,0,P|202:37|134:56,1,144.500002756119,2|2,0:0|1:2,0:0:0:0:
337,271,78504,1,0,0:0:0:0:
486,50,78722,1,8,0:0:0:0:
391,349,78939,2,0,P|323:368|261:334,1,144.500002756119,2|2,0:0|1:2,0:0:0:0:
167,105,79374,1,0,0:0:0:0:
426,204,79591,1,8,0:0:0:0:
144,368,79809,6,0,L|-18:356,1,144.500002756119,2|2,0:0|1:2,0:0:0:0:
262,174,80244,1,0,0:0:0:0:
31,38,80461,1,8,0:0:0:0:
176,290,80678,1,0,0:0:0:0:
176,290,80787,1,0,0:0:0:0:
176,290,80896,2,0,P|171:249|188:201,2,72.2500013780594,2|8|2,1:2|0:0|1:2,0:0:0:0:
404,23,81331,2,0,L|319:32,1,72.2500013780594,10|0,0:0|0:0,0:0:0:0:
115,129,81548,2,0,L|187:137,1,72.2500013780594,2|0,0:0|0:0,0:0:0:0:
332,251,81765,6,0,L|252:260,1,50.9999984436036,6|0,1:2|0:0,0:0:0:0:
55,43,81983,1,8,0:0:0:0:
105,48,82091,1,8,0:0:0:0:
156,54,82200,1,8,0:0:0:0:
207,59,82309,1,8,0:0:0:0:
257,65,82417,1,2,1:2:0:0:
424,281,82635,2,0,P|429:246|411:197,2,63.7500024318696,2|8|2,0:0|0:0|1:2,0:0:0:0:
404,23,83070,2,0,P|433:24|476:42,1,63.7500024318696,8|0,0:0|0:0,0:0:0:0:
251,234,83287,2,0,P|222:233|179:215,1,63.7500024318696,2|0,0:0|0:0,0:0:0:0:
366,105,83504,6,0,P|435:112|484:144,1,101.999996887207,6|0,1:2|0:0,0:0:0:0:
499,211,83831,1,8,0:0:0:0:
499,211,83939,2,0,L|507:280,2,50.9999984436036,4|4|2,3:0|3:0|1:2,0:0:0:0:
342,93,84374,1,2,0:0:0:0:
345,61,84482,1,8,0:0:0:0:
348,29,84591,1,0,1:0:0:0:
94,198,84809,1,8,0:0:0:0:
99,252,84917,1,8,0:0:0:0:
104,306,85026,2,0,L|111:368,1,50.9999984436036,0|0,1:0|0:0,0:0:0:0:
145,105,85244,6,0,P|91:90|9:130,1,127.500004863739,6|0,1:2|0:0,0:0:0:0:
269,325,85678,1,8,0:0:0:0:
473,117,85896,1,0,0:0:0:0:
473,117,86004,1,0,0:0:0:0:
473,117,86113,2,0,L|323:125,1,127.500004863739,2|0,1:2|0:0,0:0:0:0:
94,198,86548,2,0,L|212:205,1,63.7500024318696,8|0,0:0|0:0,0:0:0:0:
349,358,86765,2,0,L|285:361,1,63.7500024318696,2|0,0:0|0:0,0:0:0:0:
235,136,86983,6,0,P|260:216|222:283,1,136,14|0,0:0|0:0,0:0:0:0:
473,117,87309,2,0,P|391:98|352:32,1,136,10|0,0:0|0:0,0:0:0:0:
338,350,87635,2,0,P|399:260|517:256,1,216.750004134178,6|0,1:2|0:0,0:0:0:0:
500,250,88070,1,2,0:0:0:0:
157,201,88287,2,0,L|63:196,1,76.4999976654053,8|8,0:0|0:0,0:0:0:0:
360,59,88504,2,0,L|443:53,1,76.4999976654053,8|8,0:0|0:0,0:0:0:0:
190,330,88722,6,0,P|108:356|16:310,1,170,6|0,1:2|1:0,0:0:0:0:
241,204,89157,1,0,1:0:0:0:
368,337,89374,1,2,1:2:0:0:
277,118,89591,2,0,P|237:108|161:155,1,101.999996887207,8|0,0:0|1:0,0:0:0:0:
260,285,90026,1,2,1:2:0:0:
97,141,90244,1,8,0:0:0:0:
264,258,90461,5,2,1:2:0:0:
360,59,90678,1,8,0:0:0:0:
195,97,90896,2,0,P|177:170|189:214,1,101.999996887207,0|0,1:0|1:0,0:0:0:0:
394,87,91331,2,0,L|293:79,1,101.999996887207,8|0,0:0|1:0,0:0:0:0:
374,286,91765,2,0,L|475:277,1,101.999996887207,0|0,1:0|1:0,0:0:0:0:
219,147,92200,6,0,L|117:138,1,101.999996887207,2|0,1:2|1:0,0:0:0:0:
87,144,92526,1,0,0:0:0:0:
56,149,92635,2,0,P|34:197|36:251,1,101.999996887207,0|0,1:0|1:0,0:0:0:0:
297,212,93070,2,0,P|319:164|317:110,1,101.999996887207,10|0,0:0|1:0,0:0:0:0:
206,238,93504,1,2,1:2:0:0:
416,342,93722,1,8,0:0:0:0:
458,146,93939,5,0,1:0:0:0:
434,371,94157,1,8,0:0:0:0:
315,199,94374,1,0,1:0:0:0:
483,239,94591,1,2,1:2:0:0:
257,384,94809,1,8,0:0:0:0:
117,94,95026,1,8,0:0:0:0:
114,145,95135,1,8,0:0:0:0:
111,196,95244,1,8,0:0:0:0:
108,246,95352,1,8,0:0:0:0:
106,297,95461,6,0,P|179:279|245:313,1,127.500004863739,6|0,1:2|0:0,0:0:0:0:
38,369,95896,1,2,0:0:0:0:
205,180,96113,2,0,L|213:52,1,127.500004863739,8|0,0:0|0:0,0:0:0:0:
446,209,96548,2,0,L|454:337,1,127.500004863739,2|0,1:2|0:0,0:0:0:0:
339,56,96983,1,8,0:0:0:0:
226,296,97200,6,0,P|286:314|346:295,1,127.500004863739,6|0,1:2|0:0,0:0:0:0:
141,360,97635,1,2,0:0:0:0:
287,210,97852,1,8,0:0:0:0:
73,100,98070,2,0,L|65:228,1,127.500004863739,0|2,0:0|1:2,0:0:0:0:
287,210,98504,1,0,0:0:0:0:
157,51,98722,1,10,0:0:0:0:
374,170,98939,6,0,L|458:174,1,85,6|0,1:2|0:0,0:0:0:0:
245,274,99374,2,0,L|186:270,1,42.5,2|0,1:2|0:0,0:0:0:0:
269,122,99591,2,0,L|265:80,1,42.5,10|0,0:0|0:0,0:0:0:0:
458,174,99809,2,0,L|456:196,2,21.25,10|8|8,0:0|0:0|0:0,0:0:0:0:
393,256,100026,2,0,L|397:355,1,93.5000028533936,10|4,0:0|3:0,0:0:0:0:
493,384,100461,1,4,3:0:0:0:
321,206,100678,6,0,P|232:172|143:238,1,203.999993774414,14|2,0:0|1:2,0:0:0:0:
371,124,101331,2,0,L|474:119,1,101.999996887207,8|2,0:0|1:2,0:0:0:0:
314,353,101765,1,8,0:0:0:0:
89,209,101983,1,8,0:0:0:0:
65,169,102091,1,8,0:0:0:0:
60,123,102200,1,8,0:0:0:0:
76,79,102309,1,8,0:0:0:0:
108,46,102418,6,0,L|249:41,1,127.500004863739,6|0,1:2|0:0,0:0:0:0:
21,5,102852,1,0,1:0:0:0:
162,137,103070,2,0,P|189:133|225:143,1,42.5,8|0,0:0|0:0,0:0:0:0:
321,206,103287,2,0,P|285:204|270:196,1,46.7500014266968,8|0,0:0|0:0,0:0:0:0:
317,49,103504,2,0,P|351:33|380:34,1,50.9999984436036,8|0,0:0|0:0,0:0:0:0:
141,224,103722,2,0,P|121:219|89:193,1,59.4999981842042,8|0,0:0|0:0,0:0:0:0:
407,171,103939,2,0,P|412:225|396:260,1,68,8|0,0:0|0:0,0:0:0:0:
92,348,104157,6,0,L|90:195,1,152.999995330811,6|0,1:2|0:0,0:0:0:0:
376,16,104591,1,10,0:0:0:0:
512,345,104809,1,10,0:0:0:0:
300,63,105461,2,0,L|304:21,2,33.9999989624024,0|0|0,1:0|1:0|1:0,0:0:0:0:
241,128,105678,2,0,P|198:146|64:85,1,191.250007295609,8|0,0:0|0:0,0:0:0:0:
324,147,106113,6,0,P|409:122|513:247,1,254.999992218018,6|0,1:2|0:0,0:0:0:0:
449,370,106765,1,6,1:2:0:0:
256,192,106820,12,2,111331,0:0:0:0:
