osu file format v14

[General]
AudioFilename: Shin Ai.mp3
AudioLeadIn: 0
PreviewTime: 74048
Countdown: 0
SampleSet: Soft
StackLeniency: 0.4
Mode: 0
LetterboxInBreaks: 0
WidescreenStoryboard: 0

[Editor]
DistanceSpacing: 1.3
BeatDivisor: 4
GridSize: 32
TimelineZoom: 2.2

[Metadata]
Title:Shin'ai
TitleUnicode:深愛
Artist:Roselia
ArtistUnicode:Roselia
Creator:-Aqua
Version:Hard
Source:バンドリ! ガールズバンドパーティ!
Tags:BanG Dream! Bandori! Girls Band Party! ガルパ Garupa insert cover original song single album Bandori project Girl Party Garupa! Fries Fried Potato Anfang Rozeria ロゼリア Minato Yukina 湊友希那 Hikawa Sayo 氷川紗夜 Imai Lisa 今井リサ Udagawa Ako 宇田川あこ Shirokane Rinko 白金燐子 Aiba Aina Aiai 相羽あいな Kudō Haruka Kudo Kudou Kudoharu Kdhr 工藤晴香 Endō Yurika Endo Endou Yurishii 遠藤ゆりか Sakuragawa Megu Meguchii 桜川めぐ Akesaka Satomi Akeko 明坂聡美 Noriyasu Agematsu Nana Mizuki 奈々水樹 WHITE ALBUM ホワイトアルバム Deep Love ShinAi Shin Ai Shin_Ai scanter Yukiyo Yonaka Yonaka- Moge-ko Mogeko Moge ko Moge_ko Reform Kujinn Japanese Pop Anime Video Game La+ Laplus- La+- Laplus
BeatmapID:1670350
BeatmapSetID:765499

[Difficulty]
HPDrainRate:6
CircleSize:4
OverallDifficulty:6
ApproachRate:8
SliderMultiplier:1.5
SliderTickRate:1

[Events]
//Background and Video events
0,0,"Sayo hot.jpg",0,0
//Break Periods
//Storyboard Layer 0 (Background)
//Storyboard Layer 1 (Fail)
//Storyboard Layer 2 (Pass)
//Storyboard Layer 3 (Foreground)
//Storyboard Layer 4 (Overlay)
//Storyboard Sound Samples

[TimingPoints]
3505,434.782608695652,4,2,12,30,1,0
3505,-100,4,2,12,30,0,0
3939,-100,4,2,12,45,0,0
4374,-100,4,2,12,40,0,0
4700,-100,4,2,12,45,0,0
5026,-100,4,2,12,40,0,0
5244,-100,4,2,12,30,0,0
5896,-100,4,2,12,20,0,0
6113,-100,4,2,12,30,0,0
6439,-100,4,2,12,40,0,0
6548,-100,4,2,12,30,0,0
6983,-100,4,2,12,25,0,0
8722,-100,4,2,12,15,0,0
9374,-100,4,2,12,25,0,0
9591,-100,4,2,12,30,0,0
10461,-100,4,2,12,40,0,0
11331,-100,4,2,11,70,0,0
12200,-90.9090909090909,4,2,11,80,0,1
24374,-100,4,2,11,50,0,0
24591,-100,4,2,12,50,0,0
27418,-100,4,2,12,50,0,0
27852,-100,4,2,12,40,0,0
28287,-100,4,2,12,20,0,0
28504,-100,4,2,12,40,0,0
29157,-100,4,2,12,20,0,0
29374,-100,4,2,12,40,0,0
30244,-100,4,2,12,30,0,0
30461,-100,4,2,12,50,0,0
30678,-100,4,2,12,40,0,0
30896,-100,4,2,12,30,0,0
31331,-100,4,2,12,40,0,0
31765,-100,4,2,12,20,0,0
31983,-100,4,2,12,40,0,0
32635,-100,4,2,12,20,0,0
33070,-100,4,2,12,40,0,0
33504,-100,4,2,12,30,0,0
33722,-100,4,2,12,40,0,0
33939,-100,4,2,12,60,0,0
34157,-100,4,2,12,45,0,0
34374,-100,4,2,12,30,0,0
34809,-100,4,2,12,40,0,0
35244,-100,4,2,12,30,0,0
35461,-100,4,2,12,40,0,0
36113,-100,4,2,12,30,0,0
36548,-100,4,2,12,40,0,0
38287,-100,4,2,12,50,0,0
39157,-100,4,2,12,55,0,0
40026,-100,4,2,12,60,0,0
40461,-100,4,2,12,50,0,0
40678,-100,4,2,11,50,0,0
40896,-100,4,2,11,70,0,0
41765,-100,4,2,11,80,0,0
44483,-100,4,2,11,80,0,0
44591,-100,4,2,11,80,0,0
49809,-100,4,2,11,80,0,0
49918,-100,4,2,11,80,0,0
50135,-100,4,2,11,80,0,0
50244,-100,4,2,11,80,0,0
51548,-100,4,2,11,80,0,0
51657,-100,4,2,11,80,0,0
51874,-100,4,2,11,80,0,0
51983,-100,4,2,11,80,0,0
52200,-100,4,2,11,60,0,0
53070,-100,4,2,11,80,0,0
53287,-100,4,2,11,80,0,0
53396,-100,4,2,11,80,0,0
53613,-100,4,2,11,80,0,0
53722,-100,4,2,11,60,0,0
54157,-100,4,2,11,60,0,0
54374,-100,4,2,11,50,0,0
54591,-100,4,2,11,55,0,0
54809,-100,4,2,11,60,0,0
55026,-100,4,2,11,65,0,0
55244,-100,4,2,11,70,0,0
55461,-100,4,2,11,75,0,0
55678,-100,4,2,11,80,0,0
57418,-100,4,2,11,90,0,0
63939,-100,4,2,11,70,0,0
64374,-100,4,2,11,50,0,0
65026,-100,4,2,12,40,0,0
65678,-100,4,2,12,45,0,0
66113,-100,4,2,12,50,0,0
66765,-100,4,2,12,55,0,0
67418,-100,4,2,11,70,0,0
67635,-100,4,2,11,60,0,0
67852,-100,4,2,11,80,0,0
71331,-100,4,2,11,90,0,0
72200,-100,4,2,11,60,0,0
74809,-90.9090909090909,4,2,11,100,0,1
77526,-90.9090909090909,4,2,11,100,0,1
77635,-90.9090909090909,4,2,11,100,0,1
81765,-100,4,2,11,90,0,0
85244,-90.9090909090909,4,2,11,100,0,1
87200,-90.9090909090909,4,2,11,100,0,1
87309,-90.9090909090909,4,2,11,100,0,1
87526,-90.9090909090909,4,2,11,100,0,1
87635,-90.9090909090909,4,2,11,90,0,0
87961,-90.9090909090909,4,2,11,90,0,0
88070,-90.9090909090909,4,2,11,90,0,0
88722,-90.9090909090909,4,2,11,100,0,1
89157,-90.9090909090909,4,2,11,80,0,1
95352,-90.9090909090909,4,2,11,90,0,0
95461,-90.9090909090909,4,2,11,75,0,1
98939,-100,4,2,11,60,0,0
102418,-90.9090909090909,4,2,11,80,0,1
103070,-90.9090909090909,4,2,11,50,0,1
103287,-90.9090909090909,4,2,11,55,0,1
103504,-90.9090909090909,4,2,11,60,0,1
103722,-90.9090909090909,4,2,11,65,0,1
103939,-90.9090909090909,4,2,11,70,0,1
104157,-100,4,2,11,100,0,0
105461,-100,4,2,11,70,0,0
105678,-100,4,2,11,80,0,0
106113,-90.9090909090909,4,2,11,70,0,1
106657,-90.9090909090909,4,2,11,70,0,1
106765,-100,4,2,11,60,0,0
111331,-100,4,2,12,40,0,0

[Colours]
Combo1 : 170,240,233
Combo2 : 64,224,208
Combo3 : 162,168,249
Combo4 : 92,99,240

[HitObjects]
64,64,3287,6,0,L|127:69,1,37.5,0|2,0:0|0:0,0:0:0:0:
138,33,3505,2,0,L|297:19,1,150,2|2,0:0|0:0,0:0:0:0:
452,126,4374,2,0,P|475:75|457:12,2,112.5,2|2|2,0:0|0:0|0:0,0:0:0:0:
369,178,5244,5,0,0:0:0:0:
369,178,5461,2,0,L|274:186,1,75,2|0,0:0|0:0,0:0:0:0:
217,244,5896,1,2,0:0:0:0:
119,240,6113,2,0,L|6:230,2,112.5,2|2|2,0:0|0:0|0:0,0:0:0:0:
163,327,6983,6,0,L|312:313,1,150,2|0,0:0|0:0,0:0:0:0:
320,320,7852,2,0,L|432:329,2,112.5,2|2|2,0:0|0:0|0:0,0:0:0:0:
236,269,8722,5,0,0:0:0:0:
321,222,8939,2,0,P|337:180|331:141,1,75,2|0,0:0|0:0,0:0:0:0:
286,65,9374,1,2,0:0:0:0:
365,9,9591,2,0,L|477:18,2,112.5,2|2|2,0:0|0:0|0:0,0:0:0:0:
286,65,10461,5,2,0:0:0:0:
294,73,11331,1,0,1:0:0:0:
383,112,11548,1,0,1:0:0:0:
463,56,11765,1,8,0:0:0:0:
463,56,11874,1,8,0:0:0:0:
463,56,11983,1,8,3:0:0:0:
510,152,12200,6,0,L|501:247,1,82.5000025177003,6|0,1:2|0:0,0:0:0:0:
420,304,12635,1,10,0:0:0:0:
314,283,12852,1,0,0:0:0:0:
220,336,13070,2,0,L|124:327,1,82.5000025177003,2|0,1:2|0:0,0:0:0:0:
39,285,13504,1,10,0:0:0:0:
137,328,13722,1,0,0:0:0:0:
124,221,13939,6,0,L|115:125,1,82.5000025177003,2|0,1:2|0:0,0:0:0:0:
48,55,14374,1,10,0:0:0:0:
145,10,14591,2,0,L|208:15,2,41.2500012588501,2|2|2,0:0|0:0|1:2,0:0:0:0:
198,103,15026,2,0,L|262:108,2,41.2500012588501,2|2|10,0:0|0:0|0:2,0:0:0:0:
227,206,15461,2,0,L|290:211,1,41.2500012588501,2|2,0:0|0:0,0:0:0:0:
304,249,15678,6,0,P|346:268|459:224,1,165.000005035401,2|10,1:2|0:0,0:0:0:0:
501,135,16331,1,2,0:0:0:0:
446,42,16548,2,0,L|254:25,1,165.000005035401,2|8,1:2|0:0,0:0:0:0:
183,69,17200,1,2,0:0:0:0:
248,161,17418,6,0,L|402:148,2,123.75000377655,2|2|2,1:2|0:0|0:0,0:0:0:0:
172,235,18287,1,2,1:2:0:0:
172,235,18396,1,8,0:0:0:0:
172,235,18504,1,0,1:0:0:0:
75,187,18722,2,0,P|40:138|63:112,1,82.5000025177003,8|10,0:0|0:0,0:0:0:0:
41,75,19048,1,10,0:0:0:0:
78,43,19157,6,0,L|141:48,1,41.2500012588501,6|2,1:2|0:0,0:0:0:0:
150,89,19374,2,0,L|213:84,1,41.2500012588501,2|2,0:0|0:0,0:0:0:0:
227,45,19591,1,10,0:0:0:0:
321,95,19809,1,2,0:0:0:0:
406,31,20026,1,2,1:2:0:0:
410,35,20461,1,8,0:0:0:0:
505,83,20678,1,2,0:0:0:0:
505,83,20787,1,2,0:0:0:0:
505,83,20896,6,0,L|499:146,1,41.2500012588501,2|2,1:2|0:0,0:0:0:0:
454,150,21113,2,0,L|460:213,1,41.2500012588501,2|2,0:0|0:0,0:0:0:0:
501,223,21331,1,10,0:0:0:0:
433,305,21548,1,2,0:0:0:0:
506,382,21765,1,2,1:2:0:0:
506,382,21874,1,8,0:0:0:0:
506,382,21983,1,0,0:0:0:0:
433,305,22200,1,8,0:0:0:0:
331,339,22418,2,0,L|268:345,1,41.2500012588501,2|2,1:2|0:0,0:0:0:0:
245,311,22635,6,0,L|85:297,2,123.75000377655,14|10|10,0:0|0:0|0:0,0:0:0:0:
331,248,23504,1,6,1:2:0:0:
428,292,23722,1,0,1:0:0:0:
510,223,23939,1,8,0:0:0:0:
510,223,24048,1,8,0:0:0:0:
510,223,24157,1,8,3:0:0:0:
475,131,24375,5,6,0:0:0:0:
256,192,24483,12,2,26113,3:2:0:0:
483,139,27418,6,0,L|475:213,1,75,0|0,0:0|0:0,0:0:0:0:
486,335,27853,2,0,P|454:304|347:311,1,150,2|0,0:0|0:0,0:0:0:0:
270,355,28504,1,0,0:0:0:0:
183,309,28722,1,2,0:0:0:0:
106,369,28939,1,0,0:0:0:0:
106,369,29048,1,0,0:0:0:0:
106,369,29157,1,0,0:0:0:0:
33,303,29374,1,0,0:0:0:0:
68,213,29591,6,0,L|59:117,1,75,2|0,0:0|0:0,0:0:0:0:
101,48,30026,1,0,0:0:0:0:
195,71,30244,1,2,0:0:0:0:
280,24,30461,2,0,L|375:15,1,75,2|2,0:0|0:0,0:0:0:0:
428,81,30896,2,0,L|502:87,1,75,2|2,0:0|0:0,0:0:0:0:
455,172,31331,6,0,L|295:158,1,150,2|0,0:0|0:0,0:0:0:0:
219,113,31983,1,0,0:0:0:0:
121,118,32200,2,0,L|47:124,1,75,2|0,0:0|0:0,0:0:0:0:
91,37,32635,2,0,L|165:31,1,75,2|0,0:0|0:0,0:0:0:0:
219,113,33070,6,0,P|233:147|232:184,1,75,2|0,0:0|0:0,0:0:0:0:
181,267,33504,2,0,P|179:304|194:338,1,75,0|2,0:0|0:0,0:0:0:0:
280,382,33939,1,2,0:0:0:0:
355,320,34157,1,2,0:0:0:0:
441,364,34374,1,2,0:0:0:0:
501,287,34591,1,2,0:0:0:0:
441,364,34809,6,0,B|401:371|401:371|337:355|337:355|294:363,1,150,2|2,0:0|0:0,0:0:0:0:
198,383,35461,1,2,0:0:0:0:
117,329,35678,1,2,0:0:0:0:
30,374,35896,1,0,0:0:0:0:
30,374,36004,1,0,0:0:0:0:
30,374,36113,2,0,L|21:278,1,75,2|0,0:0|0:0,0:0:0:0:
95,233,36548,6,0,L|107:83,1,150,2|0,0:0|0:0,0:0:0:0:
114,75,37418,2,0,L|102:225,1,150,2|0,0:0|0:0,0:0:0:0:
159,303,38070,1,0,0:0:0:0:
159,303,38178,1,0,0:0:0:0:
159,303,38287,6,0,B|198:323|234:303|234:303|270:283|309:303,1,150,2|0,0:0|0:0,0:0:0:0:
389,344,38939,1,2,0:0:0:0:
472,293,39157,2,0,L|480:197,1,75,2|0,0:0|0:0,0:0:0:0:
420,139,39591,1,0,0:0:0:0:
496,77,39809,1,2,0:0:0:0:
432,3,40026,6,0,L|368:-2,3,37.5,2|2|2|2,0:0|0:0|0:0|0:0,0:0:0:0:
363,38,40461,2,0,L|299:43,3,37.5,2|2|0|0,0:0|0:0|1:0|0:0,0:0:0:0:
281,18,40896,2,0,L|153:6,1,112.5,8|8,0:0|0:0,0:0:0:0:
78,43,41439,2,0,L|72:106,1,37.5,8|8,0:0|0:0,0:0:0:0:
34,169,41765,6,0,L|40:243,1,75,6|0,1:2|0:0,0:0:0:0:
81,332,42200,1,8,0:0:0:0:
177,317,42418,2,0,P|214:315|248:330,1,75,0|2,0:0|1:2,0:0:0:0:
336,371,42852,1,0,0:0:0:0:
421,322,43070,2,0,L|495:316,1,75,8|0,0:0|0:0,0:0:0:0:
442,234,43504,6,0,L|368:240,1,75,2|0,1:2|0:0,0:0:0:0:
292,302,43939,1,8,0:0:0:0:
194,303,44157,2,0,L|66:291,1,112.5,2|0,0:0|0:0,0:0:0:0:
48,258,44591,1,0,0:0:0:0:
32,161,44809,2,0,L|26:87,1,75,8|0,0:0|0:0,0:0:0:0:
97,19,45244,6,0,P|130:3|168:5,1,75,2|0,1:2|0:0,0:0:0:0:
258,41,45678,1,8,0:0:0:0:
353,60,45896,2,0,P|390:61|424:46,1,75,0|2,0:0|1:2,0:0:0:0:
510,0,46331,1,0,0:0:0:0:
506,97,46548,2,0,L|500:171,1,75,8|0,0:0|0:0,0:0:0:0:
418,225,46983,6,0,L|424:299,1,75,0|2,1:0|0:0,0:0:0:0:
480,379,47418,1,8,0:0:0:0:
424,299,47635,1,2,0:0:0:0:
339,347,47852,1,0,1:0:0:0:
339,347,47961,1,8,0:0:0:0:
339,347,48070,1,2,1:2:0:0:
247,314,48287,1,10,0:0:0:0:
156,349,48504,1,2,1:2:0:0:
247,314,48722,6,0,L|342:322,1,75,6|0,1:2|1:0,0:0:0:0:
403,373,49157,1,0,1:0:0:0:
403,373,49265,1,8,3:0:0:0:
403,373,49374,1,4,3:0:0:0:
471,304,49591,2,0,L|479:209,1,75,14|0,0:0|0:0,0:0:0:0:
440,196,49918,2,0,L|432:101,1,75,10|0,0:0|0:0,0:0:0:0:
457,78,50244,1,10,0:0:0:0:
361,58,50461,6,0,P|323:57|289:72,1,75,6|8,0:0|0:0,0:0:0:0:
210,128,50896,1,8,0:0:0:0:
210,128,51004,1,8,3:0:0:0:
210,128,51113,1,0,1:0:0:0:
98,66,51331,2,0,P|113:100|112:137,1,75,14|0,0:0|0:0,0:0:0:0:
81,175,51657,2,0,P|65:209|66:246,1,75,10|0,0:0|0:0,0:0:0:0:
91,288,51983,1,10,0:0:0:0:
26,361,52200,5,6,1:2:0:0:
38,373,52852,1,8,3:0:0:0:
38,373,52961,1,8,3:0:0:0:
38,373,53070,2,0,L|46:277,1,75,14|0,0:0|0:0,0:0:0:0:
91,288,53396,2,0,L|82:192,1,75,10|0,0:0|0:0,0:0:0:0:
51,177,53722,1,6,0:0:0:0:
43,185,54157,5,0,0:0:0:0:
101,107,54374,5,8,0:0:0:0:
109,99,54591,1,8,0:0:0:0:
187,157,54808,5,8,0:0:0:0:
195,165,55027,1,8,0:0:0:0:
273,107,55244,5,8,0:0:0:0:
281,99,55461,1,8,0:0:0:0:
195,165,55678,5,2,1:2:0:0:
109,99,55896,1,8,0:0:0:0:
105,103,56004,1,8,0:0:0:0:
101,107,56113,2,0,L|95:170,3,37.5,10|4|2|2,0:0|3:0|1:2|1:2,0:0:0:0:
119,188,56548,2,0,L|125:251,3,37.5,8|4|4|4,0:0|3:0|3:0|3:0,0:0:0:0:
102,269,56983,1,8,0:0:0:0:
262,380,57418,6,0,L|325:374,3,37.5,14|8|8|8,0:0|0:0|0:0|0:0,0:0:0:0:
441,340,58070,2,0,L|447:277,3,37.5,10|8|8|8,0:0|0:0|0:0|0:0,0:0:0:0:
418,158,58722,1,10,0:0:0:0:
416,139,58830,1,8,0:0:0:0:
415,120,58939,1,8,0:0:0:0:
413,102,59048,1,8,0:0:0:0:
411,83,59157,6,0,L|417:20,3,37.5,10|8|8|8,0:0|0:0|0:0|0:0,0:0:0:0:
271,13,59809,2,0,L|208:7,3,37.5,10|8|8|8,0:0|0:0|0:0|0:0,0:0:0:0:
62,71,60461,2,0,L|100:68,3,37.5,10|8|8|8,0:0|0:0|0:0|0:0,0:0:0:0:
132,104,60896,6,0,L|169:107,3,37.5,10|8|8|8,0:0|0:0|0:0|0:0,0:0:0:0:
276,7,61548,2,0,L|313:3,3,37.5,10|8|8|8,0:0|0:0|0:0|0:0,0:0:0:0:
438,78,62200,1,10,0:0:0:0:
440,97,62308,1,8,0:0:0:0:
441,116,62417,1,8,0:0:0:0:
443,134,62526,1,8,0:0:0:0:
445,153,62635,6,0,L|439:216,3,37.5,10|8|8|8,0:0|0:0|0:0|0:0,0:0:0:0:
306,246,63288,1,10,0:0:0:0:
304,265,63396,1,8,0:0:0:0:
303,284,63505,1,0,1:2:0:0:
301,302,63614,1,8,0:0:0:0:
299,321,63722,1,8,3:0:0:0:
378,377,63939,1,8,0:0:0:0:
378,181,64374,6,0,P|289:150|210:241,2,225,4|2|2,0:0|0:0|0:0,0:0:0:0:
460,231,65895,1,0,0:0:0:0:
511,148,66112,2,0,L|501:33,2,112.5,2|0|2,0:0|0:0|0:0,0:0:0:0:
503,156,67418,2,0,L|497:219,1,37.5,8|8,0:0|3:0,0:0:0:0:
460,231,67635,2,0,L|466:294,1,37.5,4|4,3:0|3:0,0:0:0:0:
488,310,67852,6,0,P|450:309|416:324,1,75,6|0,0:0|0:0,0:0:0:0:
337,380,68287,2,0,L|242:372,1,75,8|0,0:0|0:0,0:0:0:0:
189,308,68722,2,0,L|94:316,1,75,2|0,1:2|0:0,0:0:0:0:
33,369,69157,1,8,0:0:0:0:
114,314,69374,1,0,0:0:0:0:
51,239,69591,6,0,P|36:204|37:167,1,75,2|0,1:2|0:0,0:0:0:0:
78,79,70026,2,0,L|152:72,1,75,8|0,0:0|0:0,0:0:0:0:
242,111,70461,1,2,1:2:0:0:
310,42,70678,1,2,1:2:0:0:
398,83,70896,1,8,0:0:0:0:
398,83,71004,1,8,0:0:0:0:
398,83,71113,1,8,3:0:0:0:
471,18,71331,5,14,0:0:0:0:
256,192,71439,12,12,73070,0:0:0:0:
479,26,73939,5,12,0:0:0:0:
398,83,74157,1,0,0:0:0:0:
309,41,74374,2,0,L|213:32,1,75,12|0,0:0|0:0,0:0:0:0:
156,108,74809,6,0,L|61:117,1,82.5000025177003,6|0,1:2|0:0,0:0:0:0:
20,209,75244,2,0,P|37:250|32:302,1,82.5000025177003,8|2,0:0|0:0,0:0:0:0:
12,335,75570,2,0,P|65:307|124:316,1,123.75000377655,0|0,0:0|0:0,0:0:0:0:
219,368,76113,1,10,0:0:0:0:
293,290,76331,6,0,L|388:281,1,82.5000025177003,2|2,0:0|1:2,0:0:0:0:
467,335,76765,1,0,0:0:0:0:
510,236,76983,2,0,L|501:141,1,82.5000025177003,10|0,0:0|0:0,0:0:0:0:
459,121,77309,2,0,P|418:120|380:137,1,82.5000025177003,0|0,0:0|0:0,0:0:0:0:
339,170,77635,1,0,0:0:0:0:
261,95,77852,1,8,0:0:0:0:
158,127,78070,6,0,L|149:223,1,82.5000025177003,2|2,0:0|1:2,0:0:0:0:
228,284,78504,1,0,0:0:0:0:
150,209,78722,1,8,0:0:0:0:
47,241,78939,6,0,L|38:337,1,82.5000025177003,2|2,0:0|1:2,0:0:0:0:
128,382,79374,1,0,0:0:0:0:
39,323,79591,1,8,0:0:0:0:
129,265,79809,6,0,P|130:224|113:186,1,82.5000025177003,2|2,0:0|1:2,0:0:0:0:
20,131,80244,1,0,0:0:0:0:
70,36,80461,2,0,P|107:19|148:20,1,82.5000025177003,8|0,0:0|0:0,0:0:0:0:
238,77,80896,1,2,1:2:0:0:
238,77,81004,1,8,0:0:0:0:
238,77,81113,1,2,1:2:0:0:
321,8,81331,1,10,0:0:0:0:
415,57,81548,1,2,0:0:0:0:
413,154,81765,5,6,1:2:0:0:
427,69,81983,1,8,0:0:0:0:
427,69,82091,1,8,0:0:0:0:
427,69,82200,1,8,0:0:0:0:
343,18,82418,1,2,1:2:0:0:
254,57,82635,2,0,L|180:50,1,75,2|2,0:0|1:2,0:0:0:0:
92,94,83070,1,8,0:0:0:0:
4,51,83287,1,2,0:0:0:0:
92,94,83504,6,0,P|106:128|105:165,1,75,6|0,1:2|0:0,0:0:0:0:
70,200,83831,1,8,0:0:0:0:
72,219,83939,1,4,3:0:0:0:
73,238,84048,1,4,3:0:0:0:
75,256,84157,1,2,1:2:0:0:
33,353,84374,2,0,P|67:339|104:340,1,75,2|0,0:0|1:0,0:0:0:0:
197,370,84809,1,8,0:0:0:0:
197,370,84918,1,8,0:0:0:0:
197,370,85026,1,0,1:0:0:0:
303,356,85244,6,0,L|398:347,1,82.5000025177003,6|0,1:2|0:0,0:0:0:0:
475,291,85678,1,8,0:0:0:0:
411,204,85896,1,0,0:0:0:0:
411,204,86004,1,0,0:0:0:0:
411,204,86113,1,2,1:2:0:0:
456,106,86331,1,0,0:0:0:0:
382,28,86548,2,0,P|341:26|303:43,1,82.5000025177003,8|2,0:0|0:0,0:0:0:0:
209,93,86983,6,0,P|168:95|130:78,1,82.5000025177003,14|0,0:0|0:0,0:0:0:0:
86,48,87309,2,0,L|78:130,1,82.5000025177003,10|0,0:0|0:0,0:0:0:0:
110,172,87635,2,0,L|122:303,1,123.75000377655,6|0,1:2|0:0,0:0:0:0:
90,338,88070,1,2,0:0:0:0:
116,234,88287,1,8,0:0:0:0:
114,215,88395,1,8,0:0:0:0:
112,197,88504,1,8,0:0:0:0:
111,178,88613,1,8,0:0:0:0:
109,159,88722,6,0,L|116:76,1,82.5000025177003,6|0,1:2|1:0,0:0:0:0:
204,15,89157,1,0,1:0:0:0:
287,81,89374,1,2,1:2:0:0:
378,24,89591,2,0,L|461:31,1,82.5000025177003,8|0,0:0|1:0,0:0:0:0:
509,126,90026,1,2,1:2:0:0:
439,207,90244,1,8,0:0:0:0:
498,296,90461,6,0,P|500:337|483:375,1,82.5000025177003,2|8,1:2|0:0,0:0:0:0:
392,316,90896,2,0,P|390:275|407:237,1,82.5000025177003,0|0,1:0|1:0,0:0:0:0:
502,188,91331,2,0,L|495:105,1,82.5000025177003,8|0,0:0|1:0,0:0:0:0:
398,60,91766,2,0,L|315:67,1,82.5000025177003,0|0,1:0|1:0,0:0:0:0:
221,118,92201,6,0,L|138:111,1,82.5000025177003,2|0,1:2|1:0,0:0:0:0:
51,49,92635,1,0,1:0:0:0:
138,111,92852,1,0,1:0:0:0:
67,191,93070,2,0,P|50:228|52:269,1,82.5000025177003,10|0,0:0|1:0,0:0:0:0:
127,346,93504,1,2,1:2:0:0:
222,296,93722,1,8,0:0:0:0:
316,346,93939,6,0,L|399:339,1,82.5000025177003,0|8,1:0|0:0,0:0:0:0:
488,280,94374,1,0,1:0:0:0:
434,187,94591,1,2,1:2:0:0:
489,94,94809,1,8,0:0:0:0:
434,187,95026,1,8,0:0:0:0:
436,206,95134,1,8,0:0:0:0:
438,224,95243,1,8,0:0:0:0:
439,243,95352,1,8,0:0:0:0:
441,262,95461,6,0,P|441:315|336:340,1,165.000005035401,6|2,1:2|0:0,0:0:0:0:
242,328,96113,1,8,0:0:0:0:
142,373,96331,2,0,P|101:375|64:357,1,82.5000025177003,0|2,0:0|1:2,0:0:0:0:
121,267,96765,1,0,0:0:0:0:
55,181,96983,1,8,0:0:0:0:
118,94,97200,6,0,L|201:87,1,82.5000025177003,6|0,1:2|0:0,0:0:0:0:
295,136,97635,1,2,0:0:0:0:
380,72,97852,1,8,0:0:0:0:
469,131,98070,2,0,L|476:214,1,82.5000025177003,0|2,0:0|1:2,0:0:0:0:
419,303,98504,1,0,0:0:0:0:
499,374,98722,1,10,0:0:0:0:
419,303,98939,6,0,B|378:295|378:295|314:311|314:311|272:303,1,150,6|2,1:2|1:2,0:0:0:0:
179,272,99591,1,10,0:0:0:0:
103,333,99809,1,10,0:0:0:0:
103,333,99918,1,8,0:0:0:0:
103,333,100026,1,10,0:0:0:0:
11,299,100244,1,4,3:0:0:0:
192,368,100678,6,0,B|230:384|266:368|266:368|302:352|342:368,1,150,14|2,0:0|1:2,0:0:0:0:
434,383,101331,1,8,0:0:0:0:
500,312,101548,1,2,1:2:0:0:
436,238,101765,1,8,0:0:0:0:
498,162,101983,1,8,0:0:0:0:
498,162,102091,1,8,0:0:0:0:
498,162,102200,1,8,0:0:0:0:
415,92,102418,6,0,P|371:70|269:116,1,165.000005035401,6|0,1:2|1:0,0:0:0:0:
199,192,103070,1,8,0:0:0:0:
92,188,103287,2,0,L|9:181,1,82.5000025177003,8|8,0:0|0:0,0:0:0:0:
65,89,103722,2,0,L|148:96,1,82.5000025177003,8|8,0:0|0:0,0:0:0:0:
199,192,104157,1,6,1:2:0:0:
354,309,104591,6,0,L|437:302,1,75,10|10,0:0|0:0,0:0:0:0:
486,224,105026,1,0,0:0:0:0:
498,236,105461,1,0,1:0:0:0:
498,236,105570,1,0,1:0:0:0:
498,236,105678,1,8,0:0:0:0:
312,344,106113,6,0,L|88:324,1,206.250006294251,6|0,1:2|0:0,0:0:0:0:
71,292,106765,1,6,1:2:0:0:
256,192,106874,12,2,111331,0:0:0:0:
