osu file format v14

[General]
AudioFilename: Shin Ai.mp3
AudioLeadIn: 0
PreviewTime: 74048
Countdown: 0
SampleSet: Soft
StackLeniency: 0.2
Mode: 0
LetterboxInBreaks: 0
WidescreenStoryboard: 0

[Editor]
DistanceSpacing: 1.2
BeatDivisor: 8
GridSize: 32
TimelineZoom: 3.099999

[Metadata]
Title:Shin'ai
TitleUnicode:深愛
Artist:Roselia
ArtistUnicode:Roselia
Creator:-Aqua
Version:Agony
Source:バンドリ! ガールズバンドパーティ!
Tags:BanG Dream! Bandori! Girls Band Party! ガルパ Garupa insert cover original song single album Bandori project Girl Party Garupa! Fries Fried Potato Anfang Rozeria ロゼリア Minato Yukina 湊友希那 Hikawa Sayo 氷川紗夜 Imai Lisa 今井リサ Udagawa Ako 宇田川あこ Shirokane Rinko 白金燐子 Aiba Aina Aiai 相羽あいな Kudō Haruka Kudo Kudou Kudoharu Kdhr 工藤晴香 Endō Yurika Endo Endou Yurishii 遠藤ゆりか Sakuragawa Megu Meguchii 桜川めぐ Akesaka Satomi Akeko 明坂聡美 Noriyasu Agematsu Nana Mizuki 奈々水樹 WHITE ALBUM ホワイトアルバム Deep Love ShinAi Shin Ai Shin_Ai scanter Yukiyo Yonaka Yonaka- Moge-ko Mogeko Moge ko Moge_ko Reform Kujinn Japanese Pop Anime Video Game La+ Laplus- La+- Laplus
BeatmapID:1674700
BeatmapSetID:765499

[Difficulty]
HPDrainRate:6
CircleSize:4.2
OverallDifficulty:9.4
ApproachRate:9.7
SliderMultiplier:1.9
SliderTickRate:1

[Events]
//Background and Video events
0,0,"Sayo hot.jpg",0,0
//Break Periods
//Storyboard Layer 0 (Background)
//Storyboard Layer 1 (Fail)
//Storyboard Layer 2 (Pass)
//Storyboard Layer 3 (Foreground)
//Storyboard Layer 4 (Overlay)
//Storyboard Sound Samples

[TimingPoints]
3505,434.782608695652,4,2,12,30,1,0
3505,-125,4,2,12,30,0,0
3939,-125,4,2,12,45,0,0
4157,-125,4,2,12,5,0,0
4374,-125,4,2,12,40,0,0
4700,-125,4,2,12,45,0,0
5026,-125,4,2,12,40,0,0
5244,-125,4,2,12,30,0,0
5896,-125,4,2,12,20,0,0
6113,-125,4,2,12,30,0,0
6439,-125,4,2,12,40,0,0
6548,-125,4,2,12,30,0,0
6983,-125,4,2,12,25,0,0
7200,-125,4,2,12,5,0,0
7418,-125,4,2,12,25,0,0
8722,-125,4,2,12,15,0,0
9374,-125,4,2,12,25,0,0
9591,-125,4,2,12,30,0,0
10425,-100,4,2,12,30,0,0
10461,-100,4,2,12,40,0,0
11331,-100,4,2,11,70,0,0
11711,-100,4,2,11,5,0,0
11765,-100,4,2,11,70,0,0
11820,-100,4,2,11,5,0,0
11874,-100,4,2,11,70,0,0
11928,-100,4,2,11,5,0,0
11983,-303.030303030303,4,2,11,70,0,0
12146,-303.030303030303,4,2,11,5,0,0
12200,-100,4,2,11,80,0,1
12526,-100,4,2,11,5,0,1
12635,-66.6666666666667,4,2,11,80,0,1
13287,-66.6666666666667,4,2,11,80,0,1
13396,-66.6666666666667,4,2,11,5,0,1
13504,-66.6666666666667,4,2,11,80,0,1
14537,-66.6666666666667,4,2,11,5,0,1
14591,-66.6666666666667,4,2,11,80,0,1
14972,-66.6666666666667,4,2,11,5,0,1
15026,-66.6666666666667,4,2,11,80,0,1
15407,-66.6666666666667,4,2,11,5,0,1
15461,-66.6666666666667,4,2,11,80,0,1
16331,-66.6666666666667,4,2,11,80,0,1
16439,-66.6666666666667,4,2,11,5,0,1
16548,-66.6666666666667,4,2,11,80,0,1
17418,-66.6666666666667,4,2,11,80,0,1
18070,-66.6666666666667,4,2,11,80,0,1
18178,-66.6666666666667,4,2,11,5,0,1
18287,-66.6666666666667,4,2,11,80,0,1
18341,-66.6666666666667,4,2,11,5,0,1
18396,-66.6666666666667,4,2,11,80,0,1
18450,-66.6666666666667,4,2,11,5,0,1
18504,-200,4,2,11,80,0,1
18668,-200,4,2,11,5,0,1
18722,-66.6666666666667,4,2,11,80,0,1
18831,-66.6666666666667,4,2,11,5,0,1
18939,-66.6666666666667,4,2,11,80,0,1
20244,-66.6666666666667,4,2,11,80,0,1
20352,-66.6666666666667,4,2,11,5,0,1
20461,-66.6666666666667,4,2,11,80,0,1
22091,-66.6666666666667,4,2,11,80,0,1
22200,-66.6666666666667,4,2,11,80,0,1
22852,-66.6666666666667,4,2,11,5,0,1
22961,-66.6666666666667,4,2,11,80,0,1
23178,-66.6666666666667,4,2,11,5,0,1
23287,-66.6666666666667,4,2,11,80,0,1
23396,-66.6666666666667,4,2,11,5,0,1
23504,-66.6666666666667,4,2,11,80,0,1
23613,-66.6666666666667,4,2,11,5,0,1
23722,-66.6666666666667,4,2,11,80,0,1
23776,-66.6666666666667,4,2,11,5,0,1
23831,-66.6666666666667,4,2,11,80,0,1
23885,-66.6666666666667,4,2,11,5,0,1
23939,-66.6666666666667,4,2,11,80,0,1
23994,-66.6666666666667,4,2,11,5,0,1
24048,-66.6666666666667,4,2,11,80,0,1
24102,-66.6666666666667,4,2,11,5,0,1
24157,-200,4,2,11,80,0,1
24320,-200,4,2,11,5,0,1
24374,-100,4,2,11,80,0,0
24591,-100,4,2,12,50,0,0
27418,-200,4,2,12,50,0,0
27852,-125,4,2,12,40,0,0
28287,-125,4,2,12,20,0,0
28504,-125,4,2,12,40,0,0
29157,-125,4,2,12,20,0,0
29374,-125,4,2,12,40,0,0
30244,-125,4,2,12,30,0,0
30461,-125,4,2,12,50,0,0
30678,-125,4,2,12,40,0,0
30896,-125,4,2,12,30,0,0
31331,-125,4,2,12,40,0,0
31765,-125,4,2,12,20,0,0
31983,-125,4,2,12,40,0,0
32635,-125,4,2,12,20,0,0
33070,-125,4,2,12,40,0,0
33504,-125,4,2,12,30,0,0
33722,-125,4,2,12,40,0,0
33939,-125,4,2,12,60,0,0
34157,-125,4,2,12,45,0,0
34374,-125,4,2,12,30,0,0
34809,-125,4,2,12,40,0,0
35244,-125,4,2,12,30,0,0
35461,-125,4,2,12,40,0,0
36113,-125,4,2,12,30,0,0
36548,-100,4,2,12,40,0,0
36874,-100,4,2,12,5,0,0
36983,-83.3333333333333,4,2,12,50,0,0
37309,-83.3333333333333,4,2,12,5,0,0
37418,-71.4285714285714,4,2,12,60,0,0
37744,-71.4285714285714,4,2,12,5,0,0
37852,-71.4285714285714,4,2,12,40,0,0
38070,-71.4285714285714,4,2,12,40,0,0
38287,-125,4,2,12,50,0,0
39157,-125,4,2,12,55,0,0
39918,-83.3333333333333,4,2,12,55,0,0
39972,-83.3333333333333,4,2,12,5,0,0
40026,-125,4,2,12,40,0,0
40461,-125,4,2,12,40,0,0
40678,-125,4,2,11,50,0,0
40896,-100,4,2,11,70,0,0
41494,-100,4,2,11,5,0,0
41548,-100,4,2,11,70,0,0
41711,-100,4,2,11,5,0,0
41765,-66.6666666666667,4,2,11,80,0,0
41874,-66.6666666666667,4,2,11,5,0,0
41983,-66.6666666666667,4,2,11,80,0,0
42091,-66.6666666666667,4,2,11,5,0,0
42200,-50,4,2,11,80,0,0
42309,-50,4,2,11,5,0,0
42418,-66.6666666666667,4,2,11,80,0,0
42526,-66.6666666666667,4,2,11,5,0,0
42635,-66.6666666666667,4,2,11,80,0,0
42744,-66.6666666666667,4,2,11,5,0,0
42852,-66.6666666666667,4,2,11,80,0,0
42961,-66.6666666666667,4,2,11,5,0,0
43070,-50,4,2,11,80,0,0
43178,-50,4,2,11,5,0,0
43287,-66.6666666666667,4,2,11,80,0,0
43396,-66.6666666666667,4,2,11,5,0,0
43504,-50,4,2,11,80,0,0
43613,-50,4,2,11,5,0,0
43722,-50,4,2,11,80,0,0
44048,-50,4,2,11,5,0,0
44157,-40,4,2,11,80,0,0
44265,-40,4,2,11,5,0,0
44374,-50,4,2,11,80,0,0
44483,-50,4,2,11,5,0,0
44591,-55.5555555555556,4,2,11,80,0,0
44700,-55.5555555555556,4,2,11,5,0,0
44809,-45.4545454545455,4,2,11,80,0,0
44918,-45.4545454545455,4,2,11,5,0,0
45026,-38.4615384615385,4,2,11,80,0,0
45135,-38.4615384615385,4,2,11,5,0,0
45244,-66.6666666666667,4,2,11,80,0,0
45352,-66.6666666666667,4,2,11,5,0,0
45461,-66.6666666666667,4,2,11,80,0,0
45570,-66.6666666666667,4,2,11,5,0,0
45678,-50,4,2,11,80,0,0
45787,-50,4,2,11,5,0,0
45896,-66.6666666666667,4,2,11,80,0,0
46004,-66.6666666666667,4,2,11,5,0,0
46113,-66.6666666666667,4,2,11,80,0,0
46222,-66.6666666666667,4,2,11,5,0,0
46331,-66.6666666666667,4,2,11,80,0,0
46439,-66.6666666666667,4,2,11,5,0,0
46548,-50,4,2,11,80,0,0
46657,-50,4,2,11,5,0,0
46765,-66.6666666666667,4,2,11,80,0,0
46874,-66.6666666666667,4,2,11,5,0,0
46983,-50,4,2,11,80,0,0
47091,-50,4,2,11,5,0,0
47200,-50,4,2,11,80,0,0
47526,-50,4,2,11,5,0,0
47635,-40,4,2,11,80,0,0
47744,-40,4,2,11,5,0,0
47852,-100,4,2,11,80,0,0
47907,-100,4,2,11,5,0,0
47961,-100,4,2,11,80,0,0
48015,-100,4,2,11,5,0,0
48070,-303.030303030303,4,2,11,80,0,0
48233,-303.030303030303,4,2,11,5,0,0
48287,-50,4,2,11,80,0,0
48396,-50,4,2,11,5,0,0
48504,-303.030303030303,4,2,11,80,0,0
48668,-303.030303030303,4,2,11,5,0,0
48722,-62.5,4,2,11,80,0,0
49374,-303.030303030303,4,2,11,80,0,0
49537,-303.030303030303,4,2,11,5,0,0
49591,-62.5,4,2,11,80,0,0
49809,-62.5,4,2,11,5,0,0
49918,-71.4285714285714,4,2,11,80,0,0
50135,-71.4285714285714,4,2,11,5,0,0
50244,-41.6666666666667,4,2,11,80,0,0
50352,-41.6666666666667,4,2,11,5,0,0
50461,-62.5,4,2,11,80,0,0
51113,-200,4,2,11,80,0,0
51331,-62.5,4,2,11,80,0,0
51548,-62.5,4,2,11,5,0,0
51657,-71.4285714285714,4,2,11,80,0,0
51874,-71.4285714285714,4,2,11,5,0,0
51983,-41.6666666666667,4,2,11,80,0,0
52091,-41.6666666666667,4,2,11,5,0,0
52200,-83.3333333333333,4,2,11,80,0,0
53070,-83.3333333333333,4,2,11,80,0,0
53287,-83.3333333333333,4,2,11,5,0,0
53396,-83.3333333333333,4,2,11,80,0,0
53613,-83.3333333333333,4,2,11,5,0,0
53722,-125,4,2,11,80,0,0
54048,-125,4,2,11,5,0,0
54157,-100,4,2,11,60,0,0
54265,-100,4,2,11,5,0,0
54374,-90.9090909090909,4,2,11,50,0,0
54483,-90.9090909090909,4,2,11,5,0,0
54591,-83.3333333333333,4,2,11,55,0,0
54700,-83.3333333333333,4,2,11,5,0,0
54809,-76.9230769230769,4,2,11,60,0,0
54918,-76.9230769230769,4,2,11,5,0,0
55026,-71.4285714285714,4,2,11,65,0,0
55135,-71.4285714285714,4,2,11,5,0,0
55244,-66.6666666666667,4,2,11,70,0,0
55352,-66.6666666666667,4,2,11,5,0,0
55461,-62.5,4,2,11,75,0,0
55570,-62.5,4,2,11,5,0,0
55678,-58.8235294117647,4,2,11,80,0,0
56113,-62.5,4,2,11,80,0,0
56548,-66.6666666666667,4,2,11,80,0,0
56983,-212.765957446809,4,2,11,80,0,0
57309,-212.765957446809,4,2,11,5,0,0
57418,-100,4,2,11,70,0,0
57472,-100,4,2,11,5,0,0
57526,-100,4,2,11,90,0,0
57581,-100,4,2,11,5,0,0
57635,-100,4,2,11,90,0,0
57689,-100,4,2,11,5,0,0
57744,-100,4,2,11,90,0,0
57798,-100,4,2,11,5,0,0
58070,-100,4,2,11,90,0,0
58124,-100,4,2,11,5,0,0
58178,-100,4,2,11,90,0,0
58233,-100,4,2,11,5,0,0
58287,-100,4,2,11,90,0,0
58341,-100,4,2,11,5,0,0
58396,-100,4,2,11,90,0,0
58450,-100,4,2,11,5,0,0
58722,-100,4,2,11,90,0,0
58776,-100,4,2,11,5,0,0
58831,-100,4,2,11,90,0,0
58885,-100,4,2,11,5,0,0
58939,-100,4,2,11,90,0,0
58994,-100,4,2,11,5,0,0
59048,-100,4,2,11,90,0,0
59102,-100,4,2,11,5,0,0
59157,-100,4,2,11,90,0,0
59211,-100,4,2,11,5,0,0
59265,-100,4,2,11,90,0,0
59320,-100,4,2,11,5,0,0
59374,-100,4,2,11,90,0,0
59428,-100,4,2,11,5,0,0
59483,-100,4,2,11,90,0,0
59537,-100,4,2,11,5,0,0
59809,-100,4,2,11,90,0,0
59863,-100,4,2,11,5,0,0
59918,-100,4,2,11,90,0,0
59972,-100,4,2,11,5,0,0
60026,-100,4,2,11,90,0,0
60081,-100,4,2,11,5,0,0
60135,-100,4,2,11,90,0,0
60189,-100,4,2,11,5,0,0
60461,-100,4,2,11,90,0,0
60515,-100,4,2,11,5,0,0
60570,-100,4,2,11,90,0,0
60624,-100,4,2,11,5,0,0
60678,-100,4,2,11,90,0,0
60733,-100,4,2,11,5,0,0
60787,-100,4,2,11,90,0,0
60841,-100,4,2,11,5,0,0
60896,-100,4,2,11,90,0,0
60950,-100,4,2,11,5,0,0
61004,-100,4,2,11,90,0,0
61059,-100,4,2,11,5,0,0
61113,-100,4,2,11,90,0,0
61168,-100,4,2,11,5,0,0
61222,-100,4,2,11,90,0,0
61276,-100,4,2,11,5,0,0
61548,-100,4,2,11,90,0,0
61602,-100,4,2,11,5,0,0
61657,-100,4,2,11,90,0,0
61711,-100,4,2,11,5,0,0
61765,-100,4,2,11,90,0,0
61820,-100,4,2,11,5,0,0
61874,-100,4,2,11,90,0,0
61928,-100,4,2,11,5,0,0
62200,-100,4,2,11,90,0,0
62254,-100,4,2,11,5,0,0
62309,-100,4,2,11,90,0,0
62363,-100,4,2,11,5,0,0
62418,-100,4,2,11,90,0,0
62472,-100,4,2,11,5,0,0
62526,-100,4,2,11,90,0,0
62581,-100,4,2,11,5,0,0
62635,-100,4,2,11,90,0,0
62689,-100,4,2,11,5,0,0
62744,-100,4,2,11,90,0,0
62798,-100,4,2,11,5,0,0
62852,-100,4,2,11,90,0,0
62907,-100,4,2,11,5,0,0
62961,-100,4,2,11,90,0,0
63015,-100,4,2,11,5,0,0
63287,-100,4,2,11,90,0,0
63341,-100,4,2,11,5,0,0
63396,-100,4,2,11,90,0,0
63450,-100,4,2,11,5,0,0
63504,-100,4,2,11,90,0,0
63559,-100,4,2,11,5,0,0
63613,-100,4,2,11,90,0,0
63668,-100,4,2,11,5,0,0
63722,-100,4,2,11,90,0,0
63776,-100,4,2,11,5,0,0
63831,-100,4,2,11,90,0,0
63885,-100,4,2,11,5,0,0
63939,-714.285714285714,4,2,11,70,0,0
64320,-714.285714285714,4,2,11,5,0,0
64374,-192.307692307692,4,2,11,70,0,0
65026,-192.307692307692,4,2,12,60,0,0
65678,-192.307692307692,4,2,12,60,0,0
66113,-192.307692307692,4,2,12,60,0,0
66765,-192.307692307692,4,2,12,60,0,0
67418,-192.307692307692,4,2,11,70,0,0
67635,-192.307692307692,4,2,11,60,0,0
67852,-90.9090909090909,4,2,11,80,0,0
69483,-90.9090909090909,4,2,11,5,0,0
69591,-90.9090909090909,4,2,11,80,0,0
71222,-90.9090909090909,4,2,11,5,0,0
71331,-71.4285714285714,4,2,11,70,0,0
71548,-71.4285714285714,4,2,11,5,0,0
71620,-71.4285714285714,4,2,11,70,0,0
71838,-71.4285714285714,4,2,11,5,0,0
71910,-71.4285714285714,4,2,11,70,0,0
72128,-71.4285714285714,4,2,11,5,0,0
72200,-71.4285714285714,4,2,11,70,0,0
72418,-71.4285714285714,4,2,11,5,0,0
72490,-71.4285714285714,4,2,11,70,0,0
72707,-71.4285714285714,4,2,11,5,0,0
72780,-71.4285714285714,4,2,11,70,0,0
72997,-71.4285714285714,4,2,11,5,0,0
73070,-90.9090909090909,4,2,11,60,0,0
74809,-55.5555555555556,4,2,11,100,0,1
74918,-55.5555555555556,4,2,11,5,0,1
75026,-55.5555555555556,4,2,11,100,0,1
75135,-55.5555555555556,4,2,11,5,0,1
75244,-55.5555555555556,4,2,11,100,0,1
75352,-55.5555555555556,4,2,11,5,0,1
75461,-55.5555555555556,4,2,11,100,0,1
76004,-55.5555555555556,4,2,11,5,0,1
76113,-55.5555555555556,4,2,11,100,0,1
76222,-55.5555555555556,4,2,11,5,0,1
76331,-55.5555555555556,4,2,11,100,0,1
76657,-55.5555555555556,4,2,11,5,0,1
76765,-55.5555555555556,4,2,11,100,0,1
76874,-55.5555555555556,4,2,11,5,0,1
76983,-55.5555555555556,4,2,11,100,0,1
77091,-55.5555555555556,4,2,11,5,0,1
77200,-55.5555555555556,4,2,11,100,0,1
77526,-55.5555555555556,4,2,11,5,0,1
77635,-33.3333333333333,4,2,11,100,0,1
77744,-33.3333333333333,4,2,11,5,0,1
77852,-33.3333333333333,4,2,11,100,0,1
77961,-33.3333333333333,4,2,11,5,0,1
78070,-100,4,2,11,100,0,1
78396,-100,4,2,11,5,0,1
78504,-33.3333333333333,4,2,11,100,0,1
78613,-33.3333333333333,4,2,11,5,0,1
78722,-33.3333333333333,4,2,11,100,0,1
78831,-33.3333333333333,4,2,11,5,0,1
78939,-100,4,2,11,100,0,1
79265,-100,4,2,11,5,0,1
79374,-33.3333333333333,4,2,11,100,0,1
79483,-33.3333333333333,4,2,11,5,0,1
79591,-33.3333333333333,4,2,11,100,0,1
79700,-33.3333333333333,4,2,11,5,0,1
79809,-100,4,2,11,100,0,1
80135,-100,4,2,11,5,0,1
80244,-55.5555555555556,4,2,11,100,0,1
80352,-55.5555555555556,4,2,11,5,0,1
80461,-55.5555555555556,4,2,11,100,0,1
80570,-55.5555555555556,4,2,11,5,0,1
80678,-55.5555555555556,4,2,11,100,0,1
80950,-55.5555555555556,4,2,11,5,0,1
81004,-55.5555555555556,4,2,11,100,0,1
81059,-55.5555555555556,4,2,11,5,0,1
81113,-166.666666666667,4,2,11,100,0,1
81276,-166.666666666667,4,2,11,5,0,1
81331,-55.5555555555556,4,2,11,100,0,1
81439,-55.5555555555556,4,2,11,5,0,1
81548,-166.666666666667,4,2,11,100,0,1
81711,-166.666666666667,4,2,11,5,0,1
81765,-166.666666666667,4,2,11,90,0,0
81928,-166.666666666667,4,2,11,5,0,0
81983,-55.5555555555556,4,2,11,90,0,0
82418,-83.3333333333333,4,2,11,90,0,0
82581,-83.3333333333333,4,2,11,5,0,0
82635,-55.5555555555556,4,2,11,90,0,0
82798,-55.5555555555556,4,2,11,5,0,0
82852,-166.666666666667,4,2,11,90,0,0
83015,-166.666666666667,4,2,11,5,0,0
83070,-55.5555555555556,4,2,11,90,0,0
83178,-55.5555555555556,4,2,11,5,0,0
83287,-166.666666666667,4,2,11,90,0,0
83450,-166.666666666667,4,2,11,5,0,0
83504,-166.666666666667,4,2,11,90,0,0
83668,-166.666666666667,4,2,11,5,0,0
83722,-55.5555555555556,4,2,11,90,0,0
84157,-83.3333333333333,4,2,11,90,0,0
84320,-83.3333333333333,4,2,11,5,0,0
84374,-55.5555555555556,4,2,11,90,0,0
84537,-55.5555555555556,4,2,11,5,0,0
84591,-166.666666666667,4,2,11,90,0,0
84754,-166.666666666667,4,2,11,5,0,0
84809,-55.5555555555556,4,2,11,90,0,0
85026,-83.3333333333333,4,2,11,90,0,0
85189,-83.3333333333333,4,2,11,5,0,0
85244,-55.5555555555556,4,2,11,100,0,1
85352,-55.5555555555556,4,2,11,5,0,1
85461,-55.5555555555556,4,2,11,100,0,1
85570,-55.5555555555556,4,2,11,5,0,1
85678,-55.5555555555556,4,2,11,100,0,1
85787,-55.5555555555556,4,2,11,5,0,1
85896,-55.5555555555556,4,2,11,100,0,1
86222,-55.5555555555556,4,2,11,5,0,1
86331,-55.5555555555556,4,2,11,100,0,1
86439,-55.5555555555556,4,2,11,5,0,1
86548,-55.5555555555556,4,2,11,100,0,1
86657,-55.5555555555556,4,2,11,5,0,1
86765,-55.5555555555556,4,2,11,100,0,1
86874,-55.5555555555556,4,2,11,5,0,1
86983,-33.3333333333333,4,2,11,100,0,1
87251,-33.3333333333333,4,2,11,5,0,1
87309,-33.3333333333333,4,2,11,100,0,1
87581,-33.3333333333333,4,2,11,5,0,1
87635,-46.5116279069767,4,2,11,90,0,0
88015,-46.5116279069767,4,2,11,5,0,0
88070,-55.5555555555556,4,2,11,90,0,0
88722,-1000,4,2,11,100,0,1
88885,-1000,4,2,11,5,0,1
88939,-1000,4,2,11,100,0,1
89102,-1000,4,2,11,5,0,1
89157,-1000,4,2,11,80,0,1
89320,-1000,4,2,11,5,0,1
89374,-1000,4,2,11,80,0,1
89537,-1000,4,2,11,5,0,1
89591,-200,4,2,11,80,0,1
89754,-1000,4,2,11,5,0,1
89809,-1000,4,2,11,80,0,1
89972,-1000,4,2,11,5,0,1
90026,-1000,4,2,11,80,0,1
90189,-1000,4,2,11,5,0,1
90244,-200,4,2,11,80,0,1
90407,-1000,4,2,11,5,0,1
90461,-1000,4,2,11,80,0,1
90624,-1000,4,2,11,5,0,1
90678,-200,4,2,11,80,0,1
90841,-1000,4,2,11,5,0,1
90896,-1000,4,2,11,80,0,1
91059,-1000,4,2,11,5,0,1
91113,-1000,4,2,11,80,0,1
91276,-1000,4,2,11,5,0,1
91331,-200,4,2,11,80,0,1
91494,-1000,4,2,11,5,0,1
91548,-1000,4,2,11,80,0,1
91711,-1000,4,2,11,5,0,1
91765,-1000,4,2,11,80,0,1
91928,-1000,4,2,11,5,0,1
91983,-1000,4,2,11,80,0,1
92146,-1000,4,2,11,5,0,1
92200,-1000,4,2,11,80,0,1
92363,-1000,4,2,11,5,0,1
92418,-1000,4,2,11,80,0,1
92581,-1000,4,2,11,5,0,1
92635,-1000,4,2,11,80,0,1
92798,-1000,4,2,11,5,0,1
92852,-1000,4,2,11,80,0,1
93015,-1000,4,2,11,5,0,1
93070,-200,4,2,11,80,0,1
93233,-1000,4,2,11,5,0,1
93287,-1000,4,2,11,80,0,1
93450,-1000,4,2,11,5,0,1
93504,-1000,4,2,11,80,0,1
93668,-1000,4,2,11,5,0,1
93722,-200,4,2,11,80,0,1
93885,-1000,4,2,11,5,0,1
93939,-1000,4,2,11,80,0,1
94102,-1000,4,2,11,5,0,1
94157,-200,4,2,11,80,0,1
94320,-1000,4,2,11,5,0,1
94374,-1000,4,2,11,80,0,1
94537,-1000,4,2,11,5,0,1
94591,-1000,4,2,11,80,0,1
94754,-1000,4,2,11,5,0,1
94809,-200,4,2,11,80,0,1
94972,-1000,4,2,11,5,0,1
95026,-55.5555555555556,4,2,11,80,0,1
95352,-55.5555555555556,4,2,11,90,0,0
95461,-166.666666666667,4,2,11,75,0,1
95787,-166.666666666667,4,2,11,5,0,1
95896,-55.5555555555556,4,2,11,75,0,1
97200,-166.666666666667,4,2,11,75,0,1
97526,-166.666666666667,4,2,11,5,0,1
97635,-55.5555555555556,4,2,11,75,0,1
98939,-166.666666666667,4,2,11,75,0,0
99265,-166.666666666667,4,2,11,5,0,0
99374,-55.5555555555556,4,2,11,75,0,0
99483,-55.5555555555556,4,2,11,5,0,0
99591,-55.5555555555556,4,2,11,75,0,0
99700,-55.5555555555556,4,2,11,5,0,0
99809,-55.5555555555556,4,2,11,75,0,0
100135,-55.5555555555556,4,2,11,5,0,0
100244,-55.5555555555556,4,2,11,75,0,0
100352,-55.5555555555556,4,2,11,5,0,0
100461,-55.5555555555556,4,2,11,75,0,0
100570,-55.5555555555556,4,2,11,5,0,0
100678,-55.5555555555556,4,2,11,75,0,0
101004,-55.5555555555556,4,2,11,5,0,0
101113,-55.5555555555556,4,2,11,85,0,0
101222,-55.5555555555556,4,2,11,5,0,0
101331,-55.5555555555556,4,2,11,85,0,0
101439,-55.5555555555556,4,2,11,5,0,0
101548,-55.5555555555556,4,2,11,85,0,0
101657,-55.5555555555556,4,2,11,5,0,0
101765,-55.5555555555556,4,2,11,85,0,0
101874,-55.5555555555556,4,2,11,5,0,0
101983,-55.5555555555556,4,2,11,70,0,0
102418,-55.5555555555556,4,2,11,80,0,1
102744,-55.5555555555556,4,2,11,5,0,1
102852,-62.5,4,2,11,80,0,1
102961,-62.5,4,2,11,5,0,1
103070,-58.8235294117647,4,2,11,60,0,1
103178,-58.8235294117647,4,2,11,5,0,1
103287,-55.5555555555556,4,2,11,75,0,1
103396,-55.5555555555556,4,2,11,5,0,1
103504,-52.6315789473684,4,2,11,80,0,1
103613,-52.6315789473684,4,2,11,5,0,1
103722,-50,4,2,11,85,0,1
103831,-50,4,2,11,5,0,1
103939,-45.4545454545455,4,2,11,90,0,1
104048,-45.4545454545455,4,2,11,5,0,1
104157,-41.6666666666667,4,2,11,100,0,0
104483,-41.6666666666667,4,2,11,5,0,0
104591,-55.5555555555556,4,2,11,100,0,0
104700,-55.5555555555556,4,2,11,5,0,0
104809,-55.5555555555556,4,2,11,100,0,0
104918,-55.5555555555556,4,2,11,5,0,0
105026,-166.666666666667,4,2,11,60,0,0
105352,-166.666666666667,4,2,11,5,0,0
105461,-222.222222222222,4,2,11,70,0,0
105678,-222.222222222222,4,2,11,80,0,0
106059,-222.222222222222,4,2,11,5,0,0
106113,-138.888888888889,4,2,11,90,0,1
106222,-138.888888888889,4,2,11,5,0,1
106765,-55.5555555555556,4,2,11,70,0,0
106874,-55.5555555555556,4,2,11,50,0,0
111331,-55.5555555555556,4,2,12,40,0,0

[Colours]
Combo1 : 170,240,233
Combo2 : 64,224,208
Combo3 : 162,168,249
Combo4 : 92,99,240

[HitObjects]
96,192,3287,5,0,0:0:0:0:
100,206,3396,1,2,0:0:0:0:
104,220,3505,6,0,L|96:321,1,76,2|0,0:0|0:0,0:0:0:0:
256,160,3939,2,0,L|248:58,1,76,2|0,0:0|0:0,0:0:0:0:
384,256,4374,2,0,P|421:258|492:217,2,114,2|2|2,0:0|0:0|0:0,0:0:0:0:
248,152,5244,5,0,0:0:0:0:
352,0,5461,1,2,0:0:0:0:
349,109,5678,1,0,0:0:0:0:
251,43,5896,1,2,0:0:0:0:
335,219,6113,2,0,L|462:207,2,114,2|2|2,0:0|0:0|0:0,0:0:0:0:
154,95,6983,6,0,L|58:86,1,76,2|0,0:0|0:0,0:0:0:0:
240,160,7418,1,0,0:0:0:0:
232,168,7852,2,0,P|201:215|198:271,2,114,2|2|2,0:0|0:0|0:0,0:0:0:0:
280,364,8722,5,0,0:0:0:0:
206,263,8939,1,2,0:0:0:0:
383,330,9157,1,0,0:0:0:0:
198,255,9375,1,2,0:0:0:0:
288,372,9591,2,0,P|344:369|391:338,2,114,2|2|2,0:0|0:0|0:0,0:0:0:0:
251,95,10425,6,0,L|250:79,1,15.8333333333333,0|2,0:0|0:0,0:0:0:0:
259,103,11331,2,0,L|253:166,1,47.5,0|0,1:0|0:0,0:0:0:0:
198,226,11494,5,0,1:0:0:0:
200,249,11548,5,0,1:0:0:0:
202,273,11602,5,0,1:0:0:0:
204,296,11657,6,0,L|206:327,1,23.75,8|0,0:0|0:0,0:0:0:0:
348,376,11765,2,0,L|345:344,1,23.75,8|0,0:0|0:0,0:0:0:0:
196,288,11874,6,0,L|198:319,1,23.75,8|0,0:0|0:0,0:0:0:0:
356,384,11983,6,0,L|353:352,1,23.75,8|0,3:0|0:0,0:0:0:0:
160,129,12200,6,0,P|91:99|12:127,1,142.500005435944,6|0,1:2|0:0,0:0:0:0:
239,196,12635,6,0,P|264:125|236:58,1,142.500005435944,10|0,0:0|0:0,0:0:0:0:
143,231,12961,1,0,0:0:0:0:
184,328,13070,2,0,L|279:336,1,71.2500027179719,2|0,1:2|0:0,0:0:0:0:
393,248,13287,2,0,L|323:255,1,71.2500027179719,0|0,0:0|0:0,0:0:0:0:
492,355,13504,2,0,B|476:316|492:284|492:284|508:252|492:212,1,142.500005435944,10|0,0:0|0:0,0:0:0:0:
184,328,13939,6,0,P|113:332|56:283,1,142.500005435944,2|0,1:2|0:0,0:0:0:0:
143,231,14265,1,0,0:0:0:0:
289,340,14374,6,0,L|413:329,1,106.875004076958,10|0,0:0|0:0,0:0:0:0:
480,269,14591,5,2,0:0:0:0:
395,330,14700,1,2,0:0:0:0:
280,235,14809,6,0,L|404:224,1,106.875004076958,2|0,1:2|0:0,0:0:0:0:
471,164,15026,5,2,0:0:0:0:
386,225,15135,1,2,0:0:0:0:
271,130,15244,6,0,L|395:119,1,106.875004076958,10|0,0:2|0:0,0:0:0:0:
462,59,15461,5,2,0:0:0:0:
377,120,15570,1,2,0:0:0:0:
218,41,15678,6,0,L|17:23,1,142.500005435944,2|0,1:2|0:0,0:0:0:0:
6,105,16005,1,2,0:0:0:0:
217,144,16113,2,0,P|265:135|300:102,1,71.2500027179719,10|0,0:0|0:0,0:0:0:0:
135,209,16331,2,0,P|104:191|69:187,1,71.2500027179719,2|0,0:0|0:0,0:0:0:0:
366,168,16548,6,0,P|370:97|321:40,1,142.500005435944,2|0,1:2|0:0,0:0:0:0:
281,227,16874,2,0,B|273:266|273:266|289:330|289:330|281:369,1,142.500005435944,10|0,0:0|0:0,0:0:0:0:
463,206,17200,2,0,P|472:171|494:144,1,71.2500027179719,2|0,0:0|0:0,0:0:0:0:
253,241,17418,6,0,B|214:257|182:241|182:241|150:225|110:241,1,142.500005435944,2|0,1:2|0:0,0:0:0:0:
31,301,17744,1,2,0:0:0:0:
194,99,17852,2,0,P|212:129|216:165,1,71.2500027179719,8|0,0:0|0:0,0:0:0:0:
128,383,18070,2,0,P|132:348|150:318,1,71.2500027179719,2|0,0:0|0:0,0:0:0:0:
344,216,18287,6,0,L|308:212,1,35.625001358986,2|0,1:2|0:0,0:0:0:0:
158,325,18396,2,0,L|193:321,1,35.625001358986,8|0,0:0|0:0,0:0:0:0:
352,208,18504,6,0,L|316:204,1,35.625001358986,0|0,1:0|0:0,0:0:0:0:
131,113,18722,6,0,L|258:101,1,71.2500027179719,8|0,0:0|0:0,0:0:0:0:
360,200,18939,2,0,L|289:193,1,71.2500027179719,10|10,0:0|0:0,0:0:0:0:
418,289,19157,5,6,1:2:0:0:
463,209,19265,1,2,0:0:0:0:
429,122,19374,1,2,0:0:0:0:
339,97,19483,1,2,0:0:0:0:
471,217,19591,1,10,0:0:0:0:
479,225,19809,1,2,0:0:0:0:
487,233,20026,6,0,L|475:105,1,71.2500027179719,2|0,1:2|0:0,0:0:0:0:
314,295,20244,2,0,L|302:422,1,71.2500027179719,0|0,0:0|0:0,0:0:0:0:
368,192,20461,1,8,0:0:0:0:
134,249,20678,2,0,L|6:237,1,71.2500027179719,2|2,0:0|0:0,0:0:0:0:
178,155,20896,5,2,1:2:0:0:
234,228,21005,1,2,0:0:0:0:
214,318,21114,1,2,0:0:0:0:
129,355,21223,1,2,0:0:0:0:
242,220,21331,1,10,0:0:0:0:
250,212,21548,1,2,0:0:0:0:
258,204,21765,6,0,L|251:274,1,71.2500027179719,2|8,1:2|0:0,0:0:0:0:
76,163,21983,2,0,L|69:92,1,71.2500027179719,0|0,0:0|1:0,0:0:0:0:
142,257,22201,1,8,0:0:0:0:
327,127,22418,2,0,P|362:130|392:149,1,71.2500027179719,2|2,1:2|0:0,0:0:0:0:
193,53,22635,6,0,P|123:48|68:91,1,142.500005435944,14|0,0:0|0:0,0:0:0:0:
152,287,22961,2,0,B|138:252|154:220|154:220|170:188|154:149,1,142.500005435944,10|0,0:0|0:0,0:0:0:0:
89,362,23287,2,0,P|118:380|153:383,1,71.2500027179719,10|0,0:0|0:0,0:0:0:0:
316,235,23504,2,0,P|281:238|252:257,1,71.2500027179719,6|0,1:2|0:0,0:0:0:0:
448,320,23722,6,0,L|484:324,1,35.625001358986,0|0,1:0|0:0,0:0:0:0:
343,223,23831,2,0,L|307:227,1,35.625001358986,8|0,0:0|0:0,0:0:0:0:
456,328,23939,6,0,L|492:332,1,35.625001358986,8|0,0:0|0:0,0:0:0:0:
335,215,24048,2,0,L|299:219,1,35.625001358986,8|0,0:0|0:0,0:0:0:0:
464,336,24157,6,0,L|500:340,1,35.625001358986,8|0,3:0|0:0,0:0:0:0:
241,286,24374,5,6,0:0:0:0:
316,235,24591,1,2,0:0:0:0:
235,196,24809,1,2,0:0:0:0:
161,248,25026,1,2,0:0:0:0:
322,325,25244,5,2,0:0:0:0:
316,235,25461,1,2,0:0:0:0:
241,286,25678,1,2,0:0:0:0:
396,274,25896,5,0,3:0:0:0:
401,285,25968,1,0,3:0:0:0:
406,296,26041,1,0,3:0:0:0:
411,307,26114,1,2,3:2:0:0:
390,186,26331,1,2,0:0:0:0:
322,325,26548,5,2,0:0:0:0:
396,274,26765,1,2,0:0:0:0:
316,235,26983,1,2,0:0:0:0:
416,318,27418,6,0,L|473:312,1,47.5,0|0,0:0|0:0,0:0:0:0:
247,375,27852,6,0,L|171:367,1,76,2|0,0:0|0:0,0:0:0:0:
113,220,28287,1,0,0:0:0:0:
282,306,28504,1,0,0:0:0:0:
68,359,28722,2,0,P|46:328|37:292,1,76,2|0,0:0|0:0,0:0:0:0:
105,212,29048,1,0,0:0:0:0:
273,204,29157,2,0,P|242:226|206:235,1,76
19,135,29591,5,2,0:0:0:0:
97,204,29809,1,0,0:0:0:0:
150,24,30026,1,0,0:0:0:0:
89,212,30244,1,2,0:0:0:0:
289,63,30461,5,2,0:0:0:0:
281,196,30678,1,2,0:0:0:0:
142,32,30896,1,2,0:0:0:0:
81,220,31113,1,2,0:0:0:0:
365,135,31331,6,0,P|388:99|390:52,1,76,2|0,0:0|0:0,0:0:0:0:
376,240,31765,1,0,0:0:0:0:
289,63,31983,1,0,0:0:0:0:
184,237,32200,2,0,L|192:313,1,76,2|0,0:0|0:0,0:0:0:0:
50,206,32635,2,0,L|42:130,1,76,2|0,0:0|0:0,0:0:0:0:
181,332,33070,5,2,0:0:0:0:
184,237,33287,1,0,0:0:0:0:
267,192,33504,1,0,0:0:0:0:
347,241,33722,1,2,0:0:0:0:
104,188,33939,5,2,0:0:0:0:
264,285,34157,1,2,0:0:0:0:
270,97,34374,1,2,0:0:0:0:
102,282,34591,1,2,0:0:0:0:
350,148,34809,6,0,P|406:168|427:201,1,76,2|0,0:0|0:0,0:0:0:0:
267,192,35244,1,2,0:0:0:0:
190,47,35461,1,2,0:0:0:0:
347,241,35678,2,0,L|339:317,1,76,2|0,0:0|0:0,0:0:0:0:
261,384,36004,1,0,0:0:0:0:
91,354,36113,2,0,P|127:341|165:342,1,76,2|0,0:0|0:0,0:0:0:0:
485,264,36548,6,0,P|422:232|354:248,1,142.5,2|0,0:0|0:0,0:0:0:0:
24,224,36983,6,0,P|88:171|171:182,1,170.999994781494,0|0,0:0|0:0,0:0:0:0:
469,118,37418,6,0,P|409:60|295:84,1,199.499993911743,2|0,0:0|0:0,0:0:0:0:
117,273,37852,5,0,0:0:0:0:
124,284,38070,5,0,0:0:0:0:
131,295,38178,1,0,0:0:0:0:
138,306,38287,6,0,L|130:382,1,76,2|0,0:0|0:0,0:0:0:0:
16,216,38722,1,0,0:0:0:0:
224,160,38939,1,2,0:0:0:0:
74,17,39157,6,0,P|36:16|0:29,1,76,2|0,0:0|0:0,0:0:0:0:
199,244,39591,2,0,P|237:245|273:232,1,76,0|2,0:0|0:0,0:0:0:0:
375,154,39918,6,0,L|347:152,1,28.4999991302491,0|0,0:0|0:0,0:0:0:0:
210,66,40026,5,2,0:0:0:0:
329,1,40135,1,2,0:0:0:0:
227,65,40244,1,2,0:0:0:0:
338,17,40353,1,2,0:0:0:0:
243,68,40461,1,2,0:0:0:0:
347,33,40570,1,2,0:0:0:0:
259,72,40678,5,0,1:0:0:0:
274,78,40751,5,0,1:0:0:0:
289,86,40823,5,0,1:0:0:0:
355,49,40896,5,8,0:0:0:0:
363,41,41222,1,8,0:0:0:0:
371,33,41439,2,0,L|368:1,1,23.75,8|0,0:0|0:0,0:0:0:0:
496,150,41548,2,0,L|489:229,1,71.25,8|0,0:0|0:0,0:0:0:0:
417,366,41765,6,0,L|411:296,1,71.2500027179719,6|0,1:2|0:0,0:0:0:0:
312,201,41983,2,0,L|306:272,1,71.2500027179719,0|0,0:0|0:0,0:0:0:0:
497,228,42200,6,0,L|488:129,1,95,8|0,0:0|0:0,0:0:0:0:
379,41,42418,2,0,P|339:30|291:36,1,71.2500027179719,0|0,0:0|0:0,0:0:0:0:
149,88,42635,2,0,L|220:95,1,71.2500027179719,2|0,1:2|0:0,0:0:0:0:
71,13,42852,2,0,L|0:19,1,71.2500027179719,0|0,0:0|0:0,0:0:0:0:
61,231,43070,6,0,P|108:225|146:197,1,95,8|0,0:0|0:0,0:0:0:0:
171,314,43287,6,0,P|160:353|166:401,1,71.2500027179719,0|0,0:0|0:0,0:0:0:0:
137,205,43504,6,0,P|109:167|103:120,1,95,2|0,1:2|0:0,0:0:0:0:
161,42,43722,1,0,0:0:0:0:
256,66,43831,1,0,0:0:0:0:
339,15,43939,2,0,P|385:8|429:26,1,95,8|0,0:0|0:0,0:0:0:0:
360,232,44157,6,0,P|351:174|373:120,1,118.75,2|0,0:0|0:0,0:0:0:0:
454,289,44375,2,0,L|445:384,1,95,0|0,1:0|0:0,0:0:0:0:
251,241,44591,6,0,L|242:146,1,85.4999973907472,0|0,0:0|0:0,0:0:0:0:
252,259,44809,6,0,L|242:154,1,104.500003189087,8|0,0:0|0:0,0:0:0:0:
253,277,45026,6,0,L|241:151,1,123.499994346619,0|0,0:0|0:0,0:0:0:0:
200,373,45244,6,0,P|240:384|288:378,1,71.2500027179719,2|0,1:2|0:0,0:0:0:0:
145,279,45462,2,0,L|74:285,1,71.2500027179719,0|0,0:0|0:0,0:0:0:0:
0,102,45679,6,0,L|99:111,1,95,8|0,0:0|0:0,0:0:0:0:
271,379,45896,6,0,L|200:373,1,71.2500027179719,0|0,0:0|0:0,0:0:0:0:
184,175,46113,2,0,L|255:169,1,71.2500027179719,2|0,1:2|0:0,0:0:0:0:
365,278,46331,2,0,L|294:272,1,71.2500027179719,0|0,0:0|0:0,0:0:0:0:
298,69,46548,6,0,L|397:60,1,95,8|0,0:0|0:0,0:0:0:0:
511,164,46765,6,0,L|440:158,1,71.2500027179719,0|0,0:0|0:0,0:0:0:0:
190,65,46983,6,0,P|143:70|105:98,1,95,0|0,1:0|0:0,0:0:0:0:
78,201,47200,1,2,0:0:0:0:
154,281,47309,1,0,0:0:0:0:
278,166,47418,2,0,L|183:174,1,95,8|0,0:0|0:0,0:0:0:0:
345,253,47636,6,0,L|463:262,1,118.75,2|0,0:0|0:0,0:0:0:0:
257,317,47852,6,0,L|233:314,1,23.75,0|0,1:0|0:0,0:0:0:0:
353,245,47961,2,0,L|376:242,1,23.75,8|0,0:0|0:0,0:0:0:0:
249,325,48070,6,0,L|225:322,1,23.75,2|0,1:2|0:0,0:0:0:0:
356,364,48287,6,0,L|451:356,1,95,10|0,0:0|0:0,0:0:0:0:
241,333,48504,6,0,L|217:330,1,23.75,2|0,1:2|0:0,0:0:0:0:
361,237,48722,5,6,1:2:0:0:
233,341,48939,5,0,1:0:0:0:
144,311,49048,1,8,3:0:0:0:
73,373,49157,1,0,1:0:0:0:
144,311,49265,1,8,3:0:0:0:
125,218,49374,6,0,L|119:188,1,23.5124999282455,4|0,3:0|0:0,0:0:0:0:
315,311,49591,6,0,P|403:313|445:213,1,152,14|0,0:0|0:0,0:0:0:0:
315,311,49918,6,0,P|394:318|448:250,1,132.999995941162,10|0,0:0|0:0,0:0:0:0:
315,311,50244,6,0,P|392:319|447:266,1,113.999996520996,10|0,0:0|0:0,0:0:0:0:
149,119,50461,5,6,0:0:0:0:
277,223,50678,5,8,0:0:0:0:
366,193,50787,1,8,0:0:0:0:
437,255,50896,1,8,0:0:0:0:
366,193,51004,1,8,3:0:0:0:
385,100,51113,6,0,L|391:70,1,23.75,0|0,1:0|1:0,0:0:0:0:
195,193,51331,6,0,P|107:195|65:95,1,152,14|0,0:0|0:0,0:0:0:0:
195,193,51658,6,0,P|116:200|62:132,1,132.999995941162,10|0,0:0|0:0,0:0:0:0:
195,193,51984,6,0,P|118:201|63:148,1,113.999996520996,10|0,0:0|0:0,0:0:0:0:
475,69,52200,5,6,1:2:0:0:
468,80,52852,1,8,3:0:0:0:
461,91,52961,1,8,3:0:0:0:
463,215,53070,6,0,L|454:102,1,113.999996520996,14|0,0:0|0:0,0:0:0:0:
373,276,53396,2,0,L|476:324,1,113.999996520996,10|0,0:0|0:0,0:0:0:0:
365,166,53722,6,0,L|272:232,1,113.999996520996,6|0,0:0|0:0,0:0:0:0:
456,223,54157,6,0,L|519:228,1,47.5
416,104,54374,6,0,L|468:99,1,52.2500015945435,8|0,0:0|0:0,0:0:0:0:
341,293,54591,6,0,L|397:297,1,56.9999982604981,8|0,0:0|0:0,0:0:0:0:
268,44,54809,6,0,L|330:40,1,61.7499971733095,8|0,0:0|0:0,0:0:0:0:
185,349,55026,6,0,L|252:355,1,66.4999979705811,8|0,0:0|0:0,0:0:0:0:
81,6,55244,6,0,L|152:0,1,71.2500027179719,8|0,0:0|0:0,0:0:0:0:
0,377,55461,6,0,L|76:384,1,76,8|0,0:0|0:0,0:0:0:0:
284,152,55678,6,0,P|243:152|207:135,1,80.750001540184,2|0,1:2|0:0,0:0:0:0:
0,224,55896,1,8,0:0:0:0:
4,228,56004,1,8,0:0:0:0:
8,232,56113,6,0,P|48:232|84:215,1,76,10|4,0:0|3:0,0:0:0:0:
240,309,56331,1,2,1:2:0:0:
236,313,56439,1,2,1:2:0:0:
232,317,56548,6,0,P|197:318|164:306,1,71.2500027179719,8|4,0:0|3:0,0:0:0:0:
8,369,56765,1,4,3:0:0:0:
12,373,56874,1,4,3:0:0:0:
16,377,56983,6,0,P|51:378|84:366,1,66.9749989780426,8|0,0:0|0:0,0:0:0:0:
332,251,57418,6,0,L|363:253,1,23.75,14|0,0:0|0:0,0:0:0:0:
192,210,57526,2,0,L|160:212,1,23.75,8|0,0:0|0:0,0:0:0:0:
340,259,57635,6,0,L|371:261,1,23.75,8|0,0:0|0:0,0:0:0:0:
184,202,57744,2,0,L|152:204,1,23.75,8|0,0:0|0:0,0:0:0:0:
448,96,58070,6,0,L|471:94,1,23.75,10|0,0:0|0:0,0:0:0:0:
308,137,58178,2,0,L|284:135,1,23.75,8|0,0:0|0:0,0:0:0:0:
456,88,58287,6,0,L|479:86,1,23.75,8|0,0:0|0:0,0:0:0:0:
300,145,58396,2,0,L|276:143,1,23.75,8|0,0:0|0:0,0:0:0:0:
32,32,58722,6,0,L|9:30,1,23.75,10|0,0:0|0:0,0:0:0:0:
172,73,58830,2,0,L|196:71,1,23.75,8|0,0:0|0:0,0:0:0:0:
24,24,58939,6,0,L|1:22,1,23.75,8|0,0:0|0:0,0:0:0:0:
180,81,59048,2,0,L|204:79,1,23.75,8|0,0:0|0:0,0:0:0:0:
26,345,59157,6,0,L|24:368,1,23.75,10|0,0:0|0:0,0:0:0:0:
75,197,59265,2,0,L|73:173,1,23.75,8|0,0:0|0:0,0:0:0:0:
18,353,59374,6,0,L|16:376,1,23.75,8|0,0:0|0:0,0:0:0:0:
83,189,59483,2,0,L|81:165,1,23.75,8|0,0:0|0:0,0:0:0:0:
261,74,59809,6,0,L|259:51,1,23.75,10|0,0:0|0:0,0:0:0:0:
310,222,59917,2,0,L|308:246,1,23.75,8|0,0:0|0:0,0:0:0:0:
253,66,60026,6,0,L|251:43,1,23.75,8|0,0:0|0:0,0:0:0:0:
318,230,60135,2,0,L|316:254,1,23.75,8|0,0:0|0:0,0:0:0:0:
446,346,60461,6,0,L|444:369,1,23.75,10|0,0:0|0:0,0:0:0:0:
495,198,60569,2,0,L|493:174,1,23.75,8|0,0:0|0:0,0:0:0:0:
438,354,60678,6,0,L|436:377,1,23.75,8|0,0:0|0:0,0:0:0:0:
503,190,60787,2,0,L|501:166,1,23.75,8|0,0:0|0:0,0:0:0:0:
166,81,60896,6,0,L|143:79,1,23.75,10|0,0:0|0:0,0:0:0:0:
322,138,61004,2,0,L|346:136,1,23.75,8|0,0:0|0:0,0:0:0:0:
158,73,61113,6,0,L|135:71,1,23.75,8|0,0:0|0:0,0:0:0:0:
330,146,61222,2,0,L|354:144,1,23.75,8|0,0:0|0:0,0:0:0:0:
259,316,61548,6,0,L|236:318,1,23.75,10|0,0:0|0:0,0:0:0:0:
415,259,61656,2,0,L|439:261,1,23.75,8|0,0:0|0:0,0:0:0:0:
251,324,61765,6,0,L|228:326,1,23.75,8|0,0:0|0:0,0:0:0:0:
423,251,61874,2,0,L|447:253,1,23.75,8|0,0:0|0:0,0:0:0:0:
33,178,62200,6,0,L|10:176,1,23.75,10|0,0:0|0:0,0:0:0:0:
189,235,62308,2,0,L|213:233,1,23.75,8|0,0:0|0:0,0:0:0:0:
25,170,62417,6,0,L|2:168,1,23.75,8|0,0:0|0:0,0:0:0:0:
197,243,62526,2,0,L|221:241,1,23.75,8|0,0:0|0:0,0:0:0:0:
388,94,62635,6,0,L|411:92,1,23.75,10|0,0:0|0:0,0:0:0:0:
248,135,62743,2,0,L|224:133,1,23.75,8|0,0:0|0:0,0:0:0:0:
396,86,62852,6,0,L|419:84,1,23.75,8|0,0:0|0:0,0:0:0:0:
240,143,62961,2,0,L|216:141,1,23.75,8|0,0:0|0:0,0:0:0:0:
91,327,63287,6,0,L|68:325,1,23.75,10|0,0:0|0:0,0:0:0:0:
247,384,63395,2,0,L|271:382,1,23.75,8|0,0:0|0:0,0:0:0:0:
181,227,63504,6,0,L|158:229,1,23.75,0|0,1:2|0:0,0:0:0:0:
321,186,63613,2,0,L|345:188,1,23.75,8|0,0:0|0:0,0:0:0:0:
132,102,63722,6,0,L|109:100,1,23.75,8|0,3:0|0:0,0:0:0:0:
256,127,63831,2,0,L|280:125,1,23.75,8|0,3:0|0:0,0:0:0:0:
213,15,63939,6,0,L|190:17,1,23.2750002841187,8|0,0:0|0:0,0:0:0:0:
338,306,64374,6,0,L|449:315,1,98.7999993969727,4|0,0:0|0:0,0:0:0:0:
328,165,65026,2,0,L|217:174,1,98.7999993969727,2|0,0:0|0:0,0:0:0:0:
382,239,65678,1,2,0:0:0:0:
274,91,65896,1,0,0:0:0:0:
200,259,66113,6,0,L|111:251,2,74.0999995477295,2|0|2,0:0|0:0|0:0,0:0:0:0:
192,267,67418,5,8,0:0:0:0:
96,285,67526,1,8,3:0:0:0:
32,210,67635,1,4,3:0:0:0:
64,117,67744,1,4,3:0:0:0:
104,277,67852,6,0,L|92:404,1,104.500003189087,6|0,0:0|0:0,0:0:0:0:
225,175,68178,1,0,0:0:0:0:
217,167,68287,2,0,L|205:40,1,104.500003189087,8|0,0:0|0:0,0:0:0:0:
24,202,68722,1,2,1:2:0:0:
256,342,68939,1,0,0:0:0:0:
396,110,69157,1,8,0:0:0:0:
248,350,69374,2,0,P|222:352|197:345,1,52.2500015945435,0|0,0:0|0:0,0:0:0:0:
344,234,69591,6,0,P|395:229|443:248,1,104.500003189087,2|0,1:2|0:0,0:0:0:0:
144,284,69918,1,0,0:0:0:0:
136,276,70026,2,0,P|131:224|150:176,1,104.500003189087,8|0,0:0|0:0,0:0:0:0:
380,338,70462,1,2,1:2:0:0:
296,36,70678,1,2,1:2:0:0:
32,240,70896,1,8,0:0:0:0:
28,251,71004,1,8,0:0:0:0:
24,262,71113,2,0,L|30:341,1,52.2500015945435,8|0,3:0|0:0,0:0:0:0:
256,192,71331,6,0,P|218:133|135:120,1,132.999995941162,14|0,0:0|0:0,0:0:0:0:
256,192,71620,2,0,P|326:188|378:123,1,132.999995941162,10|0,0:0|0:0,0:0:0:0:
256,192,71910,2,0,P|223:254|254:332,1,132.999995941162,10|0,0:0|0:0,0:0:0:0:
275,71,72200,6,0,P|288:135|256:192,1,132.999995941162,10|0,0:0|0:0,0:0:0:0:
142,234,72490,2,0,P|190:191|256:192,1,132.999995941162,10|0,0:0|0:0,0:0:0:0:
351,267,72780,2,0,P|289:248|256:192,1,132.999995941162,10|0,0:0|0:0,0:0:0:0:
480,64,73070,5,12,0:0:0:0:
484,75,73178,1,8,0:0:0:0:
357,161,73287,5,8,3:0:0:0:
353,172,73395,1,8,3:0:0:0:
472,248,73504,5,4,3:0:0:0:
476,259,73612,1,4,3:0:0:0:
408,336,73722,5,2,1:2:0:0:
404,347,73830,1,0,1:0:0:0:
320,0,73940,5,12,0:0:0:0:
324,11,74157,1,0,0:0:0:0:
192,96,74374,2,0,P|141:101|93:82,1,104.500003189087,12|0,0:0|0:0,0:0:0:0:
180,206,74809,6,0,P|206:250|209:301,1,85.4999973907472,6|0,1:2|0:0,0:0:0:0:
50,343,75026,2,0,P|68:306|101:279,1,85.4999973907472,0|0,0:0|0:0,0:0:0:0:
310,327,75244,2,0,P|349:341|392:339,1,85.4999973907472,8|0,0:0|0:0,0:0:0:0:
485,283,75461,1,2,0:0:0:0:
366,170,75570,2,0,L|281:163,2,85.4999973907472,0|0|0,0:0|1:0|0:0,0:0:0:0:
258,56,75896,2,0,L|172:63,1,85.4999973907472,0|0,0:0|0:0,0:0:0:0:
123,265,76113,2,0,P|165:257|201:235,1,85.4999973907472,10|0,0:0|0:0,0:0:0:0:
412,362,76331,6,0,B|348:394|284:362|284:362|220:330|156:362,1,256.499992172241,2|0,0:0|0:0,0:0:0:0:
343,255,76765,2,0,P|366:219|373:177,1,85.4999973907472,0|0,0:0|0:0,0:0:0:0:
234,102,76983,2,0,P|241:144|265:180,1,85.4999973907472,10|0,0:0|0:0,0:0:0:0:
300,15,77200,1,0,0:0:0:0:
242,94,77309,1,0,0:0:0:0:
125,81,77418,2,0,L|39:88,1,85.4999973907472,2|0,1:2|0:0,0:0:0:0:
202,208,77635,6,0,P|307:182|345:109,1,142.500005435944,0|0,0:0|0:0,0:0:0:0:
452,60,77852,2,0,P|420:122|431:192,1,142.500005435944,8|0,0:0|0:0,0:0:0:0:
455,350,78070,6,0,P|416:291|351:265,1,142.500005435944,2|0,0:0|0:0,0:0:0:0:
169,376,78504,6,0,P|99:371|45:327,1,142.500005435944,0|0,0:0|0:0,0:0:0:0:
230,175,78722,2,0,P|261:238|250:308,1,142.500005435944,8|0,0:0|0:0,0:0:0:0:
29,220,78939,6,0,P|66:162|132:138,1,142.500005435944,2|0,0:0|0:0,0:0:0:0:
307,253,79374,6,0,L|466:266,1,142.500005435944,0|0,0:0|0:0,0:0:0:0:
356,54,79591,2,0,L|215:67,1,142.500005435944,8|0,0:0|0:0,0:0:0:0:
102,328,79809,6,0,L|243:341,1,142.500005435944,2|0,0:0|0:0,0:0:0:0:
132,137,80244,6,0,L|46:144,1,85.4999973907472,0|0,0:0|0:0,0:0:0:0:
265,35,80461,2,0,P|308:32|348:46,1,85.4999973907472,8|0,0:0|0:0,0:0:0:0:
396,141,80678,1,0,0:0:0:0:
323,237,80787,1,0,0:0:0:0:
397,325,80896,6,0,L|402:372,1,42.7499986953736,2|0,1:2|0:0,0:0:0:0:
315,245,81004,2,0,L|320:198,1,42.7499986953736,8|0,0:0|0:0,0:0:0:0:
405,333,81113,6,0,L|410:380,1,42.7499986953736,2|0,1:2|0:0,0:0:0:0:
479,253,81331,6,0,L|486:167,1,85.4999973907472,10|0,0:0|0:0,0:0:0:0:
413,341,81548,6,0,L|418:388,1,42.7499986953736,2|0,0:0|0:0,0:0:0:0:
331,229,81765,6,0,L|336:182,1,42.7499986953736,6|0,1:2|0:0,0:0:0:0:
238,357,81983,1,8,0:0:0:0:
181,252,82091,1,8,0:0:0:0:
90,333,82200,1,8,0:0:0:0:
10,280,82309,1,8,0:0:0:0:
229,365,82418,6,0,P|271:357|308:334,1,85.4999973907472,2|0,1:2|0:0,0:0:0:0:
239,141,82635,1,2,0:0:0:0:
173,244,82744,6,0,L|130:240,1,42.7499986953736,8|0,0:0|0:0,0:0:0:0:
247,133,82852,6,0,L|294:128,1,42.7499986953736,2|0,1:2|0:0,0:0:0:0:
174,39,83070,6,0,L|88:32,1,85.4999973907472,8|0,0:0|0:0,0:0:0:0:
255,125,83287,6,0,L|302:120,1,42.7499986953736,2|0,0:0|0:0,0:0:0:0:
165,236,83504,6,0,L|118:231,1,42.7499986953736,6|0,1:2|0:0,0:0:0:0:
246,349,83722,1,0,0:0:0:0:
326,280,83831,1,8,0:0:0:0:
384,384,83939,1,4,3:0:0:0:
461,242,84048,1,4,3:0:0:0:
254,357,84157,6,0,P|212:349|175:326,1,85.4999973907472,2|0,1:2|0:0,0:0:0:0:
365,180,84374,1,2,0:0:0:0:
469,250,84483,6,0,L|512:246,1,42.7499986953736,8|0,0:0|0:0,0:0:0:0:
357,188,84591,6,0,L|314:184,1,42.7499986953736,0|0,1:0|0:0,0:0:0:0:
401,51,84809,5,8,0:0:0:0:
444,140,84918,1,8,0:0:0:0:
349,196,85026,6,0,L|263:203,1,85.4999973907472,0|0,1:0|0:0,0:0:0:0:
79,95,85244,6,0,P|120:88|156:65,1,85.4999973907472,6|0,1:2|0:0,0:0:0:0:
92,205,85462,2,0,P|68:240|61:282,1,85.4999973907472,0|0,0:0|0:0,0:0:0:0:
220,350,85678,2,0,P|201:312|169:285,1,85.4999973907472,8|0,0:0|0:0,0:0:0:0:
322,384,85896,1,0,0:0:0:0:
410,321,86004,1,0,0:0:0:0:
504,375,86113,6,0,L|511:289,1,85.4999973907472,2|0,1:2|0:0,0:0:0:0:
367,148,86331,2,0,L|374:234,1,85.4999973907472,0|0,0:0|0:0,0:0:0:0:
512,0,86549,2,0,P|471:7|435:30,1,85.4999973907472,8|0,0:0|0:0,0:0:0:0:
277,94,86765,2,0,P|312:117|354:124,1,85.4999973907472,2|0,0:0|0:0,0:0:0:0:
2,165,86983,6,0,P|113:109|132:294,1,356.25001358986,14|0,0:0|0:0,0:0:0:0:
179,97,87309,2,0,P|297:-1|360:139,1,356.25001358986,10|0,0:0|0:0,0:0:0:0:
497,279,87635,6,0,P|381:178|314:317,1,356.25001358986,6|0,1:2|0:0,0:0:0:0:
481,83,88069,1,2,0:0:0:0:
379,179,88288,5,8,0:0:0:0:
383,190,88396,1,8,0:0:0:0:
493,290,88504,5,8,0:0:0:0:
489,301,88612,1,8,0:0:0:0:
358,8,88722,6,0,L|357:0,1,7.125,6|0,1:2|0:0,0:0:0:0:
273,325,88940,2,0,L|272:333,1,7.125,0|0,1:0|0:0,0:0:0:0:
128,128,89157,6,0,L|120:127,1,7.125,0|0,1:0|0:0,0:0:0:0:
392,290,89374,2,0,L|400:289,1,7.125,2|0,1:2|0:0,0:0:0:0:
76,378,89591,6,0,L|38:373,1,35.625,8|0,0:0|0:0,0:0:0:0:
312,234,89809,2,0,L|320:233,1,7.125,0|0,1:0|0:0,0:0:0:0:
16,226,90026,6,0,L|8:225,1,7.125,2|0,1:2|0:0,0:0:0:0:
355,381,90244,2,0,L|391:376,1,35.625,8|0,0:0|0:0,0:0:0:0:
273,85,90461,6,0,L|274:77,1,7.125,2|0,1:2|0:0,0:0:0:0:
115,277,90678,6,0,L|120:318,1,35.625,8|0,0:0|0:0,0:0:0:0:
8,16,90896,2,0,L|9:8,1,7.125,0|0,1:0|0:0,0:0:0:0:
0,24,91113,2,0,L|1:16,1,7.125,0|0,1:0|0:0,0:0:0:0:
194,188,91331,6,0,L|189:150,1,35.625,8|0,0:0|0:0,0:0:0:0:
202,196,91548,2,0,L|201:188,1,7.125,0|0,1:0|0:0,0:0:0:0:
416,64,91765,6,0,L|417:56,1,7.125,0|0,1:0|0:0,0:0:0:0:
424,56,91982,2,0,L|425:48,1,7.125,0|0,1:0|0:0,0:0:0:0:
480,320,92200,6,0,L|481:328,1,7.125,2|0,1:2|0:0,0:0:0:0:
210,204,92418,2,0,L|211:196,1,7.125,0|0,1:0|0:0,0:0:0:0:
408,72,92635,6,0,L|409:64,1,7.125,0|0,1:0|0:0,0:0:0:0:
107,269,92853,2,0,L|108:277,1,7.125,0|0,1:0|0:0,0:0:0:0:
463,194,93070,6,0,L|501:189,1,35.625,10|0,0:0|0:0,0:0:0:0:
216,24,93287,2,0,L|208:23,1,7.125,0|0,1:0|0:0,0:0:0:0:
224,32,93504,2,0,L|216:31,1,7.125,2|0,1:2|0:0,0:0:0:0:
225,325,93722,6,0,L|220:363,1,35.625,8|0,0:0|0:0,0:0:0:0:
400,80,93939,2,0,L|399:72,1,7.125,0|0,1:0|0:0,0:0:0:0:
114,175,94157,6,0,L|78:170,1,35.625,8|0,0:0|0:0,0:0:0:0:
401,266,94374,2,0,L|409:265,1,7.125,0|0,1:0|0:0,0:0:0:0:
222,23,94591,2,0,L|221:15,1,7.125,2|0,1:2|0:0,0:0:0:0:
341,333,94809,6,0,L|336:369,1,35.625,8|0,0:0|0:0,0:0:0:0:
216,216,95026,5,8,0:0:0:0:
114,175,95135,1,8,0:0:0:0:
28,244,95244,1,8,0:0:0:0:
45,353,95352,1,8,0:0:0:0:
122,183,95461,6,0,P|124:140|110:100,1,85.4999973907472,6|0,1:2|0:0,0:0:0:0:
208,224,95896,6,0,P|210:266|196:306,1,85.4999973907472,2|0,0:0|0:0,0:0:0:0:
15,370,96113,2,0,P|51:347|93:340,1,85.4999973907472,8|0,0:0|0:0,0:0:0:0:
293,358,96331,2,0,P|334:350|370:327,1,85.4999973907472,0|0,0:0|0:0,0:0:0:0:
450,252,96548,2,0,P|457:293|480:329,1,85.4999973907472,2|0,1:2|0:0,0:0:0:0:
353,134,96766,2,0,L|346:220,1,85.4999973907472,0|0,0:0|0:0,0:0:0:0:
512,162,96983,2,0,L|505:76,1,85.4999973907472,8|0,0:0|0:0,0:0:0:0:
252,35,97200,6,0,L|245:121,1,85.4999973907472,6|0,1:2|0:0,0:0:0:0:
164,272,97635,6,0,L|157:186,1,85.4999973907472,2|0,0:0|0:0,0:0:0:0:
273,271,97852,2,0,P|266:312|243:348,1,85.4999973907472,8|0,0:0|0:0,0:0:0:0:
0,287,98070,2,0,P|42:294|78:318,1,85.4999973907472,0|0,0:0|0:0,0:0:0:0:
130,99,98287,2,0,P|88:106|52:130,1,85.4999973907472,2|0,1:2|0:0,0:0:0:0:
90,219,98504,2,0,P|131:211|167:187,1,85.4999973907472
254,15,98722,2,0,L|168:8,1,85.4999973907472,10|0,0:0|0:0,0:0:0:0:
275,161,98939,6,0,L|361:154,1,85.4999973907472,6|0,1:2|0:0,0:0:0:0:
443,51,99374,6,0,L|357:44,1,85.4999973907472,2|0,1:2|0:0,0:0:0:0:
438,231,99591,2,0,P|461:195|469:153,1,85.4999973907472,10|0,0:0|0:0,0:0:0:0:
384,327,99809,5,10,0:0:0:0:
386,350,99863,5,8,0:0:0:0:
388,374,99918,5,8,0:0:0:0:
288,276,100026,6,0,L|295:190,1,85.4999973907472,10|0,0:0|0:0,0:0:0:0:
180,297,100244,2,0,L|187:383,1,85.4999973907472,4|0,3:0|0:0,0:0:0:0:
82,249,100461,2,0,P|46:225|4:217,1,85.4999973907472,4|0,3:0|0:0,0:0:0:0:
109,142,100679,6,0,P|208:67|332:87,1,256.499992172241,14|0,0:0|0:0,0:0:0:0:
487,44,101113,2,0,P|446:35|411:12,1,85.4999973907472,2|0,1:2|0:0,0:0:0:0:
429,137,101331,2,0,P|442:177|439:219,1,85.4999973907472,8|0,0:0|0:0,0:0:0:0:
445,351,101548,2,0,P|473:319|511:301,1,85.4999973907472,2|0,1:2|0:0,0:0:0:0:
357,290,101765,2,0,L|271:283,1,85.4999973907472,8|0,0:0|0:0,0:0:0:0:
143,380,101982,5,8,0:0:0:0:
132,384,102091,1,8,0:0:0:0:
33,346,102200,5,8,0:0:0:0:
22,342,102309,1,8,0:0:0:0:
248,344,102418,6,0,P|268:220|192:121,1,256.499992172241,6|0,1:2|0:0,0:0:0:0:
48,237,102852,6,0,P|81:255|118:261,1,76,0|0,1:0|0:0,0:0:0:0:
368,180,103070,6,0,P|333:199|293:204,1,80.750001540184,8|0,0:0|0:0,0:0:0:0:
0,70,103287,6,0,P|38:91|101:89,1,85.4999973907472,8|0,0:0|0:0,0:0:0:0:
411,0,103504,6,0,P|372:21|309:17,1,90.2499975900651,8|0,0:0|0:0,0:0:0:0:
143,183,103722,6,0,P|190:182|231:204,1,95,8|0,0:0|0:0,0:0:0:0:
474,278,103939,6,0,P|422:277|380:309,1,104.500003189087,8|0,0:0|0:0,0:0:0:0:
93,344,104157,6,0,P|243:346|312:167,1,341.999989562989,6|0,1:2|0:0,0:0:0:0:
391,351,104591,6,0,P|426:374|467:383,1,85.4999973907472,10|0,0:0|0:0,0:0:0:0:
280,316,104809,2,0,P|238:325|203:349,1,85.4999973907472,10|0,0:0|0:0,0:0:0:0:
85,352,105026,6,0,L|92:266,1,85.4999973907472
189,25,105461,5,0,1:0:0:0:
191,50,105533,1,0,1:0:0:0:
193,75,105606,1,0,1:0:0:0:
196,100,105678,6,0,L|189:25,1,74.8124977169038,8|0,0:0|0:0,0:0:0:0:
294,145,106113,6,0,L|277:336,1,171.000004174805,6|0,1:2|0:0,0:0:0:0:
392,97,106765,5,6,1:2:0:0:
256,192,106874,12,2,111331,0:0:0:0:
