osu file format v14

[General]
AudioFilename: Shin Ai.mp3
AudioLeadIn: 0
PreviewTime: 74048
Countdown: 0
SampleSet: Soft
StackLeniency: 0.4
Mode: 0
LetterboxInBreaks: 0
WidescreenStoryboard: 0

[Editor]
DistanceSpacing: 1.2
BeatDivisor: 4
GridSize: 32
TimelineZoom: 1.7

[Metadata]
Title:Shin'ai
TitleUnicode:深愛
Artist:Roselia
ArtistUnicode:Roselia
Creator:-Aqua
Version:Advanced
Source:バンドリ! ガールズバンドパーティ!
Tags:BanG Dream! Bandori! Girls Band Party! ガルパ Garupa insert cover original song single album Bandori project Girl Party Garupa! Fries Fried Potato Anfang Rozeria ロゼリア Minato Yukina 湊友希那 Hikawa Sayo 氷川紗夜 Imai Lisa 今井リサ Udagawa Ako 宇田川あこ Shirokane Rinko 白金燐子 Aiba Aina Aiai 相羽あいな Kudō Haruka Kudo Kudou Kudoharu Kdhr 工藤晴香 Endō Yurika Endo Endou Yurishii 遠藤ゆりか Sakuragawa Megu Meguchii 桜川めぐ Akesaka Satomi Akeko 明坂聡美 Noriyasu Agematsu Nana Mizuki 奈々水樹 WHITE ALBUM ホワイトアルバム Deep Love ShinAi Shin Ai Shin_Ai scanter Yukiyo Yonaka Yonaka- Moge-ko Mogeko Moge ko Moge_ko Reform Kujinn Japanese Pop Anime Video Game La+ Laplus- La+- Laplus
BeatmapID:1612913
BeatmapSetID:765499

[Difficulty]
HPDrainRate:5
CircleSize:3.8
OverallDifficulty:5
ApproachRate:6
SliderMultiplier:1.35
SliderTickRate:1

[Events]
//Background and Video events
0,0,"Sayo hot.jpg",0,0
//Break Periods
//Storyboard Layer 0 (Background)
//Storyboard Layer 1 (Fail)
//Storyboard Layer 2 (Pass)
//Storyboard Layer 3 (Foreground)
//Storyboard Layer 4 (Overlay)
//Storyboard Sound Samples

[TimingPoints]
3505,434.782608695652,4,2,12,30,1,0
3505,-100,4,2,12,30,0,0
3939,-100,4,2,12,45,0,0
4374,-100,4,2,12,40,0,0
4700,-100,4,2,12,45,0,0
5026,-100,4,2,12,40,0,0
5244,-100,4,2,12,30,0,0
5896,-100,4,2,12,20,0,0
6113,-100,4,2,12,30,0,0
6439,-100,4,2,12,40,0,0
6548,-100,4,2,12,30,0,0
6983,-100,4,2,12,25,0,0
8722,-100,4,2,12,15,0,0
9374,-100,4,2,12,25,0,0
9591,-100,4,2,12,30,0,0
10461,-100,4,2,12,40,0,0
11331,-100,4,2,11,70,0,0
12200,-100,4,2,11,80,0,1
24374,-100,4,2,11,50,0,0
24591,-100,4,2,12,50,0,0
27418,-100,4,2,12,50,0,0
27852,-100,4,2,12,40,0,0
28287,-100,4,2,12,20,0,0
28504,-100,4,2,12,40,0,0
29157,-100,4,2,12,20,0,0
29374,-100,4,2,12,40,0,0
30244,-100,4,2,12,30,0,0
30461,-100,4,2,12,50,0,0
30678,-100,4,2,12,40,0,0
30896,-100,4,2,12,30,0,0
31331,-100,4,2,12,40,0,0
31765,-100,4,2,12,20,0,0
31983,-100,4,2,12,40,0,0
32635,-100,4,2,12,20,0,0
33070,-100,4,2,12,40,0,0
33504,-100,4,2,12,30,0,0
33722,-100,4,2,12,40,0,0
33939,-100,4,2,12,60,0,0
34157,-100,4,2,12,45,0,0
34374,-100,4,2,12,30,0,0
34809,-100,4,2,12,40,0,0
35244,-100,4,2,12,30,0,0
35461,-100,4,2,12,40,0,0
36113,-100,4,2,12,30,0,0
36548,-100,4,2,12,40,0,0
38287,-100,4,2,12,50,0,0
39157,-100,4,2,12,55,0,0
40026,-100,4,2,12,60,0,0
40461,-100,4,2,12,50,0,0
40678,-100,4,2,11,50,0,0
40896,-100,4,2,11,70,0,0
41765,-100,4,2,11,80,0,0
52200,-100,4,2,11,60,0,0
53070,-100,4,2,11,80,0,0
53722,-100,4,2,11,60,0,0
54157,-100,4,2,11,60,0,0
54374,-100,4,2,11,50,0,0
54591,-100,4,2,11,55,0,0
54809,-100,4,2,11,60,0,0
55026,-100,4,2,11,65,0,0
55244,-100,4,2,11,70,0,0
55461,-100,4,2,11,75,0,0
55678,-100,4,2,11,80,0,0
57418,-100,4,2,11,90,0,0
63939,-100,4,2,11,70,0,0
64374,-100,4,2,11,50,0,0
65026,-100,4,2,12,40,0,0
65678,-100,4,2,12,45,0,0
66113,-100,4,2,12,50,0,0
66765,-100,4,2,12,55,0,0
67418,-100,4,2,11,70,0,0
67635,-100,4,2,11,60,0,0
67852,-100,4,2,11,80,0,0
71331,-100,4,2,11,90,0,0
72200,-100,4,2,11,60,0,0
74809,-100,4,2,11,100,0,1
81765,-100,4,2,11,90,0,0
85244,-100,4,2,11,100,0,1
87635,-100,4,2,11,90,0,0
88722,-100,4,2,11,100,0,1
89157,-100,4,2,11,80,0,1
95352,-100,4,2,11,90,0,0
95461,-100,4,2,11,75,0,1
98939,-100,4,2,11,60,0,0
102418,-100,4,2,11,80,0,1
103070,-100,4,2,11,50,0,1
103287,-100,4,2,11,55,0,1
103504,-100,4,2,11,60,0,1
103722,-100,4,2,11,65,0,1
103939,-100,4,2,11,70,0,1
104157,-100,4,2,11,100,0,0
105461,-100,4,2,11,70,0,0
105678,-100,4,2,11,80,0,0
106113,-100,4,2,11,70,0,1
106765,-100,4,2,11,60,0,0
111331,-100,4,2,12,40,0,0

[Colours]
Combo1 : 170,240,233
Combo2 : 64,224,208
Combo3 : 162,168,249
Combo4 : 92,99,240

[HitObjects]
64,320,3287,5,0,0:0:0:0:
64,320,3505,2,0,L|223:306,1,135,2|2,0:0|0:0,0:0:0:0:
353,354,4374,2,0,L|480:365,2,101.25,2|2|2,0:0|0:0|0:0,0:0:0:0:
259,221,5461,2,0,P|258:187|271:156,1,67.5,2|0,0:0|0:0,0:0:0:0:
337,111,5896,1,2,0:0:0:0:
413,137,6113,2,0,P|462:158|517:147,2,101.25,2|2|2,0:0|0:0|0:0,0:0:0:0:
337,111,6983,6,0,L|202:122,1,135,2|0,0:0|0:0,0:0:0:0:
42,95,7852,2,0,P|21:46|32:-9,2,101.25,2|2|2,0:0|0:0|0:0,0:0:0:0:
144,224,8939,2,0,L|138:291,1,67.5,2|0,0:0|0:0,0:0:0:0:
186,356,9374,1,2,0:0:0:0:
257,318,9591,2,0,P|306:311|352:332,2,101.25,2|2|2,0:0|0:0|0:0,0:0:0:0:
186,356,10461,5,2,0:0:0:0:
186,356,11331,5,0,1:0:0:0:
118,310,11548,1,0,1:0:0:0:
43,341,11765,2,0,L|37:404,2,33.75,8|8|8,0:0|0:0|3:0,0:0:0:0:
7,267,12200,6,0,L|1:200,1,67.5,6|0,1:2|0:0,0:0:0:0:
75,168,12635,2,0,L|81:101,1,67.5,10|0,0:0|0:0,0:0:0:0:
36,33,13070,2,0,P|66:20|100:21,1,67.5,2|0,1:2|0:0,0:0:0:0:
158,77,13504,2,0,P|188:89|222:88,1,67.5,10|0,0:0|0:0,0:0:0:0:
283,34,13939,6,0,B|319:18|351:34|351:34|383:50|419:34,1,135,2|10,1:2|0:0,0:0:0:0:
488,4,14591,1,2,0:0:0:0:
480,84,14809,2,0,L|474:151,1,67.5,2|2,1:2|0:0,0:0:0:0:
412,204,15244,2,0,L|418:271,1,67.5,10|2,0:2|0:0,0:0:0:0:
418,352,15678,6,0,P|354:335|296:367,1,135,2|10,1:2|0:0,0:0:0:0:
243,305,16331,1,2,0:0:0:0:
175,349,16548,2,0,P|117:381|53:364,1,135,2|8,1:2|0:0,0:0:0:0:
0,303,17200,1,2,0:0:0:0:
55,243,17418,6,0,L|66:116,2,101.25,2|2|2,1:2|0:0|0:0,0:0:0:0:
0,303,18287,2,0,P|57:270|121:287,1,135,2|8,1:2|0:0,0:0:0:0:
190,330,18939,1,10,0:0:0:0:
261,367,19157,6,0,P|294:368|325:355,1,67.5,6|2,1:2|0:0,0:0:0:0:
359,281,19591,2,0,P|392:279|423:292,1,67.5,10|2,0:0|0:0,0:0:0:0:
486,343,20026,1,2,1:2:0:0:
490,347,20461,1,8,0:0:0:0:
498,262,20678,1,2,0:0:0:0:
440,204,20896,6,0,L|434:137,1,67.5,2|2,1:2|0:0,0:0:0:0:
459,59,21331,2,0,P|425:60|394:47,1,67.5,10|2,0:0|0:0,0:0:0:0:
329,0,21765,1,2,1:2:0:0:
333,4,22200,1,8,0:0:0:0:
174,48,22635,6,0,L|46:36,2,101.25,14|10|10,0:0|0:0|0:0,0:0:0:0:
226,109,23504,1,6,1:2:0:0:
370,34,23939,1,8,0:0:0:0:
507,120,24374,5,6,0:0:0:0:
256,192,24483,12,2,26113,3:2:0:0:
507,120,27418,5,0,0:0:0:0:
352,70,27852,2,0,P|335:133|368:190,1,135,2|0,0:0|0:0,0:0:0:0:
429,243,28504,1,0,0:0:0:0:
412,322,28722,2,0,L|345:328,1,67.5,2|0,0:0|0:0,0:0:0:0:
270,294,29157,2,0,L|203:288,1,67.5,0|0,0:0|0:0,0:0:0:0:
129,321,29591,6,0,B|113:285|129:253|129:253|145:221|129:185,1,135,2|0,0:0|0:0,0:0:0:0:
76,129,30244,1,2,0:0:0:0:
108,55,30461,2,0,P|138:42|172:43,1,67.5,2|2,0:0|0:0,0:0:0:0:
241,85,30896,2,0,L|308:79,1,67.5,2|2,0:0|0:0,0:0:0:0:
284,156,31331,6,0,L|149:167,1,135,2|0,0:0|0:0,0:0:0:0:
85,217,31983,1,0,0:0:0:0:
142,274,32200,2,0,P|143:307|130:338,1,67.5,2|0,0:0|0:0,0:0:0:0:
211,341,32635,2,0,P|244:339|275:352,1,67.5,2|0,0:0|0:0,0:0:0:0:
350,383,33070,5,2,0:0:0:0:
413,333,33287,1,0,0:0:0:0:
363,269,33504,2,0,P|361:235|374:204,1,67.5,0|2,0:0|0:0,0:0:0:0:
443,162,33939,2,0,L|510:168,2,67.5,2|2|0,0:0|0:0|0:0,0:0:0:0:
434,81,34591,1,2,0:0:0:0:
354,80,34809,6,0,B|317:84|317:84|263:64|263:64|218:68,1,135,2|2,0:0|0:0,0:0:0:0:
149,101,35461,1,2,0:0:0:0:
143,181,35678,2,0,P|200:214|264:198,1,135,2|2,0:0|0:0,0:0:0:0:
338,164,36331,1,0,0:0:0:0:
396,219,36548,6,0,L|385:354,1,135,2|0,0:0|0:0,0:0:0:0:
225,382,37418,2,0,L|90:371,1,135,2|0,0:0|0:0,0:0:0:0:
30,316,38070,1,0,0:0:0:0:
62,241,38287,6,0,B|78:205|62:173|62:173|46:141|62:105,1,135,2|0,0:0|0:0,0:0:0:0:
112,49,38939,1,2,0:0:0:0:
189,73,39157,2,0,L|256:67,1,67.5,2|0,0:0|0:0,0:0:0:0:
321,19,39591,2,0,L|388:25,1,67.5,0|2,0:0|0:0,0:0:0:0:
448,79,40026,2,0,P|463:142|430:199,1,135,2|2,0:0|0:0,0:0:0:0:
362,243,40678,1,0,1:0:0:0:
295,196,40896,6,0,L|194:204,2,101.25,8|8|8,0:0|0:0|0:0,0:0:0:0:
362,243,41765,6,0,P|374:212|373:178,1,67.5,6|0,1:2|0:0,0:0:0:0:
319,116,42200,2,0,L|252:110,1,67.5,8|0,0:0|0:0,0:0:0:0:
176,78,42635,1,2,1:2:0:0:
120,136,42852,1,0,0:0:0:0:
37,101,43070,2,0,P|38:134|25:165,1,67.5,8|0,0:0|0:0,0:0:0:0:
0,242,43504,6,0,L|8:343,2,101.25,2|0|2,1:2|0:0|0:0,0:0:0:0:
120,136,44591,1,0,0:0:0:0:
166,69,44809,2,0,P|135:55|101:56,2,67.5,8|0|2,0:0|0:0|1:2,0:0:0:0:
244,94,45461,1,0,0:0:0:0:
244,94,45678,1,8,0:0:0:0:
323,79,45896,2,0,L|390:73,1,67.5,0|2,0:0|1:2,0:0:0:0:
464,105,46331,1,0,0:0:0:0:
505,174,46548,2,0,L|511:241,1,67.5,8|0,0:0|0:0,0:0:0:0:
459,304,46983,6,0,P|413:283|364:290,2,101.25,0|0|2,1:0|0:0|0:0,0:0:0:0:
302,345,48070,1,2,1:2:0:0:
227,376,48287,2,0,P|193:376|162:364,1,67.5,10|2,0:0|1:2,0:0:0:0:
113,299,48722,6,0,L|46:305,1,67.5,6|0,1:2|1:0,0:0:0:0:
55,224,49157,2,0,L|122:218,1,67.5,0|4,1:0|3:0,0:0:0:0:
186,267,49592,2,0,L|287:275,2,101.25,14|10|10,0:0|0:0|0:0,0:0:0:0:
113,299,50461,6,0,L|46:305,1,67.5,6|8,0:0|0:0,0:0:0:0:
76,380,50896,2,0,L|143:374,1,67.5,8|0,0:0|1:0,0:0:0:0:
218,343,51331,2,0,L|319:351,2,101.25,14|10|10,0:0|0:0|0:0,0:0:0:0:
153,294,52200,5,6,1:2:0:0:
153,294,52852,1,8,3:0:0:0:
206,232,53070,2,0,P|212:182|191:137,2,101.25,14|10|6,0:0|0:0|0:0,0:0:0:0:
94,349,54157,5,0,0:0:0:0:
164,310,54374,2,0,L|231:316,1,67.5,8|8,0:0|0:0,0:0:0:0:
291,370,54809,2,0,L|358:364,1,67.5,8|8,0:0|0:0,0:0:0:0:
427,322,55244,1,8,0:0:0:0:
431,326,55678,6,0,L|437:259,1,67.5,2|8,1:2|0:0,0:0:0:0:
359,220,56113,2,0,L|353:153,1,67.5,10|2,0:0|1:2,0:0:0:0:
427,121,56548,2,0,L|433:54,1,67.5,8|4,0:0|3:0,0:0:0:0:
368,5,56983,1,8,0:0:0:0:
364,9,57418,6,0,L|236:-2,1,101.25,14|8,0:0|0:0,0:0:0:0:
217,112,58070,2,0,L|89:123,1,101.25,10|8,0:0|0:0,0:0:0:0:
6,68,58722,2,0,L|3:35,2,33.75,10|8|8,0:0|0:0|0:0,0:0:0:0:
40,141,59157,6,0,P|48:190|28:235,1,101.25,10|8,0:0|0:0,0:0:0:0:
3,354,59809,2,0,P|48:333|97:342,1,101.25,10|8,0:0|0:0,0:0:0:0:
215,372,60461,2,0,P|248:373|279:361,1,67.5,10|8,0:0|0:0,0:0:0:0:
355,330,60896,6,0,L|455:338,1,101.25,10|8,0:0|0:0,0:0:0:0:
375,246,61548,2,0,L|274:237,1,101.25,10|8,0:0|0:0,0:0:0:0:
355,330,62200,2,0,L|389:334,2,33.75,10|8|8,0:0|0:0|0:0,0:0:0:0:
287,374,62635,6,0,L|186:383,1,101.25,10|8,0:0|0:0,0:0:0:0:
81,321,63287,2,0,L|47:324,4,33.75,10|8|0|8|8,0:0|0:0|1:2|0:0|3:0,0:0:0:0:
147,275,63939,1,8,0:0:0:0:
151,279,64374,6,0,P|168:239|108:97,2,202.5,4|2|2,0:0|0:0|0:0,0:0:0:0:
106,346,65896,1,0,0:0:0:0:
178,384,66113,2,0,L|305:372,2,101.25,2|0|2,0:0|0:0|0:0,0:0:0:0:
178,384,67418,1,8,0:0:0:0:
106,346,67635,1,4,3:0:0:0:
28,370,67852,6,0,L|19:274,1,67.5,6|0,0:0|0:0,0:0:0:0:
95,266,68287,2,0,L|103:170,1,67.5,8|0,0:0|0:0,0:0:0:0:
34,152,68722,2,0,L|25:56,1,67.5,2|0,1:2|0:0,0:0:0:0:
64,11,69157,1,8,0:0:0:0:
134,49,69374,1,0,0:0:0:0:
205,11,69591,6,0,P|238:10|269:22,1,67.5,2|0,1:2|0:0,0:0:0:0:
315,89,70026,2,0,P|348:90|379:78,1,67.5,8|0,0:0|0:0,0:0:0:0:
432,15,70461,1,2,1:2:0:0:
508,41,70678,1,2,1:2:0:0:
495,121,70896,2,0,L|491:155,2,33.75,8|8|8,0:0|0:0|3:0,0:0:0:0:
508,41,71331,5,14,0:0:0:0:
256,192,71439,12,12,73070,0:0:0:0:
500,49,74157,5,0,0:0:0:0:
426,82,74374,2,0,L|330:73,1,67.5,12|0,0:0|0:0,0:0:0:0:
293,27,74809,6,0,L|225:33,1,67.5,6|0,1:2|0:0,0:0:0:0:
160,81,75244,2,0,L|92:74,1,67.5,8|2,0:0|0:0,0:0:0:0:
32,127,75678,2,0,P|44:158|43:191,1,67.5,0|0,1:0|0:0,0:0:0:0:
0,260,76113,1,10,0:0:0:0:
37,332,76331,6,0,B|68:348|104:332|104:332|140:316|172:332,1,135,2|0,0:0|0:0,0:0:0:0:
237,371,76983,1,10,0:0:0:0:
305,327,77200,2,0,P|336:339|369:339,1,67.5,0|2,0:0|1:2,0:0:0:0:
455,323,77635,5,0,0:0:0:0:
455,323,77852,1,8,0:0:0:0:
455,323,78070,2,0,L|463:227,1,67.5,2|2,0:0|1:2,0:0:0:0:
394,212,78504,5,0,0:0:0:0:
394,212,78722,1,8,0:0:0:0:
394,212,78939,2,0,L|386:116,1,67.5,2|2,0:0|1:2,0:0:0:0:
456,101,79374,1,0,0:0:0:0:
408,35,79591,1,8,0:0:0:0:
338,77,79809,6,0,B|294:69|294:69|250:85|250:85|203:77,1,135,2|0,0:0|0:0,0:0:0:0:
133,42,80461,2,0,L|37:50,1,67.5,8|0,0:0|0:0,0:0:0:0:
19,113,80896,2,0,P|31:144|30:177,1,67.5,2|2,1:2|1:2,0:0:0:0:
3,254,81331,1,10,0:0:0:0:
63,308,81548,1,2,0:0:0:0:
6,366,81765,6,0,P|51:386|100:378,2,101.25,6|8|2,1:2|0:0|1:2,0:0:0:0:
63,308,82635,2,0,P|63:275|51:244,1,67.5,2|2,0:0|1:2,0:0:0:0:
2,178,83070,1,8,0:0:0:0:
58,120,83287,1,2,0:0:0:0:
1,60,83504,6,0,P|47:39|96:47,2,101.25,6|8|2,1:2|0:0|1:2,0:0:0:0:
58,120,84374,2,0,P|90:129|123:125,1,67.5,2|0,0:0|1:0,0:0:0:0:
175,63,84809,2,0,L|242:57,1,67.5,8|0,0:0|1:0,0:0:0:0:
312,97,85244,6,0,L|379:102,1,67.5,6|0,1:2|0:0,0:0:0:0:
446,57,85678,1,8,0:0:0:0:
510,106,85896,1,0,0:0:0:0:
482,182,86113,2,0,L|476:249,1,67.5,2|0,1:2|0:0,0:0:0:0:
476,330,86548,2,0,P|444:317|411:317,1,67.5,8|2,0:0|0:0,0:0:0:0:
335,345,86983,6,0,L|234:354,2,101.25,14|10|6,0:0|0:0|1:2,0:0:0:0:
496,363,88070,1,2,0:0:0:0:
440,303,88287,2,0,L|445:236,1,67.5,8|8,0:0|0:0,0:0:0:0:
502,178,88722,6,0,L|497:111,1,67.5,6|0,1:2|1:0,0:0:0:0:
458,38,89157,1,0,1:0:0:0:
458,38,89374,1,2,1:2:0:0:
388,79,89591,2,0,P|354:83|322:74,1,67.5,8|0,0:0|1:0,0:0:0:0:
253,31,90026,1,2,1:2:0:0:
253,31,90244,1,8,0:0:0:0:
174,48,90461,6,0,L|107:53,1,67.5,2|8,1:2|0:0,0:0:0:0:
64,122,90896,2,0,P|59:155|68:187,1,67.5,0|0,1:0|1:0,0:0:0:0:
127,242,91331,2,0,P|137:274|132:307,1,67.5,8|0,0:0|1:0,0:0:0:0:
94,378,91765,2,0,P|126:387|159:382,1,67.5,0|0,1:0|1:0,0:0:0:0:
212,320,92200,6,0,L|279:315,1,67.5,2|0,1:2|1:0,0:0:0:0:
350,353,92635,1,0,1:0:0:0:
350,353,92852,1,0,1:0:0:0:
425,322,93070,2,0,L|430:255,1,67.5,10|0,0:0|1:0,0:0:0:0:
402,178,93504,1,2,1:2:0:0:
431,102,93722,6,0,B|403:88|367:104|367:104|331:120|300:104,1,135,8|8,0:0|0:0,0:0:0:0:
230,63,94374,2,0,L|163:58,1,67.5,0|2,1:0|1:2,0:0:0:0:
164,139,94809,2,0,L|231:144,1,67.5,8|8,0:0|0:0,0:0:0:0:
300,104,95244,1,8,0:0:0:0:
369,145,95461,6,0,B|377:189|377:189|361:233|361:233|369:280,1,135,6|2,1:2|0:0,0:0:0:0:
391,353,96113,1,8,0:0:0:0:
311,335,96331,2,0,P|278:330|246:339,1,67.5,0|2,0:0|1:2,0:0:0:0:
170,369,96765,1,0,0:0:0:0:
96,335,96983,1,8,0:0:0:0:
19,360,97200,6,0,L|5:200,1,135,6|2,1:2|0:0,0:0:0:0:
53,158,97852,1,8,0:0:0:0:
6,91,98070,2,0,P|57:106|131:64,1,135,0|0,0:0|0:0,0:0:0:0:
185,14,98722,1,10,0:0:0:0:
260,42,98939,6,0,B|291:58|327:42|327:42|363:26|391:40,1,135,6|2,1:2|1:2,0:0:0:0:
457,84,99591,1,10,0:0:0:0:
482,161,99809,2,0,L|477:228,1,67.5,10|10,0:0|0:0,0:0:0:0:
433,296,100244,1,4,3:0:0:0:
506,151,100678,6,0,P|441:164|385:130,1,135,14|2,0:0|1:2,0:0:0:0:
330,70,101331,2,0,L|263:75,1,67.5,8|2,0:0|1:2,0:0:0:0:
183,91,101765,1,8,0:0:0:0:
129,29,101983,2,0,L|62:24,1,67.5,8|8,0:0|0:0,0:0:0:0:
15,90,102418,6,0,B|7:134|7:134|23:178|23:178|15:225,1,135,6|0,1:2|1:0,0:0:0:0:
1,300,103070,1,8,0:0:0:0:
77,272,103287,2,0,P|109:262|142:267,1,67.5,8|8,0:0|0:0,0:0:0:0:
191,332,103722,2,0,P|223:341|256:336,1,67.5,8|8,0:0|0:0,0:0:0:0:
326,294,104157,5,6,1:2:0:0:
487,308,104591,2,0,L|492:375,2,67.5,10|10|0,0:0|0:0|0:0,0:0:0:0:
410,164,105461,2,0,L|415:97,1,67.5,0|8,1:0|0:0,0:0:0:0:
457,253,106113,6,0,P|392:266|335:231,1,135,6|0,1:2|0:0,0:0:0:0:
278,174,106765,1,6,1:2:0:0:
256,192,106874,12,2,111331,0:0:0:0:
