osu file format v14

[General]
AudioFilename: audio.mp3
AudioLeadIn: 0
PreviewTime: 272159
Countdown: 0
SampleSet: Soft
StackLeniency: 0.4
Mode: 0
LetterboxInBreaks: 0
WidescreenStoryboard: 0

[Editor]
Bookmarks: 32200,42749,53299,63848,74398,95497,116595,121870,132420,142969,153519,164068,185167,206266,227365,251101,261650,272200
DistanceSpacing: 0.2
BeatDivisor: 4
GridSize: 32
TimelineZoom: 1.5

[Metadata]
Title:Sanctuary
TitleUnicode:Sanctuary
Artist:Roselia
ArtistUnicode:Roselia
Creator:KeyWee
Version:The Prisms of Our Dreams Intersect
Source:バンドリ! ガールズバンドパーティ!
Tags:Shirahane Suou Livermorium midorijeon BanG Dream! Girls Band Party bandori バンドリ japanese rock j-rock jrock video game anime garupa ガルパ ロゼリア full size
BeatmapID:3902181
BeatmapSetID:1893645

[Difficulty]
HPDrainRate:5.5
CircleSize:4
OverallDifficulty:9
ApproachRate:9.2
SliderMultiplier:1.8
SliderTickRate:1

[Events]
//Background and Video events
0,0,"ako moment.png",0,0
//Break Periods
//Storyboard Layer 0 (Background)
//Storyboard Layer 1 (Fail)
//Storyboard Layer 2 (Pass)
//Storyboard Layer 3 (Foreground)
//Storyboard Layer 4 (Overlay)
//Storyboard Sound Samples

[TimingPoints]
552,329.67032967033,4,2,2,75,1,0
552,-100,4,2,2,75,0,0
10442,-166.666666666667,4,2,2,75,0,0
11101,-90.9090909090909,4,2,1,75,0,0
11183,-90.9090909090909,4,2,2,75,0,0
11431,-90.9090909090909,4,2,6,75,0,0
11513,-90.9090909090909,4,2,2,75,0,0
11760,-90.9090909090909,4,2,6,75,0,0
11842,-90.9090909090909,4,2,2,75,0,0
12090,-90.9090909090909,4,2,7,75,0,0
12172,-90.9090909090909,4,2,2,75,0,0
12255,-90.9090909090909,4,2,5,75,0,0
12420,-90.9090909090909,4,2,6,75,0,0
12502,-90.9090909090909,4,2,2,75,0,0
12749,-90.9090909090909,4,2,6,75,0,0
12831,-90.9090909090909,4,2,2,75,0,0
13079,-90.9090909090909,4,2,6,75,0,0
13161,-90.9090909090909,4,2,2,75,0,0
13409,-90.9090909090909,4,2,6,75,0,0
13491,-90.9090909090909,4,2,2,75,0,0
13738,-90.9090909090909,4,2,6,75,0,0
13820,-90.9090909090909,4,2,2,75,0,0
14068,-90.9090909090909,4,2,6,75,0,0
14150,-90.9090909090909,4,2,2,75,0,0
14398,-90.9090909090909,4,2,6,75,0,0
14480,-90.9090909090909,4,2,2,75,0,0
14727,-90.9090909090909,4,2,6,75,0,0
14809,-90.9090909090909,4,2,2,75,0,0
15057,-90.9090909090909,4,2,6,75,0,0
15139,-90.9090909090909,4,2,2,75,0,0
15387,-90.9090909090909,4,2,7,75,0,0
15469,-90.9090909090909,4,2,2,75,0,0
15716,-90.9090909090909,4,2,6,75,0,0
15798,-90.9090909090909,4,2,2,75,0,0
16046,-90.9090909090909,4,2,6,75,0,0
16128,-90.9090909090909,4,2,2,75,0,0
16705,-90.9090909090909,4,2,6,75,0,0
16787,-90.9090909090909,4,2,2,75,0,0
17035,-90.9090909090909,4,2,6,75,0,0
17117,-90.9090909090909,4,2,2,75,0,0
17365,-90.9090909090909,4,2,6,75,0,0
17447,-90.9090909090909,4,2,2,75,0,0
17694,-90.9090909090909,4,2,6,75,0,0
17776,-90.9090909090909,4,2,2,75,0,0
18024,-90.9090909090909,4,2,7,75,0,0
18106,-90.9090909090909,4,2,2,75,0,0
18354,-90.9090909090909,4,2,6,75,0,0
18436,-90.9090909090909,4,2,2,75,0,0
18683,-90.9090909090909,4,2,6,75,0,0
18765,-90.9090909090909,4,2,2,75,0,0
19013,-90.9090909090909,4,2,3,75,0,0
19343,-90.9090909090909,4,2,6,75,0,0
19425,-90.9090909090909,4,2,2,75,0,0
19672,-90.9090909090909,4,2,6,75,0,0
19754,-90.9090909090909,4,2,2,75,0,0
20002,-90.9090909090909,4,2,6,75,0,0
20084,-90.9090909090909,4,2,2,75,0,0
20332,-90.9090909090909,4,2,6,75,0,0
20414,-90.9090909090909,4,2,2,75,0,0
20661,-90.9090909090909,4,2,6,75,0,0
20743,-90.9090909090909,4,2,2,75,0,0
22310,-90.9090909090909,4,2,3,75,0,0
22639,-90.9090909090909,4,2,6,75,0,0
22721,-90.9090909090909,4,2,2,75,0,0
22969,-90.9090909090909,4,2,6,75,0,0
23051,-90.9090909090909,4,2,2,75,0,0
23299,-90.9090909090909,4,2,6,75,0,0
23381,-90.9090909090909,4,2,2,75,0,0
23628,-90.9090909090909,4,2,6,75,0,0
23710,-90.9090909090909,4,2,2,75,0,0
23958,-90.9090909090909,4,2,6,75,0,0
24040,-90.9090909090909,4,2,2,75,0,0
24617,-90.9090909090909,4,2,6,75,0,0
24699,-90.9090909090909,4,2,2,75,0,0
24947,-90.9090909090909,4,2,6,75,0,0
25029,-90.9090909090909,4,2,2,75,0,0
25277,-90.9090909090909,4,2,6,75,0,0
25359,-90.9090909090909,4,2,2,75,0,0
25606,-90.9090909090909,4,2,6,75,0,0
25688,-90.9090909090909,4,2,2,75,0,0
25936,-90.9090909090909,4,2,7,75,0,0
26018,-90.9090909090909,4,2,2,75,0,0
26266,-90.9090909090909,4,2,6,75,0,0
26348,-90.9090909090909,4,2,2,75,0,0
26595,-90.9090909090909,4,2,6,75,0,0
26677,-90.9090909090909,4,2,2,75,0,0
27255,-90.9090909090909,4,2,6,75,0,0
27337,-90.9090909090909,4,2,2,75,0,0
27584,-90.9090909090909,4,2,6,75,0,0
27666,-90.9090909090909,4,2,2,75,0,0
27914,-90.9090909090909,4,2,6,75,0,0
27996,-90.9090909090909,4,2,2,75,0,0
28244,-90.9090909090909,4,2,6,75,0,0
28326,-90.9090909090909,4,2,2,75,0,0
28573,-90.9090909090909,4,2,7,75,0,0
28655,-90.9090909090909,4,2,2,75,0,0
28903,-90.9090909090909,4,2,6,75,0,0
28985,-90.9090909090909,4,2,2,75,0,0
29233,-90.9090909090909,4,2,6,75,0,0
29315,-90.9090909090909,4,2,2,75,0,0
29892,-90.9090909090909,4,2,6,75,0,0
29974,-90.9090909090909,4,2,2,75,0,0
30222,-90.9090909090909,4,2,6,75,0,0
30304,-90.9090909090909,4,2,2,75,0,0
30552,-90.9090909090909,4,2,3,75,0,0
30881,-90.9090909090909,4,2,6,75,0,0
30963,-90.9090909090909,4,2,2,75,0,0
31211,-90.9090909090909,4,2,6,75,0,0
31293,-90.9090909090909,4,2,2,75,0,0
31870,-90.9090909090909,4,2,3,75,0,0
32035,-90.9090909090909,4,2,4,75,0,0
32200,-166.666666666667,4,2,2,60,0,0
42749,-133.333333333333,4,2,3,70,0,0
42832,-133.333333333333,4,2,4,70,0,0
43903,-133.333333333333,4,2,3,70,0,0
43986,-133.333333333333,4,2,4,70,0,0
44975,-133.333333333333,4,2,3,70,0,0
45057,-133.333333333333,4,2,4,70,0,0
45387,-133.333333333333,4,2,3,70,0,0
45469,-133.333333333333,4,2,4,70,0,0
46541,-133.333333333333,4,2,3,70,0,0
46623,-133.333333333333,4,2,4,70,0,0
47612,-133.333333333333,4,2,3,70,0,0
47694,-133.333333333333,4,2,4,70,0,0
48024,-133.333333333333,4,2,3,70,0,0
48106,-133.333333333333,4,2,4,70,0,0
49178,-133.333333333333,4,2,3,70,0,0
49260,-133.333333333333,4,2,4,70,0,0
50249,-133.333333333333,4,2,3,70,0,0
50332,-133.333333333333,4,2,4,70,0,0
50661,-133.333333333333,4,2,3,70,0,0
50744,-133.333333333333,4,2,4,70,0,0
51815,-133.333333333333,4,2,3,70,0,0
51898,-133.333333333333,4,2,4,70,0,0
52887,-133.333333333333,4,2,3,70,0,0
52969,-133.333333333333,4,2,4,70,0,0
53299,-133.333333333333,4,2,3,70,0,0
53382,-133.333333333333,4,2,4,70,0,0
54453,-133.333333333333,4,2,3,70,0,0
54536,-133.333333333333,4,2,4,70,0,0
55525,-133.333333333333,4,2,3,70,0,0
55607,-133.333333333333,4,2,4,70,0,0
55937,-133.333333333333,4,2,3,70,0,0
56019,-133.333333333333,4,2,4,70,0,0
57091,-133.333333333333,4,2,3,70,0,0
57173,-133.333333333333,4,2,4,70,0,0
58162,-133.333333333333,4,2,3,70,0,0
58244,-133.333333333333,4,2,4,70,0,0
58574,-133.333333333333,4,2,3,70,0,0
58656,-133.333333333333,4,2,4,70,0,0
59728,-133.333333333333,4,2,3,70,0,0
59810,-133.333333333333,4,2,4,70,0,0
60799,-133.333333333333,4,2,3,70,0,0
60882,-133.333333333333,4,2,4,70,0,0
61211,-133.333333333333,4,2,3,70,0,0
61294,-133.333333333333,4,2,4,70,0,0
62365,-133.333333333333,4,2,3,70,0,0
62448,-133.333333333333,4,2,4,70,0,0
63437,-133.333333333333,4,2,3,70,0,0
63519,-133.333333333333,4,2,4,70,0,0
63848,-133.333333333333,4,2,3,70,0,0
63931,-133.333333333333,4,2,4,70,0,0
65002,-133.333333333333,4,2,3,70,0,0
65085,-133.333333333333,4,2,4,70,0,0
66074,-133.333333333333,4,2,3,70,0,0
66156,-133.333333333333,4,2,4,70,0,0
66486,-133.333333333333,4,2,3,70,0,0
66568,-133.333333333333,4,2,4,70,0,0
67640,-133.333333333333,4,2,3,70,0,0
67722,-133.333333333333,4,2,4,70,0,0
68711,-133.333333333333,4,2,3,70,0,0
68793,-133.333333333333,4,2,4,70,0,0
68958,-133.333333333333,4,2,5,70,0,0
69123,-117.647058823529,4,2,3,70,0,0
69288,-117.647058823529,4,2,6,70,0,0
69371,-117.647058823529,4,2,2,70,0,0
69782,-117.647058823529,4,2,6,70,0,0
69865,-117.647058823529,4,2,2,70,0,0
70112,-117.647058823529,4,2,3,70,0,0
70771,-117.647058823529,4,2,6,70,0,0
70854,-117.647058823529,4,2,2,70,0,0
70936,-117.647058823529,4,2,5,70,0,0
71101,-117.647058823529,4,2,2,70,0,0
71431,-117.647058823529,4,2,3,70,0,0
71760,-105.263157894737,4,2,3,70,0,0
72255,-105.263157894737,4,2,2,70,0,0
72749,-105.263157894737,4,2,3,70,0,0
73244,-105.263157894737,4,2,6,70,0,0
73327,-105.263157894737,4,2,2,70,0,0
74398,-86.9565217391306,4,2,1,80,0,1
74480,-86.9565217391306,4,2,2,80,0,1
75057,-86.9565217391306,4,2,3,80,0,1
75387,-86.9565217391306,4,2,6,80,0,1
75470,-86.9565217391306,4,2,2,80,0,1
75716,-86.9565217391306,4,2,6,80,0,1
75799,-86.9565217391306,4,2,2,80,0,1
76046,-86.9565217391306,4,2,7,80,0,1
76129,-86.9565217391306,4,2,2,80,0,1
76376,-86.9565217391306,4,2,6,80,0,1
76459,-86.9565217391306,4,2,2,80,0,1
76705,-86.9565217391306,4,2,7,80,0,1
76788,-86.9565217391306,4,2,2,80,0,1
77365,-86.9565217391306,4,2,6,80,0,1
77448,-86.9565217391306,4,2,2,80,0,1
77694,-86.9565217391306,4,2,6,80,0,1
77777,-86.9565217391306,4,2,2,80,0,1
78024,-86.9565217391306,4,2,6,80,0,1
78107,-86.9565217391306,4,2,2,80,0,1
78354,-86.9565217391306,4,2,6,80,0,1
78437,-86.9565217391306,4,2,2,80,0,1
78683,-86.9565217391306,4,2,7,80,0,1
78766,-86.9565217391306,4,2,2,80,0,1
79013,-86.9565217391306,4,2,6,80,0,1
79096,-86.9565217391306,4,2,2,80,0,1
79178,-166.666666666667,4,2,2,80,0,1
79343,-166.666666666667,4,2,6,80,0,1
79426,-166.666666666667,4,2,2,80,0,1
79672,-86.9565217391306,4,2,2,80,0,1
80002,-86.9565217391306,4,2,6,80,0,1
80085,-86.9565217391306,4,2,2,80,0,1
80332,-86.9565217391306,4,2,6,80,0,1
80415,-86.9565217391306,4,2,2,80,0,1
80661,-86.9565217391306,4,2,6,80,0,1
80744,-86.9565217391306,4,2,2,80,0,1
80991,-86.9565217391306,4,2,6,80,0,1
81074,-86.9565217391306,4,2,2,80,0,1
81321,-86.9565217391306,4,2,7,80,0,1
81404,-86.9565217391306,4,2,2,80,0,1
81650,-86.9565217391306,4,2,6,80,0,1
81733,-86.9565217391306,4,2,2,80,0,1
81980,-105.263157894737,4,2,7,80,0,1
82063,-105.263157894737,4,2,2,80,0,1
82310,-86.9565217391306,4,2,2,80,0,1
82639,-86.9565217391306,4,2,6,80,0,1
82722,-86.9565217391306,4,2,2,80,0,1
82969,-86.9565217391306,4,2,6,80,0,1
83052,-86.9565217391306,4,2,2,80,0,1
83299,-86.9565217391306,4,2,6,80,0,1
83382,-86.9565217391306,4,2,2,80,0,1
83628,-86.9565217391306,4,2,6,80,0,1
83711,-86.9565217391306,4,2,2,80,0,1
83958,-86.9565217391306,4,2,6,80,0,1
84041,-86.9565217391306,4,2,2,80,0,1
85277,-86.9565217391306,4,2,6,80,0,1
85360,-86.9565217391306,4,2,2,80,0,1
85606,-86.9565217391306,4,2,6,80,0,1
85689,-86.9565217391306,4,2,2,80,0,1
85936,-86.9565217391306,4,2,6,80,0,1
86019,-86.9565217391306,4,2,2,80,0,1
86266,-86.9565217391306,4,2,6,80,0,1
86349,-86.9565217391306,4,2,2,80,0,1
86595,-86.9565217391306,4,2,7,80,0,1
86678,-86.9565217391306,4,2,2,80,0,1
86925,-86.9565217391306,4,2,6,80,0,1
87008,-86.9565217391306,4,2,2,80,0,1
87255,-86.9565217391306,4,2,7,80,0,1
87338,-86.9565217391306,4,2,2,80,0,1
87914,-86.9565217391306,4,2,6,80,0,1
87997,-86.9565217391306,4,2,2,80,0,1
88244,-86.9565217391306,4,2,6,80,0,1
88327,-86.9565217391306,4,2,2,80,0,1
88573,-86.9565217391306,4,2,6,80,0,1
88656,-86.9565217391306,4,2,2,80,0,1
88903,-86.9565217391306,4,2,6,80,0,1
88986,-86.9565217391306,4,2,2,80,0,1
89233,-86.9565217391306,4,2,7,80,0,1
89316,-86.9565217391306,4,2,2,80,0,1
89562,-105.263157894737,4,2,6,80,0,1
89645,-105.263157894737,4,2,2,80,0,1
89892,-105.263157894737,4,2,7,80,0,1
89975,-105.263157894737,4,2,2,80,0,1
90222,-86.9565217391306,4,2,2,80,0,1
90552,-86.9565217391306,4,2,6,80,0,1
90635,-86.9565217391306,4,2,2,80,0,1
90881,-86.9565217391306,4,2,6,80,0,1
90964,-86.9565217391306,4,2,2,80,0,1
91211,-86.9565217391306,4,2,6,80,0,1
91294,-86.9565217391306,4,2,2,80,0,1
91541,-86.9565217391306,4,2,6,80,0,1
91624,-86.9565217391306,4,2,2,80,0,1
91870,-86.9565217391306,4,2,7,80,0,1
91953,-86.9565217391306,4,2,2,80,0,1
92200,-86.9565217391306,4,2,6,80,0,1
92283,-86.9565217391306,4,2,2,80,0,1
92530,-86.9565217391306,4,2,7,80,0,1
92613,-86.9565217391306,4,2,2,80,0,1
92859,-71.4285714285714,4,2,2,80,0,1
93189,-71.4285714285714,4,2,6,80,0,1
93272,-71.4285714285714,4,2,2,80,0,1
93519,-71.4285714285714,4,2,6,80,0,1
93602,-71.4285714285714,4,2,2,80,0,1
93848,-71.4285714285714,4,2,3,80,0,1
94013,-71.4285714285714,4,2,5,80,0,1
94178,-71.4285714285714,4,2,2,80,0,1
94508,-71.4285714285714,4,2,6,80,0,1
94591,-71.4285714285714,4,2,2,80,0,1
95167,-71.4285714285714,4,2,3,80,0,1
95332,-71.4285714285714,4,2,4,80,0,1
95497,-86.9565217391304,4,2,1,80,0,1
95579,-86.9565217391304,4,2,2,80,0,1
96156,-86.9565217391304,4,2,3,80,0,1
96486,-86.9565217391304,4,2,6,80,0,1
96569,-86.9565217391304,4,2,2,80,0,1
96815,-86.9565217391304,4,2,6,80,0,1
96898,-86.9565217391304,4,2,2,80,0,1
97145,-86.9565217391304,4,2,6,80,0,1
97228,-86.9565217391304,4,2,2,80,0,1
97475,-86.9565217391304,4,2,6,80,0,1
97558,-86.9565217391304,4,2,2,80,0,1
97804,-166.666666666667,4,2,7,80,0,1
97887,-166.666666666667,4,2,2,80,0,1
98134,-86.9565217391304,4,2,2,80,0,1
98464,-86.9565217391304,4,2,6,80,0,1
98547,-86.9565217391304,4,2,2,80,0,1
98793,-86.9565217391304,4,2,6,80,0,1
98876,-86.9565217391304,4,2,2,80,0,1
99123,-86.9565217391304,4,2,6,80,0,1
99206,-86.9565217391304,4,2,2,80,0,1
99453,-86.9565217391304,4,2,6,80,0,1
99536,-86.9565217391304,4,2,2,80,0,1
99782,-86.9565217391304,4,2,7,80,0,1
99865,-86.9565217391304,4,2,2,80,0,1
100112,-86.9565217391304,4,2,6,80,0,1
100195,-86.9565217391304,4,2,2,80,0,1
100442,-86.9565217391304,4,2,6,80,0,1
100525,-86.9565217391304,4,2,2,80,0,1
101101,-86.9565217391304,4,2,6,80,0,1
101184,-86.9565217391304,4,2,2,80,0,1
101431,-86.9565217391304,4,2,6,80,0,1
101514,-86.9565217391304,4,2,2,80,0,1
101760,-86.9565217391304,4,2,6,80,0,1
101843,-86.9565217391304,4,2,2,80,0,1
102090,-86.9565217391304,4,2,6,80,0,1
102173,-86.9565217391304,4,2,2,80,0,1
102420,-86.9565217391304,4,2,7,80,0,1
102503,-86.9565217391304,4,2,2,80,0,1
102749,-86.9565217391304,4,2,6,80,0,1
102832,-86.9565217391304,4,2,2,80,0,1
103079,-86.9565217391304,4,2,7,80,0,1
103162,-86.9565217391304,4,2,2,80,0,1
103738,-86.9565217391304,4,2,6,80,0,1
103821,-86.9565217391304,4,2,2,80,0,1
104068,-86.9565217391304,4,2,6,80,0,1
104151,-86.9565217391304,4,2,2,80,0,1
104398,-86.9565217391304,4,2,3,80,0,1
104727,-86.9565217391304,4,2,6,80,0,1
104810,-86.9565217391304,4,2,2,80,0,1
105057,-86.9565217391304,4,2,6,80,0,1
105140,-86.9565217391304,4,2,2,80,0,1
106376,-86.9565217391304,4,2,6,80,0,1
106459,-86.9565217391304,4,2,2,80,0,1
106705,-86.9565217391304,4,2,3,80,0,1
107035,-86.9565217391304,4,2,6,80,0,1
107118,-86.9565217391304,4,2,2,80,0,1
107365,-86.9565217391304,4,2,6,80,0,1
107448,-86.9565217391304,4,2,2,80,0,1
107694,-86.9565217391304,4,2,6,80,0,1
107777,-86.9565217391304,4,2,2,80,0,1
108024,-86.9565217391304,4,2,6,80,0,1
108107,-86.9565217391304,4,2,2,80,0,1
108354,-166.666666666667,4,2,7,80,0,1
108437,-166.666666666667,4,2,2,80,0,1
108683,-86.9565217391304,4,2,2,80,0,1
109013,-86.9565217391304,4,2,6,80,0,1
109096,-86.9565217391304,4,2,2,80,0,1
109343,-86.9565217391304,4,2,6,80,0,1
109426,-86.9565217391304,4,2,2,80,0,1
109672,-86.9565217391304,4,2,6,80,0,1
109755,-86.9565217391304,4,2,2,80,0,1
110002,-86.9565217391304,4,2,6,80,0,1
110085,-86.9565217391304,4,2,2,80,0,1
110332,-86.9565217391304,4,2,7,80,0,1
110415,-86.9565217391304,4,2,2,80,0,1
110661,-86.9565217391304,4,2,3,80,0,1
110991,-86.9565217391304,4,2,7,80,0,1
111074,-86.9565217391304,4,2,2,80,0,1
111651,-86.9565217391304,4,2,6,80,0,1
111734,-86.9565217391304,4,2,2,80,0,1
111980,-86.9565217391304,4,2,6,80,0,1
112063,-86.9565217391304,4,2,2,80,0,1
112310,-86.9565217391304,4,2,6,80,0,1
112393,-86.9565217391304,4,2,2,80,0,1
112640,-86.9565217391304,4,2,6,80,0,1
112723,-86.9565217391304,4,2,2,80,0,1
112969,-86.9565217391304,4,2,7,80,0,1
113052,-86.9565217391304,4,2,2,80,0,1
113299,-86.9565217391304,4,2,6,80,0,1
113382,-86.9565217391304,4,2,2,80,0,1
113629,-86.9565217391304,4,2,7,80,0,1
113712,-86.9565217391304,4,2,2,80,0,1
113958,-71.4285714285714,4,2,3,80,0,1
114288,-71.4285714285714,4,2,6,80,0,1
114371,-71.4285714285714,4,2,2,80,0,1
114618,-71.4285714285714,4,2,6,80,0,1
114701,-71.4285714285714,4,2,2,80,0,1
114947,-71.4285714285714,4,2,6,80,0,1
115030,-71.4285714285714,4,2,2,80,0,1
115277,-71.4285714285714,4,2,6,80,0,1
115360,-71.4285714285714,4,2,2,80,0,1
115607,-71.4285714285714,4,2,6,80,0,1
115690,-71.4285714285714,4,2,2,80,0,1
115771,-71.4285714285714,4,2,5,80,0,1
115936,-71.4285714285714,4,2,2,80,0,1
116266,-71.4285714285714,4,2,3,80,0,1
116431,-71.4285714285714,4,2,4,80,0,1
116595,-80,4,2,2,75,0,1
116925,-80,4,2,6,75,0,1
117008,-80,4,2,2,75,0,1
117255,-80,4,2,7,75,0,1
117338,-80,4,2,2,75,0,1
117584,-80,4,2,6,75,0,1
117667,-80,4,2,2,75,0,1
117749,-80,4,2,5,75,0,1
117914,-80,4,2,6,75,0,1
117997,-80,4,2,2,75,0,1
118244,-80,4,2,7,75,0,1
118327,-80,4,2,2,75,0,1
118573,-80,4,2,7,75,0,1
118656,-80,4,2,2,75,0,1
118903,-80,4,2,6,75,0,1
118986,-80,4,2,2,75,0,1
119233,-80,4,2,6,75,0,1
119316,-80,4,2,2,75,0,1
119562,-80,4,2,6,75,0,1
119645,-80,4,2,2,75,0,1
119892,-80,4,2,6,75,0,1
119975,-80,4,2,2,75,0,1
120222,-80,4,2,6,75,0,1
120305,-80,4,2,2,75,0,1
120552,-80,4,2,6,75,0,1
120635,-80,4,2,2,75,0,1
120881,-80,4,2,6,75,0,1
120964,-80,4,2,2,75,0,1
121870,-133.333333333333,4,2,2,65,0,0
122200,-133.333333333333,4,2,8,65,0,0
122282,-133.333333333333,4,2,2,65,0,0
122530,-133.333333333333,4,2,8,65,0,0
122612,-133.333333333333,4,2,2,65,0,0
122859,-133.333333333333,4,2,8,65,0,0
122941,-133.333333333333,4,2,2,65,0,0
123189,-133.333333333333,4,2,9,65,0,0
123271,-133.333333333333,4,2,2,65,0,0
123519,-133.333333333333,4,2,9,65,0,0
123601,-133.333333333333,4,2,2,65,0,0
123848,-133.333333333333,4,2,8,65,0,0
123930,-133.333333333333,4,2,2,65,0,0
124178,-133.333333333333,4,2,9,65,0,0
124260,-133.333333333333,4,2,2,65,0,0
124508,-133.333333333333,4,2,8,65,0,0
124590,-133.333333333333,4,2,2,65,0,0
124837,-133.333333333333,4,2,8,65,0,0
124919,-133.333333333333,4,2,2,65,0,0
125167,-133.333333333333,4,2,8,65,0,0
125249,-133.333333333333,4,2,2,65,0,0
125497,-133.333333333333,4,2,8,65,0,0
125579,-133.333333333333,4,2,2,65,0,0
125826,-133.333333333333,4,2,9,65,0,0
125908,-133.333333333333,4,2,2,65,0,0
126156,-133.333333333333,4,2,8,65,0,0
126238,-133.333333333333,4,2,2,65,0,0
126486,-133.333333333333,4,2,8,65,0,0
126568,-133.333333333333,4,2,2,65,0,0
126815,-133.333333333333,4,2,9,65,0,0
126897,-133.333333333333,4,2,2,65,0,0
127145,-133.333333333333,4,2,8,65,0,0
127227,-133.333333333333,4,2,2,65,0,0
127475,-133.333333333333,4,2,8,65,0,0
127557,-133.333333333333,4,2,2,65,0,0
127804,-133.333333333333,4,2,8,65,0,0
127886,-133.333333333333,4,2,2,65,0,0
128134,-133.333333333333,4,2,8,65,0,0
128216,-133.333333333333,4,2,2,65,0,0
128464,-133.333333333333,4,2,8,65,0,0
128546,-133.333333333333,4,2,2,65,0,0
128793,-133.333333333333,4,2,8,65,0,0
128875,-133.333333333333,4,2,2,65,0,0
129123,-133.333333333333,4,2,8,65,0,0
129205,-133.333333333333,4,2,2,65,0,0
129453,-133.333333333333,4,2,9,65,0,0
129535,-133.333333333333,4,2,2,65,0,0
129782,-133.333333333333,4,2,8,65,0,0
129864,-133.333333333333,4,2,2,65,0,0
130112,-133.333333333333,4,2,8,65,0,0
130194,-133.333333333333,4,2,2,65,0,0
130442,-133.333333333333,4,2,8,65,0,0
130524,-133.333333333333,4,2,2,65,0,0
130771,-133.333333333333,4,2,8,65,0,0
130853,-133.333333333333,4,2,2,65,0,0
131101,-133.333333333333,4,2,12,65,0,0
131183,-133.333333333333,4,2,2,65,0,0
131431,-133.333333333333,4,2,7,65,0,0
131513,-133.333333333333,4,2,3,70,0,0
131760,-105.263157894737,4,2,3,70,0,0
132420,-117.647058823529,4,2,3,70,0,0
132502,-117.647058823529,4,2,4,70,0,0
132997,-117.647058823529,4,2,3,70,0,0
133079,-117.647058823529,4,2,4,70,0,0
134975,-117.647058823529,4,2,3,70,0,0
135139,-117.647058823529,4,2,4,70,0,0
135634,-117.647058823529,4,2,3,70,0,0
135716,-117.647058823529,4,2,4,70,0,0
136953,-117.647058823529,4,2,3,70,0,0
137035,-117.647058823529,4,2,4,70,0,0
137612,-117.647058823529,4,2,3,70,0,0
137777,-117.647058823529,4,2,4,70,0,0
138271,-117.647058823529,4,2,3,70,0,0
138353,-117.647058823529,4,2,4,70,0,0
139590,-117.647058823529,4,2,3,70,0,0
139672,-117.647058823529,4,2,4,70,0,0
140332,-117.647058823529,4,2,3,70,0,0
140661,-117.647058823529,4,2,6,70,0,0
140744,-117.647058823529,4,2,2,70,0,0
140991,-117.647058823529,4,2,7,70,0,0
141074,-117.647058823529,4,2,2,70,0,0
141321,-117.647058823529,4,2,6,70,0,0
141404,-117.647058823529,4,2,2,70,0,0
141650,-117.647058823529,4,2,6,70,0,0
141733,-117.647058823529,4,2,2,70,0,0
141980,-117.647058823529,4,2,6,70,0,0
142063,-117.647058823529,4,2,2,70,0,0
142969,-90.9090909090909,4,2,6,70,0,0
143052,-90.9090909090909,4,2,2,5,0,0
143134,-90.9090909090909,4,2,6,70,0,0
143216,-90.9090909090909,4,2,6,70,0,0
143217,-90.9090909090909,4,2,2,5,0,0
143299,-90.9090909090909,4,2,6,70,0,0
143381,-90.9090909090909,4,2,6,70,0,0
143382,-90.9090909090909,4,2,2,5,0,0
143464,-90.9090909090909,4,2,6,70,0,0
143546,-90.9090909090909,4,2,6,70,0,0
143547,-90.9090909090909,4,2,2,5,0,0
143628,-250.000000000001,4,2,5,70,0,0
144288,-83.3333333333333,4,2,6,70,0,0
144371,-83.3333333333333,4,2,2,70,0,0
144617,-111.111111111111,4,2,2,70,0,0
145112,-111.111111111111,4,2,3,70,0,0
145277,-111.111111111111,4,2,4,70,0,0
145606,-111.111111111111,4,2,6,70,0,0
145689,-111.111111111111,4,2,2,70,0,0
145936,-111.111111111111,4,2,6,70,0,0
146019,-111.111111111111,4,2,2,70,0,0
146266,-100,4,2,6,70,0,0
146349,-100,4,2,2,70,0,0
146595,-100,4,2,6,70,0,0
146678,-100,4,2,2,70,0,0
146925,-100,4,2,6,70,0,0
147008,-100,4,2,2,70,0,0
147255,-100,4,2,6,70,0,0
147338,-100,4,2,2,70,0,0
148244,-90.9090909090909,4,2,6,70,0,0
148326,-90.9090909090909,4,2,6,70,0,0
148327,-90.9090909090909,4,2,2,5,0,0
148409,-90.9090909090909,4,2,6,70,0,0
148491,-90.9090909090909,4,2,6,70,0,0
148492,-90.9090909090909,4,2,2,5,0,0
148573,-90.9090909090909,4,2,6,70,0,0
148656,-90.9090909090909,4,2,2,5,0,0
148738,-90.9090909090909,4,2,6,70,0,0
148821,-90.9090909090909,4,2,2,5,0,0
148903,-181.818181818182,4,2,5,70,0,0
149562,-181.818181818182,4,2,3,70,0,0
150057,-181.818181818182,4,2,4,70,0,0
150881,-111.111111111111,4,2,3,70,0,0
151211,-111.111111111111,4,2,6,70,0,0
151294,-111.111111111111,4,2,2,70,0,0
151541,-111.111111111111,4,2,6,70,0,0
151624,-111.111111111111,4,2,2,70,0,0
151870,-111.111111111111,4,2,6,70,0,0
151953,-111.111111111111,4,2,2,70,0,0
152200,-111.111111111111,4,2,6,70,0,0
152283,-111.111111111111,4,2,2,70,0,0
152530,-111.111111111111,4,2,6,70,0,0
152613,-111.111111111111,4,2,2,70,0,0
153519,-249.999999999999,4,2,2,60,0,0
164068,-86.9565217391304,4,2,3,80,0,1
164150,-86.9565217391304,4,2,2,80,0,1
165057,-86.9565217391304,4,2,6,80,0,1
165140,-86.9565217391304,4,2,2,80,0,1
165386,-86.9565217391304,4,2,6,80,0,1
165469,-86.9565217391304,4,2,2,80,0,1
165716,-86.9565217391304,4,2,7,80,0,1
165799,-86.9565217391304,4,2,2,80,0,1
166046,-86.9565217391304,4,2,6,80,0,1
166129,-86.9565217391304,4,2,2,80,0,1
166375,-86.9565217391304,4,2,7,80,0,1
166376,-166.666666666667,4,2,7,80,0,1
166458,-166.666666666667,4,2,2,80,0,1
166705,-86.9565217391304,4,2,2,80,0,1
167035,-86.9565217391304,4,2,6,80,0,1
167118,-86.9565217391304,4,2,2,80,0,1
167364,-86.9565217391304,4,2,6,80,0,1
167447,-86.9565217391304,4,2,2,80,0,1
167694,-86.9565217391304,4,2,6,80,0,1
167777,-86.9565217391304,4,2,2,80,0,1
168024,-86.9565217391304,4,2,6,80,0,1
168107,-86.9565217391304,4,2,2,80,0,1
168353,-86.9565217391304,4,2,7,80,0,1
168436,-86.9565217391304,4,2,2,80,0,1
168683,-86.9565217391304,4,2,6,80,0,1
168766,-86.9565217391304,4,2,2,80,0,1
169013,-86.9565217391304,4,2,6,80,0,1
169096,-86.9565217391304,4,2,2,80,0,1
169672,-86.9565217391304,4,2,6,80,0,1
169755,-86.9565217391304,4,2,2,80,0,1
170002,-86.9565217391304,4,2,6,80,0,1
170085,-86.9565217391304,4,2,2,80,0,1
170331,-86.9565217391304,4,2,6,80,0,1
170414,-86.9565217391304,4,2,2,80,0,1
170661,-86.9565217391304,4,2,6,80,0,1
170744,-86.9565217391304,4,2,2,80,0,1
170991,-86.9565217391304,4,2,7,80,0,1
171074,-86.9565217391304,4,2,2,80,0,1
171320,-86.9565217391304,4,2,6,80,0,1
171403,-86.9565217391304,4,2,2,80,0,1
171650,-86.9565217391304,4,2,7,80,0,1
171733,-86.9565217391304,4,2,2,80,0,1
172309,-86.9565217391304,4,2,6,80,0,1
172392,-86.9565217391304,4,2,2,80,0,1
172639,-86.9565217391304,4,2,6,80,0,1
172722,-86.9565217391304,4,2,2,80,0,1
172969,-86.9565217391304,4,2,6,80,0,1
173052,-86.9565217391304,4,2,2,80,0,1
173134,-86.9565217391304,4,2,5,80,0,1
173298,-86.9565217391304,4,2,6,80,0,1
173381,-86.9565217391304,4,2,2,80,0,1
173628,-86.9565217391304,4,2,6,80,0,1
173711,-86.9565217391304,4,2,2,80,0,1
173793,-86.9565217391304,4,2,5,80,0,1
173958,-86.9565217391304,4,2,2,80,0,1
174947,-86.9565217391304,4,2,6,80,0,1
175030,-86.9565217391304,4,2,2,80,0,1
175276,-86.9565217391304,4,2,6,80,0,1
175359,-86.9565217391304,4,2,2,80,0,1
175606,-86.9565217391304,4,2,6,80,0,1
175689,-86.9565217391304,4,2,2,80,0,1
175936,-86.9565217391304,4,2,6,80,0,1
176019,-86.9565217391304,4,2,2,80,0,1
176265,-86.9565217391304,4,2,7,80,0,1
176348,-86.9565217391304,4,2,2,80,0,1
176595,-86.9565217391304,4,2,6,80,0,1
176678,-86.9565217391304,4,2,2,80,0,1
176925,-86.9565217391304,4,2,7,80,0,1
177008,-86.9565217391304,4,2,2,80,0,1
177584,-86.9565217391304,4,2,6,80,0,1
177667,-86.9565217391304,4,2,2,80,0,1
177914,-86.9565217391304,4,2,6,80,0,1
177997,-86.9565217391304,4,2,2,80,0,1
178243,-86.9565217391304,4,2,6,80,0,1
178326,-86.9565217391304,4,2,2,80,0,1
178573,-86.9565217391304,4,2,6,80,0,1
178656,-86.9565217391304,4,2,2,80,0,1
178903,-86.9565217391304,4,2,7,80,0,1
178986,-86.9565217391304,4,2,2,80,0,1
179232,-86.9565217391304,4,2,6,80,0,1
179315,-86.9565217391304,4,2,2,80,0,1
179562,-86.9565217391304,4,2,7,80,0,1
179645,-86.9565217391304,4,2,2,80,0,1
180222,-86.9565217391304,4,2,6,80,0,1
180305,-86.9565217391304,4,2,2,80,0,1
180551,-86.9565217391304,4,2,6,80,0,1
180634,-86.9565217391304,4,2,2,80,0,1
180881,-86.9565217391304,4,2,6,80,0,1
180964,-86.9565217391304,4,2,2,80,0,1
181211,-86.9565217391304,4,2,6,80,0,1
181294,-86.9565217391304,4,2,2,80,0,1
181540,-86.9565217391304,4,2,7,80,0,1
181623,-86.9565217391304,4,2,2,80,0,1
181870,-86.9565217391304,4,2,6,80,0,1
181953,-86.9565217391304,4,2,2,80,0,1
182200,-86.9565217391304,4,2,7,80,0,1
182283,-86.9565217391304,4,2,2,80,0,1
182530,-71.4285714285714,4,2,2,80,0,1
182859,-71.4285714285714,4,2,6,80,0,1
182942,-71.4285714285714,4,2,2,80,0,1
183189,-71.4285714285714,4,2,6,80,0,1
183272,-71.4285714285714,4,2,2,80,0,1
183518,-71.4285714285714,4,2,3,80,0,1
183848,-71.4285714285714,4,2,2,80,0,1
184178,-71.4285714285714,4,2,6,80,0,1
184261,-71.4285714285714,4,2,2,80,0,1
184837,-71.4285714285714,4,2,3,80,0,1
185002,-71.4285714285714,4,2,4,80,0,1
185167,-83.3333333333333,4,2,3,80,0,1
185249,-83.3333333333333,4,2,2,80,0,1
186156,-83.3333333333333,4,2,6,80,0,1
186239,-83.3333333333333,4,2,2,80,0,1
186485,-83.3333333333333,4,2,6,80,0,1
186568,-83.3333333333333,4,2,2,80,0,1
186815,-83.3333333333333,4,2,7,80,0,1
186898,-83.3333333333333,4,2,2,80,0,1
187145,-83.3333333333333,4,2,6,80,0,1
187228,-83.3333333333333,4,2,2,80,0,1
187474,-83.3333333333333,4,2,7,80,0,1
187557,-83.3333333333333,4,2,2,80,0,1
188134,-83.3333333333333,4,2,6,80,0,1
188217,-83.3333333333333,4,2,2,80,0,1
188463,-83.3333333333333,4,2,6,80,0,1
188546,-83.3333333333333,4,2,2,80,0,1
188793,-83.3333333333333,4,2,6,80,0,1
188876,-83.3333333333333,4,2,2,80,0,1
189123,-83.3333333333333,4,2,6,80,0,1
189206,-83.3333333333333,4,2,2,80,0,1
189452,-83.3333333333333,4,2,7,80,0,1
189535,-83.3333333333333,4,2,2,80,0,1
189782,-83.3333333333333,4,2,6,80,0,1
189865,-83.3333333333333,4,2,2,80,0,1
189947,-333.333333333333,4,2,2,80,0,1
190112,-333.333333333333,4,2,6,80,0,1
190195,-333.333333333333,4,2,2,80,0,1
190442,-83.3333333333333,4,2,2,80,0,1
190771,-83.3333333333333,4,2,6,80,0,1
190854,-83.3333333333333,4,2,2,80,0,1
191101,-83.3333333333333,4,2,6,80,0,1
191184,-83.3333333333333,4,2,2,80,0,1
191430,-83.3333333333333,4,2,6,80,0,1
191513,-83.3333333333333,4,2,2,80,0,1
191760,-83.3333333333333,4,2,6,80,0,1
191843,-83.3333333333333,4,2,2,80,0,1
192090,-83.3333333333333,4,2,7,80,0,1
192173,-83.3333333333333,4,2,2,80,0,1
192419,-83.3333333333333,4,2,6,80,0,1
192502,-83.3333333333333,4,2,2,80,0,1
192749,-83.3333333333333,4,2,7,80,0,1
192832,-83.3333333333333,4,2,2,80,0,1
193408,-83.3333333333333,4,2,6,80,0,1
193491,-83.3333333333333,4,2,2,80,0,1
193738,-83.3333333333333,4,2,6,80,0,1
193821,-83.3333333333333,4,2,2,80,0,1
194068,-83.3333333333333,4,2,3,80,0,1
194397,-83.3333333333333,4,2,6,80,0,1
194480,-83.3333333333333,4,2,2,80,0,1
194727,-83.3333333333333,4,2,6,80,0,1
194810,-83.3333333333333,4,2,2,80,0,1
196046,-83.3333333333333,4,2,6,80,0,1
196129,-83.3333333333333,4,2,2,80,0,1
196375,-83.3333333333333,4,2,3,80,0,1
196705,-83.3333333333333,4,2,6,80,0,1
196788,-83.3333333333333,4,2,2,80,0,1
197035,-83.3333333333333,4,2,6,80,0,1
197118,-83.3333333333333,4,2,2,80,0,1
197364,-83.3333333333333,4,2,7,80,0,1
197447,-83.3333333333333,4,2,2,80,0,1
197694,-83.3333333333333,4,2,6,80,0,1
197777,-83.3333333333333,4,2,2,80,0,1
198024,-83.3333333333333,4,2,7,80,0,1
198107,-83.3333333333333,4,2,2,80,0,1
198683,-83.3333333333333,4,2,6,80,0,1
198766,-83.3333333333333,4,2,2,80,0,1
199013,-83.3333333333333,4,2,6,80,0,1
199096,-83.3333333333333,4,2,2,80,0,1
199342,-83.3333333333333,4,2,6,80,0,1
199425,-83.3333333333333,4,2,2,80,0,1
199672,-83.3333333333333,4,2,6,80,0,1
199755,-83.3333333333333,4,2,2,80,0,1
200002,-83.3333333333333,4,2,7,80,0,1
200085,-83.3333333333333,4,2,2,80,0,1
200331,-83.3333333333333,4,2,3,80,0,1
200661,-83.3333333333333,4,2,7,80,0,1
200744,-83.3333333333333,4,2,2,80,0,1
201321,-83.3333333333333,4,2,6,80,0,1
201404,-83.3333333333333,4,2,2,80,0,1
201650,-83.3333333333333,4,2,6,80,0,1
201733,-83.3333333333333,4,2,2,80,0,1
201980,-83.3333333333333,4,2,6,80,0,1
202063,-83.3333333333333,4,2,2,80,0,1
202310,-83.3333333333333,4,2,6,80,0,1
202393,-83.3333333333333,4,2,2,80,0,1
202639,-83.3333333333333,4,2,7,80,0,1
202722,-83.3333333333333,4,2,2,80,0,1
202969,-83.3333333333333,4,2,6,80,0,1
203052,-83.3333333333333,4,2,2,80,0,1
203299,-83.3333333333333,4,2,7,80,0,1
203382,-83.3333333333333,4,2,2,80,0,1
203711,-83.3333333333333,4,2,3,80,0,1
203876,-83.3333333333333,4,2,4,80,0,1
204617,-83.3333333333333,4,2,3,80,0,1
204947,-83.3333333333333,4,2,2,80,0,1
205277,-83.3333333333333,4,2,3,80,0,1
205606,-83.3333333333333,4,2,4,80,0,1
206266,-90.9090909090909,4,2,2,75,0,0
206595,-90.9090909090909,4,2,6,75,0,0
206678,-90.9090909090909,4,2,2,75,0,0
206925,-90.9090909090909,4,2,6,75,0,0
207008,-90.9090909090909,4,2,2,75,0,0
207255,-90.9090909090909,4,2,6,75,0,0
207338,-90.9090909090909,4,2,2,75,0,0
207584,-90.9090909090909,4,2,6,75,0,0
207667,-90.9090909090909,4,2,2,75,0,0
207914,-90.9090909090909,4,2,6,75,0,0
207997,-90.9090909090909,4,2,2,75,0,0
208244,-90.9090909090909,4,2,6,75,0,0
208327,-90.9090909090909,4,2,2,75,0,0
208573,-90.9090909090909,4,2,6,75,0,0
208656,-90.9090909090909,4,2,2,75,0,0
208903,-90.9090909090909,4,2,3,75,0,0
209233,-90.9090909090909,4,2,6,75,0,0
209316,-90.9090909090909,4,2,2,75,0,0
209562,-90.9090909090909,4,2,6,75,0,0
209645,-90.9090909090909,4,2,2,75,0,0
209892,-90.9090909090909,4,2,6,75,0,0
209975,-90.9090909090909,4,2,2,75,0,0
210222,-90.9090909090909,4,2,6,75,0,0
210305,-90.9090909090909,4,2,2,75,0,0
210552,-90.9090909090909,4,2,6,75,0,0
210635,-90.9090909090909,4,2,2,75,0,0
210881,-90.9090909090909,4,2,6,75,0,0
210964,-90.9090909090909,4,2,2,75,0,0
211211,-90.9090909090909,4,2,6,75,0,0
211294,-90.9090909090909,4,2,2,75,0,0
211541,-90.9090909090909,4,2,3,75,0,0
211870,-90.9090909090909,4,2,6,75,0,0
211953,-90.9090909090909,4,2,2,75,0,0
212200,-90.9090909090909,4,2,6,75,0,0
212283,-90.9090909090909,4,2,2,75,0,0
212530,-90.9090909090909,4,2,6,75,0,0
212613,-90.9090909090909,4,2,2,75,0,0
212859,-90.9090909090909,4,2,6,75,0,0
212942,-90.9090909090909,4,2,2,75,0,0
213189,-90.9090909090909,4,2,6,75,0,0
213272,-90.9090909090909,4,2,2,75,0,0
213519,-90.9090909090909,4,2,6,75,0,0
213602,-90.9090909090909,4,2,2,75,0,0
213848,-90.9090909090909,4,2,6,75,0,0
213931,-90.9090909090909,4,2,2,75,0,0
214178,-90.9090909090909,4,2,3,75,0,0
214508,-90.9090909090909,4,2,6,75,0,0
214591,-90.9090909090909,4,2,2,75,0,0
214837,-90.9090909090909,4,2,6,75,0,0
214920,-90.9090909090909,4,2,2,75,0,0
215167,-90.9090909090909,4,2,6,75,0,0
215250,-90.9090909090909,4,2,2,75,0,0
215497,-90.9090909090909,4,2,6,75,0,0
215580,-90.9090909090909,4,2,2,75,0,0
215826,-90.9090909090909,4,2,6,75,0,0
215909,-90.9090909090909,4,2,2,75,0,0
216156,-90.9090909090909,4,2,6,75,0,0
216239,-90.9090909090909,4,2,2,75,0,0
216486,-90.9090909090909,4,2,6,75,0,0
216569,-90.9090909090909,4,2,2,75,0,0
216815,-90.9090909090909,4,2,6,75,0,0
216898,-90.9090909090909,4,2,2,75,0,0
217145,-90.9090909090909,4,2,6,75,0,0
217228,-90.9090909090909,4,2,2,75,0,0
217475,-90.9090909090909,4,2,3,75,0,0
217804,-90.9090909090909,4,2,6,75,0,0
217887,-90.9090909090909,4,2,2,75,0,0
218134,-90.9090909090909,4,2,6,75,0,0
218217,-90.9090909090909,4,2,2,75,0,0
218464,-90.9090909090909,4,2,6,75,0,0
218547,-90.9090909090909,4,2,2,75,0,0
218793,-90.9090909090909,4,2,6,75,0,0
218876,-90.9090909090909,4,2,2,75,0,0
219123,-90.9090909090909,4,2,6,75,0,0
219206,-90.9090909090909,4,2,2,75,0,0
219453,-90.9090909090909,4,2,3,75,0,0
219782,-90.9090909090909,4,2,6,75,0,0
219865,-90.9090909090909,4,2,2,75,0,0
220112,-90.9090909090909,4,2,6,75,0,0
220195,-90.9090909090909,4,2,2,75,0,0
220442,-90.9090909090909,4,2,6,75,0,0
220525,-90.9090909090909,4,2,2,75,0,0
220771,-90.9090909090909,4,2,6,75,0,0
220854,-90.9090909090909,4,2,2,75,0,0
221101,-90.9090909090909,4,2,6,75,0,0
221184,-90.9090909090909,4,2,2,75,0,0
221431,-90.9090909090909,4,2,6,75,0,0
221514,-90.9090909090909,4,2,2,75,0,0
221760,-90.9090909090909,4,2,6,75,0,0
221843,-90.9090909090909,4,2,2,75,0,0
222090,-90.9090909090909,4,2,3,75,0,0
222420,-90.9090909090909,4,2,6,75,0,0
222503,-90.9090909090909,4,2,2,75,0,0
222749,-90.9090909090909,4,2,6,75,0,0
222832,-90.9090909090909,4,2,2,75,0,0
223079,-90.9090909090909,4,2,6,75,0,0
223162,-90.9090909090909,4,2,2,75,0,0
223409,-90.9090909090909,4,2,6,75,0,0
223492,-90.9090909090909,4,2,2,75,0,0
223738,-90.9090909090909,4,2,6,75,0,0
223821,-90.9090909090909,4,2,2,75,0,0
224068,-90.9090909090909,4,2,6,75,0,0
224151,-90.9090909090909,4,2,2,75,0,0
224398,-90.9090909090909,4,2,6,75,0,0
224481,-90.9090909090909,4,2,2,75,0,0
224727,-90.9090909090909,4,2,3,75,0,0
225057,-90.9090909090909,4,2,6,75,0,0
225140,-90.9090909090909,4,2,2,75,0,0
225387,-90.9090909090909,4,2,6,75,0,0
225470,-90.9090909090909,4,2,2,75,0,0
225716,-90.9090909090909,4,2,6,75,0,0
225799,-90.9090909090909,4,2,2,75,0,0
226046,-90.9090909090909,4,2,3,75,0,0
226376,-90.9090909090909,4,2,6,75,0,0
226459,-90.9090909090909,4,2,2,75,0,0
227365,-83.3333333333333,4,2,2,70,0,1
227694,-83.3333333333333,4,2,6,70,0,1
227777,-83.3333333333333,4,2,2,70,0,1
228024,-83.3333333333333,4,2,6,70,0,1
228107,-83.3333333333333,4,2,2,70,0,1
228354,-83.3333333333333,4,2,6,70,0,1
228437,-83.3333333333333,4,2,2,70,0,1
228683,-83.3333333333333,4,2,7,70,0,1
228766,-83.3333333333333,4,2,2,70,0,1
229013,-83.3333333333333,4,2,6,70,0,1
229096,-83.3333333333333,4,2,2,70,0,1
229343,-83.3333333333333,4,2,6,70,0,1
229426,-83.3333333333333,4,2,2,70,0,1
229672,-83.3333333333333,4,2,6,70,0,1
229755,-83.3333333333333,4,2,2,70,0,1
230332,-83.3333333333333,4,2,6,70,0,1
230415,-83.3333333333333,4,2,2,70,0,1
230661,-83.3333333333333,4,2,6,70,0,1
230744,-83.3333333333333,4,2,2,70,0,1
230991,-83.3333333333333,4,2,6,70,0,1
231074,-83.3333333333333,4,2,2,70,0,1
231321,-83.3333333333333,4,2,6,70,0,1
231404,-83.3333333333333,4,2,2,70,0,1
231650,-83.3333333333333,4,2,6,70,0,1
231733,-83.3333333333333,4,2,2,70,0,1
231980,-83.3333333333333,4,2,6,70,0,1
232063,-83.3333333333333,4,2,2,70,0,1
232639,-83.3333333333333,4,2,3,70,0,1
232722,-83.3333333333333,4,2,3,5,0,1
232804,-83.3333333333333,4,2,3,70,0,1
232887,-83.3333333333333,4,2,3,5,0,1
232969,-83.3333333333333,4,2,6,70,0,1
233052,-83.3333333333333,4,2,2,5,0,1
233134,-83.3333333333333,4,2,2,70,0,1
233216,-83.3333333333333,4,2,2,5,0,1
233299,-83.3333333333333,4,2,6,70,0,1
233382,-83.3333333333333,4,2,2,70,0,1
233628,-83.3333333333333,4,2,6,70,0,1
233711,-83.3333333333333,4,2,2,5,0,1
233793,-83.3333333333333,4,2,2,70,0,1
233876,-83.3333333333333,4,2,2,5,0,1
233958,-83.3333333333333,4,2,7,70,0,1
234041,-83.3333333333333,4,2,2,5,0,1
234123,-83.3333333333333,4,2,2,70,0,1
234205,-83.3333333333333,4,2,2,5,0,1
234288,-83.3333333333333,4,2,6,70,0,1
234371,-83.3333333333333,4,2,2,70,0,1
234617,-83.3333333333333,4,2,6,70,0,1
234700,-83.3333333333333,4,2,2,70,0,1
234947,-83.3333333333333,4,2,6,70,0,1
235030,-83.3333333333333,4,2,2,70,0,1
235277,-71.4285714285714,4,2,2,70,0,1
235606,-71.4285714285714,4,2,6,70,0,1
235689,-71.4285714285714,4,2,2,70,0,1
235936,-71.4285714285714,4,2,6,70,0,1
236019,-71.4285714285714,4,2,2,70,0,1
236266,-71.4285714285714,4,2,3,70,0,1
236595,-71.4285714285714,4,2,6,70,0,1
236678,-71.4285714285714,4,2,2,70,0,1
236925,-71.4285714285714,4,2,6,70,0,1
237008,-71.4285714285714,4,2,2,70,0,1
237090,-71.4285714285714,4,2,5,70,0,1
237255,-71.4285714285714,4,2,3,70,0,1
237420,-71.4285714285714,4,2,2,70,0,1
237584,-71.4285714285714,4,2,3,70,0,1
237749,-71.4285714285714,4,2,4,70,0,1
237914,-83.3333333333333,4,2,3,70,0,1
237997,-83.3333333333333,4,2,4,70,0,1
239068,-83.3333333333333,4,2,3,70,0,1
239150,-83.3333333333333,4,2,4,70,0,1
240139,-83.3333333333333,4,2,3,70,0,1
240221,-83.3333333333333,4,2,4,70,0,1
240552,-71.4285714285714,4,2,3,70,0,1
240634,-71.4285714285714,4,2,4,70,0,1
241046,-83.3333333333333,4,2,4,70,0,1
241705,-83.3333333333333,4,2,3,70,0,1
241787,-83.3333333333333,4,2,4,70,0,1
242530,-83.3333333333333,4,2,4,70,0,0
242777,-83.3333333333333,4,2,3,70,0,0
242859,-83.3333333333333,4,2,4,70,0,0
243189,-83.3333333333333,4,2,3,70,0,1
243683,-83.3333333333333,4,2,2,70,0,1
244178,-83.3333333333333,4,2,3,70,0,1
244672,-83.3333333333333,4,2,2,70,0,1
245167,-83.3333333333333,4,2,5,70,0,1
245826,-83.3333333333333,4,2,3,70,0,1
246156,-100,4,2,2,40,0,1
246238,-100,4,2,2,41,0,1
246321,-100,4,2,2,43,0,1
246403,-100,4,2,2,44,0,1
246486,-100,4,2,2,46,0,1
246568,-100,4,2,2,48,0,1
246651,-100,4,2,2,49,0,1
246733,-100,4,2,2,51,0,1
246815,-100,4,2,2,52,0,1
246897,-100,4,2,2,53,0,1
246980,-100,4,2,2,55,0,1
247062,-100,4,2,2,56,0,1
247145,-100,4,2,2,58,0,1
247227,-100,4,2,2,59,0,1
247310,-100,4,2,2,61,0,1
247392,-100,4,2,2,63,0,1
247475,-100,4,2,2,64,0,1
247557,-100,4,2,2,66,0,1
247640,-100,4,2,2,67,0,1
247722,-100,4,2,2,69,0,1
247804,-100,4,2,2,70,0,1
248299,-100,4,2,2,70,0,0
251101,-181.818181818182,4,2,2,50,0,0
253656,-181.818181818182,4,2,2,50,0,0
253738,-181.818181818182,4,2,2,50,0,0
261568,-181.818181818182,4,2,2,50,0,0
261650,-133.333333333334,4,2,10,55,0,0
262310,-133.333333333334,4,2,14,55,0,0
262392,-133.333333333334,4,2,10,55,0,0
262969,-133.333333333334,4,2,14,55,0,0
263051,-133.333333333334,4,2,10,55,0,0
263628,-133.333333333334,4,2,14,55,0,0
263710,-133.333333333334,4,2,10,55,0,0
264288,-133.333333333334,4,2,14,55,0,0
264370,-133.333333333334,4,2,10,55,0,0
264947,-133.333333333334,4,2,14,55,0,0
265029,-133.333333333334,4,2,10,55,0,0
265606,-133.333333333334,4,2,14,55,0,0
265688,-133.333333333334,4,2,10,55,0,0
266266,-133.333333333334,4,2,14,55,0,0
266348,-133.333333333334,4,2,10,55,0,0
266925,-133.333333333334,4,2,14,55,0,0
267007,-133.333333333334,4,2,10,55,0,0
267584,-133.333333333334,4,2,14,55,0,0
267666,-133.333333333334,4,2,10,55,0,0
268244,-133.333333333334,4,2,14,55,0,0
268326,-133.333333333334,4,2,10,55,0,0
268903,-133.333333333334,4,2,14,55,0,0
268985,-133.333333333334,4,2,10,55,0,0
269398,-133.333333333334,4,2,2,55,0,0
269562,-133.333333333334,4,2,3,55,0,0
269892,-111.111111111111,4,2,3,58,0,0
270222,-95.2380952380952,4,2,3,61,0,0
270552,-83.3333333333333,4,2,3,64,0,0
270881,-83.3333333333333,4,2,3,67,0,0
270964,-83.3333333333333,4,2,3,68,0,0
271046,-83.3333333333333,4,2,3,69,0,0
271129,-83.3333333333333,4,2,3,70,0,0
271294,-83.3333333333333,4,2,3,71,0,0
271376,-83.3333333333333,4,2,3,72,0,0
271459,-83.3333333333333,4,2,3,73,0,0
271705,-250,4,2,3,75,0,0
272200,-76.9230769230769,4,2,1,80,0,0
272282,-76.9230769230769,4,2,2,80,0,0
272530,-76.9230769230769,4,2,3,80,0,0
272859,-83.3333333333333,4,2,6,80,0,1
272942,-83.3333333333333,4,2,2,80,0,1
273189,-83.3333333333333,4,2,7,80,0,1
273272,-83.3333333333333,4,2,2,80,0,1
273519,-83.3333333333333,4,2,6,80,0,1
273602,-83.3333333333333,4,2,2,80,0,1
273848,-83.3333333333333,4,2,6,80,0,1
273931,-83.3333333333333,4,2,2,80,0,1
274178,-83.3333333333333,4,2,6,80,0,1
274261,-83.3333333333333,4,2,2,80,0,1
274508,-83.3333333333333,4,2,6,80,0,1
274591,-83.3333333333333,4,2,2,80,0,1
275167,-83.3333333333333,4,2,6,80,0,1
275250,-83.3333333333333,4,2,2,80,0,1
275497,-83.3333333333333,4,2,6,80,0,1
275580,-83.3333333333333,4,2,2,80,0,1
275826,-83.3333333333333,4,2,7,80,0,1
275909,-83.3333333333333,4,2,2,80,0,1
276156,-83.3333333333333,4,2,6,80,0,1
276239,-83.3333333333333,4,2,2,80,0,1
276486,-83.3333333333333,4,2,6,80,0,1
276569,-83.3333333333333,4,2,2,80,0,1
276815,-83.3333333333333,4,2,6,80,0,1
276898,-83.3333333333333,4,2,2,80,0,1
277145,-83.3333333333333,4,2,6,80,0,1
277228,-83.3333333333333,4,2,2,80,0,1
277804,-83.3333333333333,4,2,6,80,0,1
277887,-83.3333333333333,4,2,2,80,0,1
278134,-83.3333333333333,4,2,6,80,0,1
278217,-83.3333333333333,4,2,2,80,0,1
278464,-83.3333333333333,4,2,7,80,0,1
278547,-83.3333333333333,4,2,2,80,0,1
278793,-83.3333333333333,4,2,6,80,0,1
278876,-83.3333333333333,4,2,2,80,0,1
279123,-83.3333333333333,4,2,6,80,0,1
279206,-83.3333333333333,4,2,2,80,0,1
279288,-83.3333333333333,4,2,5,80,0,1
279453,-83.3333333333333,4,2,6,80,0,1
279536,-83.3333333333333,4,2,2,80,0,1
279782,-83.3333333333333,4,2,6,80,0,1
279865,-83.3333333333333,4,2,2,80,0,1
279947,-83.3333333333333,4,2,5,80,0,1
280112,-83.3333333333333,4,2,2,80,0,1
280442,-83.3333333333333,4,2,6,80,0,1
280525,-83.3333333333333,4,2,2,80,0,1
280771,-83.3333333333333,4,2,6,80,0,1
280854,-83.3333333333333,4,2,2,80,0,1
281101,-83.3333333333333,4,2,7,80,0,1
281184,-83.3333333333333,4,2,2,80,0,1
281431,-83.3333333333333,4,2,6,80,0,1
281514,-83.3333333333333,4,2,2,80,0,1
281760,-83.3333333333333,4,2,3,80,0,1
282749,-83.3333333333333,4,2,2,80,0,1
283079,-83.3333333333333,4,2,3,80,0,1
283409,-83.3333333333333,4,2,6,80,0,1
283492,-83.3333333333333,4,2,2,80,0,1
283738,-83.3333333333333,4,2,7,80,0,1
283821,-83.3333333333333,4,2,2,80,0,1
284068,-83.3333333333333,4,2,6,80,0,1
284151,-83.3333333333333,4,2,2,80,0,1
284398,-83.3333333333333,4,2,6,80,0,1
284481,-83.3333333333333,4,2,2,80,0,1
284727,-83.3333333333333,4,2,6,80,0,1
284810,-83.3333333333333,4,2,2,80,0,1
285057,-166.666666666667,4,2,6,80,0,1
285140,-166.666666666667,4,2,2,80,0,1
285387,-83.3333333333333,4,2,2,80,0,1
285716,-83.3333333333333,4,2,6,80,0,1
285799,-83.3333333333333,4,2,2,80,0,1
286046,-83.3333333333333,4,2,6,80,0,1
286129,-83.3333333333333,4,2,2,80,0,1
286376,-83.3333333333333,4,2,7,80,0,1
286459,-83.3333333333333,4,2,2,80,0,1
286705,-83.3333333333333,4,2,6,80,0,1
286788,-83.3333333333333,4,2,2,80,0,1
287035,-83.3333333333333,4,2,6,80,0,1
287118,-83.3333333333333,4,2,2,80,0,1
287365,-83.3333333333333,4,2,6,80,0,1
287448,-83.3333333333333,4,2,2,80,0,1
287694,-83.3333333333333,4,2,6,80,0,1
287777,-83.3333333333333,4,2,2,80,0,1
288024,-83.3333333333333,4,2,3,80,0,1
288354,-83.3333333333333,4,2,6,80,0,1
288437,-83.3333333333333,4,2,2,80,0,1
288683,-83.3333333333333,4,2,6,80,0,1
288766,-83.3333333333333,4,2,2,80,0,1
289013,-83.3333333333333,4,2,7,80,0,1
289096,-83.3333333333333,4,2,2,80,0,1
289343,-83.3333333333333,4,2,6,80,0,1
289426,-83.3333333333333,4,2,2,80,0,1
289672,-83.3333333333333,4,2,6,80,0,1
289755,-83.3333333333333,4,2,2,80,0,1
290002,-83.3333333333333,4,2,6,80,0,1
290085,-83.3333333333333,4,2,2,80,0,1
290332,-83.3333333333333,4,2,6,80,0,1
290415,-83.3333333333333,4,2,2,80,0,1
290661,-83.3333333333333,4,2,3,80,0,1
290991,-83.3333333333333,4,2,6,80,0,1
291074,-83.3333333333333,4,2,2,80,0,1
291321,-83.3333333333333,4,2,6,80,0,1
291404,-83.3333333333333,4,2,2,80,0,1
291650,-83.3333333333333,4,2,6,80,0,1
291733,-83.3333333333333,4,2,2,80,0,1
291980,-83.3333333333333,4,2,6,80,0,1
292063,-83.3333333333333,4,2,2,80,0,1
292145,-83.3333333333333,4,2,3,80,0,1
292227,-83.3333333333333,4,2,2,80,0,1
292639,-83.3333333333333,4,2,3,80,0,0
292722,-83.3333333333333,4,2,2,80,0,0
293299,-71.4285714285714,4,2,11,75,0,1
299892,-50,4,2,11,75,0,1
301211,-83.3333333333333,4,2,1,75,0,0
301293,-83.3333333333333,4,2,2,75,0,0
301376,-83.3333333333333,4,2,3,75,0,0
301541,-83.3333333333333,4,2,4,75,0,0
301705,-83.3333333333333,4,2,1,75,0,0
301787,-83.3333333333333,4,2,2,75,0,0
301870,-83.3333333333333,4,2,3,75,0,0
302035,-83.3333333333333,4,2,4,75,0,0
302200,-83.3333333333333,4,2,1,75,0,0
302282,-83.3333333333333,4,2,2,75,0,0
302365,-83.3333333333333,4,2,3,75,0,0
302530,-83.3333333333333,4,2,4,75,0,0
302694,-83.3333333333333,4,2,1,75,0,0
302776,-83.3333333333333,4,2,2,75,0,0
302859,-83.3333333333333,4,2,3,75,0,0
303024,-83.3333333333333,4,2,4,75,0,0
303271,-83.3333333333333,4,2,3,75,0,0
303354,-83.3333333333333,4,2,4,75,0,0
303519,-83.3333333333333,4,2,2,75,0,0

[Colours]
Combo1 : 103,103,103
Combo2 : 245,50,50
Combo3 : 158,57,240
Combo4 : 255,182,47
Combo5 : 173,150,222
Combo6 : 158,107,201

[HitObjects]
256,192,552,12,0,10112,0:0:0:0:
341,122,10277,5,8,0:1:0:0:
351,113,10359,1,8,0:1:0:0:
359,106,10442,6,0,P|277:43|190:70,1,188.999994232178,10|0,0:2|0:0,0:0:0:0:
267,128,11101,70,0,P|239:83|163:58,1,99.0000030212403,14|2,0:1|0:2,0:0:0:0:
42,63,11431,1,2,0:3:0:0:
267,128,11595,6,0,P|214:129|154:183,1,99.0000030212403,10|10,0:1|0:2,0:0:0:0:
98,290,11925,1,0,0:0:0:0:
267,128,12090,70,0,P|242:174|258:253,1,99.0000030212403,2|10,0:2|0:3,0:0:0:0:
323,355,12420,1,8,0:1:0:0:
267,128,12584,6,0,P|295:172|371:197,1,99.0000030212403,10|10,0:2|0:1,0:0:0:0:
491,193,12914,1,8,0:1:0:0:
375,0,13079,69,10,0:2:0:0:
267,128,13244,1,2,0:2:0:0:
491,193,13409,1,8,0:1:0:0:
404,119,13574,1,10,0:2:0:0:
323,355,13738,5,10,0:1:0:0:
407,272,13903,1,2,0:2:0:0:
491,193,14068,1,8,0:1:0:0:
196,232,14233,69,10,0:1:0:0:
304,253,14398,1,10,0:2:0:0:
407,272,14562,1,0,0:0:0:0:
267,128,14727,5,10,0:1:0:0:
304,253,14892,1,10,0:1:0:0:
0,112,15057,70,0,L|111:90,1,99.0000030212403,2|10,0:3|0:2,0:0:0:0:
152,15,15387,5,2,0:2:0:0:
0,112,15552,1,8,0:1:0:0:
196,232,15716,69,10,0:2:0:0:
0,350,15881,1,10,0:1:0:0:
163,318,16046,1,2,0:3:0:0:
34,268,16211,1,10,0:1:0:0:
295,41,16376,5,14,0:1:0:0:
267,128,16541,2,0,P|299:79|274:12,1,99.0000030212403,2|8,0:2|0:1,0:0:0:0:
479,0,16870,69,10,0:1:0:0:
507,87,17035,2,0,P|475:38|500:-29,1,99.0000030212403,10|0,0:2|0:0,0:0:0:0:
267,128,17365,5,10,0:1:0:0:
388,55,17530,1,10,0:1:0:0:
258,133,17694,1,2,0:3:0:0:
500,236,17859,69,10,0:2:0:0:
382,185,18024,1,2,0:2:0:0:
508,240,18188,1,8,0:1:0:0:
248,322,18354,5,10,0:2:0:0:
298,222,18519,1,10,0:1:0:0:
399,273,18683,1,2,0:3:0:0:
349,373,18848,1,10,0:1:0:0:
0,36,19013,69,14,0:1:0:0:
21,133,19178,2,0,L|-6:4,1,99.0000030212403,2|8,0:2|0:1,0:0:0:0:
211,29,19508,5,10,0:1:0:0:
114,50,19673,2,0,L|243:23,1,99.0000030212403,10|0,0:2|0:0,0:0:0:0:
210,240,20002,69,10,0:1:0:0:
189,143,20167,2,0,L|216:272,1,99.0000030212403,10|2,0:1|0:3,0:0:0:0:
0,303,20497,6,0,P|72:271|174:350,1,198.000006042481,10|8,0:2|0:2,0:0:0:0:
181,355,20909,1,8,0:2:0:0:
181,355,20991,69,10,0:2:0:0:
360,183,21156,1,10,0:2:0:0:
110,187,21321,5,10,0:2:0:0:
282,366,21486,1,10,0:2:0:0:
464,58,21650,70,0,B|451:140|451:140|462:167|462:167|447:271,1,198.000006042481,14|8,0:1|0:1,0:0:0:0:
270,50,22145,6,0,P|305:16|353:7,1,99.0000030212403,10|14,0:1|0:2,0:0:0:0:
464,58,22475,1,0,0:0:0:0:
187,5,22639,70,0,P|234:15|269:49,1,99.0000030212403,10|10,0:1|0:1,0:0:0:0:
286,157,22969,1,2,0:3:0:0:
21,187,23134,5,10,0:2:0:0:
188,102,23299,1,10,0:1:0:0:
12,192,23464,1,8,0:1:0:0:
280,274,23628,69,10,0:2:0:0:
192,208,23793,1,10,0:1:0:0:
286,157,23958,1,2,0:3:0:0:
179,308,24123,1,10,0:1:0:0:
500,377,24288,5,14,0:1:0:0:
508,249,24453,1,2,0:2:0:0:
387,175,24617,1,8,0:1:0:0:
500,377,24782,69,10,0:1:0:0:
379,303,24946,1,10,0:2:0:0:
387,175,25111,1,0,0:0:0:0:
255,368,25277,5,10,0:1:0:0:
379,303,25442,1,10,0:1:0:0:
188,102,25606,70,0,L|175:200,1,99.0000030212403,2|10,0:3|0:2,0:0:0:0:
286,157,25936,1,2,0:2:0:0:
80,0,26101,1,8,0:1:0:0:
71,12,26183,1,8,0:1:0:0:
63,24,26266,6,0,L|50:122,1,99.0000030212403,10|10,0:2|0:2,0:0:0:0:
174,200,26595,1,2,0:3:0:0:
49,122,26760,1,10,0:1:0:0:
280,274,26925,69,14,0:1:0:0:
0,263,27090,2,0,P|49:220|103:223,1,99.0000030212403,2|8,0:2|0:1,0:0:0:0:
378,245,27420,5,10,0:1:0:0:
130,375,27585,2,0,P|150:313|199:288,1,99.0000030212403,10|0,0:2|0:0,0:0:0:0:
504,336,27914,69,10,0:1:0:0:
306,183,28079,1,10,0:1:0:0:
495,329,28244,1,2,0:3:0:0:
280,274,28409,5,10,0:2:0:0:
378,245,28573,1,2,0:2:0:0:
473,215,28738,1,8,0:1:0:0:
287,0,28903,69,10,0:2:0:0:
251,115,29068,1,10,0:1:0:0:
385,148,29233,1,2,0:3:0:0:
421,33,29398,1,10,0:1:0:0:
111,185,29562,6,0,P|98:123|58:75,1,99.0000030212403,12|0,0:1|0:0,0:0:0:0:
0,22,29892,1,10,0:1:0:0:
93,369,30057,70,0,P|106:307|146:259,1,99.0000030212403,10|2,0:2|0:3,0:0:0:0:
204,206,30387,1,10,0:1:0:0:
428,384,30552,5,14,0:2:0:0:
378,245,30716,1,0,0:0:0:0:
283,351,30881,1,10,0:1:0:0:
511,156,31046,69,10,0:2:0:0:
364,323,31211,1,8,0:1:0:0:
282,110,31376,1,10,0:2:0:0:
282,110,31458,1,8,0:2:0:0:
282,110,31541,5,10,0:2:0:0:
400,127,31705,1,10,0:3:0:0:
233,0,31870,1,10,0:3:0:0:
204,206,32035,1,8,0:3:0:0:
233,0,32200,6,0,P|165:43|164:131,1,161.999995056153,12|2,0:1|0:2,0:0:0:0:
311,219,33189,2,0,P|259:211|188:204,2,107.999996704102,2|2|2,0:2|0:2|0:2,0:0:0:0:
365,290,34178,1,2,0:2:0:0:
340,107,34508,6,0,P|333:57|324:-5,1,107.999996704102,2|0,0:2|0:0,0:0:0:0:
311,219,35167,2,0,P|313:152|395:210,1,215.999993408203,2|0,0:2|0:0,0:0:0:0:
503,343,35991,69,2,0:2:0:0:
503,343,36156,2,0,P|497:298|486:222,1,107.999996704102,2|0,0:2|0:0,0:0:0:0:
395,207,36650,2,0,P|402:260|409:313,1,107.999996704102,2|0,0:2|0:0,0:0:0:0:
340,370,37145,2,0,P|300:357|220:371,1,107.999996704102,2|2,0:2|0:2,0:0:0:0:
236,364,37804,5,2,0:2:0:0:
181,288,37969,2,0,P|212:242|183:130,1,161.999995056153,2|2,0:2|0:2,0:0:0:0:
194,142,38958,2,0,P|269:164|339:128,1,161.999995056153,2|2,0:2|0:2,0:0:0:0:
340,127,39782,69,2,0:2:0:0:
406,181,39947,1,2,0:2:0:0:
478,130,40112,6,0,P|468:91|477:14,1,107.999996704102,2|0,0:2|0:0,0:0:0:0:
387,2,40606,2,0,P|348:11|274:19,1,107.999996704102,2|0,0:2|0:0,0:0:0:0:
218,78,41101,2,0,P|181:67|49:59,1,161.999995056153,2|0,0:2|0:0,0:0:0:0:
0,118,41760,1,2,0:2:0:0:
116,212,41925,69,8,0:1:0:0:
118,201,42008,1,8,0:1:0:0:
120,190,42090,1,10,0:2:0:0:
22,320,42255,1,10,0:2:0:0:
210,199,42420,1,8,0:2:0:0:
0,118,42584,1,8,0:2:0:0:
173,117,42749,21,12,0:1:0:0:
201,30,42914,1,0,0:0:0:0:
114,2,43079,1,8,0:1:0:0:
86,89,43244,1,8,0:1:0:0:
210,199,43409,5,8,0:2:0:0:
210,199,43738,1,10,0:3:0:0:
284,104,43903,1,10,0:3:0:0:
360,278,44068,2,0,P|326:283|294:294,1,67.5000025749208,10|8,0:1|0:3,0:0:0:0:
429,165,44398,69,10,0:1:0:0:
429,165,44727,1,10,0:2:0:0:
487,241,44892,1,0,0:0:0:0:
483,251,44975,1,8,0:3:0:0:
479,261,45057,1,10,0:1:0:0:
335,178,45222,1,8,0:3:0:0:
323,381,45387,5,12,0:1:0:0:
410,353,45552,1,0,0:0:0:0:
382,266,45717,1,10,0:1:0:0:
295,294,45882,1,8,0:1:0:0:
429,165,46046,69,8,0:2:0:0:
429,165,46376,1,8,0:3:0:0:
277,99,46541,1,10,0:3:0:0:
403,11,46705,2,0,P|388:41|377:73,1,67.5000025749208,10|8,0:1|0:3,0:0:0:0:
299,8,47035,1,8,0:1:0:0:
341,183,47200,5,10,0:1:0:0:
215,74,47365,2,0,P|245:88|277:99,1,67.5000025749208,8|0,0:2|0:0,0:0:0:0:
378,73,47694,1,10,0:1:0:0:
378,73,47859,1,10,0:3:0:0:
266,277,48024,69,14,0:1:0:0:
179,305,48189,1,0,0:0:0:0:
151,218,48354,1,8,0:1:0:0:
238,190,48519,1,10,0:1:0:0:
356,305,48683,5,8,0:2:0:0:
356,305,49013,2,0,P|389:310|421:319,1,67.5000025749208,10|8,0:3|0:3,0:0:0:0:
501,178,49343,1,8,0:1:0:0:
406,216,49508,1,8,0:3:0:0:
504,369,49672,69,8,0:1:0:0:
498,270,49837,1,8,0:1:0:0:
315,171,50002,5,10,0:2:0:0:
321,270,50167,1,0,0:0:0:0:
322,282,50249,1,8,0:3:0:0:
323,294,50332,1,10,0:1:0:0:
406,216,50497,1,8,0:3:0:0:
243,343,50661,69,12,0:1:0:0:
152,357,50826,1,0,0:0:0:0:
138,266,50991,1,8,0:1:0:0:
228,252,51156,1,8,0:1:0:0:
68,324,51321,5,10,0:2:0:0:
68,324,51650,1,10,0:3:0:0:
138,266,51815,1,8,0:3:0:0:
80,196,51980,1,8,0:1:0:0:
10,254,52145,1,8,0:3:0:0:
152,357,52310,70,0,P|185:362|217:370,1,67.5000025749208,8|8,0:1|0:1,0:0:0:0:
370,259,52639,1,8,0:2:0:0:
284,208,52804,1,8,0:3:0:0:
276,213,52887,1,8,0:3:0:0:
268,218,52969,1,10,0:1:0:0:
357,354,53134,1,10,0:3:0:0:
486,57,53299,22,0,B|477:115|477:115|483:137|483:137|473:203,1,135.000005149842,14|8,0:1|0:1,0:0:0:0:
403,14,53793,2,0,L|391:88,1,67.5000025749208,10|8,0:1|0:2,0:0:0:0:
376,162,54123,1,0,0:0:0:0:
242,88,54288,2,0,L|308:98,1,67.5000025749208,10|8,0:3|0:3,0:0:0:0:
222,187,54617,5,8,0:1:0:0:
115,168,54782,1,8,0:3:0:0:
135,69,54947,1,10,0:1:0:0:
242,88,55112,1,8,0:1:0:0:
61,294,55277,70,0,L|45:212,1,67.5000025749208,8|8,0:2|0:0,0:0:0:0:
37,219,55524,1,8,0:3:0:0:
27,209,55606,2,0,L|11:127,1,67.5000025749208,10|10,0:1|0:3,0:0:0:0:
261,288,55936,6,0,P|195:290|150:338,1,135.000005149842,14|8,0:1|0:1,0:0:0:0:
236,371,56431,1,10,0:1:0:0:
236,371,56595,1,8,0:2:0:0:
350,264,56760,1,0,0:0:0:0:
261,288,56925,1,10,0:3:0:0:
446,384,57090,1,8,0:3:0:0:
433,296,57255,70,0,L|446:376,1,67.5000025749208,8|10,0:1|0:3,0:0:0:0:
507,187,57584,2,0,L|496:120,1,67.5000025749208,10|8,0:1|0:1,0:0:0:0:
317,11,57914,2,0,P|353:52|409:51,1,101.250003862381,8|8,0:2|0:3,0:0:0:0:
409,52,58244,1,10,0:1:0:0:
283,184,58409,1,10,0:3:0:0:
40,53,58573,6,0,B|100:47|100:47|120:56|120:56|199:49,1,135.000005149842,14|8,0:1|0:1,0:0:0:0:
110,154,59068,1,10,0:1:0:0:
191,145,59233,2,0,L|123:151,1,67.5000025749208,8|0,0:2|0:0,0:0:0:0:
28,262,59562,69,10,0:3:0:0:
16,168,59727,1,8,0:3:0:0:
40,356,59892,5,8,0:1:0:0:
28,262,60057,1,8,0:3:0:0:
183,384,60222,70,0,P|255:374|282:335,1,101.250003862381,10|0,0:1|0:0,0:0:0:0:
239,262,60552,2,0,P|189:259|150:289,1,101.250003862381,10|8,0:2|0:3,0:0:0:0:
143,301,60881,1,10,0:1:0:0:
283,184,61046,1,10,0:3:0:0:
437,384,61211,6,0,B|447:326|447:326|462:310|462:310|473:245,1,135.000005149842,12|8,0:1|0:1,0:0:0:0:
471,256,61705,1,8,0:1:0:0:
370,112,61870,2,0,P|425:148|478:133,1,101.250003862381,10|0,0:2|0:0,0:0:0:0:
478,45,62200,2,0,P|445:25|410:27,1,67.5000025749208,10|8,0:3|0:3,0:0:0:0:
370,112,62530,69,8,0:1:0:0:
327,26,62694,1,8,0:3:0:0:
184,164,62859,2,0,L|206:88,1,67.5000025749208,10|8,0:1|0:1,0:0:0:0:
61,38,63189,6,0,L|29:144,1,101.250003862381,8|8,0:2|0:3,0:0:0:0:
29,144,63519,1,10,0:1:0:0:
216,244,63683,1,8,0:3:0:0:
94,349,63848,6,0,P|106:309|85:241,1,101.250003862381,14|0,0:1|0:0,0:0:0:0:
86,244,64178,1,8,0:1:0:0:
17,302,64343,1,10,0:1:0:0:
221,375,64508,2,0,P|267:368|336:359,1,101.250003862381,8|0,0:2|0:0,0:0:0:0:
331,358,64837,1,10,0:3:0:0:
216,244,65002,1,8,0:3:0:0:
291,187,65167,5,8,0:1:0:0:
221,375,65332,1,8,0:3:0:0:
302,275,65497,1,8,0:1:0:0:
148,186,65661,69,8,0:1:0:0:
145,195,65744,1,8,0:1:0:0:
143,205,65826,1,10,0:2:0:0:
336,107,65991,1,8,0:2:0:0:
244,40,66156,2,0,P|247:78|251:117,1,67.5000025749208,10|8,0:1|0:1,0:0:0:0:
479,208,66486,6,0,P|435:224|375:225,1,101.250003862381,12|0,0:1|0:0,0:0:0:0:
370,222,66815,1,8,0:1:0:0:
475,375,66980,1,10,0:1:0:0:
296,334,67145,2,0,P|340:318|400:317,1,101.250003862381,8|0,0:2|0:0,0:0:0:0:
403,321,67475,1,10,0:3:0:0:
479,208,67639,1,8,0:3:0:0:
309,159,67804,69,8,0:1:0:0:
479,291,67969,1,8,0:3:0:0:
403,321,68134,1,10,0:1:0:0:
512,132,68299,1,8,0:1:0:0:
285,242,68464,6,0,P|235:221|179:222,1,101.250003862381,10|8,0:2|0:3,0:0:0:0:
181,223,68793,1,10,0:1:0:0:
270,33,68958,1,10,0:3:0:0:
42,91,69123,69,12,0:1:0:0:
155,0,69288,2,0,P|144:75|131:157,1,153.000002918243,8|8,0:2|0:1,0:0:0:0:
206,357,69782,5,10,0:2:0:0:
39,220,69947,1,8,0:1:0:0:
230,119,70112,1,14,0:2:0:0:
118,313,70277,69,8,0:2:0:0:
106,310,70359,1,8,0:2:0:0:
94,306,70442,1,8,0:1:0:0:
42,91,70606,1,8,0:2:0:0:
232,278,70771,2,0,P|289:271|361:262,1,114.750002188683,10|8,0:1|0:3,0:0:0:0:
355,262,71101,5,8,0:2:0:0:
418,45,71266,1,8,0:3:0:0:
388,149,71431,1,10,0:3:0:0:
388,149,71595,1,8,0:1:0:0:
215,34,71760,70,0,P|224:85|232:131,1,85.4999977169037,14|8,0:2|0:1,0:0:0:0:
272,353,72090,1,8,0:1:0:0:
137,170,72255,5,12,0:2:0:0:
355,262,72420,1,10,0:1:0:0:
139,377,72584,1,8,0:1:0:0:
313,114,72749,69,14,0:2:0:0:
80,250,72914,1,8,0:1:0:0:
272,353,73079,1,8,0:1:0:0:
49,166,73244,6,0,B|57:228|57:228|42:263|42:263|51:333,1,170.999995433807,8|8,0:2|0:1,0:0:0:0:
50,332,73656,1,8,0:1:0:0:
57,339,73738,2,0,L|98:332,1,21.3749994292259,10|8,0:2|0:2,0:0:0:0:
229,118,73903,1,10,0:1:0:0:
229,118,74233,1,10,0:1:0:0:
392,384,74398,6,0,P|440:327|422:255,1,155.250002961159,14|0,0:1|0:0,0:0:0:0:
408,241,74727,2,0,L|283:270,1,103.500001974106,8|8,0:1|0:1,0:0:0:0:
39,249,75057,2,0,P|95:297|167:279,1,155.250002961159,14|0,0:2|0:0,0:0:0:0:
181,384,75387,6,0,L|219:169,1,207.000003948212,10|2,0:1|0:3,0:0:0:0:
403,58,75881,1,8,0:2:0:0:
311,0,76046,2,0,B|303:26|284:47|284:47|318:92|336:164,1,155.250002961159,2|0,0:2|0:0,0:0:0:0:
326,154,76376,2,0,P|366:180|406:151,1,103.500001974106,8|8,0:2|0:1,0:0:0:0:
180,31,76705,2,0,P|132:51|82:64,1,103.500001974106,2|8,0:2|0:1,0:0:0:0:
287,311,77035,70,0,P|191:271|91:246,1,207.000003948212,14|8,0:1|0:1,0:0:0:0:
28,165,77530,1,10,0:1:0:0:
271,82,77694,2,0,P|251:129|238:179,1,103.500001974106,8|0,0:2|0:0,0:0:0:0:
180,31,78024,1,10,0:1:0:0:
357,163,78189,2,0,P|407:150|454:130,1,103.500001974106,8|2,0:1|0:3,0:0:0:0:
136,154,78519,5,10,0:2:0:0:
91,246,78683,1,2,0:2:0:0:
148,330,78848,1,8,0:1:0:0:
237,146,79013,69,8,0:2:0:0:
278,66,79178,2,0,B|268:40|272:11|272:11|263:42|243:54,1,107.999996704102,8|8,0:1|0:1,0:0:0:0:
149,169,79672,6,0,P|224:187|295:217,1,155.250002961159,12|0,0:1|0:0,0:0:0:0:
313,222,80002,2,0,P|291:268|275:318,1,103.500001974106,8|8,0:1|0:1,0:0:0:0:
20,133,80332,2,0,P|54:205|79:283,1,155.250002961159,10|0,0:2|0:0,0:0:0:0:
77,295,80661,1,10,0:1:0:0:
229,102,80826,2,0,P|179:86|133:64,1,103.500001974106,8|2,0:1|0:3,0:0:0:0:
413,0,81156,69,8,0:2:0:0:
362,93,81321,1,2,0:2:0:0:
418,184,81486,1,8,0:1:0:0:
427,191,81568,1,8,0:1:0:0:
435,197,81650,1,8,0:2:0:0:
229,102,81815,1,8,0:1:0:0:
268,384,81980,6,0,P|282:321|300:260,1,128.249996575356,2|0,0:2|0:0,0:0:0:0:
324,183,82310,70,0,B|256:160|221:218|230:227|192:269|127:235,1,207.000003948212,12|8,0:1|0:1,0:0:0:0:
5,157,82804,1,10,0:1:0:0:
158,0,82969,2,0,P|129:72|110:147,1,155.250002961159,8|0,0:2|0:0,0:0:0:0:
104,157,83299,1,10,0:1:0:0:
262,52,83464,2,0,P|237:114|221:180,1,103.500001974106,8|2,0:1|0:3,0:0:0:0:
91,369,83793,5,8,0:2:0:0:
42,290,83958,1,10,0:1:0:0:
184,366,84123,69,8,0:2:0:0:
193,371,84205,1,8,0:2:0:0:
201,376,84288,1,10,0:2:0:0:
384,317,84453,1,10,0:2:0:0:
325,134,84617,1,8,0:2:0:0:
142,193,84782,1,8,0:2:0:0:
300,374,84947,6,0,P|278:299|253:226,1,155.250002961159,12|0,0:1|0:0,0:0:0:0:
250,206,85277,2,0,P|300:222|351:231,1,103.500001974106,8|8,0:1|0:1,0:0:0:0:
506,9,85606,2,0,P|425:18|422:93,1,155.250002961159,10|0,0:2|0:0,0:0:0:0:
500,146,85936,70,0,P|401:115|299:95,1,207.000003948212,10|2,0:1|0:3,0:0:0:0:
47,73,86431,5,8,0:2:0:0:
112,5,86595,1,2,0:2:0:0:
203,27,86760,1,8,0:1:0:0:
166,187,86925,69,8,0:2:0:0:
139,96,87089,1,8,0:1:0:0:
237,266,87255,2,0,P|186:277|138:295,1,103.500001974106,2|8,0:2|0:1,0:0:0:0:
421,364,87584,6,0,P|352:318|376:201,1,207.000003948212,14|8,0:1|0:1,0:0:0:0:
440,272,88079,1,10,0:1:0:0:
287,117,88244,2,0,P|337:106|386:90,1,103.500001974106,8|0,0:2|0:0,0:0:0:0:
480,165,88573,1,10,0:1:0:0:
309,357,88738,2,0,P|259:341|209:330,1,103.500001974106,8|2,0:1|0:3,0:0:0:0:
39,119,89068,69,10,0:2:0:0:
0,203,89233,1,2,0:2:0:0:
53,278,89398,1,8,0:1:0:0:
130,111,89562,5,10,0:2:0:0:
0,32,89727,1,8,0:1:0:0:
136,216,89892,2,0,P|199:224|260:244,1,128.249996575356,2|0,0:2|0:0,0:0:0:0:
275,239,90222,70,0,B|339:195|302:113|302:113|254:111|233:159,1,207.000003948212,12|8,0:1|0:1,0:0:0:0:
136,216,90716,1,8,0:1:0:0:
321,351,90881,2,0,P|370:337|490:320,1,155.250002961159,10|0,0:2|0:0,0:0:0:0:
484,328,91211,1,10,0:1:0:0:
351,134,91376,2,0,P|364:184|372:235,1,103.500001974106,8|2,0:1|0:3,0:0:0:0:
505,10,91705,5,8,0:2:0:0:
408,46,91870,1,2,0:2:0:0:
266,230,92035,69,8,0:1:0:0:
257,234,92117,1,8,0:1:0:0:
249,238,92200,1,10,0:2:0:0:
166,275,92365,1,8,0:1:0:0:
343,334,92530,2,0,P|354:283|371:234,1,103.500001974106,2|8,0:2|0:1,0:0:0:0:
150,17,92859,6,0,B|69:-6|34:75|34:75|84:129,1,188.999994232178,14|0,0:1|0:0,0:0:0:0:
117,171,93189,2,0,L|202:153,1,62.9999980773926,8|0,0:1|0:0,0:0:0:0:
400,93,93354,70,0,B|481:70|516:151|516:151|466:205,1,188.999994232178,10|0,0:2|0:0,0:0:0:0:
433,247,93684,2,0,L|348:229,1,62.9999980773926,8|0,0:1|0:0,0:0:0:0:
239,77,93848,5,14,0:2:0:0:
157,312,94013,1,8,0:3:0:0:
165,328,94096,1,8,0:3:0:0:
173,343,94178,1,8,0:1:0:0:
344,144,94343,69,10,0:2:0:0:
124,60,94508,1,8,0:1:0:0:
247,253,94672,5,8,0:2:0:0:
263,245,94755,1,8,0:2:0:0:
278,237,94837,1,8,0:2:0:0:
426,72,95002,1,8,0:3:0:0:
326,45,95167,69,8,0:3:0:0:
433,177,95332,1,8,0:3:0:0:
87,357,95497,22,0,B|19:359|20:251|127:249|174:336,1,207.000003948212,14|8,0:1|0:1,0:0:0:0:
222,383,95991,1,8,0:1:0:0:
490,235,96156,2,0,P|420:232|385:271,1,103.500001974106,14|0,0:2|0:0,0:0:0:0:
326,317,96486,1,10,0:1:0:0:
140,162,96650,6,0,B|226:147|226:147|257:156|257:156|343:143,1,207.000003948212,8|8,0:1|0:2,0:0:0:0:
218,240,97145,1,10,0:1:0:0:
276,61,97310,1,8,0:1:0:0:
145,66,97475,69,8,0:2:0:0:
343,143,97640,1,8,0:1:0:0:
53,332,97804,6,0,L|147:315,1,80.9999975280763,2|0,0:2|0:0,0:0:0:0:
202,345,98134,70,0,L|-19:300,1,207.000003948212,14|8,0:1|0:1,0:0:0:0:
140,162,98628,1,10,0:1:0:0:
300,371,98793,2,0,P|299:311|241:260,1,103.500001974106,8|0,0:2|0:0,0:0:0:0:
511,143,99123,5,10,0:1:0:0:
426,307,99288,2,0,P|427:218|513:143,1,207.000003948212,8|10,0:1|0:2,0:0:0:0:
343,143,99782,1,2,0:2:0:0:
412,192,99947,1,8,0:1:0:0:
379,16,100112,69,8,0:2:0:0:
230,196,100277,1,8,0:2:0:0:
178,25,100442,5,2,0:3:0:0:
343,143,100607,1,8,0:1:0:0:
0,308,100771,70,0,B|60:296|92:348|92:348|144:378|195:339,1,207.000003948212,12|8,0:1|0:1,0:0:0:0:
264,283,101266,1,8,0:1:0:0:
122,105,101431,2,0,B|132:170|132:170|126:190|126:190|143:294,1,155.250002961159,10|0,0:2|0:0,0:0:0:0:
139,267,101760,5,10,0:1:0:0:
353,317,101925,2,0,P|307:282|240:294,1,103.500001974106,8|2,0:1|0:3,0:0:0:0:
498,197,102255,1,8,0:2:0:0:
463,286,102420,2,0,P|464:235|497:196,1,103.500001974106,2|8,0:2|0:1,0:0:0:0:
312,44,102749,1,8,0:2:0:0:
433,26,102914,1,8,0:1:0:0:
265,164,103079,70,0,P|259:206|266:165,1,155.250002961159,2|0,0:2|0:0,0:0:0:0:
227,78,103409,6,0,L|266:303,1,207.000003948212,12|8,0:1|0:1,0:0:0:0:
279,369,103903,1,10,0:1:0:0:
83,182,104068,1,8,0:2:0:0:
173,267,104233,1,8,0:1:0:0:
83,34,104398,70,0,L|66:145,1,103.500001974106,14|8,0:2|0:2,0:0:0:0:
76,160,104645,1,8,0:2:0:0:
83,182,104727,2,0,L|66:293,1,103.500001974106,2|8,0:3|0:2,0:0:0:0:
227,78,105057,5,10,0:1:0:0:
352,243,105222,1,8,0:2:0:0:
352,243,105304,1,8,0:2:0:0:
352,243,105387,69,10,0:2:0:0:
437,77,105552,1,10,0:2:0:0:
269,0,105716,1,8,0:2:0:0:
184,166,105881,1,8,0:2:0:0:
449,242,106046,6,0,P|326:150|267:192,1,207.000003948212,12|8,0:1|0:1,0:0:0:0:
290,169,106541,1,8,0:1:0:0:
416,340,106705,2,0,L|453:228,1,103.500001974106,14|0,0:2|0:0,0:0:0:0:
239,366,107035,69,10,0:1:0:0:
290,169,107200,2,0,B|264:250|264:250|269:279|269:279|239:366,1,207.000003948212,8|8,0:1|0:2,0:0:0:0:
130,166,107694,1,10,0:1:0:0:
182,263,107859,1,8,0:1:0:0:
328,62,108024,5,8,0:2:0:0:
290,169,108189,1,8,0:1:0:0:
48,33,108354,70,0,P|95:34|139:5,1,80.9999975280763,2|0,0:2|0:0,0:0:0:0:
192,50,108683,6,0,P|109:32|4:97,1,207.000003948212,14|8,0:1|0:1,0:0:0:0:
130,166,109178,1,10,0:1:0:0:
17,384,109343,2,0,B|32:303|32:303|18:265|18:265|36:175,1,207.000003948212,8|10,0:2|0:1,0:0:0:0:
164,364,109837,70,0,L|184:250,1,103.500001974106,8|2,0:1|0:3,0:0:0:0:
130,166,110167,1,10,0:2:0:0:
164,364,110332,1,2,0:2:0:0:
353,255,110497,1,8,0:1:0:0:
353,255,110579,1,8,0:1:0:0:
353,255,110661,5,14,0:2:0:0:
164,364,110826,1,8,0:2:0:0:
329,348,110991,69,2,0:2:0:0:
181,262,111156,1,8,0:1:0:0:
463,33,111321,6,0,B|396:9|363:65|363:65|385:172,1,207.000003948212,12|8,0:1|0:1,0:0:0:0:
353,255,111815,1,8,0:1:0:0:
134,89,111980,2,0,P|26:48|-19:91,1,155.250002961159,10|0,0:2|0:0,0:0:0:0:
134,89,112310,70,0,L|235:107,1,103.500001974106,10|8,0:1|0:1,0:0:0:0:
2,62,112639,1,2,0:3:0:0:
196,13,112804,1,8,0:2:0:0:
39,226,112969,2,0,L|57:124,1,103.500001974106,2|8,0:2|0:1,0:0:0:0:
181,262,113299,5,10,0:2:0:0:
57,124,113464,1,8,0:1:0:0:
0,302,113628,69,2,0:2:0:0:
141,180,113793,1,8,0:1:0:0:
369,352,113958,6,0,P|470:366|500:247,1,188.999994232178,14|0,0:2|0:0,0:0:0:0:
473,226,114288,2,0,L|396:215,1,62.9999980773926,8|0,0:1|0:0,0:0:0:0:
143,351,114453,70,0,P|42:365|12:246,1,188.999994232178,10|0,0:2|0:0,0:0:0:0:
39,225,114783,2,0,L|116:214,1,62.9999980773926,8|0,0:1|0:0,0:0:0:0:
256,352,114947,5,10,0:2:0:0:
326,269,115112,1,8,0:2:0:0:
326,269,115194,1,8,0:2:0:0:
326,269,115277,1,8,0:1:0:0:
189,126,115442,1,8,0:2:0:0:
256,32,115606,70,0,B|331:46|331:46|350:69|350:69|462:88,1,188.999994232178,10|8,0:1|0:3,0:0:0:0:
431,82,115936,5,10,0:2:0:0:
208,265,116101,1,8,0:2:0:0:
256,32,116266,69,10,0:2:0:0:
430,296,116431,1,8,0:2:0:0:
512,34,116595,22,0,P|461:99|459:185,1,168.75,14|0,0:1|0:0,0:0:0:0:
463,190,116925,1,10,0:1:0:0:
356,384,117090,6,0,P|421:333|507:331,1,168.75,8|0,0:2|0:0,0:0:0:0:
512,335,117420,1,8,0:1:0:0:
372,157,117584,1,10,0:2:0:0:
258,317,117749,1,8,0:3:0:0:
269,314,117832,1,8,0:3:0:0:
280,311,117914,1,10,0:1:0:0:
144,201,118079,70,0,P|170:131|170:30,1,168.75,8|0,0:1|0:0,0:0:0:0:
167,30,118409,2,0,P|222:54|286:58,1,112.5,8|2,0:2|0:2,0:0:0:0:
301,220,118738,1,8,0:1:0:0:
71,139,118903,1,10,0:2:0:0:
273,58,119068,1,8,0:1:0:0:
44,320,119233,5,10,0:2:0:0:
220,244,119398,1,8,0:1:0:0:
71,139,119562,1,10,0:1:0:0:
280,373,119727,70,0,P|327:315|288:207,1,168.75,8|0,0:2|0:0,0:0:0:0:
301,220,120057,1,8,0:1:0:0:
449,321,120222,1,10,0:2:0:0:
512,109,120387,1,8,0:2:0:0:
501,111,120469,1,8,0:2:0:0:
490,114,120552,1,10,0:1:0:0:
419,213,120716,6,0,P|440:268|449:327,1,112.5,8|10,0:2|0:1,0:0:0:0:
293,39,121046,1,8,0:2:0:0:
295,28,121128,1,8,0:2:0:0:
298,16,121211,69,10,0:2:0:0:
222,334,121376,1,8,0:2:0:0:
419,213,121541,1,10,0:2:0:0:
101,137,121705,1,8,0:2:0:0:
428,220,121870,22,0,P|360:224|298:250,1,135.000005149842,14|8,0:1|0:1,0:0:0:0:
189,227,122365,1,8,0:1:0:0:
313,72,122530,1,8,0:2:0:0:
313,72,122859,2,0,P|320:105|332:136,1,67.5000025749208,10|8,0:1|0:1,0:0:0:0:
94,106,123189,2,0,P|147:95|194:75,1,101.250003862381,2|0,0:2|0:0,0:0:0:0:
207,69,123519,2,0,P|219:100|226:133,1,67.5000025749208,2|0,0:2|0:0,0:0:0:0:
144,310,123848,1,10,0:2:0:0:
144,310,124178,2,0,P|103:282|104:233,1,101.250003862381,2|0,0:2|0:0,0:0:0:0:
113,228,124508,6,0,P|164:215|221:279,1,135.000005149842,8|10,0:1|0:1,0:0:0:0:
309,212,125002,1,8,0:1:0:0:
217,366,125167,1,8,0:2:0:0:
217,366,125497,1,8,0:1:0:0:
313,310,125661,2,0,P|343:327|375:337,1,67.5000025749208,10|2,0:1|0:2,0:0:0:0:
203,174,125991,2,0,P|137:189|77:219,1,135.000005149842,8|2,0:2|0:2,0:0:0:0:
262,101,126486,1,8,0:2:0:0:
262,101,126815,2,0,P|287:70|260:0,1,101.250003862381,2|0,0:2|0:0,0:0:0:0:
256,3,127145,70,0,P|193:27|141:39,1,101.250003862381,10|0,0:1|0:0,0:0:0:0:
141,30,127475,1,10,0:1:0:0:
176,145,127639,1,10,0:1:0:0:
16,45,127804,1,8,0:2:0:0:
16,45,128134,1,8,0:1:0:0:
51,160,128299,2,0,P|51:209|18:245,1,101.250003862381,8|0,0:1|0:0,0:0:0:0:
6,261,128628,2,0,P|71:277|133:303,1,135.000005149842,8|8,0:2|0:1,0:0:0:0:
301,196,129123,1,8,0:2:0:0:
301,196,129453,2,0,P|289:227|282:260,1,67.5000025749208,2|2,0:2|0:2,0:0:0:0:
488,304,129782,6,0,P|451:257|367:261,1,135.000005149842,10|8,0:1|0:1,0:0:0:0:
412,342,130277,1,10,0:1:0:0:
512,189,130442,2,0,P|501:157|493:124,1,67.5000025749208,8|0,0:2|0:0,0:0:0:0:
291,20,130771,1,10,0:1:0:0:
363,73,130936,2,0,P|402:76|449:26,1,101.250003862381,8|0,0:1|0:0,0:0:0:0:
444,19,131266,2,0,P|410:12|379:0,1,67.5000025749208,8|2,0:2|0:2,0:0:0:0:
298,203,131595,1,8,0:1:0:0:
209,52,131760,69,10,0:2:0:0:
429,152,131925,2,0,L|410:213,1,42.7499988584519,10|8,0:1|0:1,0:0:0:0:
251,295,132090,1,8,0:2:0:0:
213,275,132172,1,8,0:2:0:0:
188,241,132254,1,8,0:2:0:0:
182,199,132337,1,8,0:2:0:0:
196,159,132419,21,12,0:1:0:0:
251,295,132584,1,8,0:1:0:0:
298,203,132749,1,8,0:2:0:0:
76,125,132914,1,8,0:3:0:0:
70,136,132997,1,8,0:3:0:0:
63,147,133079,2,0,L|80:233,1,76.5000014591217,8|8,0:1|0:1,0:0:0:0:
0,298,133409,1,10,0:3:0:0:
77,222,133573,1,10,0:2:0:0:
236,370,133738,6,0,L|250:294,1,76.5000014591217,10|8,0:3|0:1,0:0:0:0:
365,384,134068,2,0,L|380:309,1,76.5000014591217,10|8,0:2|0:3,0:0:0:0:
394,223,134398,1,10,0:1:0:0:
250,294,134562,1,8,0:1:0:0:
401,220,134727,1,10,0:2:0:0:
225,58,134892,69,8,0:3:0:0:
232,67,134975,1,8,0:3:0:0:
239,75,135057,2,0,B|298:67|298:67|324:75|324:75|426:59,1,153.000002918243,12|10,0:1|0:2,0:0:0:0:
477,131,135552,1,8,0:3:0:0:
477,131,135634,1,8,0:3:0:0:
477,131,135716,1,8,0:1:0:0:
340,291,135881,1,8,0:1:0:0:
401,220,136046,1,8,0:3:0:0:
336,297,136211,1,10,0:2:0:0:
198,153,136376,6,0,P|240:149|281:173,1,76.5000014591217,10|8,0:3|0:1,0:0:0:0:
128,218,136705,1,8,0:2:0:0:
250,294,136870,2,0,P|208:298|167:274,1,76.5000014591217,10|8,0:3|0:1,0:0:0:0:
128,218,137200,1,8,0:1:0:0:
8,303,137365,1,10,0:2:0:0:
47,33,137530,69,10,0:3:0:0:
53,42,137612,1,8,0:3:0:0:
59,51,137694,2,0,B|45:112|45:112|49:133|49:133|27:227,1,153.000002918243,14|8,0:1|0:2,0:0:0:0:
105,352,138189,1,10,0:3:0:0:
105,352,138271,1,8,0:3:0:0:
105,352,138354,1,8,0:1:0:0:
128,218,138519,1,8,0:1:0:0:
8,303,138683,1,10,0:3:0:0:
143,143,138848,6,0,L|125:230,1,76.5000014591217,8|8,0:2|0:3,0:0:0:0:
48,132,139178,1,8,0:1:0:0:
239,75,139343,2,0,L|152:57,1,76.5000014591217,8|8,0:2|0:3,0:0:0:0:
467,0,139672,2,0,P|483:33|481:71,1,76.5000014591217,10|8,0:1|0:1,0:0:0:0:
333,24,140002,2,0,P|330:61|346:95,1,76.5000014591217,10|8,0:2|0:1,0:0:0:0:
493,246,140332,69,14,0:2:0:0:
293,182,140497,1,8,0:1:0:0:
512,145,140661,1,8,0:1:0:0:
258,274,140826,1,8,0:2:0:0:
392,384,140991,6,0,P|408:349|405:312,1,76.5000014591217,2|8,0:2|0:1,0:0:0:0:
195,217,141321,1,10,0:2:0:0:
329,338,141485,69,8,0:2:0:0:
329,338,141568,1,8,0:2:0:0:
329,338,141650,5,8,0:1:0:0:
137,359,141815,1,8,0:2:0:0:
295,180,141980,1,8,0:1:0:0:
89,98,142145,69,8,0:2:0:0:
89,98,142227,1,8,0:2:0:0:
89,98,142310,5,10,0:2:0:0:
196,218,142475,1,10,0:2:0:0:
0,259,142639,69,10,0:2:0:0:
198,54,142804,1,10,0:1:0:0:
329,338,142969,22,0,L|277:310,1,49.5000015106202,10|0,0:2|0:0,0:0:0:0:
56,184,143134,2,0,L|125:176,1,49.5000015106202,10|0,0:2|0:0,0:0:0:0:
367,147,143299,2,0,L|315:196,1,49.5000015106202,10|0,0:2|0:0,0:0:0:0:
137,359,143464,2,0,L|150:297,1,49.5000015106202,10|0,0:2|0:0,0:0:0:0:
198,54,143628,2,0,P|210:99|200:53,1,144,14|2,0:2|0:3,0:0:0:0:
469,306,144617,6,0,L|467:279,1,20.2499993820191,10|8,0:2|0:2,0:0:0:0:
379,112,144782,2,0,B|383:175|383:175|375:203|375:203|382:281,1,161.999995056153,8|8,0:3|0:3,0:0:0:0:
393,361,145277,2,0,P|342:345|268:363,1,121.499996292114,10|0,0:3|0:0,0:0:0:0:
271,365,145606,69,10,0:1:0:0:
185,243,145771,1,8,0:1:0:0:
285,138,145936,1,8,0:1:0:0:
199,16,146101,1,10,0:1:0:0:
54,158,146266,2,0,P|95:133|192:130,1,135,8|0,0:2|0:0,0:0:0:0:
189,132,146595,5,10,0:2:0:0:
87,354,146760,1,8,0:2:0:0:
84,340,146843,1,8,0:2:0:0:
81,326,146925,1,8,0:1:0:0:
310,259,147090,1,10,0:2:0:0:
54,158,147255,70,0,P|67:106|72:60,1,90,10|8,0:1|0:2,0:0:0:0:
71,69,147502,1,8,0:2:0:0:
71,69,147584,1,8,0:2:0:0:
169,251,147749,1,8,0:2:0:0:
44,0,147914,1,10,0:2:0:0:
54,158,148079,1,10,0:2:0:0:
291,8,148244,6,0,L|285:67,1,49.5000015106202,10|0,0:2|0:0,0:0:0:0:
304,308,148409,2,0,L|310:249,1,49.5000015106202,10|0,0:2|0:0,0:0:0:0:
147,164,148573,2,0,L|206:169,1,49.5000015106202,10|0,0:2|0:0,0:0:0:0:
447,151,148738,2,0,L|388:145,1,49.5000015106202,10|0,0:2|0:0,0:0:0:0:
289,182,148903,2,0,P|292:134|293:183,1,148.50000453186,14|8,0:2|0:1,0:0:0:0:
219,248,149562,69,8,0:3:0:0:
397,304,149727,1,8,0:1:0:0:
231,382,149892,1,10,0:1:0:0:
402,383,150057,5,8,0:3:0:0:
303,308,150222,1,10,0:1:0:0:
389,227,150387,1,8,0:1:0:0:
488,302,150552,2,0,L|490:288,1,12.375000377655,10|8,0:2|0:2,0:0:0:0:
488,303,150881,70,0,P|516:264|502:186,1,121.499996292114,12|0,0:1|0:0,0:0:0:0:
501,187,151211,1,8,0:1:0:0:
307,121,151376,1,8,0:1:0:0:
389,227,151541,5,10,0:2:0:0:
490,57,151705,1,8,0:1:0:0:
307,121,151870,2,0,P|257:112|223:107,1,80.9999975280763,10|8,0:2|0:2,0:0:0:0:
227,108,152117,1,8,0:2:0:0:
227,108,152200,1,8,0:1:0:0:
177,343,152365,1,8,0:2:0:0:
39,165,152530,2,0,P|7:227|19:284,1,121.499996292114,10|8,0:1|0:2,0:0:0:0:
23,284,152859,69,8,0:2:0:0:
181,241,153024,1,8,0:2:0:0:
339,198,153189,1,10,0:2:0:0:
498,155,153354,1,8,0:2:0:0:
424,9,153519,22,0,P|392:34|400:102,1,108,14|2,0:1|0:2,0:0:0:0:
411,342,154508,2,0,P|443:317|435:249,1,108,2|0,0:2|0:0,0:0:0:0:
339,198,155497,1,0,0:0:0:0:
364,281,155826,1,2,0:2:0:0:
332,184,156156,6,0,P|364:143|416:147,1,108,2|2,0:2|0:2,0:0:0:0:
266,355,157145,2,0,P|214:359|181:318,1,108,2|0,0:2|0:0,0:0:0:0:
207,242,157804,2,0,P|242:235|276:226,1,72,2|2,0:2|0:2,0:0:0:0:
422,101,158464,1,2,0:2:0:0:
496,160,158628,1,2,0:2:0:0:
411,90,158793,70,0,P|379:104|384:203,1,144,2|2,0:2|0:2,0:0:0:0:
233,268,159782,2,0,P|229:302|317:347,1,144,2|2,0:2|0:2,0:0:0:0:
468,370,160771,2,0,P|452:338|445:303,1,72,0|2,0:0|0:2,0:0:0:0:
238,152,161431,6,0,P|256:111|353:97,1,144,2|2,0:2|0:2,0:0:0:0:
392,194,162420,2,0,L|320:177,1,72,2|0,0:2|0:0,0:0:0:0:
174,255,163079,2,0,L|209:263,1,36,2|8,0:2|0:1,0:0:0:0:
209,263,163326,1,8,0:1:0:0:
217,269,163409,2,0,L|220:253,1,9,10|8,0:2|0:2,0:0:0:0:
59,61,163573,1,10,0:1:0:0:
59,61,163903,1,10,0:1:0:0:
337,348,164068,6,0,B|360:297|322:255|322:255|184:273,1,207.000003948212,14|8,0:1|0:1,0:0:0:0:
337,348,164562,1,8,0:1:0:0:
471,131,164727,2,0,L|483:233,1,103.500001974106,14|0,0:2|0:0,0:0:0:0:
331,219,165057,1,10,0:1:0:0:
512,21,165222,6,0,P|488:78|337:76,1,207.000003948212,8|8,0:1|0:2,0:0:0:0:
184,17,165716,2,0,P|267:24|297:70,1,103.500001974106,2|8,0:2|0:1,0:0:0:0:
142,234,166046,1,8,0:2:0:0:
230,182,166211,1,8,0:1:0:0:
24,51,166376,70,0,P|3:75|14:136,1,80.9999975280763,2|0,0:2|0:0,0:0:0:0:
24,51,166705,6,0,P|90:49|59:157,1,207.000003948212,14|8,0:1|0:1,0:0:0:0:
240,282,167200,1,10,0:1:0:0:
0,362,167365,2,0,L|29:253,1,103.500001974106,8|0,0:2|0:0,0:0:0:0:
144,382,167694,1,10,0:1:0:0:
347,189,167859,70,0,B|332:250|332:250|339:278|339:278|321:341,1,155.250002961159,8|0,0:1|0:0,0:0:0:0:
402,383,168189,2,0,L|432:273,1,103.500001974106,10|2,0:2|0:2,0:0:0:0:
347,189,168519,1,8,0:1:0:0:
512,379,168683,5,8,0:2:0:0:
339,180,168848,1,8,0:2:0:0:
478,169,169013,1,2,0:3:0:0:
321,339,169178,1,8,0:1:0:0:
145,62,169343,70,0,B|159:146|159:146|152:173|152:173|171:280,1,207.000003948212,12|8,0:1|0:1,0:0:0:0:
245,186,169837,1,8,0:1:0:0:
8,83,170002,2,0,L|25:193,1,103.500001974106,10|0,0:2|0:0,0:0:0:0:
164,263,170332,5,10,0:1:0:0:
41,294,170497,2,0,P|141:290|205:368,1,207.000003948212,8|8,0:1|0:2,0:0:0:0:
164,263,170991,1,2,0:2:0:0:
97,383,171156,1,8,0:1:0:0:
25,184,171321,1,8,0:2:0:0:
94,373,171486,1,8,0:1:0:0:
392,261,171650,70,0,P|342:245|390:265,1,155.250002961159,2|0,0:2|0:0,0:0:0:0:
343,353,171980,6,0,L|398:106,1,207.000003948212,12|8,0:1|0:1,0:0:0:0:
407,62,172475,1,10,0:1:0:0:
498,221,172639,1,8,0:2:0:0:
399,49,172804,1,8,0:1:0:0:
254,197,172969,1,10,0:2:0:0:
180,25,173134,69,8,0:3:0:0:
180,25,173216,1,8,0:3:0:0:
180,25,173299,5,8,0:1:0:0:
387,150,173464,1,8,0:2:0:0:
254,197,173628,1,10,0:1:0:0:
285,89,173793,69,8,0:3:0:0:
285,89,173876,1,8,0:3:0:0:
285,89,173958,5,10,0:2:0:0:
365,259,174123,1,10,0:2:0:0:
177,334,174288,1,8,0:2:0:0:
97,164,174453,1,8,0:2:0:0:
296,346,174617,70,0,B|213:325|213:325|192:299|192:299|87:275,1,207.000003948212,12|8,0:1|0:1,0:0:0:0:
22,348,175112,1,8,0:1:0:0:
197,188,175277,2,0,L|96:163,1,103.500001974106,10|0,0:2|0:0,0:0:0:0:
180,85,175606,1,10,0:1:0:0:
0,223,175771,6,0,P|71:162|25:36,1,207.000003948212,8|8,0:1|0:2,0:0:0:0:
197,188,176266,69,2,0:2:0:0:
53,59,176431,1,8,0:1:0:0:
272,1,176595,1,8,0:2:0:0:
180,85,176760,1,8,0:1:0:0:
448,237,176925,6,0,L|279:208,1,155.250002961159,2|0,0:2|0:0,0:0:0:0:
448,237,177255,70,0,P|468:305|363:305,1,207.000003948212,14|8,0:1|0:1,0:0:0:0:
294,210,177749,1,10,0:1:0:0:
464,60,177914,2,0,L|341:40,1,103.500001974106,8|0,0:2|0:0,0:0:0:0:
448,237,178244,5,10,0:1:0:0:
277,312,178409,2,0,L|297:189,1,103.500001974106,8|2,0:1|0:3,0:0:0:0:
323,384,178738,1,10,0:2:0:0:
197,190,178903,1,2,0:2:0:0:
277,312,179068,1,8,0:1:0:0:
0,384,179233,70,0,B|9:315|9:315|24:299|24:299|34:227,1,155.250002961159,10|0,0:2|0:0,0:0:0:0:
36,220,179562,1,2,0:2:0:0:
136,308,179727,1,8,0:1:0:0:
392,105,179892,6,0,B|409:37|350:10|350:10|237:40,1,207.000003948212,12|8,0:1|0:1,0:0:0:0:
259,34,180387,1,8,0:1:0:0:
36,220,180552,2,0,L|51:102,1,103.500001974106,10|0,0:2|0:0,0:0:0:0:
160,293,180881,69,10,0:1:0:0:
186,87,181046,2,0,L|155:327,1,207.000003948212,8|8,0:1|0:2,0:0:0:0:
267,199,181541,5,2,0:2:0:0:
159,292,181705,1,8,0:1:0:0:
338,363,181870,69,10,0:2:0:0:
159,292,182035,1,8,0:1:0:0:
379,263,182200,5,2,0:2:0:0:
107,384,182365,1,8,0:1:0:0:
5,139,182530,70,0,P|25:59|145:62,1,188.999994232178,14|0,0:2|0:0,0:0:0:0:
186,87,182859,2,0,L|207:176,1,62.9999980773926,8|0,0:1|0:0,0:0:0:0:
507,139,183024,6,0,P|487:59|367:62,1,188.999994232178,10|0,0:2|0:0,0:0:0:0:
326,87,183353,2,0,L|305:176,1,62.9999980773926,8|0,0:1|0:0,0:0:0:0:
256,352,183519,69,14,0:2:0:0:
107,198,183683,1,8,0:2:0:0:
107,198,183766,1,8,0:2:0:0:
107,198,183848,5,8,0:1:0:0:
256,352,184013,1,10,0:2:0:0:
131,307,184178,1,8,0:1:0:0:
354,288,184343,69,8,0:2:0:0:
354,288,184425,1,8,0:2:0:0:
354,288,184508,1,8,0:2:0:0:
200,148,184672,1,8,0:3:0:0:
314,192,184837,1,8,0:3:0:0:
222,238,185002,1,8,0:3:0:0:
448,20,185167,22,0,P|392:62|290:63,1,161.999995056153,14|0,0:1|0:0,0:0:0:0:
295,61,185497,1,8,0:1:0:0:
453,220,185661,1,8,0:1:0:0:
286,341,185826,6,0,P|330:276|320:197,1,161.999995056153,14|0,0:2|0:0,0:0:0:0:
314,190,186156,1,10,0:1:0:0:
229,0,186321,2,0,P|208:49|217:102,1,107.999996704102,8|2,0:1|0:3,0:0:0:0:
1,186,186650,70,0,P|10:107|73:60,1,161.999995056153,8|0,0:2|0:0,0:0:0:0:
85,61,186980,1,8,0:1:0:0:
246,261,187145,1,8,0:2:0:0:
87,154,187310,1,8,0:1:0:0:
217,101,187475,5,2,0:2:0:0:
25,267,187639,1,8,0:1:0:0:
332,308,187804,70,0,P|284:352|185:342,1,161.999995056153,14|0,0:1|0:0,0:0:0:0:
184,339,188134,1,8,0:1:0:0:
306,188,188299,1,10,0:1:0:0:
104,379,188464,6,0,P|102:308|122:276,1,107.999996704102,8|0,0:2|0:0,0:0:0:0:
332,308,188793,1,10,0:1:0:0:
388,62,188958,2,0,P|321:99|305:193,1,161.999995056153,8|0,0:1|0:0,0:0:0:0:
306,188,189288,1,10,0:2:0:0:
512,267,189453,69,2,0:2:0:0:
415,352,189617,1,8,0:1:0:0:
417,341,189700,1,8,0:1:0:0:
419,330,189782,1,8,0:2:0:0:
491,143,189947,6,0,L|430:133,1,53.9999983520508,8|8,0:1|0:1,0:0:0:0:
388,62,190442,70,0,P|408:145|419:224,1,161.999995056153,12|0,0:1|0:0,0:0:0:0:
418,232,190771,1,8,0:1:0:0:
209,153,190936,1,8,0:1:0:0:
237,345,191101,2,0,P|299:297|300:218,1,161.999995056153,10|0,0:2|0:0,0:0:0:0:
295,210,191431,1,10,0:1:0:0:
56,235,191595,6,0,P|122:278|197:255,1,161.999995056153,8|0,0:1|0:0,0:0:0:0:
202,247,191925,1,8,0:2:0:0:
92,114,192090,1,2,0:2:0:0:
286,62,192255,1,8,0:1:0:0:
285,72,192337,1,8,0:1:0:0:
284,82,192420,2,0,P|229:71|171:53,1,107.999996704102,8|8,0:2|0:1,0:0:0:0:
202,247,192749,69,2,0:2:0:0:
209,153,192914,1,8,0:1:0:0:
79,366,193079,6,0,P|132:342|237:335,1,161.999995056153,12|0,0:1|0:0,0:0:0:0:
244,340,193409,1,8,0:1:0:0:
56,235,193573,1,10,0:1:0:0:
295,210,193738,69,8,0:2:0:0:
165,377,193903,1,8,0:1:0:0:
92,114,194068,1,14,0:2:0:0:
202,247,194233,5,8,0:2:0:0:
192,244,194315,1,8,0:2:0:0:
182,240,194398,1,2,0:3:0:0:
378,128,194562,2,0,P|366:74|354:19,1,107.999996704102,8|10,0:2|0:1,0:0:0:0:
388,375,194892,69,8,0:2:0:0:
398,372,194974,1,8,0:2:0:0:
408,369,195057,1,10,0:2:0:0:
204,130,195222,1,10,0:2:0:0:
165,377,195387,1,8,0:2:0:0:
378,128,195552,1,8,0:2:0:0:
87,29,195716,6,0,P|121:104|193:132,1,161.999995056153,12|0,0:1|0:0,0:0:0:0:
204,130,196046,2,0,P|194:72|194:8,1,107.999996704102,8|8,0:1|0:1,0:0:0:0:
438,210,196376,2,0,P|371:166|292:170,1,161.999995056153,14|0,0:2|0:0,0:0:0:0:
283,175,196705,1,10,0:1:0:0:
321,358,196870,2,0,P|352:305|349:255,1,107.999996704102,8|2,0:1|0:3,0:0:0:0:
58,251,197200,70,0,P|117:272|209:211,1,161.999995056153,8|0,0:2|0:0,0:0:0:0:
204,218,197530,1,8,0:1:0:0:
162,379,197694,1,8,0:2:0:0:
120,180,197859,1,8,0:1:0:0:
30,347,198024,5,2,0:2:0:0:
270,293,198189,1,8,0:1:0:0:
73,101,198354,70,0,P|31:168|53:243,1,161.999995056153,14|0,0:1|0:0,0:0:0:0:
58,251,198684,1,8,0:1:0:0:
270,293,198848,1,10,0:1:0:0:
162,379,199013,2,0,P|153:318|144:261,1,107.999996704102,8|0,0:2|0:0,0:0:0:0:
110,28,199343,1,10,0:1:0:0:
355,125,199508,6,0,P|287:163|212:139,1,161.999995056153,8|0,0:1|0:0,0:0:0:0:
205,129,199837,1,10,0:2:0:0:
373,5,200002,1,2,0:2:0:0:
390,224,200167,1,8,0:1:0:0:
280,75,200332,69,14,0:2:0:0:
486,38,200497,2,0,P|464:92|453:143,1,107.999996704102,8|2,0:1|0:2,0:0:0:0:
512,263,200826,1,8,0:1:0:0:
317,375,200991,6,0,P|294:298|281:218,1,161.999995056153,12|0,0:1|0:0,0:0:0:0:
283,209,201321,2,0,P|341:221|393:225,1,107.999996704102,8|8,0:1|0:1,0:0:0:0:
176,294,201650,69,10,0:2:0:0:
137,138,201815,1,8,0:1:0:0:
344,106,201980,5,10,0:2:0:0:
109,228,202145,1,8,0:2:0:0:
317,375,202310,69,8,0:1:0:0:
137,138,202475,2,0,P|153:76|161:30,1,107.999996704102,8|2,0:2|0:2,0:0:0:0:
201,208,202804,5,8,0:1:0:0:
1,328,202969,1,10,0:2:0:0:
109,228,203134,2,0,P|138:297|106:373,1,161.999995056153,8|0,0:1|0:0,0:0:0:0:
96,379,203464,1,8,0:1:0:0:
280,243,203628,69,10,0:2:0:0:
325,227,203710,1,8,0:3:0:0:
371,240,203792,1,8,0:3:0:0:
400,278,203875,1,8,0:3:0:0:
401,326,203958,2,0,L|342:320,1,53.9999983520508,8|8,0:1|0:1,0:0:0:0:
201,208,204123,5,10,0:2:0:0:
183,155,204205,1,8,0:2:0:0:
198,98,204287,1,8,0:2:0:0:
245,62,204370,1,8,0:2:0:0:
304,61,204453,2,0,L|298:133,1,53.9999983520508,8|8,0:1|0:1,0:0:0:0:
220,302,204617,70,0,P|162:290|103:281,1,107.999996704102,14|8,0:2|0:1,0:0:0:0:
45,233,204865,1,8,0:1:0:0:
45,233,204947,2,0,L|32:295,1,53.9999983520508,8|8,0:3|0:3,0:0:0:0:
32,96,205112,1,10,0:1:0:0:
35,86,205194,1,8,0:1:0:0:
38,76,205277,5,8,0:3:0:0:
80,87,205359,1,8,0:3:0:0:
123,98,205442,1,8,0:1:0:0:
165,109,205524,1,8,0:1:0:0:
207,119,205606,69,10,0:3:0:0:
206,109,205689,1,8,0:3:0:0:
205,99,205771,1,8,0:1:0:0:
204,89,205854,1,8,0:1:0:0:
256,32,205936,5,10,0:2:0:0:
392,294,206266,5,14,0:1:0:0:
296,320,206431,2,0,L|392:294,1,99.0000030212403,10|8,0:1|0:1,0:0:0:0:
303,146,206760,5,10,0:1:0:0:
207,119,206925,2,0,L|302:145,1,99.0000030212403,10|8,0:2|0:1,0:0:0:0:
186,295,207255,69,10,0:1:0:0:
90,321,207420,2,0,L|185:294,1,99.0000030212403,10|8,0:1|0:1,0:0:0:0:
97,147,207749,5,10,0:1:0:0:
1,120,207914,2,0,L|96:146,1,99.0000030212403,10|8,0:1|0:1,0:0:0:0:
267,55,208244,69,10,0:2:0:0:
203,187,208409,1,10,0:1:0:0:
433,299,208573,1,8,0:1:0:0:
350,177,208738,1,10,0:1:0:0:
88,317,208903,5,14,0:1:0:0:
164,383,209068,1,10,0:1:0:0:
259,350,209233,1,8,0:1:0:0:
127,121,209398,69,10,0:1:0:0:
107,219,209563,1,10,0:2:0:0:
183,285,209728,1,8,0:1:0:0:
318,57,209892,5,10,0:1:0:0:
223,88,210057,1,10,0:1:0:0:
300,224,210222,70,0,P|254:204|206:193,1,99.0000030212403,8|10,0:1|0:1,0:0:0:0:
436,80,210552,6,0,P|416:125|405:173,1,99.0000030212403,10|8,0:1|0:1,0:0:0:0:
223,88,210881,1,10,0:2:0:0:
112,317,211046,70,0,P|101:269|81:223,1,99.0000030212403,10|8,0:1|0:1,0:0:0:0:
300,224,211375,1,10,0:2:0:0:
132,67,211541,6,0,P|188:93|250:69,1,99.0000030212403,14|10,0:1|0:1,0:0:0:0:
352,0,211870,1,8,0:1:0:0:
132,67,212035,70,0,P|137:129|189:170,1,99.0000030212403,10|10,0:1|0:2,0:0:0:0:
300,224,212364,1,8,0:1:0:0:
132,67,212530,5,10,0:1:0:0:
64,217,212694,1,10,0:1:0:0:
136,54,212859,1,8,0:1:0:0:
155,239,213024,69,10,0:1:0:0:
91,306,213189,1,10,0:1:0:0:
0,284,213354,1,8,0:1:0:0:
129,151,213519,5,10,0:2:0:0:
245,262,213683,1,10,0:1:0:0:
279,66,213848,1,8,0:1:0:0:
155,239,214013,1,10,0:1:0:0:
367,379,214178,69,14,0:1:0:0:
342,283,214343,2,0,P|358:329|366:378,1,99.0000030212403,10|8,0:1|0:1,0:0:0:0:
452,289,214672,5,10,0:1:0:0:
477,193,214837,2,0,P|460:239|452:288,1,99.0000030212403,10|8,0:2|0:1,0:0:0:0:
245,262,215167,69,10,0:1:0:0:
220,166,215332,2,0,P|236:212|244:261,1,99.0000030212403,10|8,0:1|0:1,0:0:0:0:
358,177,215661,5,10,0:1:0:0:
383,81,215826,2,0,P|366:127|358:176,1,99.0000030212403,10|8,0:1|0:1,0:0:0:0:
187,48,216156,70,0,P|235:38|281:21,1,99.0000030212403,10|10,0:2|0:1,0:0:0:0:
120,184,216486,1,8,0:2:0:0:
59,30,216650,1,10,0:2:0:0:
269,166,216815,6,0,P|252:212|244:261,1,99.0000030212403,10|10,0:1|0:1,0:0:0:0:
157,325,217145,1,8,0:1:0:0:
269,166,217310,70,0,P|301:203|339:234,1,99.0000030212403,10|14,0:1|0:2,0:0:0:0:
350,342,217640,1,8,0:1:0:0:
269,166,217804,6,0,P|317:156|363:139,1,99.0000030212403,10|10,0:1|0:1,0:0:0:0:
462,183,218134,1,8,0:1:0:0:
269,166,218299,70,0,P|285:119|293:70,1,99.0000030212403,10|10,0:1|0:1,0:0:0:0:
380,7,218629,1,8,0:1:0:0:
179,105,218793,5,10,0:2:0:0:
341,239,218958,1,10,0:1:0:0:
147,331,219123,1,8,0:1:0:0:
269,166,219288,1,10,0:1:0:0:
340,342,219453,69,14,0:1:0:0:
252,290,219617,1,10,0:1:0:0:
164,238,219782,1,8,0:1:0:0:
430,189,219947,5,10,0:1:0:0:
341,239,220111,1,10,0:2:0:0:
252,290,220276,1,8,0:1:0:0:
343,35,220442,69,10,0:1:0:0:
341,137,220606,1,10,0:1:0:0:
164,238,220771,5,8,0:1:0:0:
165,135,220935,1,10,0:1:0:0:
254,85,221101,1,10,0:1:0:0:
252,187,221265,1,8,0:1:0:0:
76,289,221431,69,10,0:2:0:0:
78,83,221595,1,10,0:1:0:0:
252,187,221760,1,8,0:1:0:0:
164,238,221925,1,10,0:1:0:0:
254,85,222090,5,14,0:1:0:0:
83,185,222255,2,0,P|26:180|-3:130,1,99.0000030212403,10|8,0:1|0:1,0:0:0:0:
163,40,222584,69,10,0:1:0:0:
164,238,222749,2,0,P|131:284|73:284,1,99.0000030212403,10|8,0:2|0:1,0:0:0:0:
78,96,223079,5,10,0:1:0:0:
250,194,223244,2,0,P|274:245|245:295,1,99.0000030212403,10|8,0:1|0:1,0:0:0:0:
83,185,223573,69,10,0:1:0:0:
253,85,223738,2,0,P|310:90|338:140,1,99.0000030212403,10|8,0:1|0:1,0:0:0:0:
350,321,224068,5,10,0:2:0:0:
261,282,224233,1,10,0:1:0:0:
340,225,224398,1,8,0:1:0:0:
429,264,224563,1,10,0:1:0:0:
272,372,224727,69,14,0:2:0:0:
422,170,224892,1,10,0:1:0:0:
198,117,225057,1,10,0:1:0:0:
350,321,225222,5,10,0:2:0:0:
337,75,225387,1,10,0:1:0:0:
168,235,225552,1,10,0:1:0:0:
429,264,225716,69,10,0:2:0:0:
198,117,225881,1,8,0:2:0:0:
198,117,225964,1,8,0:2:0:0:
198,117,226046,5,14,0:1:0:0:
412,5,226211,1,10,0:2:0:0:
311,214,226376,1,10,0:1:0:0:
128,17,226541,1,10,0:2:0:0:
128,17,226623,1,8,0:2:0:0:
128,17,226705,69,10,0:2:0:0:
93,251,226870,1,8,0:2:0:0:
321,84,227035,1,10,0:2:0:0:
286,318,227200,1,8,0:2:0:0:
17,167,227365,22,0,B|101:149|101:149|140:163|140:163|251:138,1,215.999993408203,14|10,0:1|0:1,0:0:0:0:
479,247,227859,2,0,P|408:226|380:173,1,107.999996704102,10|8,0:1|0:2,0:0:0:0:
195,363,228189,2,0,P|266:342|294:289,1,107.999996704102,2|8,0:2|0:1,0:0:0:0:
35,149,228519,2,0,L|24:232,1,53.9999983520508,10|0,0:1|0:0,0:0:0:0:
2,273,228683,6,0,L|21:137,1,107.999996704102,2|8,0:2|0:2,0:0:0:0:
143,46,229013,1,10,0:1:0:0:
35,149,229178,1,10,0:1:0:0:
5,65,229343,69,10,0:2:0:0:
171,134,229508,1,0,0:0:0:0:
2,273,229672,5,10,0:1:0:0:
143,46,229837,1,8,0:2:0:0:
312,239,230002,70,0,L|205:224,1,107.999996704102,14|0,0:1|0:0,0:0:0:0:
349,149,230332,1,10,0:1:0:0:
182,324,230497,6,0,L|289:339,1,107.999996704102,10|8,0:1|0:2,0:0:0:0:
512,269,230826,2,0,L|405:254,1,107.999996704102,2|8,0:2|0:1,0:0:0:0:
479,10,231156,70,0,B|468:84|468:84|475:108|475:108|466:169,1,161.999995056153,10|0,0:1|0:0,0:0:0:0:
512,269,231486,2,0,L|405:254,1,107.999996704102,8|2,0:2|0:3,0:0:0:0:
312,239,231815,1,8,0:1:0:0:
467,170,231980,5,10,0:2:0:0:
288,338,232145,1,8,0:2:0:0:
259,139,232310,69,10,0:2:0:0:
387,383,232475,1,8,0:2:0:0:
61,179,232639,6,0,P|85:167|112:167,1,53.9999983520508,14|0,0:1|0:0,0:0:0:0:
191,213,232804,2,0,P|202:237|202:264,1,53.9999983520508,2|0,0:2|0:0,0:0:0:0:
154,342,232969,2,0,P|129:353|102:353,1,53.9999983520508,10|0,0:1|0:0,0:0:0:0:
25,313,233134,2,0,P|13:288|13:261,1,53.9999983520508,10|0,0:1|0:0,0:0:0:0:
61,179,233299,1,8,0:2:0:0:
111,260,233464,1,0,0:0:0:0:
400,53,233628,70,0,P|375:41|348:41,1,53.9999983520508,10|0,0:1|0:0,0:0:0:0:
270,87,233793,2,0,P|258:111|258:138,1,53.9999983520508,10|0,0:1|0:0,0:0:0:0:
307,216,233958,2,0,P|331:227|358:227,1,53.9999983520508,2|0,0:2|0:0,0:0:0:0:
436,187,234123,2,0,P|447:162|447:135,1,53.9999983520508,10|0,0:2|0:0,0:0:0:0:
400,53,234288,1,2,0:3:0:0:
350,134,234453,1,8,0:1:0:0:
489,347,234617,6,0,L|413:332,1,53.9999983520508,10|0,0:2|0:0,0:0:0:0:
506,338,234782,2,0,L|378:312,1,107.999996704102,10|2,0:1|0:3,0:0:0:0:
296,384,235112,1,10,0:1:0:0:
77,76,235277,70,0,B|95:146|95:146|89:180|89:180|117:283,1,188.999994232178,14|0,0:2|0:0,0:0:0:0:
35,314,235606,2,0,L|15:238,1,62.9999980773926,10|0,0:1|0:0,0:0:0:0:
189,111,235771,2,0,P|106:102|64:52,1,125.999996154785,10|2,0:2|0:3,0:0:0:0:
207,215,236101,1,10,0:1:0:0:
493,18,236266,6,0,B|417:-12|377:51|377:51|401:170,1,251.999992309571,12|8,0:2|0:1,0:0:0:0:
512,298,236760,1,8,0:2:0:0:
400,167,236925,1,8,0:1:0:0:
356,338,237090,69,8,0:3:0:0:
356,338,237172,1,8,0:3:0:0:
356,338,237255,5,10,0:2:0:0:
486,202,237420,1,8,0:3:0:0:
319,233,237584,1,10,0:3:0:0:
512,298,237749,1,8,0:3:0:0:
264,27,237914,70,0,B|281:117|281:117|300:139|300:139|319:235,1,215.999993408203,14|10,0:1|0:1,0:0:0:0:
51,352,238409,2,0,P|49:291|91:243,1,107.999996704102,10|8,0:1|0:2,0:0:0:0:
236,285,238738,2,0,P|239:338|211:383,1,107.999996704102,2|8,0:2|0:3,0:0:0:0:
75,253,239068,1,10,0:3:0:0:
261,148,239233,5,10,0:1:0:0:
166,204,239398,1,8,0:3:0:0:
75,253,239562,1,10,0:1:0:0:
236,285,239727,1,10,0:1:0:0:
39,131,239892,70,0,L|62:16,1,107.999996704102,10|8,0:2|0:3,0:0:0:0:
72,14,240139,1,8,0:3:0:0:
83,2,240222,2,0,L|61:107,1,107.999996704102,10|8,0:3|0:3,0:0:0:0:
499,22,240552,6,0,B|429:-3|382:50|382:50|380:42|380:42|325:100|236:43,1,251.999992309571,14|10,0:1|0:1,0:0:0:0:
482,224,241046,2,0,L|460:119,1,107.999996704102,10|8,0:1|0:2,0:0:0:0:
358,247,241376,1,2,0:2:0:0:
459,118,241541,1,8,0:3:0:0:
352,255,241705,1,10,0:3:0:0:
437,305,241870,69,8,0:1:0:0:
372,146,242035,1,8,0:3:0:0:
210,210,242200,1,8,0:1:0:0:
275,369,242365,1,8,0:1:0:0:
372,146,242530,5,10,0:2:0:0:
173,320,242694,1,8,0:3:0:0:
173,320,242777,1,8,0:3:0:0:
173,320,242859,69,10,0:3:0:0:
352,255,243024,1,8,0:3:0:0:
14,148,243189,5,14,0:2:0:0:
210,210,243354,1,8,0:1:0:0:
0,144,243519,1,8,0:1:0:0:
354,13,243683,69,14,0:2:0:0:
158,75,243848,1,8,0:1:0:0:
368,9,244013,1,8,0:1:0:0:
498,270,244178,5,14,0:2:0:0:
279,97,244343,1,8,0:1:0:0:
352,255,244508,1,8,0:1:0:0:
440,75,244672,69,14,0:2:0:0:
210,210,244837,1,8,0:1:0:0:
418,345,245002,1,8,0:1:0:0:
279,97,245167,5,14,0:2:0:0:
352,255,245332,1,8,0:1:0:0:
98,18,245497,69,14,0:2:0:0:
30,349,245661,1,8,0:1:0:0:
30,349,245744,1,8,0:1:0:0:
30,349,245826,1,14,0:2:0:0:
30,349,246156,5,10,0:1:0:0:
32,339,246238,1,8,0:2:0:0:
35,329,246321,1,10,0:2:0:0:
38,319,246403,1,8,0:2:0:0:
41,309,246486,69,10,0:1:0:0:
81,346,246568,1,8,0:2:0:0:
135,353,246650,1,10,0:2:0:0:
184,329,246733,1,8,0:2:0:0:
211,281,246815,1,10,0:1:0:0:
206,227,246898,1,8,0:2:0:0:
171,184,246980,1,10,0:2:0:0:
118,169,247062,1,8,0:2:0:0:
66,187,247145,5,10,0:1:0:0:
118,244,247227,1,8,0:2:0:0:
195,262,247309,1,10,0:2:0:0:
266,229,247392,1,8,0:2:0:0:
306,162,247474,1,10,0:1:0:0:
297,83,247557,1,8,0:2:0:0:
245,26,247639,1,10,0:2:0:0:
169,9,247721,1,8,0:2:0:0:
97,42,247804,69,10,0:2:0:0:
119,365,247969,1,10,0:2:0:0:
442,342,248134,1,10,0:2:0:0:
420,19,248299,1,10,0:2:0:0:
256,192,251101,21,2,0:2:0:0:
256,192,251760,1,2,0:2:0:0:
127,105,252090,2,0,P|154:163|155:256,1,148.50000453186,2|0,0:2|0:0,0:0:0:0:
101,325,252749,2,0,P|131:328|213:335,1,99.0000030212403,2|0,0:2|0:0,0:0:0:0:
372,190,253409,6,0,P|368:235|363:278,1,74.2500022659302,2|0,0:2|0:0,0:0:0:0:
364,263,253738,70,0,P|394:290|453:293,1,99.0000030212403,2|0,0:2|0:0,0:0:0:0:
506,229,254233,2,0,P|495:190|492:170,1,49.5000015106202,2|0,0:2|0:0,0:0:0:0:
307,139,254727,2,0,P|342:61|341:-4,1,148.50000453186,2|2,0:2|0:2,0:0:0:0:
254,47,255387,2,0,P|210:43|147:37,1,99.0000030212403,2|2,0:2|0:2,0:0:0:0:
46,331,256376,6,0,P|25:304|118:295,1,198.000006042481,2|2,0:2|0:2,0:0:0:0:
218,379,257365,2,0,P|223:330|253:232,1,148.50000453186,2|0,0:2|0:0,0:0:0:0:
179,189,258024,2,0,P|172:149|156:79,1,99.0000030212403,2|0,0:2|0:0,0:0:0:0:
354,40,258683,2,0,P|325:36|294:27,1,49.5000015106202,2|0,0:2|0:0,0:0:0:0:
358,48,259013,70,0,P|400:57|470:70,1,99.0000030212403,2|0,0:2|0:0,0:0:0:0:
506,133,259508,2,0,P|500:157|496:182,1,49.5000015106202,2|0,0:2|0:0,0:0:0:0:
357,271,260002,6,0,P|359:331|481:359,1,198.000006042481,2|2,0:2|0:2,0:0:0:0:
357,271,260991,2,0,P|364:244|369:215,1,49.5000015106202,2|2,0:2|0:2,0:0:0:0:
312,157,261321,2,0,P|262:175|226:173,1,74.2500022659302,2|0,0:2|0:0,0:0:0:0:
228,163,261650,6,0,P|223:230|208:296,1,135.000005149842,12|0,0:1|0:0,0:0:0:0:
142,222,262145,1,8,0:1:0:0:
276,370,262310,1,8,0:2:0:0:
276,370,262639,1,2,0:2:0:0:
349,321,262804,2,0,P|401:315|437:352,1,101.250003862381,8|0,0:1|0:0,0:0:0:0:
446,363,263134,2,0,P|490:336|467:257,1,135.000005149842,8|8,0:1|0:1,0:0:0:0:
315,109,263628,1,8,0:2:0:0:
315,109,263958,1,2,0:2:0:0:
399,63,264123,1,8,0:2:0:0:
409,68,264205,1,8,0:2:0:0:
417,73,264288,6,0,P|400:138|387:204,1,135.000005149842,10|0,0:1|0:0,0:0:0:0:
476,263,264782,1,10,0:1:0:0:
308,361,264947,1,8,0:2:0:0:
308,361,265277,1,2,0:2:0:0:
233,311,265442,2,0,P|203:273|216:215,1,101.250003862381,8|0,0:1|0:0,0:0:0:0:
205,204,265771,2,0,P|252:218|320:155,1,135.000005149842,10|8,0:1|0:1,0:0:0:0:
141,34,266266,1,10,0:2:0:0:
141,34,266595,1,2,0:2:0:0:
99,116,266760,1,8,0:2:0:0:
91,123,266843,1,8,0:2:0:0:
83,130,266925,70,0,P|38:108|38:23,1,135.000005149842,8|0,0:1|0:0,0:0:0:0:
141,34,267420,1,8,0:1:0:0:
83,223,267584,1,10,0:2:0:0:
82,222,267914,2,0,P|115:230|146:244,1,67.5000025749208,2|8,0:2|0:1,0:0:0:0:
311,149,268409,1,8,0:1:0:0:
311,149,268573,2,0,P|269:158|207:120,1,101.250003862381,2|0,0:2|0:0,0:0:0:0:
196,137,268903,2,0,P|211:71|216:3,1,135.000005149842,10|2,0:2|0:2,0:0:0:0:
319,35,269398,1,8,0:2:0:0:
323,42,269480,1,8,0:2:0:0:
327,49,269562,6,0,P|315:98|311:148,1,101.250003862381,14|0,0:2|0:0,0:0:0:0:
319,159,269892,70,0,P|327:98|342:39,1,121.499996292114,10|0,0:2|0:0,0:0:0:0:
353,36,270222,6,0,P|336:107|330:181,1,141.749995674133,10|0,0:2|0:0,0:0:0:0:
342,185,270552,70,0,P|350:104|369:26,1,161.999995056153,10|0,0:2|0:0,0:0:0:0:
414,0,270881,5,10,0:2:0:0:
453,5,270963,1,8,0:2:0:0:
481,33,271045,1,10,0:2:0:0:
484,73,271128,1,8,0:2:0:0:
463,106,271210,1,10,0:2:0:0:
442,139,271293,1,8,0:2:0:0:
445,179,271376,1,10,0:2:0:0:
473,207,271458,1,8,0:2:0:0:
512,212,271540,69,10,0:1:0:0:
239,95,271705,2,0,B|218:102|194:99|194:99|216:106|229:135,1,90,10|0,0:2|0:0,0:0:0:0:
327,77,272200,22,0,B|236:97|236:97|211:128|211:128|112:150,1,233.999989288331,12|12,0:1|0:2,0:0:0:0:
31,87,272694,1,0,0:0:0:0:
81,326,272859,2,0,L|58:220,1,107.999996704102,10|8,0:1|0:1,0:0:0:0:
0,384,273189,5,2,0:2:0:0:
225,227,273354,2,0,P|307:225|383:345,1,215.999993408203,8|8,0:2|0:1,0:0:0:0:
265,343,273848,1,10,0:2:0:0:
364,210,274013,1,0,0:0:0:0:
453,384,274178,69,8,0:1:0:0:
225,227,274343,1,8,0:1:0:0:
445,141,274508,1,10,0:2:0:0:
285,22,274672,1,8,0:2:0:0:
285,22,274755,1,8,0:2:0:0:
285,22,274837,6,0,B|373:8|373:8|398:17|398:17|542:-2,1,215.999993408203,14|8,0:1|0:2,0:0:0:0:
302,120,275332,2,0,P|223:112|177:44,1,161.999995056153,2|0,0:2|0:0,0:0:0:0:
176,38,275661,1,8,0:1:0:0:
285,22,275826,69,2,0:2:0:0:
2,232,275991,2,0,L|108:250,1,107.999996704102,8|2,0:2|0:3,0:0:0:0:
0,99,276321,1,10,0:1:0:0:
106,117,276486,2,0,L|0:98,1,107.999996704102,10|0,0:2|0:0,0:0:0:0:
217,298,276815,5,8,0:1:0:0:
108,250,276980,1,8,0:1:0:0:
233,168,277145,1,8,0:2:0:0:
84,384,277310,1,0,0:0:0:0:
512,363,277475,70,0,B|466:332|417:352|417:352|363:405|285:360,1,215.999993408203,12|8,0:1|0:2,0:0:0:0:
217,298,277969,1,0,0:0:0:0:
339,187,278134,2,0,L|352:314,1,107.999996704102,10|8,0:1|0:1,0:0:0:0:
238,158,278464,5,2,0:2:0:0:
439,33,278628,2,0,B|448:120|448:120|433:151|433:151|446:273,1,215.999993408203,8|8,0:2|0:1,0:0:0:0:
324,80,279123,1,10,0:2:0:0:
238,158,279288,1,8,0:3:0:0:
238,158,279370,1,8,0:3:0:0:
238,158,279453,69,8,0:1:0:0:
339,187,279617,1,8,0:1:0:0:
208,28,279782,1,10,0:2:0:0:
345,195,279947,1,8,0:3:0:0:
3,350,280112,6,0,B|70:397|145:342|145:342|95:286,1,215.999993408203,14|8,0:1|0:2,0:0:0:0:
43,228,280606,1,2,0:2:0:0:
208,28,280771,69,8,0:1:0:0:
238,158,280936,1,8,0:1:0:0:
15,53,281101,5,2,0:2:0:0:
238,158,281266,2,0,B|155:179|155:179|136:209|136:209|13:235,1,215.999993408203,8|8,0:2|0:1,0:0:0:0:
332,227,281760,2,0,L|227:253,1,107.999996704102,14|0,0:2|0:0,0:0:0:0:
356,347,282090,1,10,0:1:0:0:
465,153,282255,69,10,0:2:0:0:
475,149,282337,1,8,0:2:0:0:
485,146,282420,1,8,0:2:0:0:
512,101,282502,1,8,0:2:0:0:
500,50,282584,1,8,0:2:0:0:
455,22,282667,1,8,0:2:0:0:
404,35,282749,6,0,P|354:83|184:45,1,215.999993408203,12|12,0:1|0:2,0:0:0:0:
146,19,283244,1,0,0:0:0:0:
4,207,283409,2,0,L|28:85,1,107.999996704102,10|8,0:1|0:1,0:0:0:0:
174,287,283738,69,2,0:2:0:0:
215,75,283903,2,0,L|173:286,1,215.999993408203,8|8,0:2|0:1,0:0:0:0:
291,168,284398,5,10,0:2:0:0:
99,203,284562,1,0,0:0:0:0:
245,371,284727,1,8,0:1:0:0:
93,199,284891,1,8,0:1:0:0:
446,89,285057,70,0,L|367:107,1,80.9999975280763,10|0,0:2|0:0,0:0:0:0:
302,73,285387,6,0,L|512:120,1,215.999993408203,14|8,0:1|0:2,0:0:0:0:
291,168,285881,1,2,0:2:0:0:
482,212,286046,2,0,L|376:188,1,107.999996704102,8|8,0:1|0:1,0:0:0:0:
302,73,286376,69,2,0:2:0:0:
150,289,286541,2,0,P|100:312|49:300,1,107.999996704102,8|2,0:2|0:3,0:0:0:0:
193,184,286870,1,10,0:1:0:0:
245,371,287035,2,0,L|268:265,1,107.999996704102,10|0,0:2|0:0,0:0:0:0:
34,95,287365,5,10,0:1:0:0:
193,184,287530,1,8,0:1:0:0:
99,203,287694,1,10,0:2:0:0:
302,73,287859,1,8,0:2:0:0:
302,73,287942,1,8,0:2:0:0:
302,73,288024,70,0,B|358:23|413:68|413:68|431:202,1,215.999993408203,12|8,0:1|0:2,0:0:0:0:
355,233,288519,1,0,0:0:0:0:
499,18,288683,6,0,L|512:125,1,107.999996704102,10|8,0:1|0:1,0:0:0:0:
355,233,289013,1,2,0:2:0:0:
457,274,289178,2,0,P|375:262|286:372,1,215.999993408203,8|8,0:2|0:1,0:0:0:0:
34,280,289672,2,0,P|97:279|141:333,1,107.999996704102,10|0,0:2|0:0,0:0:0:0:
236,178,290002,69,10,0:1:0:0:
129,306,290167,1,8,0:1:0:0:
242,171,290332,1,10,0:2:0:0:
26,49,290497,1,8,0:1:0:0:
26,49,290579,1,8,0:1:0:0:
26,49,290661,6,0,P|19:119|107:132,1,161.999995056153,14|0,0:2|0:0,0:0:0:0:
154,80,290991,2,0,L|227:74,1,53.9999983520508,8|0,0:1|0:0,0:0:0:0:
490,210,291156,70,0,P|497:280|409:293,1,161.999995056153,10|0,0:2|0:0,0:0:0:0:
362,241,291486,2,0,L|289:235,1,53.9999983520508,8|0,0:1|0:0,0:0:0:0:
190,384,291650,5,10,0:2:0:0:
61,175,291815,1,8,0:1:0:0:
308,236,291980,69,8,0:2:0:0:
48,365,292145,1,8,0:3:0:0:
52,355,292227,1,8,0:3:0:0:
57,345,292310,2,0,L|121:315,1,53.9999983520508,8|8,0:1|0:1,0:0:0:0:
308,236,292475,1,8,0:2:0:0:
154,80,292639,5,8,0:3:0:0:
158,70,292721,1,8,0:3:0:0:
163,60,292804,1,8,0:1:0:0:
167,50,292886,1,8,0:1:0:0:
171,40,292970,69,8,0:2:0:0:
223,4,293052,1,8,0:2:0:0:
284,14,293134,1,8,0:2:0:0:
321,66,293217,1,8,0:2:0:0:
313,129,293299,6,0,B|224:146|224:146|203:170|203:170|93:194,1,188.999994232178,14|0,0:1|0:0,0:0:0:0:
97,364,293628,2,0,B|124:284|124:284|114:257|114:257|145:157,1,188.999994232178,14|0,0:1|0:0,0:0:0:0:
2,60,293958,2,0,B|56:123|56:123|85:128|85:128|156:205,1,188.999994232178,14|0,0:1|0:0,0:0:0:0:
137,184,294288,2,0,B|125:204|125:204|109:195|105:167|130:155|149:163|149:163|169:177|163:200|147:216|125:204|125:204|142:172,1,188.999994232178,14|0,0:1|0:0,0:0:0:0:
235,275,294617,70,0,P|313:301|397:242,1,188.999994232178,14|0,0:1|0:0,0:0:0:0:
449,90,294947,2,0,P|383:153|394:244,1,188.999994232178,14|0,0:1|0:0,0:0:0:0:
501,368,295277,2,0,P|478:279|394:243,1,188.999994232178,14|0,0:1|0:0,0:0:0:0:
394,242,295606,2,0,B|381:260|381:260|404:272|423:253|421:233|405:220|405:220|389:213|364:220|366:247|381:260|381:260|417:208,1,188.999994232178,14|0,0:1|0:0,0:0:0:0:
193,95,295936,6,0,P|100:79|31:162,1,188.999994232178,14|0,0:1|0:0,0:0:0:0:
31,151,296266,2,0,P|120:168|187:106,1,188.999994232178,14|0,0:1|0:0,0:0:0:0:
326,28,296595,2,0,P|419:12|488:95,1,188.999994232178,14|0,0:1|0:0,0:0:0:0:
488,84,296925,2,0,P|398:101|331:39,1,188.999994232178,14|0,0:1|0:0,0:0:0:0:
326,28,297255,1,14,0:1:0:0:
7,368,297584,69,14,0:1:0:0:
123,285,297749,1,8,0:1:0:0:
0,216,297914,1,14,0:2:0:0:
109,384,298079,1,8,0:1:0:0:
256,192,298244,6,0,B|244:212|244:212|228:203|224:175|249:163|268:171|268:171|288:185|282:208|266:224|244:212|244:212|261:180,1,188.999994232178,14|0,0:2|0:0,0:0:0:0:
339,178,298573,70,0,B|380:141|430:161|430:161|391:196|345:178,1,188.999994232178,14|0,0:1|0:0,0:0:0:0:
271,274,298903,2,8,B|306:315|286:366|286:366|252:326|270:280,1,188.999994232178,14|0,0:1|0:0,0:0:0:0:
174,201,299233,2,8,B|132:236|81:216|81:216|121:182|167:200,1,188.999994232178,14|0,0:1|0:0,0:0:0:0:
243,107,299562,2,8,B|207:65|226:15|226:15|261:54|243:100,1,188.999994232178,14|0,0:1|0:0,0:0:0:0:
358,260,299892,6,0,B|426:272|426:272|461:327|461:327|398:320|398:320|356:255,1,270,14|0,0:1|0:0,0:0:0:0:
189,284,300222,2,0,B|176:352|176:352|121:387|121:387|128:324|128:324|193:282,1,270,14|0,0:1|0:0,0:0:0:0:
156,120,300552,2,0,B|87:107|87:107|52:52|52:52|115:59|115:59|157:124,1,270,14|0,0:1|0:0,0:0:0:0:
325,96,300882,2,0,B|337:27|337:27|392:-7|392:-7|385:55|385:55|320:97,1,270,14|0,0:2|0:0,0:0:0:0:
302,324,301211,69,10,0:2:0:0:
352,345,301293,1,8,0:3:0:0:
405,328,301375,1,8,0:3:0:0:
434,282,301458,1,8,0:3:0:0:
428,227,301540,1,10,0:3:0:0:
388,190,301623,1,8,0:3:0:0:
332,186,301705,2,0,L|240:221,1,53.9999983520508,8|8,0:2|0:3,0:0:0:0:
170,337,301870,5,10,0:3:0:0:
113,363,301952,1,8,0:3:0:0:
55,345,302034,1,8,0:3:0:0:
25,290,302117,1,8,0:3:0:0:
40,231,302200,2,0,L|98:208,1,53.9999983520508,10|8,0:2|0:3,0:0:0:0:
272,26,302365,69,8,0:3:0:0:
215,0,302447,1,8,0:3:0:0:
157,18,302529,1,10,0:3:0:0:
127,73,302612,1,8,0:3:0:0:
142,132,302695,2,0,L|200:154,1,53.9999983520508,8|0,0:2|0:0,0:0:0:0:
332,186,302859,5,10,0:3:0:0:
388,190,302942,1,8,0:3:0:0:
428,227,303025,1,8,0:3:0:0:
434,282,303107,1,8,0:3:0:0:
405,328,303190,1,10,0:2:0:0:
352,345,303272,1,8,0:3:0:0:
302,324,303354,1,10,0:3:0:0:
294,316,303436,1,8,0:3:0:0:
287,307,303519,69,10,0:2:0:0:
241,243,303601,1,8,0:2:0:0:
161,235,303683,1,10,0:2:0:0:
103,286,303766,1,8,0:2:0:0:
103,366,303848,1,2,0:2:0:0:
