osu file format v14

[General]
AudioFilename: audio.mp3
AudioLeadIn: 0
PreviewTime: 51345
Countdown: 0
SampleSet: Soft
StackLeniency: 0.8
Mode: 0
LetterboxInBreaks: 0
WidescreenStoryboard: 1

[Editor]
Bookmarks: 18420,39560,50109,51428,72527,83076,88351
DistanceSpacing: 1
BeatDivisor: 2
GridSize: 4
TimelineZoom: 1.5

[Metadata]
Title:Safe and Sound (TV Size)
TitleUnicode:Safe and Sound (TV Size)
Artist:Roselia
ArtistUnicode:Roselia
Creator:newton-
Version:Easy
Source:BanG Dream! 2nd Season
Tags:shizuku- バンドリ! ガールズバンドパーティ! Bandori! Girls Band Party! ガルパ Garupa original short ver. opening song single brave jewel Bandori project Girl Party Garupa! Rozeria ロゼリア Minato Yukina 湊友希那 Hikawa Sayo 氷川紗夜 Imai Lisa 今井リサ Udagawa Ako 宇田川あこ Shirokane Rinko 白金燐子 Aiba Aina Aiai 相羽あいな Kudō Haruka Kudo Kudou Kudoharu Kdhr 工藤晴香 Endō Yurika Endo Endou Yurishii 遠藤ゆりか Sakuragawa Megu Meguchii 桜川めぐ Akesaka Satomi Akeko 明坂聡美 Nakashima Yuki Shimayuki 中島由貴 Shizaki Kanon Nonchan 志崎樺音 Anime Video Game Japanese
BeatmapID:2131227
BeatmapSetID:1011165

[Difficulty]
HPDrainRate:2
CircleSize:2.5
OverallDifficulty:2
ApproachRate:3
SliderMultiplier:0.5
SliderTickRate:1

[Events]
//Background and Video events
0,0,"rinrin.png",0,0
Video,1900,"Safe+and+Sound.mp4"
//Break Periods
//Storyboard Layer 0 (Background)
//Storyboard Layer 1 (Fail)
//Storyboard Layer 2 (Pass)
//Storyboard Layer 3 (Foreground)
//Storyboard Layer 4 (Overlay)
//Storyboard Sound Samples

[TimingPoints]
2637,659.340659340659,4,2,2,40,1,0
2637,-50,4,2,2,40,0,0
4615,-50,4,2,2,40,0,0
5274,-50,4,2,2,40,0,0
5768,-50,4,2,2,40,0,0
7911,-50,4,2,2,40,0,0
9889,-50,4,2,2,40,0,0
10549,-50,4,2,2,40,0,0
11043,-50,4,2,2,40,0,0
13186,-50,4,2,2,40,0,0
15164,-50,4,2,2,40,0,0
15823,-50,4,2,2,50,0,0
18461,-50,4,2,2,60,0,0
19120,-50,4,2,2,60,0,0
19450,-50,4,2,2,60,0,0
20439,-50,4,2,2,60,0,0
20768,-50,4,2,2,60,0,0
21757,-50,4,2,2,60,0,0
22087,-50,4,2,2,60,0,0
24395,-50,4,2,2,60,0,0
24724,-50,4,2,2,60,0,0
25713,-50,4,2,2,60,0,0
26043,-50,4,2,2,60,0,0
27032,-50,4,2,2,60,0,0
27362,-50,4,2,2,60,0,0
28351,-50,4,2,2,60,0,0
28680,-50,4,2,2,60,0,0
29669,-50,4,2,2,60,0,0
29999,-50,4,2,2,60,0,0
30988,-50,4,2,2,60,0,0
31318,-50,4,2,2,60,0,0
32307,-50,4,2,2,60,0,0
32636,-50,4,2,2,60,0,0
34944,-50,4,2,2,60,0,0
35274,-50,4,2,2,60,0,0
36263,-50,4,2,2,60,0,0
36593,-50,4,2,2,60,0,0
37582,-50,4,2,2,60,0,0
39560,-50,4,2,1,80,0,0
40054,-50,4,2,1,80,0,0
40549,-50,4,2,1,80,0,0
41043,-50,4,2,1,80,0,0
41538,-50,4,2,1,80,0,0
41702,-50,4,2,1,80,0,0
42197,-50,4,2,1,80,0,0
42691,-50,4,2,1,80,0,0
43186,-50,4,2,1,80,0,0
43680,-50,4,2,1,80,0,0
44834,-50,4,2,1,80,0,0
45328,-50,4,2,1,80,0,0
45823,-50,4,2,1,80,0,0
46317,-50,4,2,1,80,0,0
47472,-50,4,2,1,80,0,0
50109,-50,4,2,1,80,0,0
51345,-50,4,2,1,80,0,0
51428,659.340659340659,4,2,1,80,1,1
51428,-50,4,2,1,80,0,1
51592,-50,4,2,1,80,0,0
52087,-50,4,2,1,80,0,0
52582,-50,4,2,1,80,0,0
53076,-50,4,2,1,80,0,0
53406,-50,4,2,1,80,0,0
54065,-50,4,2,1,80,0,0
54724,-50,4,2,1,80,0,0
55213,-50,4,2,1,80,0,0
56043,-50,4,2,1,80,0,0
56702,-50,4,2,1,80,0,0
57362,-50,4,2,1,80,0,0
57856,-50,4,2,1,80,0,0
58351,-50,4,2,1,80,0,0
58680,-50,4,2,1,80,0,0
59340,-50,4,2,1,80,0,0
59999,-50,4,2,1,80,0,0
60493,-50,4,2,1,80,0,0
61318,-50,4,2,1,80,0,0
61977,-50,4,2,1,80,0,0
62636,-50,4,2,1,80,0,0
63131,-50,4,2,1,80,0,0
63625,-50,4,2,1,80,0,0
65274,-50,4,2,1,80,0,0
65603,-50,4,2,1,80,0,0
66592,-50,4,2,1,80,0,0
67252,-50,4,2,1,80,0,0
67911,-50,4,2,1,80,0,0
68406,-50,4,2,1,80,0,0
68900,-50,4,2,1,80,0,0
70054,-50,4,2,1,80,0,0
71043,-50,4,2,1,80,0,0
71537,-50,4,2,1,80,0,0
72526,-50,4,2,1,80,0,1
72691,-50,4,2,1,80,0,0
73186,-50,4,2,1,80,0,0
73680,-50,4,2,1,80,0,0
74010,-50,4,2,1,80,0,0
74504,-50,4,2,1,80,0,0
75164,-50,4,2,1,80,0,0
75823,-50,4,2,1,80,0,0
76482,-50,4,2,1,80,0,0
77142,-50,4,2,1,80,0,0
77801,-50,4,2,1,80,0,0
78460,-50,4,2,1,80,0,0
78955,-50,4,2,1,80,0,0
79449,-50,4,2,1,80,0,0
79779,-50,4,2,1,80,0,0
80438,-50,4,2,1,80,0,0
81098,-50,4,2,1,80,0,0
81427,-50,4,2,1,80,0,0
82417,-50,4,2,1,80,0,0
84065,-50,4,2,1,80,0,0
85054,-50,4,2,1,80,0,0
85713,-50,4,2,1,80,0,0
86373,-50,4,2,1,80,0,0
87856,-50,4,2,1,80,0,0

[Colours]
Combo1 : 0,255,255
Combo2 : 128,128,192
Combo3 : 155,55,255
Combo4 : 173,173,173
Combo5 : 128,128,128

[HitObjects]
115,75,18461,6,0,P|166:155|262:156,1,200,6|2,3:2|0:0,0:0:0:0:
344,98,20439,1,10,0:0:0:0:
389,118,20768,1,2,0:0:0:0:
435,138,21098,2,0,L|426:237,1,100,2|10,3:2|0:0,0:0:0:0:
391,274,22087,1,2,0:0:0:0:
356,309,22417,2,0,P|312:285|263:287,1,100,2|8,0:0|0:0,0:0:0:0:
174,332,23735,6,0,P|94:281|93:185,1,200,2|2,3:2|0:0,0:0:0:0:
185,145,25713,1,10,0:0:0:0:
231,125,26043,1,2,0:0:0:0:
276,105,26373,2,0,L|375:114,1,100,2|10,3:2|0:0,0:0:0:0:
425,119,27362,1,2,0:0:0:0:
475,123,27691,2,0,L|470:73,2,50,2|2|8,0:0|3:2|0:0,0:0:0:0:
466,223,29010,54,0,P|415:303|319:304,1,200,4|2,3:2|0:0,0:0:0:0:
273,281,30658,1,2,0:0:0:0:
227,260,30988,1,10,0:0:0:0:
143,316,31647,2,0,P|93:317|50:293,1,100,2|10,3:2|0:0,0:0:0:0:
31,247,32636,1,2,0:0:0:0:
15,199,32966,2,0,L|24:100,1,100,2|8,0:0|0:0,0:0:0:0:
116,61,34285,6,0,P|167:141|263:142,1,200,2|2,3:2|0:0,0:0:0:0:
348,87,36263,1,8,0:0:0:0:
376,128,36593,1,2,0:0:0:0:
402,171,36922,2,0,L|393:270,1,100,2|8,3:2|0:0,0:0:0:0:
346,290,37911,1,2,0:0:0:0:
300,310,38241,2,0,L|305:360,2,50,2|0|8,0:0|3:0|0:0,0:0:0:0:
218,248,39560,6,0,B|177:277|177:277|77:268,2,150,12|8|8,0:0|0:0|0:0,0:0:0:0:
280,166,42197,2,0,B|250:125|250:125|259:25,2,150,8|8|8,0:0|0:0|0:0,0:0:0:0:
362,228,44834,6,0,B|391:187|391:187|382:87,2,150,8|8|8,0:0|0:0|0:0,0:0:0:0:
277,282,47472,2,0,P|233:258|184:259,1,100,8|8,0:0|0:0,0:0:0:0:
103,318,48790,2,0,L|109:389,2,50,8|8|8,0:0|0:3|0:3,0:0:0:0:
98,268,49779,1,8,0:0:0:0:
93,218,50109,1,8,0:0:0:0:
93,218,51428,22,0,P|142:219|185:195,1,100,6|10,3:2|0:0,0:0:0:0:
221,159,52417,1,2,0:0:0:0:
254,122,52746,2,0,L|249:72,2,50,2|2|10,0:0|3:2|0:0,0:0:0:0:
327,190,54065,2,0,P|370:166|419:167,1,100,2|10,3:2|0:0,0:0:0:0:
455,202,55054,1,2,0:0:0:0:
492,236,55384,2,0,L|483:335,1,100,2|10,0:0|0:0,0:0:0:0:
388,367,56702,6,0,P|344:343|295:344,1,100,2|10,3:2|0:0,0:0:0:0:
247,329,57691,2,0,P|203:352|154:351,1,100,2|10,0:0|0:0,0:0:0:0:
108,329,58680,1,10,0:0:0:0:
27,269,59340,2,0,L|36:170,1,100,2|10,3:2|0:0,0:0:0:0:
117,111,60658,2,0,L|112:61,2,50,2|2|10,0:0|3:2|0:0,0:0:0:0:
163,130,61647,1,2,0:0:0:0:
207,150,61977,54,0,P|250:126|299:127,1,100,6|10,3:2|0:0,0:0:0:0:
335,220,63296,2,0,P|378:243|427:242,1,100,2|10,0:0|0:0,0:0:0:0:
466,209,64285,1,2,0:0:0:0:
496,170,64614,2,0,L|487:70,2,100,2|10|2,3:2|0:0|0:0,0:0:0:0:
427,243,66592,1,10,0:0:0:0:
393,280,66922,1,2,0:0:0:0:
358,316,67252,6,0,P|314:292|265:293,1,100,6|10,3:2|0:0,0:0:0:0:
219,314,68241,1,2,0:0:0:0:
176,339,68570,2,0,P|132:362|83:361,1,100,2|10,0:0|0:0,0:0:0:0:
29,277,69889,2,0,L|37:177,1,100,2|10,3:2|0:0,0:0:0:0:
67,137,70878,1,2,0:0:0:0:
93,94,71208,2,0,L|88:44,2,50,2|2|10,0:0|3:2|0:0,0:0:0:0:
176,149,72526,54,0,P|219:125|268:126,1,100,6|10,3:2|0:0,0:0:0:0:
312,150,73515,1,2,0:0:0:0:
356,174,73845,1,2,0:0:0:0:
441,122,74504,1,10,0:0:0:0:
493,207,75164,2,0,L|485:307,1,100,2|10,3:2|0:0,0:0:0:0:
436,316,76153,1,2,0:0:0:0:
386,325,76482,2,0,L|391:375,2,50,2|2|10,3:2|3:2|0:0,0:0:0:0:
321,249,77801,6,0,P|278:225|229:226,1,100,2|10,3:2|0:0,0:0:0:0:
181,244,78790,1,2,0:0:0:0:
134,261,79120,2,0,L|129:311,2,50,2|2|10,0:0|3:2|0:0,0:0:0:0:
151,161,80438,2,0,L|143:61,2,100,2|10|2,3:2|0:0|0:0,0:0:0:0:
229,226,82417,1,10,0:0:0:0:
261,187,82746,1,0,0:0:0:0:
294,148,83076,54,0,B|335:177|335:177|435:168,1,150,8|12,0:3|0:0,0:0:0:0:
411,316,85054,1,8,0:0:0:0:
311,322,85713,2,0,L|211:330,1,100,8|8,0:0|0:0,0:0:0:0:
176,293,86702,1,8,0:0:0:0:
142,256,87032,2,0,P|140:206|164:163,1,100,8|4,0:0|0:3,0:0:0:0:
255,120,88351,1,4,3:2:0:0:
256,192,88433,12,0,90329,3:3:0:0:
