osu file format v14

[General]
AudioFilename: audio.mp3
AudioLeadIn: 0
PreviewTime: 66948
Countdown: 0
SampleSet: Soft
StackLeniency: 0.2
Mode: 0
LetterboxInBreaks: 0
WidescreenStoryboard: 0

[Editor]
DistanceSpacing: 1.3
BeatDivisor: 4
GridSize: 4
TimelineZoom: 3.899999

[Metadata]
Title:Ringing Bloom
TitleUnicode:Ringing Bloom
Artist:Roselia
ArtistUnicode:Roselia
Creator:newton-
Version:Inflorescence
Source:バンドリ! ガールズバンドパーティ!
Tags:fall _tranquility nyantiaz firis mistlud kurantemelodii krt -aqua shizuku- koda unappreciative harepascals delusional pika [[pika]] wiki:pika wikipika BanG Dream! Bandori! Girls Band Party! ガルパ Garupa insert cover original song single album Bandori project Girl Party Garupa! Anfang Rozeria ロゼリア Minato Yukina 湊友希那 Hikawa Sayo 氷川紗夜 Imai Lisa 今井リサ Udagawa Ako 宇田川あこ Shirokane Rinko 白金燐子 Aiba Aina Aiai 相羽あいな Kudō Haruka Kudo Kudou Kudoharu Kdhr 工藤晴香 Endō Yurika Endo Endou Yurishii 遠藤ゆりか Sakuragawa Megu Meguchii 桜川めぐ Akesaka Satomi Akeko 明坂聡美 Kanon Shizaki Nonchan 志崎樺音 Nakashima Yuki Shimayuki 中島由貴 fire bird japanese video game
BeatmapID:1939586
BeatmapSetID:928615

[Difficulty]
HPDrainRate:5
CircleSize:4
OverallDifficulty:8.5
ApproachRate:9.3
SliderMultiplier:1.8
SliderTickRate:1

[Events]
//Background and Video events
0,0,"i love rinrin.jpg",0,0
//Break Periods
//Storyboard Layer 0 (Background)
//Storyboard Layer 1 (Fail)
//Storyboard Layer 2 (Pass)
//Storyboard Layer 3 (Foreground)
//Storyboard Layer 4 (Overlay)
//Storyboard Sound Samples

[TimingPoints]
150,307.692307692308,4,2,1,40,1,0
150,-500,4,2,1,40,0,0
918,-200,4,2,1,40,0,0
1302,357.142857142857,4,2,1,40,1,0
1640,352.941176470588,4,2,1,40,1,0
1757,400,4,2,1,40,1,0
1857,342.857142857143,4,2,1,40,1,0
1942,285.714285714286,4,2,1,40,1,0
2227,400,4,2,1,40,1,0
2327,454.545454545455,4,2,1,40,1,0
2637,307.692307692308,4,2,1,40,1,0
2922,352.941176470588,4,2,1,40,1,0
3223,425.531914893617,4,2,1,40,1,0
3534,-200,4,2,1,5,0,0
3560,434.782608695652,4,2,1,40,1,0
3872,307.692307692308,4,2,1,40,1,0
8487,-100,4,2,1,5,0,0
8795,-100,4,2,1,30,0,0
13102,-83.3333333333333,4,2,1,30,0,0
13718,-100,4,2,1,30,0,0
18333,-200,4,2,1,50,0,0
18564,-200,4,2,1,5,0,0
18641,-83.3333333333333,4,2,1,60,0,1
20795,-1000,4,2,1,60,0,1
21102,-83.3333333333333,4,2,1,60,0,1
23179,-83.3333333333333,4,2,1,50,0,1
23256,-83.3333333333333,4,2,1,60,0,1
23487,-83.3333333333333,4,2,1,50,0,1
23564,-83.3333333333333,4,2,1,60,0,1
26487,-125,4,2,1,60,0,1
26948,-100,4,2,1,60,0,1
27410,-83.3333333333333,4,2,1,60,0,1
28487,-100,4,2,1,50,0,0
42795,-83.3333333333333,4,2,1,50,0,0
43256,-100,4,2,1,50,0,0
46641,-83.3333333333333,4,2,1,50,0,0
48179,-100,4,2,1,45,0,0
49102,-500,4,2,1,45,0,0
49564,-100,4,2,1,45,0,0
51564,-500,4,2,1,45,0,0
51872,-100,4,2,1,45,0,0
53102,-100,4,2,1,40,0,0
58025,-200,4,2,3,30,0,0
58179,-200,4,2,4,30,0,0
58333,-200,4,2,5,30,0,0
58487,-200,4,2,3,30,0,0
58641,-200,4,2,4,30,0,0
58795,-200,4,2,5,30,0,0
58948,-200,4,2,3,30,0,0
59102,-200,4,2,4,30,0,0
59256,-200,4,2,5,30,0,0
59410,-200,4,2,3,30,0,0
59564,-200,4,2,4,30,0,0
59718,-200,4,2,5,30,0,0
59872,-200,4,2,3,30,0,0
60026,-200,4,2,4,30,0,0
60180,-200,4,2,5,30,0,0
60333,-200,4,2,3,30,0,0
60487,-50,4,2,1,40,0,0
60795,-200,4,2,4,30,0,0
60948,-200,4,2,5,30,0,0
61102,-200,4,2,3,30,0,0
61256,-200,4,2,4,30,0,0
61410,-200,4,2,5,30,0,0
61564,-200,4,2,3,30,0,0
61718,-200,4,2,4,30,0,0
61872,-200,4,2,5,30,0,0
62025,-200,4,2,3,30,0,0
62179,-200,4,2,4,30,0,0
62333,-200,4,2,5,30,0,0
62487,-200,4,2,3,30,0,0
62641,-200,4,2,4,30,0,0
62795,-200,4,2,5,30,0,0
62948,-83.3333333333333,4,2,1,50,0,0
66948,-100,4,2,1,50,0,0
67256,-333.333333333333,4,2,1,55,0,0
67718,-83.3333333333333,4,2,1,60,0,1
68948,-200,4,2,1,60,0,1
69410,-83.3333333333333,4,2,1,60,0,1
73872,-200,4,2,1,60,0,1
74333,-83.3333333333333,4,2,1,60,0,1
78795,-200,4,2,1,60,0,1
79256,-83.3333333333333,4,2,1,60,0,1
85102,-66.6666666666667,4,2,1,60,0,1
86179,-83.3333333333333,4,2,1,60,0,1
86948,-83.3333333333333,4,2,1,60,0,0
87410,-83.3333333333333,4,2,1,60,0,1
88641,-200,4,2,1,60,0,1
89102,-83.3333333333333,4,2,1,60,0,1
93564,-200,4,2,1,60,0,1
94025,-83.3333333333333,4,2,1,60,0,1
97256,-100,4,2,1,50,0,0
102641,-66.6666666666667,4,2,1,55,0,0
102948,-100,4,2,1,50,0,0
103872,-66.6666666666667,4,2,1,55,0,0
104179,-100,4,2,1,50,0,0
105872,-1000,4,2,1,45,0,0
107256,-100,4,2,1,60,0,1
109410,-1000,4,2,1,60,0,1
109718,-83.3333333333333,4,2,1,60,0,1
115025,-125,4,2,1,60,0,1
115487,-100,4,2,1,60,0,1
116025,-83.3333333333333,4,2,1,60,0,1
116487,-117.647058823529,4,2,1,60,0,1
116948,-500,4,2,1,60,0,0

[Colours]
Combo1 : 169,83,255
Combo2 : 128,128,128
Combo3 : 192,192,192
Combo4 : 64,128,128
Combo5 : 103,180,180
Combo6 : 128,128,255
Combo7 : 174,174,255
Combo8 : 128,0,255

[HitObjects]
256,192,150,5,2,1:3:0:0:
256,192,226,12,0,3560,0:0:0:0:
256,192,3872,5,2,1:3:0:0:
256,192,3948,12,0,8487,0:0:0:0:
128,102,8795,6,0,B|175:87|211:119|211:119|249:153|306:133,1,180,0|0,3:0|3:0,0:0:0:0:
366,106,9256,1,0,0:0:0:0:
161,212,9410,1,0,3:0:0:0:
158,173,9487,1,0,0:0:0:0:
263,26,9641,1,0,0:0:0:0:
266,65,9718,1,0,3:0:0:0:
351,259,9872,1,0,0:0:0:0:
354,220,9949,1,0,0:0:0:0:
357,181,10025,6,0,P|404:179|441:199,1,90,0|0,3:0|0:0,0:0:0:0:
281,343,10333,2,0,L|273:253,1,90,0|0,3:0|0:0,0:0:0:0:
284,96,10641,1,0,3:0:0:0:
200,169,10795,1,0,0:0:0:0:
88,161,10949,1,0,3:0:0:0:
14,76,11103,1,0,0:0:0:0:
30,211,11256,102,0,B|36:286|36:286|54:309|54:309|61:384,1,180,0|0,3:0|3:0,0:0:0:0:
108,256,11718,1,0,0:0:0:0:
187,363,11872,2,0,P|183:269|223:195,1,180,0|0,3:0|3:0,0:0:0:0:
222,195,12487,5,0,3:0:0:0:
372,207,12641,1,0,0:0:0:0:
297,201,12795,1,0,3:0:0:0:
447,213,12948,1,0,0:0:0:0:
147,189,13103,6,0,B|114:152|122:105|143:79|143:79|203:84,1,161.999995056153,0|0,3:0|0:0,0:0:0:0:
260,89,13410,1,0,3:0:0:0:
48,121,13564,1,0,0:0:0:0:
104,281,13718,86,0,P|155:214|237:236,1,180,0|0,3:0|3:0,0:0:0:0:
253,314,14179,1,0,0:0:0:0:
316,223,14333,1,0,3:0:0:0:
319,184,14410,1,0,0:0:0:0:
184,134,14564,1,0,0:0:0:0:
181,95,14641,1,0,3:0:0:0:
368,11,14795,1,0,0:0:0:0:
352,46,14872,1,0,0:0:0:0:
324,71,14948,6,0,P|279:71|241:48,1,90,0|0,3:0|0:0,0:0:0:0:
101,156,15256,2,0,P|139:133|183:133,1,90,0|0,3:0|0:0,0:0:0:0:
256,159,15564,1,0,3:0:0:0:
158,206,15718,1,0,0:0:0:0:
354,206,15872,1,0,3:0:0:0:
264,319,16026,1,8,0:3:0:0:
264,319,16103,1,8,0:3:0:0:
264,319,16180,102,0,B|220:278|220:278|100:289,1,180,0|0,3:0|3:0,0:0:0:0:
195,353,16641,1,8,0:3:0:0:
243,205,16795,5,8,0:3:0:0:
100,289,16949,1,8,0:3:0:0:
16,146,17103,1,8,0:3:0:0:
159,62,17256,1,8,0:3:0:0:
100,289,17410,5,0,3:0:0:0:
159,61,17564,1,8,0:3:0:0:
205,32,17640,1,8,0:3:0:0:
260,36,17717,1,8,0:3:0:0:
302,73,17794,1,8,0:3:0:0:
314,127,17871,1,0,3:0:0:0:
291,177,17948,1,0,3:0:0:0:
242,204,18026,5,8,0:3:0:0:
237,171,18102,1,8,0:3:0:0:
252,141,18179,1,0,3:0:0:0:
281,125,18256,1,0,3:0:0:0:
314,127,18333,2,0,L|381:132,1,67.5,8|0,0:3|0:0,0:0:0:0:
456,138,18641,5,8,0:3:0:0:
415,201,18795,1,0,3:0:0:0:
430,275,18949,1,0,3:0:0:0:
289,325,19103,5,8,0:3:0:0:
363,310,19257,1,0,3:0:0:0:
426,351,19411,1,0,3:0:0:0:
240,183,19563,101,8,0:3:0:0:
381,133,19717,1,0,3:0:0:0:
255,257,19871,1,0,3:0:0:0:
244,107,20026,5,8,0:3:0:0:
214,320,20179,1,0,3:0:0:0:
307,148,20333,1,0,3:0:0:0:
108,213,20487,85,8,0:3:0:0:
36,237,20564,1,0,3:0:0:0:
36,312,20641,1,0,3:0:0:0:
108,336,20718,1,0,3:0:0:0:
153,275,20795,38,0,L|141:274,1,9,8|0,0:3|3:0,0:0:0:0:
84,141,21103,85,8,0:3:0:0:
108,213,21256,1,0,3:0:0:0:
36,237,21410,1,0,3:0:0:0:
228,141,21564,5,8,0:3:0:0:
156,117,21718,1,0,3:0:0:0:
180,45,21871,1,0,3:0:0:0:
296,275,22026,101,8,0:3:0:0:
362,73,22180,1,0,3:0:0:0:
228,141,22334,1,0,3:0:0:0:
430,207,22487,1,8,0:3:0:0:
327,346,22641,2,0,P|274:348|231:318,1,107.999996704102,0|0,3:0|3:0,0:0:0:0:
131,230,22949,85,8,0:3:0:0:
153,258,23026,1,0,3:0:0:0:
161,292,23103,1,0,3:0:0:0:
154,327,23179,1,0,3:0:0:0:
39,356,23256,5,8,0:3:0:0:
17,328,23333,1,0,3:0:0:0:
9,294,23410,1,0,3:0:0:0:
16,259,23487,1,0,3:0:0:0:
62,199,23564,5,8,0:3:0:0:
131,230,23718,1,0,3:0:0:0:
192,185,23872,1,0,3:0:0:0:
176,36,24026,5,8,0:3:0:0:
114,80,24180,1,0,3:0:0:0:
123,155,24333,1,0,3:0:0:0:
261,215,24487,101,8,0:3:0:0:
114,80,24641,1,0,3:0:0:0:
200,260,24796,1,0,3:0:0:0:
176,36,24949,5,8,0:3:0:0:
192,185,25103,1,0,3:0:0:0:
314,97,25256,1,0,3:0:0:0:
319,303,25410,69,8,0:3:0:0:
305,292,25487,1,0,3:0:0:0:
288,288,25564,1,0,3:0:0:0:
270,291,25641,1,0,3:0:0:0:
208,336,25718,5,8,0:3:0:0:
132,323,25795,1,0,3:0:0:0:
87,260,25872,1,0,3:0:0:0:
100,184,25949,1,0,3:0:0:0:
163,139,26025,6,0,L|222:144,4,53.9999983520508,8|4|4|4|0,0:3|0:3|0:3|0:3|3:0,0:0:0:0:
270,199,26487,5,8,0:3:0:0:
285,176,26563,1,4,0:3:0:0:
292,150,26640,1,4,0:3:0:0:
291,124,26717,1,4,0:3:0:0:
281,99,26795,2,0,L|277:63,1,36,0|0,3:0|3:0,0:0:0:0:
188,276,26949,101,8,0:3:0:0:
231,264,27026,1,4,0:3:0:0:
273,275,27103,1,4,0:3:0:0:
305,306,27180,1,4,0:3:0:0:
317,350,27256,2,0,L|265:345,1,45,0|0,3:0|3:0,0:0:0:0:
83,329,27410,5,8,0:3:0:0:
112,284,27487,1,4,0:3:0:0:
126,231,27564,1,4,0:3:0:0:
124,178,27641,1,4,0:3:0:0:
104,128,27718,2,0,L|40:133,1,53.9999983520508,0|0,3:0|3:0,0:0:0:0:
188,276,27872,101,8,0:3:0:0:
223,279,27949,1,4,0:3:0:0:
259,282,28025,1,0,3:0:0:0:
295,285,28103,1,0,3:0:0:0:
357,248,28180,5,8,0:3:0:0:
374,177,28256,1,8,0:3:0:0:
338,114,28334,1,8,0:3:0:0:
267,97,28410,1,8,0:3:0:0:
203,135,28487,38,0,P|212:76|267:97,1,135,0|0,3:0|0:0,0:0:0:0:
203,135,28795,2,0,L|107:126,1,90,8|0,0:3|0:0,0:0:0:0:
36,121,29103,1,0,3:0:0:0:
70,191,29256,1,0,3:0:0:0:
476,121,29564,6,0,P|409:172|433:257,1,180,10|2,0:3|3:0,0:0:0:0:
495,331,30026,2,0,B|448:316|412:348|412:348|374:382|317:362,1,180,8|0,0:3|3:0,0:0:0:0:
185,306,30487,1,2,3:0:0:0:
256,336,30641,1,8,0:3:0:0:
114,276,30795,1,2,0:3:0:0:
78,261,30872,1,0,0:0:0:0:
42,246,30949,102,0,P|100:214|111:149,1,135,0|0,3:0|0:0,0:0:0:0:
65,88,31256,2,0,P|39:124|36:168,1,90,10|0,0:3|0:0,0:0:0:0:
112,150,31564,1,0,3:0:0:0:
186,131,31718,1,0,3:0:0:0:
326,253,32026,6,0,P|321:165|362:86,1,180,8|0,0:3|3:0,0:0:0:0:
401,243,32487,1,10,0:3:0:0:
476,233,32641,1,2,0:3:0:0:
250,262,32795,1,2,3:0:0:0:
326,253,32949,1,2,3:0:0:0:
175,272,33103,1,8,0:3:0:0:
476,233,33410,5,0,3:0:0:0:
175,272,33718,2,0,P|117:240|106:175,1,135,8|0,0:3|0:0,0:0:0:0:
160,122,34026,1,0,3:0:0:0:
58,286,34180,1,0,3:0:0:0:
352,122,34487,6,0,P|427:161|419:246,1,180,8|0,0:3|3:0,0:0:0:0:
493,61,34949,2,0,P|452:80|428:117,1,90,10|2,0:3|0:3,0:0:0:0:
479,295,35256,1,2,3:0:0:0:
361,197,35410,1,2,3:0:0:0:
336,349,35564,1,8,0:3:0:0:
151,197,35872,102,0,P|185:279|172:367,1,180,0|8,3:0|0:3,0:0:0:0:
172,367,36487,1,0,3:0:0:0:
78,177,36641,2,0,P|102:139|142:121,1,90,0|2,3:0|0:3,0:0:0:0:
279,84,36949,2,0,B|232:99|196:67|196:67|158:33|101:53,1,180,8|2,0:3|3:0,0:0:0:0:
251,12,37410,2,0,P|295:9|334:30,1,90,8|2,0:3|3:0,0:0:0:0:
353,105,37718,1,0,3:0:0:0:
483,16,37872,5,10,0:3:0:0:
458,43,37948,1,8,0:3:0:0:
440,76,38025,1,10,0:3:0:0:
429,112,38102,1,8,0:3:0:0:
428,150,38179,1,8,0:3:0:0:
434,186,38256,1,8,0:3:0:0:
449,221,38333,102,0,P|489:202|512:165,1,90,0|0,3:0|0:0,0:0:0:0:
440,76,38641,1,8,0:3:0:0:
495,300,38795,2,0,B|420:294|420:294|397:276|397:276|322:269,1,180,0|0,0:0|0:0,0:0:0:0:
449,221,39256,1,10,0:3:0:0:
368,348,39410,1,2,0:3:0:0:
267,215,39564,6,0,P|246:253|249:297,1,90,2|2,3:0|0:3,0:0:0:0:
321,269,39872,1,8,0:3:0:0:
194,144,40026,2,0,P|239:142|275:116,1,90,2|0,0:3|3:0,0:0:0:0:
171,242,40333,2,0,P|148:205|108:187,1,90,2|8,0:3|0:3,0:0:0:0:
36,56,40641,102,0,L|215:71,1,180,2|2,0:3|0:3,0:0:0:0:
454,98,41103,1,10,0:3:0:0:
275,117,41256,1,0,0:0:0:0:
447,176,41410,1,0,3:0:0:0:
447,176,41487,1,0,0:0:0:0:
447,176,41564,2,0,L|443:219,1,45,0|0,0:0|0:0,0:0:0:0:
391,308,41718,2,0,B|434:296|434:296|475:316,1,90,8|0,0:3|0:0,0:0:0:0:
324,344,42026,6,0,P|316:301|333:260,1,90,0|0,3:0|0:0,0:0:0:0:
443,220,42333,1,10,0:3:0:0:
275,211,42487,1,2,0:3:0:0:
391,308,42641,1,2,3:0:0:0:
216,162,42795,6,0,B|183:125|191:78|212:52|212:52|272:57,1,161.999995056153,10|0,0:3|0:0,0:0:0:0:
329,62,43102,1,10,0:3:0:0:
117,94,43256,86,0,P|72:94|35:70,1,90,0|0,3:0|0:0,0:0:0:0:
94,21,43564,1,8,0:3:0:0:
49,167,43718,2,0,P|90:245|85:334,1,180,0|0,0:0|0:0,0:0:0:0:
164,228,44180,1,10,0:3:0:0:
271,306,44333,1,2,0:3:0:0:
286,175,44487,6,0,L|293:85,1,90,2|0,3:0|0:0,0:0:0:0:
260,17,44795,1,10,0:3:0:0:
241,237,44949,1,2,0:3:0:0:
365,136,45102,1,0,3:0:0:0:
388,138,45180,1,0,0:0:0:0:
410,140,45256,2,0,L|453:144,1,45,2|0,0:3|0:0,0:0:0:0:
511,228,45410,2,0,P|468:220|427:237,1,90,8|2,0:3|0:3,0:0:0:0:
355,369,45718,102,0,P|440:372|475:295,1,180,0|8,3:0|0:3,0:0:0:0:
426,237,46180,1,0,0:0:0:0:
295,321,46333,1,2,3:0:0:0:
272,323,46409,1,0,0:0:0:0:
250,325,46487,2,0,L|207:329,1,45,0|0,0:0|0:0,0:0:0:0:
66,307,46641,22,0,B|33:270|41:223|62:197|62:197|97:228,1,161.999995056153,8|0,0:3|0:0,0:0:0:0:
148,277,46949,102,0,P|163:255|169:227,1,53.9999983520508,10|4,0:3|0:3,0:0:0:0:
135,162,47103,1,0,3:0:0:0:
100,95,47256,1,0,3:0:0:0:
245,232,47411,101,8,0:3:0:0:
287,220,47487,1,4,0:3:0:0:
316,187,47564,1,2,3:0:0:0:
339,37,47718,1,0,3:0:0:0:
392,180,47873,5,8,0:3:0:0:
388,224,47949,1,4,0:3:0:0:
384,269,48026,1,0,3:0:0:0:
380,314,48103,1,0,0:0:0:0:
376,359,48180,70,0,B|339:392|292:384|266:363|266:363|268:329|300:313,1,180,10|10,0:3|0:3,0:0:0:0:
263,174,48641,2,0,B|246:209|264:245|264:245|210:272|196:323,1,180,10|0,0:3|3:0,0:0:0:0:
178,211,49103,86,0,L|160:209,1,18,10|0,0:3|3:0,0:0:0:0:
233,104,49410,37,10,0:3:0:0:
233,104,49564,2,0,B|280:89|316:121|316:121|354:155|411:135,1,180,8|2,0:3|3:0,0:0:0:0:
448,76,50026,1,8,0:3:0:0:
463,184,50180,1,0,3:0:0:0:
470,238,50333,1,6,0:3:0:0:
473,265,50487,1,0,3:0:0:0:
379,313,50641,102,0,P|461:292|512:359,1,180,10|10,0:3|0:3,0:0:0:0:
321,365,51103,2,0,B|291:323|311:280|311:280|268:309|225:290,1,180,10|2,0:3|3:0,0:0:0:0:
191,361,51564,86,0,L|173:362,1,18,10|0,0:3|3:0,0:0:0:0:
261,221,51872,37,8,0:3:0:0:
261,221,52026,2,0,L|77:204,1,180,10|0,0:3|3:0,0:0:0:0:
29,348,52487,1,10,0:3:0:0:
14,240,52641,1,0,3:0:0:0:
7,186,52794,1,6,0:3:0:0:
4,159,52948,1,0,0:0:0:0:
179,243,53103,102,0,B|214:252|232:204|176:144|162:230|137:230|97:215|67:196,1,180,2|2,0:3|0:3,0:0:0:0:
244,146,53564,1,2,3:0:0:0:
244,146,53718,2,0,P|280:225|239:301,1,180,8|2,0:3|3:0,0:0:0:0:
239,302,54333,5,2,3:0:0:0:
239,302,54487,2,0,P|202:222|243:146,1,180,8|2,0:3|3:0,0:0:0:0:
242,146,54872,1,0,3:0:0:0:
242,146,54949,1,8,0:3:0:0:
293,308,55103,1,2,3:0:0:0:
266,305,55256,1,2,0:3:0:0:
239,302,55410,1,0,3:0:0:0:
63,302,55564,102,0,B|137:309|137:309|163:295|163:295|238:301,1,180,2|2,0:3|0:3,0:0:0:0:
169,98,56026,1,2,3:0:0:0:
169,98,56180,2,0,P|101:149|122:232,1,180,8|8,0:3|0:3,0:0:0:0:
173,175,56641,1,2,3:0:0:0:
173,175,56948,5,0,3:0:0:0:
325,189,57102,1,8,0:3:0:0:
477,203,57256,2,0,L|473:246,1,45,4|4,0:3|0:3,0:0:0:0:
173,175,57410,101,4,0:3:0:0:
477,203,57564,1,4,0:3:0:0:
249,182,57718,1,6,0:3:0:0:
401,196,57872,1,6,0:3:0:0:
325,189,58025,86,0,L|321:232,3,45,2|2|2|2,2:2|3:2|3:2|3:2,2:0:0:0:
274,294,58641,2,0,L|277:338,1,45,2|2,2:2|3:2,2:0:0:0:
177,130,58948,2,0,L|173:174,1,45,2|2,2:2|3:2,2:0:0:0:
129,279,59256,6,0,L|126:235,1,45,2|2,2:2|3:2,2:0:0:0:
177,129,59564,1,2,2:2:0:0:
177,129,59718,2,0,L|173:174,1,45,2|2,2:2|3:2,2:0:0:0:
129,279,60025,1,2,2:2:0:0:
129,279,60179,2,0,L|125:235,1,45,2|2,2:2|3:2,2:0:0:0:
83,339,60487,70,0,L|79:383,1,45,0|0,1:2|2:0,2:0:0:0:
429,339,60795,22,0,L|433:383,1,45,2|2,2:2|3:2,2:0:0:0:
383,279,61102,2,0,L|386:235,1,45,2|2,2:2|3:2,2:0:0:0:
335,130,61410,2,0,L|339:174,1,45,2|2,2:2|3:2,2:0:0:0:
289,70,61718,2,0,L|292:26,3,45,2|2|2|2,2:2|3:2|3:2|3:2,2:0:0:0:
339,174,62333,2,0,L|336:130,3,45,2|2|2|2,2:2|3:2|3:2|3:2,2:0:0:0:
177,170,62948,38,0,B|144:133|152:86|173:60|173:60|233:65,1,161.999995056153,8|0,0:3|0:0,0:0:0:0:
290,70,63256,1,0,3:0:0:0:
78,102,63410,1,0,3:0:0:0:
146,241,63564,2,0,P|199:243|242:213,1,107.999996704102,0|0,3:0|3:0,0:0:0:0:
41,207,63872,2,0,L|31:314,1,107.999996704102,0|0,3:0|3:0,0:0:0:0:
177,170,64180,5,8,0:3:0:0:
258,287,64333,1,8,0:3:0:0:
242,212,64487,1,10,0:3:0:0:
216,351,64641,1,8,0:3:0:0:
246,135,64795,5,2,3:0:0:0:
258,287,64949,1,8,0:3:0:0:
142,101,65103,5,0,3:0:0:0:
343,86,65256,1,10,0:3:0:0:
48,268,65410,85,0,3:0:0:0:
45,228,65486,1,0,3:0:0:0:
41,188,65563,1,8,0:3:0:0:
38,147,65640,1,8,0:3:0:0:
68,123,65719,5,0,3:0:0:0:
71,163,65795,1,0,3:0:0:0:
75,203,65872,1,4,0:3:0:0:
78,244,65949,1,4,0:3:0:0:
82,283,66026,101,4,0:3:0:0:
126,255,66102,1,4,0:3:0:0:
176,270,66179,1,0,3:0:0:0:
198,318,66256,1,0,3:0:0:0:
177,366,66333,5,4,0:3:0:0:
155,320,66410,1,4,0:3:0:0:
177,271,66487,1,0,3:0:0:0:
226,256,66564,1,0,3:0:0:0:
272,283,66640,101,8,0:3:0:0:
344,313,66717,1,8,0:3:0:0:
414,277,66794,1,8,0:3:0:0:
431,201,66871,1,8,0:3:0:0:
384,138,66948,22,0,B|348:126|321:150|321:150|293:176|250:161,1,135,10|0,0:3|0:0,0:0:0:0:
188,81,67256,21,2,0:3:0:0:
188,81,67410,2,0,L|191:121,1,40.4999987640381,2|0,0:3|0:0,0:0:0:0:
109,294,67718,86,0,B|76:257|84:210|105:184|105:184|165:189,1,161.999995056153,2|0,3:0|0:0,0:0:0:0:
215,231,68025,1,2,3:0:0:0:
140,365,68180,2,0,P|87:367|44:337,1,107.999996704102,10|0,0:3|0:0,0:0:0:0:
147,187,68487,1,2,3:0:0:0:
211,334,68641,1,0,3:0:0:0:
258,163,68795,1,10,0:3:0:0:
382,289,68949,22,0,L|389:206,1,67.5,2|0,3:0|0:0,0:0:0:0:
395,147,69256,1,0,3:0:0:0:
426,351,69410,102,0,B|374:364|374:364|325:339,1,107.999996704102,10|0,0:3|0:0,0:0:0:0:
313,214,69718,1,2,3:0:0:0:
463,230,69872,1,2,3:0:0:0:
282,145,70026,1,8,0:3:0:0:
197,326,70180,102,0,P|199:245|164:173,1,161.999995056153,2|0,3:0|0:0,0:0:0:0:
95,141,70487,1,0,3:0:0:0:
101,354,70641,2,0,P|144:323|197:325,1,107.999996704102,10|0,0:3|0:0,0:0:0:0:
261,202,70949,2,0,P|207:203|164:173,1,107.999996704102,2|0,3:0|3:0,0:0:0:0:
127,71,71256,1,10,0:3:0:0:
343,128,71410,6,0,L|328:291,1,161.999995056153,2|0,3:0|0:0,0:0:0:0:
321,364,71718,1,0,3:0:0:0:
343,128,71872,1,8,0:3:0:0:
343,128,72180,69,14,0:3:0:0:
338,187,72256,1,12,0:3:0:0:
332,246,72333,1,10,0:3:0:0:
328,305,72410,1,12,0:3:0:0:
321,364,72487,2,0,P|296:353|269:352,1,53.9999983520508,12|12,0:3|0:3,0:0:0:0:
187,155,72641,22,0,B|254:149|254:149|275:133|275:133|342:127,1,161.999995056153,2|0,3:0|0:0,0:0:0:0:
418,122,72949,1,2,3:0:0:0:
228,78,73103,2,0,L|116:68,1,107.999996704102,10|0,0:3|0:0,0:0:0:0:
73,226,73410,2,0,P|96:142|16:176,1,215.999993408203,2|10,3:0|0:3,0:0:0:0:
23,334,73872,22,0,P|47:311|79:301,1,67.5,2|0,0:3|0:0,0:0:0:0:
153,318,74180,1,2,0:3:0:0:
191,179,74333,102,0,P|219:224|215:277,1,107.999996704102,10|0,0:3|0:0,0:0:0:0:
16,153,74641,2,0,L|124:144,1,107.999996704102,2|2,3:0|0:3,0:0:0:0:
227,112,74949,1,8,0:3:0:0:
215,277,75103,102,0,B|178:244|131:252|105:273|105:273|110:333,1,161.999995056153,2|0,3:0|0:0,0:0:0:0:
149,379,75410,1,0,3:0:0:0:
286,308,75564,2,0,P|288:255|258:212,1,107.999996704102,10|0,0:3|0:0,0:0:0:0:
1,306,75872,2,0,L|109:315,1,107.999996704102,2|0,3:0|0:0,0:0:0:0:
215,277,76180,1,10,0:3:0:0:
8,230,76333,1,2,0:3:0:0:
258,212,76487,5,0,3:0:0:0:
309,198,76563,1,8,0:3:0:0:
341,156,76640,1,8,0:3:0:0:
341,103,76717,1,8,0:3:0:0:
308,61,76794,1,0,3:0:0:0:
256,49,76871,1,8,0:3:0:0:
208,70,76948,1,8,0:3:0:0:
183,117,77025,1,8,0:3:0:0:
191,169,77103,86,0,P|208:147|216:122,1,53.9999983520508,2|8,3:0|0:3,0:0:0:0:
82,8,77256,1,14,0:3:0:0:
88,84,77333,1,12,0:3:0:0:
95,161,77410,1,2,3:0:0:0:
102,238,77487,1,12,0:3:0:0:
108,314,77564,6,0,B|152:291|195:311|215:338|215:338|175:351,1,161.999995056153,14|0,0:3|0:0,0:0:0:0:
45,357,77872,1,0,3:0:0:0:
257,272,78026,2,0,P|287:315|285:369,1,107.999996704102,8|0,0:3|0:0,0:0:0:0:
389,197,78333,2,0,P|282:200|196:139,1,215.999993408203,2|8,3:0|0:3,0:0:0:0:
115,285,78795,22,0,L|198:278,1,67.5,2|0,0:3|0:0,0:0:0:0:
257,272,79102,1,0,0:0:0:0:
8,294,79256,86,0,L|115:285,1,107.999996704102,10|0,0:3|0:0,0:0:0:0:
309,214,79564,2,0,P|332:262|321:314,1,107.999996704102,2|0,3:0|0:0,0:0:0:0:
154,350,79872,1,10,0:3:0:0:
195,165,80026,6,0,B|262:159|262:159|283:143|283:143|350:137,1,161.999995056153,2|0,3:0|0:0,0:0:0:0:
426,132,80334,1,0,0:0:0:0:
237,88,80487,2,0,L|129:80,1,107.999996704102,8|0,0:3|0:0,0:0:0:0:
32,190,80795,2,0,B|62:176|101:176|138:198|120:215|150:242|185:250|229:234,1,215.999993408203,2|8,3:0|0:3,0:0:0:0:
195,165,81256,1,0,0:0:0:0:
66,260,81410,102,0,B|33:297|41:344|62:370|62:370|122:365,1,161.999995056153,2|0,3:0|0:0,0:0:0:0:
179,360,81717,1,8,0:3:0:0:
195,165,81872,1,0,0:0:0:0:
390,181,82026,1,2,3:0:0:0:
374,376,82180,1,8,0:3:0:0:
225,93,82334,1,2,3:0:0:0:
173,91,82410,1,12,0:3:0:0:
131,123,82487,1,12,0:3:0:0:
119,175,82564,1,12,0:3:0:0:
143,221,82641,6,0,B|185:224|185:224|201:254|200:301|162:332,1,161.999995056153,2|0,3:0|0:0,0:0:0:0:
90,359,82949,1,8,0:3:0:0:
269,282,83103,102,0,P|350:280|422:315,1,161.999995056153,2|0,3:0|0:0,0:0:0:0:
454,384,83410,1,0,3:0:0:0:
366,206,83564,1,10,0:3:0:0:
382,132,83718,1,4,0:3:0:0:
390,95,83795,1,4,0:3:0:0:
398,58,83872,5,0,3:0:0:0:
438,182,84026,1,0,0:0:0:0:
310,156,84180,1,8,0:3:0:0:
182,130,84333,1,0,3:0:0:0:
438,182,84487,101,0,0:0:0:0:
406,176,84564,1,0,0:0:0:0:
374,169,84641,1,0,3:0:0:0:
342,162,84718,1,0,0:0:0:0:
310,156,84795,1,10,0:3:0:0:
278,150,84872,1,0,0:0:0:0:
246,143,84949,1,0,0:0:0:0:
214,136,85026,1,0,0:0:0:0:
182,130,85103,6,0,B|117:159|89:248|151:319|226:275|225:231|213:206,1,270.000010299683,10|0,0:3|3:0,0:0:0:0:
206,341,85564,2,0,P|84:299|57:173,1,270.000010299683,10|0,0:3|3:0,0:0:0:0:
165,55,86026,1,10,0:3:0:0:
215,208,86179,101,0,3:0:0:0:
247,214,86256,1,0,3:0:0:0:
279,221,86333,1,8,0:3:0:0:
311,228,86410,1,4,0:3:0:0:
343,234,86487,1,0,3:0:0:0:
375,241,86564,1,0,3:0:0:0:
407,247,86641,5,10,0:3:0:0:
456,228,86718,1,4,0:3:0:0:
476,179,86795,1,0,3:0:0:0:
457,131,86872,1,0,3:0:0:0:
408,110,86949,85,14,0:3:0:0:
340,143,87025,1,4,0:3:0:0:
264,136,87103,1,2,3:0:0:0:
201,92,87179,1,0,3:0:0:0:
169,23,87256,2,0,P|195:16|221:19,1,53.9999983520508,8|0,0:3|0:0,0:0:0:0:
408,110,87410,6,0,B|441:73|433:26|412:0|412:0|352:5,1,161.999995056153,2|0,3:0|0:0,0:0:0:0:
298,31,87718,1,2,3:0:0:0:
340,142,87872,2,0,P|378:179|433:182,1,107.999996704102,10|0,0:3|0:0,0:0:0:0:
290,280,88180,1,2,3:0:0:0:
264,136,88334,1,0,3:0:0:0:
408,110,88487,1,10,0:3:0:0:
433,254,88641,22,0,L|427:321,1,67.5,2|0,3:0|0:0,0:0:0:0:
370,370,88949,1,0,3:0:0:0:
263,135,89102,102,0,P|211:123|164:147,1,107.999996704102,10|0,0:3|0:0,0:0:0:0:
26,212,89410,1,2,3:0:0:0:
228,305,89564,2,0,L|220:197,1,107.999996704102,2|8,3:0|0:3,0:0:0:0:
50,107,89873,102,0,P|92:176|97:256,1,161.999995056153,2|0,3:0|0:0,0:0:0:0:
54,318,90180,1,0,3:0:0:0:
164,147,90333,2,0,P|210:124|264:136,1,107.999996704102,10|0,0:3|0:0,0:0:0:0:
284,355,90641,2,0,P|238:378|183:365,1,107.999996704102,2|0,3:0|3:0,0:0:0:0:
220,197,90949,1,8,0:3:0:0:
374,382,91103,6,0,L|389:219,1,161.999995056153,2|0,3:0|0:0,0:0:0:0:
395,146,91411,1,0,3:0:0:0:
374,382,91565,1,8,0:3:0:0:
374,382,91872,69,10,0:3:0:0:
379,323,91949,1,4,0:3:0:0:
385,264,92026,1,6,0:3:0:0:
389,205,92103,1,4,0:3:0:0:
395,146,92180,2,0,P|420:135|447:134,1,53.9999983520508,8|0,0:3|0:0,0:0:0:0:
255,184,92333,22,0,B|211:161|168:181|148:208|148:208|188:221,1,161.999995056153,2|0,3:0|0:0,0:0:0:0:
318,227,92641,1,2,0:3:0:0:
96,149,92795,2,0,P|73:197|85:249,1,107.999996704102,10|0,0:3|0:0,0:0:0:0:
245,368,93103,2,0,L|253:260,1,107.999996704102,2|0,3:0|0:0,0:0:0:0:
383,193,93410,1,10,0:3:0:0:
375,384,93564,22,0,P|351:361|319:351,1,67.5,2|0,0:3|0:0,0:0:0:0:
245,368,93872,1,0,0:0:0:0:
382,192,94026,86,0,P|434:204|482:181,1,107.999996704102,10|0,0:3|0:0,0:0:0:0:
419,54,94333,1,2,3:0:0:0:
444,280,94487,1,0,0:0:0:0:
427,129,94641,1,8,0:3:0:0:
452,355,94795,6,0,B|385:349|385:349|364:333|364:333|297:327,1,161.999995056153,2|0,3:0|0:0,0:0:0:0:
221,322,95103,1,0,0:0:0:0:
223,168,95256,2,0,P|259:207|263:260,1,107.999996704102,10|0,0:3|0:0,0:0:0:0:
145,315,95564,2,0,P|108:276|104:223,1,107.999996704102,2|0,3:0|0:0,0:0:0:0:
192,100,95872,1,10,0:3:0:0:
148,162,96026,1,2,0:3:0:0:
161,31,96180,101,0,3:0:0:0:
267,107,96333,1,8,0:3:0:0:
395,85,96487,1,4,3:0:0:0:
457,223,96641,5,12,0:3:0:0:
457,223,96718,1,4,0:3:0:0:
457,223,96795,1,2,3:0:0:0:
351,147,96949,1,2,0:3:0:0:
223,169,97103,1,10,0:3:0:0:
148,275,97256,69,2,3:0:0:0:
148,275,97564,1,0,3:0:0:0:
224,281,97718,1,8,0:3:0:0:
72,269,97872,1,0,3:0:0:0:
300,287,98026,1,10,0:3:0:0:
148,275,98180,1,0,3:0:0:0:
376,293,98334,1,10,0:3:0:0:
116,207,98487,5,2,3:0:0:0:
108,168,98564,1,0,0:0:0:0:
118,131,98641,1,8,0:3:0:0:
270,119,98795,1,0,3:0:0:0:
194,125,98949,1,8,0:3:0:0:
346,113,99103,1,2,3:0:0:0:
118,131,99257,1,8,0:3:0:0:
270,119,99411,1,0,3:0:0:0:
422,107,99565,1,10,0:3:0:0:
151,63,99718,101,2,3:0:0:0:
151,63,100026,1,0,3:0:0:0:
270,119,100180,1,8,0:3:0:0:
42,137,100333,1,2,3:0:0:0:
60,365,100487,1,8,0:3:0:0:
118,131,100641,1,0,3:0:0:0:
288,347,100795,1,10,0:3:0:0:
194,125,100949,1,2,3:0:0:0:
212,353,101103,21,12,0:3:0:0:
244,284,101180,1,4,0:3:0:0:
315,257,101256,1,0,3:0:0:0:
384,289,101334,1,0,3:0:0:0:
411,360,101410,5,8,0:3:0:0:
390,328,101487,1,4,0:3:0:0:
384,289,101564,1,2,3:0:0:0:
393,253,101641,1,4,0:3:0:0:
417,224,101718,85,6,0:3:0:0:
430,206,101794,1,4,0:3:0:0:
439,185,101871,1,2,3:0:0:0:
442,163,101948,1,0,3:0:0:0:
440,141,102025,1,10,0:3:0:0:
432,120,102102,1,0,0:0:0:0:
420,101,102180,102,0,B|387:63|326:69|299:102|299:102|344:126,1,180,2|0,3:0|3:0,0:0:0:0:
430,15,102641,6,0,P|365:-2|299:10,1,135.000005149842,10|0,0:3|0:0,0:0:0:0:
145,80,102949,101,2,3:0:0:0:
284,178,103103,1,2,3:0:0:0:
176,284,103256,1,10,0:3:0:0:
313,248,103410,6,0,B|266:263|230:231|230:231|192:197|135:217,1,180,2|0,3:0|3:0,0:0:0:0:
226,371,103872,102,0,P|256:327|264:380,1,135,10|0,0:3|3:0,0:0:0:0:
176,284,104180,5,2,0:3:0:0:
284,178,104333,1,2,3:0:0:0:
74,244,104487,1,10,0:3:0:0:
120,29,104641,102,0,P|188:86|276:101,1,180,2|8,3:0|0:3,0:0:0:0:
340,57,105026,1,8,0:3:0:0:
340,57,105103,2,0,L|391:61,1,45,2|4,3:0|0:3,0:0:0:0:
385,341,105256,5,4,0:3:0:0:
426,281,105333,1,4,0:3:0:0:
415,208,105411,1,12,0:3:0:0:
356,166,105487,1,4,0:3:0:0:
284,178,105565,101,4,3:0:0:0:
303,214,105641,1,12,0:3:0:0:
339,235,105718,1,0,3:0:0:0:
381,232,105795,1,0,3:0:0:0:
415,208,105872,54,0,L|463:204,1,45,8|2,0:3|0:3,0:0:0:0:
385,341,106795,1,0,3:0:0:0:
385,341,106872,1,0,3:0:0:0:
385,341,106949,1,10,0:3:0:0:
127,43,107256,85,8,0:3:0:0:
168,106,107410,1,0,3:0:0:0:
153,180,107564,1,0,3:0:0:0:
362,130,107718,5,8,0:3:0:0:
299,171,107872,1,0,3:0:0:0:
225,156,108026,1,0,3:0:0:0:
234,302,108179,101,8,0:3:0:0:
103,237,108333,1,0,3:0:0:0:
177,252,108487,1,0,3:0:0:0:
40,278,108641,5,8,0:3:0:0:
275,365,108795,1,0,3:0:0:0:
249,228,108949,1,0,3:0:0:0:
484,315,109102,85,8,0:3:0:0:
499,238,109180,1,0,3:0:0:0:
459,174,109256,1,0,3:0:0:0:
385,156,109334,1,0,3:0:0:0:
320,195,109410,38,0,L|321:206,1,9,8|0,0:3|3:0,0:0:0:0:
477,100,109717,85,8,0:3:0:0:
403,82,109872,1,0,3:0:0:0:
421,8,110026,1,0,3:0:0:0:
292,122,110180,5,8,0:3:0:0:
274,48,110334,1,0,3:0:0:0:
348,30,110487,1,0,3:0:0:0:
219,101,110641,101,8,0:3:0:0:
77,59,110795,1,0,3:0:0:0:
177,243,110949,1,0,3:0:0:0:
35,201,111103,1,8,0:3:0:0:
161,318,111256,6,0,P|213:308|249:270,1,107.999996704102,0|0,3:0|3:0,0:0:0:0:
286,138,111564,69,8,0:3:0:0:
282,174,111640,1,0,3:0:0:0:
293,207,111717,1,0,3:0:0:0:
317,233,111794,1,0,3:0:0:0:
429,194,111872,5,8,0:3:0:0:
433,158,111949,1,0,3:0:0:0:
422,125,112026,1,0,3:0:0:0:
398,99,112103,1,0,3:0:0:0:
326,74,112179,5,8,0:3:0:0:
286,138,112333,1,0,3:0:0:0:
210,135,112487,1,0,3:0:0:0:
94,197,112641,5,8,0:3:0:0:
169,199,112795,1,0,3:0:0:0:
204,266,112949,1,0,3:0:0:0:
250,71,113103,101,8,0:3:0:0:
135,133,113256,1,0,3:0:0:0:
245,202,113410,1,0,3:0:0:0:
101,67,113564,5,8,0:3:0:0:
129,264,113718,1,0,3:0:0:0:
286,138,113872,1,0,3:0:0:0:
421,321,114026,69,8,0:3:0:0:
412,305,114103,1,0,3:0:0:0:
410,286,114179,1,0,3:0:0:0:
417,270,114257,1,0,3:0:0:0:
472,217,114334,5,8,0:3:0:0:
472,139,114410,1,0,3:0:0:0:
418,84,114488,1,0,3:0:0:0:
341,84,114564,1,0,3:0:0:0:
286,138,114641,6,0,L|280:196,3,53.9999983520508,8|4|4|4,0:3|0:3|0:3|0:3,0:0:0:0:
417,270,114949,1,0,3:0:0:0:
341,84,115102,5,8,0:3:0:0:
317,69,115178,1,4,0:3:0:0:
291,63,115255,1,4,0:3:0:0:
265,65,115332,1,4,0:3:0:0:
240,76,115410,2,0,L|203:79,1,36,0|0,3:0|3:0,0:0:0:0:
135,218,115564,101,8,0:3:0:0:
160,181,115641,1,4,0:3:0:0:
199,162,115718,1,4,0:3:0:0:
243,165,115795,1,4,0:3:0:0:
281,191,115872,2,0,L|333:196,1,45,0|0,3:0|3:0,0:0:0:0:
78,362,116026,5,8,0:3:0:0:
73,308,116103,1,4,0:3:0:0:
68,254,116179,1,4,0:3:0:0:
63,200,116256,1,4,0:3:0:0:
59,146,116333,2,0,L|54:92,1,53.9999983520508,0|0,3:0|3:0,0:0:0:0:
281,192,116487,101,8,0:3:0:0:
290,254,116564,1,4,0:3:0:0:
263,311,116640,1,0,3:0:0:0:
210,345,116717,1,0,3:0:0:0:
147,344,116794,1,8,0:3:0:0:
94,311,116871,1,8,0:3:0:0:
68,254,116948,22,0,L|88:252,1,18,8|0,0:3|0:0,0:0:0:0:
