osu file format v14

[General]
AudioFilename: audio.mp3
AudioLeadIn: 0
PreviewTime: 66948
Countdown: 0
SampleSet: Soft
StackLeniency: 0.4
Mode: 0
LetterboxInBreaks: 0
WidescreenStoryboard: 1

[Editor]
Bookmarks: 2434,11046,20896,30741,40587,50434,60280,65203,70127,81509,89818,99665,109511,118433,119358
DistanceSpacing: 1.3
BeatDivisor: 4
GridSize: 4
TimelineZoom: 3.899999

[Metadata]
Title:Ringing Bloom
TitleUnicode:Ringing Bloom
Artist:Roselia
ArtistUnicode:Roselia
Creator:newton-
Version:Fall's Expert
Source:バンドリ! ガールズバンドパーティ!
Tags:fall _tranquility nyantiaz firis mistlud kurantemelodii krt -aqua shizuku- koda unappreciative harepascals delusional pika [[pika]] wiki:pika wikipika BanG Dream! Bandori! Girls Band Party! ガルパ Garupa insert cover original song single album Bandori project Girl Party Garupa! Anfang Rozeria ロゼリア Minato Yukina 湊友希那 Hikawa Sayo 氷川紗夜 Imai Lisa 今井リサ Udagawa Ako 宇田川あこ Shirokane Rinko 白金燐子 Aiba Aina Aiai 相羽あいな Kudō Haruka Kudo Kudou Kudoharu Kdhr 工藤晴香 Endō Yurika Endo Endou Yurishii 遠藤ゆりか Sakuragawa Megu Meguchii 桜川めぐ Akesaka Satomi Akeko 明坂聡美 Kanon Shizaki Nonchan 志崎樺音 Nakashima Yuki Shimayuki 中島由貴 fire bird japanese video game
BeatmapID:1949183
BeatmapSetID:928615

[Difficulty]
HPDrainRate:5
CircleSize:3.8
OverallDifficulty:9
ApproachRate:9.2
SliderMultiplier:1.8
SliderTickRate:1

[Events]
//Background and Video events
0,0,"i love rinrin.jpg",0,0
//Break Periods
//Storyboard Layer 0 (Background)
//Storyboard Layer 1 (Fail)
//Storyboard Layer 2 (Pass)
//Storyboard Layer 3 (Foreground)
//Storyboard Layer 4 (Overlay)
//Storyboard Sound Samples

[TimingPoints]
150,307.692307692308,4,2,1,40,1,0
1302,357.142857142857,4,2,1,40,1,0
1640,352.941176470588,4,2,1,40,1,0
1757,400,4,2,1,40,1,0
1857,342.857142857143,4,2,1,40,1,0
1942,285.714285714286,4,2,1,40,1,0
2227,400,4,2,1,40,1,0
2327,454.545454545455,4,2,1,40,1,0
2637,307.692307692308,4,2,1,40,1,0
2922,352.941176470588,4,2,1,40,1,0
3223,425.531914893617,4,2,1,40,1,0
3560,434.782608695652,4,2,1,40,1,0
3872,307.692307692308,4,2,1,40,1,0
8795,-100,4,2,1,30,0,0
13102,-83.3333333333333,4,2,1,30,0,0
13717,-100,4,2,1,30,0,0
18333,-200,4,2,1,50,0,0
18641,-100,4,2,1,60,0,1
21102,-100,4,2,1,60,0,1
26487,-125,4,2,1,60,0,1
26948,-100,4,2,1,60,0,1
27410,-83.3333333333333,4,2,1,60,0,1
28487,-100,4,2,1,50,0,0
42795,-83.3333333333333,4,2,1,50,0,0
43256,-100,4,2,1,50,0,0
46641,-83.3333333333333,4,2,1,50,0,0
48179,-100,4,2,1,45,0,0
49410,-100,4,2,1,45,0,0
51872,-100,4,2,1,45,0,0
53102,-100,4,2,1,40,0,0
58025,-200,4,2,2,30,0,0
58948,-200,4,2,0,30,0,0
60487,-100,4,2,1,60,0,0
60795,-200,4,2,0,30,0,0
62948,-83.3333333333333,4,2,1,50,0,0
66948,-100,4,2,1,70,0,0
67718,-100,4,2,1,60,0,1
86948,-83.3333333333333,4,2,1,60,0,0
87410,-100,4,2,1,60,0,1
97256,-83.3333333333333,4,2,1,50,0,1
102641,-83.3333333333333,4,2,1,55,0,1
102948,-83.3333333333333,4,2,1,50,0,1
103872,-83.3333333333333,4,2,1,55,0,1
104179,-83.3333333333333,4,2,1,50,0,1
105872,-62.5,4,2,1,45,0,1
106333,-83.3333333333333,4,2,1,55,0,1
107256,-100,4,2,1,60,0,0

[Colours]
Combo1 : 169,83,255
Combo2 : 128,128,128
Combo3 : 192,192,192
Combo4 : 64,128,128
Combo5 : 103,180,180
Combo6 : 128,128,255
Combo7 : 174,174,255
Combo8 : 128,0,255

[HitObjects]
98,42,8795,38,0,P|98:111|91:163,1,90,0|0,3:0|0:0,0:0:0:0:
232,210,9102,2,0,P|163:210|111:203,1,90,0|0,3:0|0:0,0:0:0:0:
290,86,9410,1,0,3:0:0:0:
290,86,9487,2,0,L|306:206,1,90,0|0,0:0|0:0,0:0:0:0:
318,255,9718,2,0,P|370:258|427:254,1,90,0|0,3:0|0:0,0:0:0:0:
461,106,10025,2,0,P|426:144|383:182,1,90,0|0,3:0|0:0,0:0:0:0:
290,290,10333,5,0,3:0:0:0:
164,126,10487,1,0,0:0:0:0:
106,328,10641,102,0,P|174:327|202:326,1,90,0|0,3:0|0:0,0:0:0:0:
39,255,10948,1,0,3:0:0:0:
190,103,11102,1,0,0:0:0:0:
82,19,11256,6,0,P|88:82|79:116,1,90,0|0,3:0|0:0,0:0:0:0:
282,110,11564,2,0,B|226:116|226:116|193:141,1,90,0|0,3:0|0:0,0:0:0:0:
312,205,11872,1,0,3:0:0:0:
376,18,12025,2,0,L|380:66,2,45,0|0|0,0:0|0:0|3:0,0:0:0:0:
491,130,12333,1,0,0:0:0:0:
461,328,12487,2,0,B|469:278|469:278|463:203|463:203|481:150,1,180,0|0,3:0|3:0,0:0:0:0:
372,266,12948,1,0,0:0:0:0:
122,259,13102,2,0,P|199:255|248:258,1,107.999996704102,0|0,3:0|0:0,0:0:0:0:
22,184,13410,2,0,P|75:185|129:181,1,107.999996704102,0|0,3:0|0:0,0:0:0:0:
77,8,13718,102,0,L|66:97,1,90,0|0,3:0|0:0,0:0:0:0:
253,72,14025,2,0,L|265:171,1,90,0|0,3:0|0:0,0:0:0:0:
455,64,14333,2,0,P|391:60|357:52,1,90,0|0,3:0|0:0,0:0:0:0:
292,1,14641,5,0,3:0:0:0:
352,194,14795,1,0,0:0:0:0:
365,54,14948,101,0,3:0:0:0:
271,245,15102,1,0,0:0:0:0:
253,72,15256,5,0,3:0:0:0:
347,282,15410,1,0,0:0:0:0:
410,132,15564,101,0,3:0:0:0:
271,245,15718,1,0,0:0:0:0:
129,180,15872,1,0,3:0:0:0:
197,338,16025,1,8,0:3:0:0:
197,338,16102,1,8,0:3:0:0:
197,338,16179,2,0,B|308:349|262:317|383:328,1,180,0|0,3:0|3:0,0:0:0:0:
485,338,16641,5,8,0:3:0:0:
435,124,16795,5,8,3:0:0:0:
387,298,16948,1,8,0:3:0:0:
242,69,17102,5,0,3:0:0:0:
297,278,17256,1,8,3:3:0:0:
382,23,17410,1,8,3:3:0:0:
174,220,17564,1,8,0:3:0:0:
183,176,17641,1,8,0:3:0:0:
165,136,17718,1,8,0:3:0:0:
127,114,17795,1,8,0:3:0:0:
83,119,17872,1,0,3:0:0:0:
51,149,17948,1,0,3:0:0:0:
42,192,18025,6,0,P|79:208|100:210,1,45,8|8,3:0|3:0,0:0:0:0:
101,289,18179,2,0,P|122:283|142:272,1,45,0|0,3:0|3:0,0:0:0:0:
213,232,18333,22,0,P|279:227|299:232,1,67.5,8|0,0:3|0:0,0:0:0:0:
376,246,18641,85,8,0:3:0:0:
459,36,18795,1,0,3:0:0:0:
457,325,18948,1,0,3:0:0:0:
350,98,19102,2,0,P|356:159|356:211,1,90,8|0,0:3|3:0,0:0:0:0:
277,32,19410,1,0,3:0:0:0:
107,146,19564,6,0,P|168:152|221:154,1,90,8|0,0:3|3:0,0:0:0:0:
33,40,19872,1,0,3:0:0:0:
34,344,20025,2,0,P|45:260|40:222,2,90,8|0|0,0:3|3:0|3:0,0:0:0:0:
12,140,20487,1,8,3:3:0:0:
208,340,20641,1,0,3:0:0:0:
208,340,20718,1,0,3:0:0:0:
208,340,20795,2,0,L|328:338,1,90,8|8,3:3|3:0,0:0:0:0:
457,333,21102,101,8,0:3:0:0:
381,51,21256,1,0,3:0:0:0:
316,293,21410,1,0,3:0:0:0:
250,56,21564,2,0,P|160:53|119:57,2,90,8|0|0,0:3|3:0|3:0,0:0:0:0:
69,142,22025,5,8,0:3:0:0:
304,215,22179,1,0,3:0:0:0:
5,273,22333,1,0,3:0:0:0:
253,369,22487,2,0,P|257:291|254:256,1,90,8|0,0:3|3:0,0:0:0:0:
153,78,22795,1,0,3:0:0:0:
64,327,22948,2,0,P|60:249|66:212,1,90,8|0,0:3|3:0,0:0:0:0:
402,90,23256,2,0,L|289:91,1,90,8|0,0:3|3:0,0:0:0:0:
154,88,23564,101,8,0:3:0:0:
189,361,23718,1,0,3:0:0:0:
305,119,23872,1,0,3:0:0:0:
374,341,24025,2,0,P|363:275|365:231,2,90,8|0|0,0:3|3:0|3:0,0:0:0:0:
497,127,24487,2,0,P|498:180|489:218,1,90,8|0,0:3|3:0,0:0:0:0:
422,64,24795,1,0,3:0:0:0:
214,54,24948,6,0,P|304:51|342:56,2,90,8|0|0,0:3|0:0|3:0,0:0:0:0:
336,175,25410,1,8,0:3:0:0:
198,81,25564,1,0,3:0:0:0:
152,291,25718,1,8,0:3:0:0:
81,46,25872,1,0,3:0:0:0:
81,46,25948,1,0,0:0:0:0:
81,46,26025,102,0,L|84:98,3,45,8|0|4|4,0:3|0:0|0:3|0:3,0:0:0:0:
125,157,26333,2,0,L|121:213,3,45,4|0|8|0,0:3|0:0|0:3|0:0,0:0:0:0:
73,262,26641,2,0,L|72:309,3,36,12|4|8|0,0:3|0:3|3:0|3:0,0:0:0:0:
128,356,26948,5,8,0:3:0:0:
165,332,27025,1,8,0:3:0:0:
209,321,27102,1,8,0:3:0:0:
254,325,27179,1,8,0:3:0:0:
294,344,27256,2,0,P|324:362|345:369,3,45,0|0|8|8,3:0|3:0|0:3|0:3,0:0:0:0:
412,339,27564,2,0,P|432:328|457:307,3,53.9999983520508,8|8|0|0,0:3|0:3|3:0|3:0,0:0:0:0:
358,273,27872,101,8,0:3:0:0:
445,14,28025,1,0,3:0:0:0:
284,239,28179,5,8,0:3:0:0:
178,0,28333,1,8,0:3:0:0:
65,230,28487,38,0,B|189:216|122:258|252:245,1,180,2|8,3:2|0:3,0:0:0:0:
58,53,29102,2,0,P|61:101|59:147,1,90,0|0,3:0|3:0,0:0:0:0:
37,269,29410,1,0,0:0:0:0:
152,146,29564,1,10,0:3:0:0:
187,346,29718,1,0,0:0:0:0:
280,174,29872,6,0,P|212:163|189:160,1,90,2|8,3:0|0:3,0:0:0:0:
359,121,30179,2,0,P|427:110|450:107,1,90,0|0,0:0|3:0,0:0:0:0:
418,303,30487,2,0,P|428:250|423:183,1,90,0|8,3:0|0:3,0:0:0:0:
237,357,30795,2,0,P|227:313|227:268,1,90,2|4,0:3|3:2,0:0:0:0:
343,366,31102,1,0,0:0:0:0:
31,281,31256,2,0,P|126:254|216:271,1,180,10|0,0:3|3:0,0:0:0:0:
24,303,31718,1,0,3:0:0:0:
57,87,32025,101,8,0:3:0:0:
126,342,32333,1,0,3:0:0:0:
19,156,32487,2,0,P|79:131|128:130,1,90,10|2,0:3|0:3,0:0:0:0:
280,83,32795,2,0,P|220:58|171:57,1,90,2|2,3:3|3:3,0:0:0:0:
238,183,33102,1,8,0:3:0:0:
415,19,33256,2,0,P|395:92|410:209,1,180,2|0,0:3|0:0,0:0:0:0:
486,346,33718,1,8,0:3:0:0:
305,78,34025,5,0,0:0:0:0:
194,369,34179,1,0,3:0:0:0:
197,37,34487,2,0,P|202:128|198:149,1,90,8|0,0:3|0:0,0:0:0:0:
54,82,34795,1,0,3:2:0:0:
77,251,34948,2,0,L|172:239,2,90,10|2|2,0:3|0:3|3:0,0:0:0:0:
209,306,35410,2,0,P|202:251|201:214,1,90,2|8,3:0|0:3,0:0:0:0:
453,291,35718,2,0,P|388:255|280:250,1,180,0|0,0:0|0:0,0:0:0:0:
373,363,36179,1,8,0:3:0:0:
340,70,36487,101,0,3:0:0:0:
427,254,36641,1,0,3:0:0:0:
442,95,36795,2,0,P|372:96|334:108,1,90,2|8,0:3|0:3,0:0:0:0:
124,38,37102,2,0,P|194:39|232:51,2,90,0|0|8,0:0|3:0|0:3,0:0:0:0:
100,220,37564,2,0,P|121:158|123:111,1,90,0|0,3:0|3:0,0:0:0:0:
231,340,37872,2,0,P|222:315|221:290,1,45,8|8,0:3|0:3,0:0:0:0:
281,242,38025,2,0,P|289:221|291:198,3,45,8|8|8|0,0:3|0:3|0:3|0:0,0:0:0:0:
277,118,38333,22,0,P|326:122|383:120,1,90,0|0,3:0|0:0,0:0:0:0:
488,12,38641,2,0,L|378:8,1,90,8|0,3:0|0:0,0:0:0:0:
449,163,38948,2,0,P|453:212|451:269,1,90,0|0,3:0|0:0,0:0:0:0:
335,365,39256,1,10,3:0:0:0:
369,155,39410,1,2,0:3:0:0:
180,261,39564,2,0,L|277:269,2,90,2|2|10,3:0|0:3|3:0,0:0:0:0:
56,159,40025,2,0,L|153:151,1,90,2|0,0:3|3:0,0:0:0:0:
273,55,40333,2,0,P|273:106|267:151,1,90,2|8,0:3|0:3,0:0:0:0:
378,224,40641,2,0,P|378:275|384:320,1,90,2|0,0:3|0:0,0:0:0:0:
501,380,40948,1,2,0:3:0:0:
471,66,41102,2,0,B|478:136|478:136|462:247,1,180,10|0,3:0|3:0,0:0:0:0:
303,75,41564,5,0,0:3:0:0:
312,242,41718,1,8,3:0:0:0:
400,129,41872,1,0,0:0:0:0:
229,158,42025,1,0,3:0:0:0:
385,28,42179,1,0,0:0:0:0:
171,60,42333,2,0,P|182:126|179:174,1,90,10|2,3:0|0:3,0:0:0:0:
144,296,42641,101,2,3:0:0:0:
61,55,42795,1,10,0:3:0:0:
29,374,42948,5,2,3:0:0:0:
100,128,43102,1,10,0:3:0:0:
283,371,43256,102,0,B|230:334|230:334|108:347,1,180,2|8,3:0|3:0,0:0:0:0:
351,327,43718,2,0,P|348:272|354:228,1,90,0|0,0:0|0:0,0:0:0:0:
396,108,44025,1,0,0:3:0:0:
222,155,44179,2,0,L|333:146,1,90,10|2,3:0|0:3,0:0:0:0:
117,52,44487,2,0,L|206:59,1,90,2|0,3:0|0:0,0:0:0:0:
0,111,44795,1,10,3:0:0:0:
83,310,44948,2,0,P|75:259|75:220,1,90,2|0,0:3|3:0,0:0:0:0:
240,360,45256,2,0,P|246:315|247:270,1,90,10|8,0:3|3:0,0:0:0:0:
193,78,45564,6,0,B|193:141|193:141|226:185|226:185|226:259,1,180,10|0,0:3|0:0,0:0:0:0:
325,351,46025,1,0,0:0:0:0:
126,252,46179,1,0,0:0:0:0:
433,181,46333,2,0,P|373:166|254:182,1,180,2|8,3:0|0:3,0:0:0:0:
343,313,46795,1,0,0:0:0:0:
433,181,46948,101,10,3:3:0:0:
433,181,47025,1,0,3:0:0:0:
433,181,47102,1,0,3:0:0:0:
340,350,47256,5,0,3:0:0:0:
213,118,47410,2,0,L|210:64,2,53.9999983520508
238,352,47718,69,0,3:0:0:0:
303,80,47872,2,0,L|306:26,2,53.9999983520508
130,42,48179,5,10,0:3:0:0:
175,302,48333,1,0,0:0:0:0:
397,27,48487,101,10,0:3:0:0:
352,287,48641,2,0,P|358:220|356:183,1,90,2|0,3:0|0:0,0:0:0:0:
275,51,48948,1,0,3:0:0:0:
449,324,49102,2,0,P|392:371|270:359,1,180,10|10,0:3|0:3,0:0:0:0:
248,144,49564,5,8,0:3:0:0:
102,380,49718,1,0,0:0:0:0:
76,82,49872,2,0,L|84:197,1,90,0|8,3:0|0:3,0:0:0:0:
96,338,50179,1,0,3:0:0:0:
167,50,50333,2,0,B|97:-2|97:-2|-2:19,1,180,0|10,3:0|0:3,0:0:0:0:
269,21,50795,101,0,0:0:0:0:
297,282,50948,1,10,0:3:0:0:
445,64,51102,2,0,P|448:114|444:155,1,90,10|0,0:3|0:0,0:0:0:0:
464,343,51410,1,2,3:0:0:0:
250,203,51564,2,0,P|337:206|388:304,1,180,10|8,0:3|0:3,0:0:0:0:
197,356,52025,1,10,0:3:0:0:
160,139,52179,2,0,P|163:203|161:242,1,90,0|0,0:0|3:0,0:0:0:0:
39,35,52487,2,0,P|36:99|38:138,1,90,10|0,0:3|3:0,0:0:0:0:
240,6,52795,1,10,0:3:0:0:
240,6,53102,6,0,L|341:10,1,90,10|0,3:0|0:0,0:0:0:0:
455,16,53410,1,2,0:3:0:0:
349,85,53564,2,0,B|337:152|337:152|346:264,1,180,2|0,3:0|0:0,0:0:0:0:
489,311,54025,2,0,P|439:308|392:320,1,90,2|0,3:0|0:0,0:0:0:0:
190,368,54333,102,0,P|240:371|287:359,1,90,2|8,3:0|0:3,0:0:0:0:
155,281,54641,1,0,0:0:0:0:
103,151,54795,2,0,P|113:211|101:346,1,180,2|2,3:0|3:0,0:0:0:0:
46,77,55256,2,0,P|100:65|148:67,1,90,2|0,0:3|3:0,0:0:0:0:
267,161,55564,6,0,L|262:63,2,90,10|0|2,3:0|0:0|0:3,0:0:0:0:
386,271,56025,2,0,L|390:181,1,90,0|8,3:0|0:3,0:0:0:0:
222,269,56333,2,0,L|226:358,1,90,0|8,0:0|0:3,0:0:0:0:
423,343,56641,2,0,B|429:284|429:284|415:224|415:224|420:158,1,180,2|0,3:0|3:0,0:0:0:0:
450,28,57102,101,8,0:3:0:0:
512,228,57256,1,4,0:3:0:0:
512,228,57333,1,4,0:3:0:0:
512,228,57410,1,4,0:3:0:0:
355,74,57564,1,4,0:3:0:0:
274,217,57718,1,6,0:3:0:0:
213,141,57872,1,6,0:3:0:0:
175,181,58025,1,4,3:2:0:0:
175,181,58948,86,0,P|180:146|180:121,1,45,2|0,0:2|0:0,0:0:0:0:
46,99,59256,2,0,P|41:64|50:6,1,90,2|2,0:2|0:2,0:0:0:0:
60,225,59718,2,0,P|65:190|56:132,1,90,2|2,0:2|0:2,0:0:0:0:
180,266,60179,2,0,P|175:231|175:206,1,45,2|2,0:0|0:2,0:0:0:0:
282,350,60487,2,0,L|91:359,1,180,0|0,1:2|0:0,0:0:0:0:
298,215,61410,6,0,P|296:248|298:273,1,45,2|0,0:2|0:0,0:0:0:0:
394,327,61718,2,0,P|400:286|373:184,1,135,2|0,0:2|0:0,0:0:0:0:
365,80,62333,2,0,P|359:146|369:187,1,90,2|0,0:2|0:0,0:0:0:0:
457,93,62795,1,2,0:2:0:0:
265,4,62948,54,0,P|270:54|271:117,1,107.999996704102,8|0,0:3|0:0,0:0:0:0:
243,282,63256,5,0,3:0:0:0:
171,80,63410,1,0,0:0:0:0:
152,322,63564,5,0,3:0:0:0:
64,87,63718,1,0,3:0:0:0:
31,278,63872,101,0,3:0:0:0:
307,108,64025,1,0,3:0:0:0:
83,116,64179,5,8,0:3:0:0:
226,362,64333,1,8,0:3:0:0:
252,52,64487,101,10,3:0:0:0:
321,318,64641,1,10,0:3:0:0:
373,0,64795,5,10,3:0:0:0:
243,282,64948,1,10,0:3:0:0:
335,72,65102,101,8,3:0:0:0:
445,360,65256,1,8,0:3:0:0:
455,28,65410,6,0,L|458:82,3,53.9999983520508,2|0|8|8,3:0|0:0|0:3|0:3,0:0:0:0:
399,138,65718,2,0,L|396:192,3,53.9999983520508,0|0|8|8,3:0|3:0|0:3|0:3,0:0:0:0:
348,256,66025,1,8,0:3:0:0:
304,288,66102,1,8,0:3:0:0:
253,304,66179,1,0,3:0:0:0:
199,302,66256,1,8,0:3:0:0:
153,286,66333,2,0,P|136:264|123:240,3,53.9999983520508,8|8|0|0,0:3|0:3|3:0|3:0,0:0:0:0:
203,219,66641,2,0,P|207:192|220:156,1,53.9999983520508,8|8,0:3|0:3,0:0:0:0:
184,90,66795,2,0,P|179:63|166:27,1,53.9999983520508,8|8,0:3|0:3,0:0:0:0:
95,6,66948,5,10,0:3:0:0:
461,190,67102,1,8,0:3:0:0:
453,84,67718,86,0,P|449:131|462:194,1,90,2|0,3:0|0:0,0:0:0:0:
503,278,68025,1,2,3:0:0:0:
258,156,68179,2,0,P|352:159|380:158,1,90,10|0,0:3|0:0,0:0:0:0:
107,69,68487,2,0,P|160:67|209:69,1,90,2|2,3:0|3:0,0:0:0:0:
67,292,68795,1,10,0:3:0:0:
20,53,68948,6,0,B|-15:126|13:180|13:180|51:200|96:181,1,180,2|2,3:0|3:0,0:0:0:0:
321,268,69410,2,0,P|248:262|189:270,1,90,10|0,0:3|0:0,0:0:0:0:
315,78,69718,1,2,3:0:0:0:
413,308,69872,1,2,3:0:0:0:
473,40,70025,1,8,0:3:0:0:
274,184,70179,102,0,P|275:126|261:73,2,90,2|0|0,3:0|0:0|3:0,0:0:0:0:
139,318,70641,2,0,P|138:260|151:208,1,90,10|0,0:3|0:0,0:0:0:0:
345,350,70948,1,2,3:0:0:0:
185,303,71102,1,0,3:0:0:0:
426,175,71256,1,10,0:3:0:0:
122,68,71410,2,0,P|162:105|67:121,1,180,2|0,3:0|3:0,0:0:0:0:
358,43,71872,2,0,P|284:46|251:43,1,90,8|0,0:3|0:0,0:0:0:0:
373,280,72179,1,10,0:3:0:0:
448,10,72333,5,14,0:3:0:0:
448,10,72410,1,12,0:3:0:0:
448,10,72487,1,12,0:3:0:0:
483,93,72641,102,0,L|474:212,2,90,2|0|0,3:0|0:0|3:0,0:0:0:0:
420,268,73102,2,0,L|430:388,1,90,10|0,0:3|0:0,0:0:0:0:
215,249,73410,1,2,3:0:0:0:
505,313,73564,1,0,0:0:0:0:
172,384,73718,1,10,3:0:0:0:
398,224,73872,2,0,L|285:211,2,90,2|0|2,3:3|0:0|0:3,0:0:0:0:
246,140,74333,2,0,L|129:152,1,90,10|0,0:3|0:0,0:0:0:0:
15,280,74641,1,2,3:0:0:0:
65,64,74795,1,2,0:3:0:0:
128,242,74948,1,8,0:3:0:0:
234,16,75102,6,0,P|148:20|121:134,1,180,2|2,3:0|3:0,0:0:0:0:
422,85,75564,2,0,P|364:87|311:73,1,90,10|0,0:3|0:0,0:0:0:0:
405,347,75872,1,2,3:0:0:0:
494,128,76025,1,0,0:0:0:0:
512,320,76179,1,8,0:3:0:0:
327,119,76333,1,2,0:3:0:0:
250,356,76487,101,0,3:0:0:0:
235,81,76641,2,0,L|237:27,2,45
140,296,76948,1,0,0:0:0:0:
327,282,77102,5,2,3:0:0:0:
296,272,77179,1,8,0:3:0:0:
264,267,77256,1,10,0:3:0:0:
231,267,77333,1,8,0:3:0:0:
199,272,77410,1,10,0:3:0:0:
169,282,77487,1,8,0:3:0:0:
140,296,77564,102,0,P|95:331|65:371,1,90,2|0,3:0|0:0,0:0:0:0:
0,160,77872,1,0,3:0:0:0:
0,160,78025,2,0,P|45:194|75:236,1,90,8|0,0:3|0:0,0:0:0:0:
79,98,78333,2,0,P|111:54|153:22,1,90,2|0,3:0|0:0,0:0:0:0:
293,148,78641,1,8,0:3:0:0:
221,328,78795,2,0,P|213:274|218:227,1,90,2|0,0:3|0:0,0:0:0:0:
246,64,79102,1,0,0:0:0:0:
410,260,79256,6,0,P|417:206|409:153,1,90,10|0,0:3|0:0,0:0:0:0:
258,3,79564,2,2,P|290:46|328:75,1,90,2|0,3:0|0:0,0:0:0:0:
305,276,79872,1,10,0:3:0:0:
487,56,80025,2,0,P|480:127|354:156,1,180,2|0,3:0|0:0,0:0:0:0:
118,248,80487,2,0,P|188:242|229:247,1,90,8|0,0:3|0:0,0:0:0:0:
115,55,80795,102,0,P|117:134|113:174,2,90,2|0|8,3:0|0:0|0:3,0:0:0:0:
6,262,81256,1,0,0:0:0:0:
197,167,81410,2,0,P|195:246|200:283,2,90,2|0|8,3:0|0:0|3:0,0:0:0:0:
306,374,81872,1,0,0:0:0:0:
364,131,82025,1,2,3:0:0:0:
430,297,82179,1,8,0:3:0:0:
305,226,82333,1,14,3:0:0:0:
474,59,82487,1,12,0:3:0:0:
474,59,82564,1,12,0:3:0:0:
474,59,82641,6,0,B|414:120|414:120|354:123|354:123|397:67,1,180,2|8,3:0|0:3,0:0:0:0:
469,242,83102,2,0,B|360:240|360:240|406:279|406:279|446:279,1,180,2|0,3:0|3:0,0:0:0:0:
257,211,83564,2,0,P|270:271|260:324,1,90,10|4,0:3|0:3,0:0:0:0:
217,377,83795,1,4,0:3:0:0:
217,377,83872,1,2,3:0:0:0:
149,153,84025,1,0,0:0:0:0:
98,325,84179,1,8,0:3:0:0:
35,201,84333,1,0,3:0:0:0:
184,140,84487,2,0,P|182:112|192:83,3,45,0|0|0|0,0:0|0:0|3:0|0:0,0:0:0:0:
265,87,84795,2,0,P|283:65|305:49,3,45,10|0|0|0,0:3|0:0|3:0|0:0,0:0:0:0:
380,65,85102,101,10,0:3:0:0:
446,365,85256,1,0,0:0:0:0:
512,115,85410,1,0,3:0:0:0:
362,354,85564,5,10,0:3:0:0:
464,39,85718,1,0,0:0:0:0:
512,283,85872,1,0,3:0:0:0:
229,362,86025,2,0,P|239:297|230:254,1,90,10|0,0:3|3:0,0:0:0:0:
155,125,86333,2,0,P|151:167|154:180,3,45,8|8|0|0,0:3|0:3|3:0|3:0,0:0:0:0:
227,192,86641,2,0,P|253:196|280:193,3,45,10|8|0|0,0:3|0:3|3:0|3:0,0:0:0:0:
338,150,86948,2,0,P|364:148|391:153,3,53.9999983520508,6|4|2|0,0:3|0:3|3:0|3:0,0:0:0:0:
464,119,87256,1,8,0:3:0:0:
370,324,87410,102,0,P|359:256|342:215,2,90,2|0|2,3:0|0:0|3:0,0:0:0:0:
208,349,87872,1,10,0:3:0:0:
439,255,88025,1,0,0:0:0:0:
161,198,88179,2,0,P|168:275|167:314,1,90,2|0,3:0|3:0,0:0:0:0:
67,113,88487,1,10,0:3:0:0:
71,346,88641,2,0,B|25:298|28:252|28:252|59:182|115:196,1,180,2|0,3:0|3:0,2:0:0:0:
331,60,89102,2,0,P|263:57|229:65,1,90,10|0,0:3|0:0,0:0:0:0:
390,152,89410,1,2,3:0:0:0:
163,141,89564,1,2,3:0:0:0:
462,47,89718,1,8,0:3:0:0:
397,293,89872,6,0,P|398:221|409:186,1,90,2|0,3:0|0:0,0:0:0:0:
478,358,90179,1,0,3:0:0:0:
264,152,90333,2,0,P|274:204|273:251,1,90,10|0,0:3|0:0,0:0:0:0:
77,233,90641,2,0,P|129:243|175:242,2,90,2|2|8,3:0|3:0|0:3,0:0:0:0:
108,33,91102,2,0,B|107:106|107:106|79:157|79:157|76:239,1,180,2|0,3:0|3:0,0:0:0:0:
16,39,91564,1,8,0:3:0:0:
276,61,91718,1,0,0:0:0:0:
160,162,91872,2,0,L|214:160,3,45,2|0|2|0,3:3|0:0|3:0|3:0,0:0:0:0:
281,156,92179,1,8,0:3:0:0:
144,13,92333,102,0,L|260:16,1,90,2|0,3:0|0:0,0:0:0:0:
359,228,92641,1,2,0:3:0:0:
512,91,92795,2,0,L|395:94,1,90,10|0,0:3|0:0,0:0:0:0:
207,243,93102,2,0,L|314:245,1,90,2|0,3:0|0:0,0:0:0:0:
388,61,93410,1,10,0:3:0:0:
472,333,93564,2,0,B|399:306|355:334|355:334|296:321|266:342,1,180,2|0,3:0|0:0,0:0:0:0:
175,129,94025,2,0,P|181:187|182:242,1,90,10|0,0:3|0:0,0:0:0:0:
80,351,94333,1,2,3:0:0:0:
44,34,94487,2,0,P|38:92|37:147,1,90,2|8,0:3|0:3,0:0:0:0:
361,87,94795,6,0,P|306:80|239:91,2,90,2|0|0,3:0|0:0|0:0,0:0:0:0:
406,218,95256,2,0,P|461:225|528:214,1,90,10|0,0:3|0:0,0:0:0:0:
450,31,95564,2,0,L|454:142,1,90,2|0,3:0|0:0,0:0:0:0:
325,352,95872,1,10,3:0:0:0:
181,212,96025,2,0,P|261:200|400:215,1,180,2|0,0:3|0:3,0:0:0:0:
299,375,96487,1,8,3:0:0:0:
127,294,96641,1,8,0:3:0:0:
127,294,96718,1,8,0:3:0:0:
127,294,96795,101,2,3:0:0:0:
203,153,96948,1,2,3:3:0:0:
215,341,97102,1,10,0:3:0:0:
46,141,97256,86,0,P|109:131|161:137,1,107.999996704102,2|0,3:0|0:0,0:0:0:0:
288,216,97564,1,0,3:0:0:0:
342,27,97718,5,8,0:3:0:0:
399,302,97872,1,0,3:0:0:0:
431,33,98025,101,10,0:3:0:0:
313,299,98179,1,0,3:0:0:0:
387,103,98333,5,10,0:3:0:0:
494,313,98487,1,2,3:0:0:0:
494,313,98564,1,0,3:0:0:0:
494,313,98641,101,8,0:3:0:0:
245,363,98795,1,0,3:0:0:0:
432,229,98948,5,8,0:3:0:0:
227,156,99102,1,2,3:0:0:0:
422,90,99256,101,8,0:3:0:0:
195,252,99410,1,0,3:0:0:0:
370,166,99564,5,10,0:3:0:0:
82,100,99718,2,0,P|94:171|88:227,1,107.999996704102,2|0,3:0|0:0,0:0:0:0:
44,350,100025,1,0,3:0:0:0:
226,166,100179,101,8,0:3:0:0:
129,384,100333,1,2,3:0:0:0:
160,110,100487,5,8,0:3:0:0:
247,367,100641,1,0,3:0:0:0:
237,87,100795,1,10,0:3:0:0:
181,317,100948,1,2,3:0:0:0:
353,289,101102,2,0,P|409:289|428:287,3,53.9999983520508,4|4|0|0,0:3|0:3|3:0|3:0,0:0:0:0:
451,214,101410,2,0,P|507:214|526:216,3,53.9999983520508,8|8|2|0,0:3|0:3|3:0|3:0,0:0:0:0:
501,126,101718,2,0,P|501:70|503:51,3,53.9999983520508,6|4|2|0,0:3|0:3|3:0|0:0,0:0:0:0:
446,3,102025,1,10,0:3:0:0:
366,196,102179,102,0,P|309:195|234:183,1,107.999996704102,2|0,3:0|0:0,0:0:0:0:
193,88,102487,1,0,3:0:0:0:
163,336,102641,2,0,P|177:255|178:217,1,107.999996704102,10|0,0:3|0:0,0:0:0:0:
98,124,102948,1,2,3:0:0:0:
282,298,103102,1,2,3:0:0:0:
8,359,103256,1,10,0:3:0:0:
185,116,103410,6,0,P|164:65|19:87,1,215.999993408203,2|0,3:0|3:0,0:0:0:0:
355,171,103872,2,0,P|289:179|238:171,1,107.999996704102,8|0,0:3|3:0,0:0:0:0:
329,61,104179,1,2,0:3:0:0:
329,61,104256,1,0,0:0:0:0:
329,61,104333,1,2,3:0:0:0:
391,270,104487,1,10,0:3:0:0:
466,34,104641,2,0,L|464:148,1,107.999996704102,2|0,3:0|0:0,0:0:0:0:
461,239,104948,2,0,L|460:300,1,53.9999983520508,8|8,0:3|0:3,0:0:0:0:
408,356,105102,102,0,L|347:355,3,53.9999983520508,2|0|4|4,3:0|3:0|0:3|0:3,0:0:0:0:
308,288,105410,2,0,L|254:287,3,53.9999983520508,4|0|0|8,3:0|3:0|0:0|0:3,0:0:0:0:
176,284,105718,1,0,3:0:0:0:
176,284,105795,1,0,3:0:0:0:
176,284,105872,1,0,0:0:0:0:
54,31,106487,2,0,P|58:95|54:143,1,107.999996704102,2|2,0:3|0:3,0:0:0:0:
187,13,106795,1,0,3:0:0:0:
187,13,106872,1,0,3:0:0:0:
187,13,106948,1,8,0:3:0:0:
307,210,107256,21,10,0:3:0:0:
377,37,107410,2,0,L|382:141,1,90,0|0,3:0|3:0,0:0:0:0:
207,262,107718,5,8,0:3:0:0:
137,89,107872,2,0,L|132:193,1,90,0|0,0:0|3:0,0:0:0:0:
319,195,108179,101,8,0:3:0:0:
492,265,108333,2,0,L|388:270,1,90,0|0,3:0|3:0,0:0:0:0:
272,113,108641,5,8,0:3:0:0:
445,43,108795,2,0,L|341:38,1,90,0|0,3:0|3:0,0:0:0:0:
149,33,109102,1,8,3:0:0:0:
208,216,109256,1,0,3:0:0:0:
208,216,109333,1,0,3:0:0:0:
208,216,109410,2,0,P|154:210|108:215,1,90,8|0,3:0|3:0,0:0:0:0:
54,50,109718,102,0,P|58:112|50:157,2,90,8|0|0,0:3|3:0|3:0,0:0:0:0:
30,265,110179,1,8,0:3:0:0:
160,133,110333,1,0,3:0:0:0:
186,335,110487,1,0,3:0:0:0:
363,258,110641,2,0,P|284:249|249:254,2,90,8|0|0,0:3|3:0|3:0,0:0:0:0:
479,313,111102,1,8,0:3:0:0:
236,268,111256,1,0,3:0:0:0:
469,195,111410,1,0,3:0:0:0:
317,33,111564,2,0,P|320:69|316:108,3,45,12|12|0|0,0:3|0:3|3:0|3:0,0:0:0:0:
261,128,111872,2,0,P|258:164|262:203,3,45,8|8|0|0,0:3|0:3|3:0|3:0,0:0:0:0:
324,213,112179,5,8,0:3:0:0:
146,167,112333,1,0,3:0:0:0:
396,167,112487,1,0,3:0:0:0:
196,349,112641,2,0,P|194:268|200:246,2,90,8|0|0,0:3|0:0|3:0,0:0:0:0:
421,289,113102,2,0,P|423:208|417:186,2,90,8|0|0,0:3|3:0|3:0,0:0:0:0:
257,182,113564,2,0,P|255:101|261:79,2,90,8|0|0,0:3|3:0|3:0,0:0:0:0:
378,60,114025,1,8,0:3:0:0:
304,263,114179,1,0,3:0:0:0:
166,33,114333,1,8,3:0:0:0:
93,224,114487,1,0,3:0:0:0:
93,224,114564,1,0,0:0:0:0:
93,224,114641,102,0,P|101:183|101:157,3,45,8|0|4|4,3:0|0:0|0:3|0:3,0:0:0:0:
47,124,114948,2,0,P|39:83|39:57,3,45,12|4|8|4,3:0|0:3|0:3|0:3,0:0:0:0:
110,52,115256,2,0,P|132:49|154:43,3,45,4|4|4|4,3:0|3:0|0:3|0:3,0:0:0:0:
218,86,115564,2,0,P|240:88|262:94,1,45,8|4,0:3|0:3,0:0:0:0:
330,56,115718,2,0,P|352:53|374:47,1,45,4|4,3:0|3:0,0:0:0:0:
447,23,115872,6,0,P|449:45|455:67,3,45,4|4|8|0,0:3|0:3|3:0|3:0,0:0:0:0:
484,139,116179,2,0,P|481:161|475:183,3,45,4|4|4|0,0:3|0:3|3:0|3:0,0:0:0:0:
437,249,116487,101,4,0:3:0:0:
218,86,116641,1,0,3:0:0:0:
305,345,116795,5,8,0:3:0:0:
373,47,116948,1,8,0:3:0:0:
373,47,117025,1,0,0:0:0:0:
373,47,117102,1,0,0:0:0:0:
