osu file format v14

[General]
AudioFilename: audio.mp3
AudioLeadIn: 0
PreviewTime: 66948
Countdown: 0
SampleSet: Soft
StackLeniency: 0.7
Mode: 0
LetterboxInBreaks: 0
WidescreenStoryboard: 1

[Editor]
DistanceSpacing: 1
BeatDivisor: 2
GridSize: 4
TimelineZoom: 2.200001

[Metadata]
Title:Ringing Bloom
TitleUnicode:Ringing Bloom
Artist:Roselia
ArtistUnicode:Roselia
Creator:newton-
Version:Easy
Source:バンドリ! ガールズバンドパーティ!
Tags:fall _tranquility nyantiaz firis mistlud kurantemelodii krt -aqua shizuku- koda unappreciative harepascals delusional pika [[pika]] wiki:pika wikipika BanG Dream! Bandori! Girls Band Party! ガルパ Garupa insert cover original song single album Bandori project Girl Party Garupa! Anfang Rozeria ロゼリア Minato Yukina 湊友希那 Hikawa Sayo 氷川紗夜 Imai Lisa 今井リサ Udagawa Ako 宇田川あこ Shirokane Rinko 白金燐子 Aiba Aina Aiai 相羽あいな Kudō Haruka Kudo Kudou Kudoharu Kdhr 工藤晴香 Endō Yurika Endo Endou Yurishii 遠藤ゆりか Sakuragawa Megu Meguchii 桜川めぐ Akesaka Satomi Akeko 明坂聡美 Kanon Shizaki Nonchan 志崎樺音 Nakashima Yuki Shimayuki 中島由貴 fire bird japanese video game
BeatmapID:1942822
BeatmapSetID:928615

[Difficulty]
HPDrainRate:3
CircleSize:2
OverallDifficulty:3
ApproachRate:4
SliderMultiplier:1
SliderTickRate:1

[Events]
//Background and Video events
0,0,"i love rinrin.jpg",0,0
//Break Periods
//Storyboard Layer 0 (Background)
//Storyboard Layer 1 (Fail)
//Storyboard Layer 2 (Pass)
//Storyboard Layer 3 (Foreground)
//Storyboard Layer 4 (Overlay)
//Storyboard Sound Samples

[TimingPoints]
150,307.692307692308,4,2,1,40,1,0
150,-100,4,2,1,40,0,0
1302,357.142857142857,4,2,1,40,1,0
1640,352.941176470588,4,2,1,40,1,0
1757,400,4,2,1,40,1,0
1857,342.857142857143,4,2,1,40,1,0
1942,285.714285714286,4,2,1,40,1,0
2227,400,4,2,1,40,1,0
2327,454.545454545455,4,2,1,40,1,0
2637,307.692307692308,4,2,1,40,1,0
2922,352.941176470588,4,2,1,40,1,0
3223,425.531914893617,4,2,1,40,1,0
3560,434.782608695652,4,2,1,40,1,0
3872,307.692307692308,4,2,1,50,1,0
11046,-100,4,2,1,50,0,0
13102,-100,4,2,1,50,0,0
13718,-100,4,2,1,50,0,0
18333,-100,4,2,1,50,0,0
18641,-100,4,2,1,70,0,1
20795,-100,4,2,1,70,0,1
21102,-100,4,2,1,70,0,1
26487,-100,4,2,1,70,0,1
26948,-100,4,2,1,70,0,1
27410,-100,4,2,1,70,0,1
28487,-100,4,2,1,60,0,0
42795,-100,4,2,1,60,0,0
43256,-100,4,2,1,60,0,0
46641,-100,4,2,1,60,0,0
48179,-100,4,2,1,60,0,0
49102,-100,4,2,1,60,0,0
49564,-100,4,2,1,60,0,0
51564,-100,4,2,1,60,0,0
51872,-100,4,2,1,60,0,0
58025,-100,4,2,3,50,0,0
59256,-100,4,2,5,50,0,0
60487,-100,4,2,1,50,0,0
61718,-100,4,2,3,50,0,0
62948,-100,4,2,1,60,0,0
66948,-100,4,2,1,60,0,0
67256,-100,4,2,1,60,0,0
67718,-100,4,2,1,70,0,1
68948,-100,4,2,1,70,0,1
69410,-100,4,2,1,70,0,1
73872,-100,4,2,1,70,0,1
74333,-100,4,2,1,70,0,1
78795,-100,4,2,1,70,0,1
79256,-100,4,2,1,70,0,1
85102,-100,4,2,1,70,0,1
86179,-100,4,2,1,70,0,1
86948,-100,4,2,1,70,0,0
87410,-100,4,2,1,70,0,1
88641,-100,4,2,1,70,0,1
89102,-100,4,2,1,70,0,1
93564,-100,4,2,1,70,0,1
94025,-100,4,2,1,70,0,1
97256,-100,4,2,1,70,0,0
102641,-100,4,2,1,70,0,0
102948,-100,4,2,1,70,0,0
103872,-100,4,2,1,70,0,0
104641,-100,4,2,1,70,0,0
105872,-100,4,2,1,70,0,0
107256,-100,4,2,1,70,0,1
109410,-100,4,2,1,70,0,1
109718,-100,4,2,1,70,0,1
115025,-100,4,2,1,70,0,1
115487,-100,4,2,1,70,0,1
116025,-100,4,2,1,70,0,1
116487,-100,4,2,1,70,0,1
116948,-100,4,2,1,70,0,0

[Colours]
Combo1 : 169,83,255
Combo2 : 128,128,128
Combo3 : 192,192,192
Combo4 : 64,128,128
Combo5 : 103,180,180
Combo6 : 128,128,255
Combo7 : 174,174,255
Combo8 : 128,0,255

[HitObjects]
256,192,150,5,2,1:3:0:0:
256,192,303,12,0,2637,0:0:0:0:
256,192,3872,5,2,1:3:0:0:
256,192,4025,12,0,7564,0:0:0:0:
376,41,8795,6,0,P|401:83|402:132,1,100,0|0,3:0|3:0,0:0:0:0:
331,202,9410,1,0,3:0:0:0:
235,175,9718,1,0,3:0:0:0:
163,244,10025,2,0,L|63:235,2,100,0|0|0,3:0|3:0|3:0,0:0:0:0:
259,271,10948,1,0,3:0:0:0:
331,202,11256,6,0,P|340:153|324:106,1,100,0|0,3:0|3:0,0:0:0:0:
236,58,11872,2,0,L|136:67,1,100,0|0,3:0|3:0,0:0:0:0:
37,80,12487,2,0,L|41:30,2,50,0|0|0,3:0|0:0|3:0,0:0:0:0:
98,160,13102,2,0,P|113:206|104:255,1,100,0|0,3:0|3:0,0:0:0:0:
56,343,13718,6,0,B|131:349|131:349|170:320|170:320|262:328,1,200,0|0,3:0|3:0,0:0:0:0:
345,338,14641,1,0,3:0:0:0:
403,257,14948,2,0,P|397:207|367:168,1,100,0|0,3:0|3:0,0:0:0:0:
269,152,15564,1,0,3:0:0:0:
170,135,15872,1,0,3:0:0:0:
234,57,16179,6,0,L|334:48,1,100,0|0,3:0|3:0,0:0:0:0:
433,38,16795,2,0,P|478:57|508:97,1,100,8|8,0:3|0:3,0:0:0:0:
451,179,17410,2,0,L|442:279,1,100,0|8,3:0|0:3,0:0:0:0:
430,377,18025,1,8,0:3:0:0:
352,317,18333,1,8,0:3:0:0:
261,354,18641,6,0,B|218:325|218:325|118:334,1,150,8|8,0:3|0:3,0:0:0:0:
18,221,19564,2,0,P|0:151|39:88,1,150,8|8,0:3|0:3,0:0:0:0:
187,75,20487,2,0,L|191:19,2,50,8|0|8,0:3|3:0|0:3,0:0:0:0:
197,174,21102,6,0,L|346:160,1,150,8|8,0:3|0:3,0:0:0:0:
475,84,22025,2,0,P|507:149|483:218,1,150,8|8,0:3|0:3,0:0:0:0:
387,333,22948,2,0,L|442:329,2,50,8|0|8,0:3|3:0|0:3,0:0:0:0:
311,269,23564,102,0,P|237:257|167:282,1,150,8|8,0:3|0:3,0:0:0:0:
45,369,24487,2,0,B|16:326|16:326|25:226,1,150,8|8,0:3|0:3,0:0:0:0:
86,94,25410,2,0,L|81:38,2,50,8|0|8,0:3|3:0|0:3,0:0:0:0:
170,148,26025,6,0,P|219:148|291:75,1,150,8|8,0:3|0:3,0:0:0:0:
437,69,26948,2,0,L|450:220,1,150,8|8,0:3|0:3,0:0:0:0:
299,226,27872,2,0,L|303:177,2,50,8|0|8,0:3|3:0|0:3,0:0:0:0:
282,325,28487,38,0,B|216:312|172:350|198:355|148:390|90:370,1,200,0|0,3:0|3:0,0:0:0:0:
30,297,29410,1,2,0:3:0:0:
105,231,29718,2,0,L|96:131,1,100,2|8,0:3|0:3,0:0:0:0:
50,44,30333,2,0,L|-6:49,2,50,0|2|8,3:0|3:0|0:3,0:0:0:0:
151,46,30948,6,0,B|226:41|226:41|264:70|264:70|356:64,1,200,0|0,3:0|3:0,0:0:0:0:
422,123,31872,1,0,0:0:0:0:
496,188,32179,2,0,P|511:234|502:283,1,100,0|10,0:0|0:3,0:0:0:0:
410,241,32795,2,0,L|310:249,1,100,2|8,3:0|0:3,0:0:0:0:
229,189,33410,102,0,P|205:257|238:323,2,150,0|0|0,3:0|0:0|0:0,0:0:0:0:
321,148,34641,1,0,0:0:0:0:
280,56,34948,1,10,0:3:0:0:
188,97,35256,2,0,L|88:88,1,100,2|8,3:0|0:3,0:0:0:0:
29,169,35872,6,0,P|14:215|23:264,1,100,0|8,3:0|0:3,0:0:0:0:
99,329,36487,2,0,L|94:385,2,50,0|0|2,3:0|3:0|0:3,0:0:0:0:
163,253,37102,2,0,P|211:243|259:259,1,100,2|8,0:3|0:3,0:0:0:0:
314,342,37718,1,0,3:0:0:0:
397,287,38025,1,10,0:3:0:0:
342,204,38333,6,0,L|350:104,1,100,0|8,3:0|0:3,0:0:0:0:
270,43,38948,2,0,P|221:33|174:48,1,100,0|10,3:0|0:3,0:0:0:0:
99,116,39564,1,2,3:0:0:0:
166,191,39872,1,8,0:3:0:0:
91,258,40179,2,0,L|31:251,2,50,0|2|8,3:0|0:3|0:3,0:0:0:0:
158,333,40795,6,0,B|232:339|232:339|271:310|271:310|363:318,1,200,0|0,3:0|3:0,0:0:0:0:
447,328,41718,1,8,0:3:0:0:
406,236,42025,2,0,L|414:136,1,100,0|10,3:0|0:3,0:0:0:0:
473,55,42641,2,0,L|478:5,2,50,2|10|0,3:0|0:3|3:0,0:0:0:0:
374,44,43256,102,0,P|325:34|278:49,1,100,0|8,3:0|0:3,0:0:0:0:
245,143,43872,2,0,P|197:157|149:147,1,100,0|10,3:0|0:3,0:0:0:0:
101,60,44487,1,2,3:0:0:0:
50,145,44795,1,10,0:3:0:0:
98,231,45102,2,0,L|93:281,2,50,0|2|8,3:0|0:3|0:3,0:0:0:0:
149,147,45718,6,0,B|215:134|259:172|233:177|283:212|341:192,1,200,0|2,3:0|3:0,0:0:0:0:
418,138,46641,1,8,0:3:0:0:
474,222,46948,2,0,L|466:322,1,100,10|0,0:3|3:0,0:0:0:0:
366,331,47564,2,0,L|371:381,2,50,2|0|8,3:0|3:0|0:3,0:0:0:0:
266,340,48179,70,0,P|204:301|133:319,2,150,10|10|10,0:3|0:3|0:3,0:0:0:0:
366,331,49410,2,0,L|383:131,1,200,10|8,0:3|0:3,0:0:0:0:
392,32,50333,1,6,0:3:0:0:
302,74,50641,6,0,B|204:82|204:82|161:53,2,150,10|10|10,0:3|0:3|0:3,0:0:0:0:
383,132,51872,2,0,L|483:140,1,100,8|2,0:3|0:3,0:0:0:0:
474,239,52487,2,0,L|374:231,1,100,10|6,0:3|0:3,0:0:0:0:
283,272,53102,102,0,B|217:285|173:247|199:242|149:207|91:227,1,200,2|8,0:3|0:3,0:0:0:0:
11,276,54025,1,2,3:0:0:0:
9,175,54333,2,0,L|1:75,1,100,2|2,3:0|0:3,0:0:0:0:
100,67,54948,2,0,L|95:17,2,50,8|2|2,0:3|3:0|0:3,0:0:0:0:
198,58,55564,6,0,P|272:46|342:71,1,150,2|2,0:3|3:0,0:0:0:0:
369,166,56333,1,2,3:0:0:0:
326,256,56641,2,0,P|252:268|182:243,1,150,2|8,3:0|0:3,0:0:0:0:
155,148,57410,2,0,P|108:132|59:142,2,100,4|6|2,0:3|0:3|3:2,0:0:0:0:
155,148,59256,102,0,B|221:135|265:173|239:178|289:213|347:193,1,200,2|0,0:2|0:2,0:0:0:0:
491,63,60487,1,0,1:0:0:0:
491,63,61718,6,0,B|486:138|486:138|515:176|515:176|509:268,1,200,2|0,0:2|0:2,0:0:0:0:
322,321,62948,6,0,P|278:297|228:297,1,100,8|0,0:3|3:0,0:0:0:0:
136,335,63564,1,0,3:0:0:0:
56,273,63872,1,0,3:0:0:0:
69,172,64179,2,0,L|77:72,1,100,8|10,0:3|0:3,0:0:0:0:
177,62,64795,2,0,L|172:12,2,50,2|8|0,3:0|0:3|3:0,0:0:0:0:
272,92,65410,38,0,B|338:105|382:67|356:62|406:27|464:47,2,200,0|0|0,3:0|3:0|0:0,0:0:0:0:
214,221,67718,102,0,B|257:192|257:192|357:201,1,150,2|10,3:0|0:3,0:0:0:0:
435,142,68487,2,0,P|444:93|428:46,1,100,2|10,3:0|0:3,0:0:0:0:
344,100,69102,1,0,0:0:0:0:
254,53,69410,1,10,0:3:0:0:
168,107,69718,1,2,3:0:0:0:
32,43,70179,6,0,P|56:113|44:186,1,150,2|10,3:0|0:3,0:0:0:0:
1,276,70948,2,0,P|49:285|96:269,1,100,2|10,3:0|0:3,0:0:0:0:
178,217,71564,2,0,P|224:201|273:210,1,100,0|8,0:0|0:3,0:0:0:0:
360,259,72179,2,0,L|355:309,2,50,14|10|12,0:3|0:3|0:3,0:0:0:0:
405,236,72641,102,0,L|391:87,1,150,2|10,3:0|0:3,0:0:0:0:
303,38,73410,2,0,P|259:62|210:61,1,100,2|10,3:0|0:3,0:0:0:0:
113,38,74025,1,0,3:0:0:0:
43,110,74333,1,10,0:3:0:0:
70,206,74641,1,2,3:0:0:0:
45,353,75102,6,0,B|88:324|88:324|188:333,1,150,2|10,3:0|0:3,0:0:0:0:
285,342,75872,2,0,L|385:350,1,100,2|10,3:0|0:3,0:0:0:0:
461,286,76487,2,0,P|470:237|454:190,1,100,0|0,3:0|3:0,0:0:0:0:
397,108,77102,2,0,L|402:58,2,50,2|14|2,3:0|0:3|3:0,0:0:0:0:
363,145,77564,102,0,L|214:159,1,150,14|8,0:3|0:3,0:0:0:0:
166,70,78333,2,0,L|66:62,1,100,2|8,3:0|0:3,0:0:0:0:
4,140,78948,2,0,P|-9:188|2:236,1,100,0|10,3:0|0:3,0:0:0:0:
61,316,79564,1,2,3:0:0:0:
197,254,80025,6,0,P|267:278|340:266,1,150,2|8,3:0|0:3,0:0:0:0:
429,218,80795,2,0,L|421:118,1,100,2|8,3:0|0:3,0:0:0:0:
338,61,81410,2,0,P|291:43|242:50,1,100,2|8,3:0|0:3,0:0:0:0:
155,100,82025,2,0,L|105:95,2,50,2|8|2,3:0|0:3|3:0,0:0:0:0:
241,150,82641,102,0,B|270:193|270:193|261:293,2,150,2|2|10,3:0|3:0|0:3,0:0:0:0:
168,219,83872,2,0,L|68:227,1,100,0|8,3:0|0:3,0:0:0:0:
55,127,84487,2,0,L|5:132,2,50,0|0|10,0:0|3:0|0:3,0:0:0:0:
134,65,85102,6,0,P|204:89|277:77,1,150,10|10,0:3|0:3,0:0:0:0:
422,38,86025,2,0,B|417:113|417:113|446:151|446:151|440:243,1,200,10|10,0:3|0:3,0:0:0:0:
431,327,86948,1,14,0:3:0:0:
294,264,87410,102,0,P|224:240|151:252,1,150,2|10,3:0|0:3,0:0:0:0:
62,300,88179,2,0,P|50:251|63:203,1,100,2|10,3:0|0:3,0:0:0:0:
148,152,88795,1,0,0:0:0:0:
232,101,89102,1,10,0:3:0:0:
315,49,89410,1,2,3:0:0:0:
454,105,89872,6,0,B|425:148|425:148|434:248,1,150,2|10,3:0|0:3,0:0:0:0:
481,333,90641,2,0,P|432:345|384:332,1,100,2|8,3:0|0:3,0:0:0:0:
299,284,91256,2,0,P|251:271|203:283,1,100,0|8,0:0|0:3,0:0:0:0:
113,327,91872,2,0,L|118:377,2,50,10|6|8,0:3|0:3|0:3,0:0:0:0:
62,322,92334,102,0,L|48:173,1,150,2|10,3:0|0:3,0:0:0:0:
36,72,93102,2,0,P|83:59|131:71,1,100,2|10,3:0|0:3,0:0:0:0:
220,118,93718,1,0,3:0:0:0:
306,65,94025,1,10,0:3:0:0:
394,111,94333,1,2,3:0:0:0:
317,240,94795,6,0,P|247:216|174:228,1,150,2|10,3:0|0:3,0:0:0:0:
81,194,95564,2,0,P|76:243|96:288,1,100,2|10,3:0|0:3,0:0:0:0:
188,325,96179,2,0,L|291:334,1,100,0|4,3:0|3:0,0:0:0:0:
368,273,96795,2,0,L|418:278,2,50,2|2|10,3:0|0:3|0:3,0:0:0:0:
331,239,97257,70,0,L|317:90,1,150,2|8,3:0|0:3,0:0:0:0:
233,35,98025,2,0,P|187:55|138:52,1,100,10|10,0:3|0:3,0:0:0:0:
52,103,98641,2,0,L|61:206,1,100,8|8,0:3|0:3,0:0:0:0:
70,302,99256,1,8,0:3:0:0:
205,238,99718,6,0,B|248:209|248:209|348:218,1,150,2|8,3:0|0:3,0:0:0:0:
433,266,100487,2,0,P|445:218|433:170,1,100,8|10,0:3|0:3,0:0:0:0:
348,117,101102,2,0,P|335:68|348:21,2,100,12|8|6,0:3|0:3|0:3,0:0:0:0:
197,123,102179,102,0,P|127:99|54:111,1,150,2|10,3:0|0:3,0:0:0:0:
13,203,102948,1,2,3:0:0:0:
79,337,103410,2,0,L|228:323,1,150,2|10,3:0|0:3,0:0:0:0:
327,312,104179,1,2,0:3:0:0:
256,192,104641,12,8,105872,0:3:0:0:
135,76,107256,22,0,L|149:225,1,150,8|8,0:3|0:3,0:0:0:0:
265,320,108179,2,0,P|326:281|397:299,1,150,8|8,0:3|0:3,0:0:0:0:
478,172,109102,2,0,L|482:116,2,50,8|0|8,0:3|3:0|0:3,0:0:0:0:
383,137,109718,6,0,B|340:108|340:108|240:117,1,150,8|8,0:3|0:3,0:0:0:0:
101,64,110641,2,0,P|77:132|110:198,1,150,8|8,0:3|0:3,0:0:0:0:
210,309,111564,2,0,L|206:365,2,50,8|0|8,0:3|3:0|0:3,0:0:0:0:
251,218,112179,102,0,B|294:247|294:247|394:238,1,150,8|8,0:3|0:3,0:0:0:0:
422,91,113102,2,0,B|379:62|379:62|279:71,1,150,8|8,0:3|0:3,0:0:0:0:
131,84,114025,2,0,L|135:28,2,50,8|0|8,0:3|3:0|0:3,0:0:0:0:
30,92,114641,6,0,L|44:241,1,150,8|8,0:3|0:3,0:0:0:0:
164,331,115564,2,0,P|229:297|298:321,1,150,8|8,0:3|0:3,0:0:0:0:
388,202,116487,2,0,L|392:146,1,50,8|0,0:3|3:0,0:0:0:0:
354,118,116795,2,0,L|350:62,2,50,8|8|0,0:3|0:3|0:0,0:0:0:0:
