osu file format v14

[General]
AudioFilename: audio.mp3
AudioLeadIn: 0
PreviewTime: 66948
Countdown: 0
SampleSet: Soft
StackLeniency: 0.7
Mode: 0
LetterboxInBreaks: 0
WidescreenStoryboard: 1

[Editor]
DistanceSpacing: 0.7
BeatDivisor: 4
GridSize: 8
TimelineZoom: 2

[Metadata]
Title:Ringing Bloom
TitleUnicode:Ringing Bloom
Artist:Roselia
ArtistUnicode:Roselia
Creator:newton-
Version:Aqua's Normal
Source:バンドリ! ガールズバンドパーティ!
Tags:fall _tranquility nyantiaz firis mistlud kurantemelodii krt -aqua shizuku- koda unappreciative harepascals delusional pika [[pika]] wiki:pika wikipika BanG Dream! Bandori! Girls Band Party! ガルパ Garupa insert cover original song single album Bandori project Girl Party Garupa! Anfang Rozeria ロゼリア Minato Yukina 湊友希那 Hikawa Sayo 氷川紗夜 Imai Lisa 今井リサ Udagawa Ako 宇田川あこ Shirokane Rinko 白金燐子 Aiba Aina Aiai 相羽あいな Kudō Haruka Kudo Kudou Kudoharu Kdhr 工藤晴香 Endō Yurika Endo Endou Yurishii 遠藤ゆりか Sakuragawa Megu Meguchii 桜川めぐ Akesaka Satomi Akeko 明坂聡美 Kanon Shizaki Nonchan 志崎樺音 Nakashima Yuki Shimayuki 中島由貴 fire bird japanese video game
BeatmapID:1940431
BeatmapSetID:928615

[Difficulty]
HPDrainRate:4
CircleSize:3
OverallDifficulty:4
ApproachRate:5
SliderMultiplier:1.2
SliderTickRate:1

[Events]
//Background and Video events
0,0,"Sayosjakd.jpg",0,0
//Break Periods
2,350,2672
//Storyboard Layer 0 (Background)
//Storyboard Layer 1 (Fail)
//Storyboard Layer 2 (Pass)
//Storyboard Layer 3 (Foreground)
//Storyboard Layer 4 (Overlay)
//Storyboard Sound Samples

[TimingPoints]
150,307.692307692308,4,2,1,40,1,0
150,-100,4,2,1,40,0,0
765,-100,4,2,1,5,0,0
918,-100,4,2,1,40,0,0
1302,357.142857142857,4,2,1,40,1,0
1640,352.941176470588,4,2,1,40,1,0
1757,400,4,2,1,40,1,0
1857,342.857142857143,4,2,1,40,1,0
1942,285.714285714286,4,2,1,40,1,0
2227,400,4,2,1,40,1,0
2327,454.545454545455,4,2,1,40,1,0
2637,307.692307692308,4,2,1,40,1,0
2922,352.941176470588,4,2,1,40,1,0
3223,425.531914893617,4,2,1,40,1,0
3560,434.782608695652,4,2,1,40,1,0
3872,307.692307692308,4,2,1,40,1,0
11046,-100,4,2,1,50,0,0
13102,-100,4,2,1,50,0,0
13718,-100,4,2,1,50,0,0
18333,-100,4,2,1,60,0,0
18641,-100,4,2,1,70,0,1
20795,-100,4,2,1,70,0,1
21102,-100,4,2,1,70,0,1
26487,-100,4,2,1,70,0,1
26948,-100,4,2,1,70,0,1
27410,-100,4,2,1,70,0,1
28487,-100,4,2,1,60,0,0
42795,-100,4,2,1,60,0,0
43256,-100,4,2,1,60,0,0
46641,-100,4,2,1,60,0,0
48179,-100,4,2,1,60,0,0
49102,-100,4,2,1,60,0,0
49564,-100,4,2,1,60,0,0
51564,-100,4,2,1,60,0,0
51872,-100,4,2,1,60,0,0
58025,-100,4,2,3,50,0,0
59256,-100,4,2,5,50,0,0
60487,-100,4,2,1,50,0,0
61718,-100,4,2,3,50,0,0
62948,-100,4,2,1,60,0,0
66948,-100,4,2,1,50,0,0
67256,-100,4,2,1,50,0,0
67718,-100,4,2,1,70,0,1
68948,-100,4,2,1,70,0,1
69410,-100,4,2,1,70,0,1
73872,-100,4,2,1,70,0,1
74333,-100,4,2,1,70,0,1
78795,-100,4,2,1,70,0,1
79256,-100,4,2,1,70,0,1
85102,-100,4,2,1,70,0,1
86179,-100,4,2,1,70,0,1
86948,-100,4,2,1,70,0,0
87410,-100,4,2,1,70,0,1
88641,-100,4,2,1,70,0,1
89102,-100,4,2,1,70,0,1
93564,-100,4,2,1,70,0,1
94025,-100,4,2,1,70,0,1
97256,-100,4,2,1,60,0,0
102641,-100,4,2,1,60,0,0
102948,-100,4,2,1,60,0,0
103872,-100,4,2,1,60,0,0
104641,-100,4,2,1,60,0,0
105872,-100,4,2,1,60,0,0
107256,-100,4,2,1,70,0,1
109410,-100,4,2,1,70,0,1
109718,-100,4,2,1,70,0,1
115025,-100,4,2,1,70,0,1
115487,-100,4,2,1,70,0,1
116025,-100,4,2,1,70,0,1
116948,-100,4,2,1,70,0,0

[Colours]
Combo1 : 170,240,233
Combo2 : 64,224,208
Combo3 : 162,168,249
Combo4 : 92,99,240

[HitObjects]
96,320,150,5,2,1:3:0:0:
108,332,3872,5,2,1:3:0:0:
256,192,4025,12,0,8179,0:0:0:0:
120,344,8795,6,0,L|49:356,2,60,0|0|0,3:0|0:0|3:0,0:0:0:0:
149,313,9256,2,0,L|275:335,1,120,0|0,0:0|0:0,0:0:0:0:
288,369,9718,1,0,3:0:0:0:
366,338,10026,5,0,3:0:0:0:
404,320,10180,2,0,L|426:194,1,120,0|0,0:0|0:0,0:0:0:0:
384,190,10641,2,0,L|370:114,1,60,0|0,3:0|0:0,0:0:0:0:
403,101,10949,1,0,3:0:0:0:
453,34,11256,6,0,L|524:46,2,60,0|0|0,3:0|0:0|3:0,0:0:0:0:
423,4,11718,2,0,B|371:0|371:0|355:8|355:8|303:4,1,120,0|0,0:0|0:0,0:0:0:0:
263,0,12180,1,0,3:0:0:0:
217,70,12487,5,0,3:0:0:0:
188,39,12641,2,0,P|138:6|79:8,1,120,0|0,0:0|0:0,0:0:0:0:
51,38,13103,2,0,L|61:97,1,60,0|0,3:0|0:0,0:0:0:0:
36,131,13410,1,0,3:0:0:0:
94,191,13718,5,0,3:0:0:0:
60,268,14026,1,0,3:0:0:0:
85,301,14180,2,0,B|113:317|153:309|137:293|177:285|205:301,1,120,0|0,0:0|0:0,0:0:0:0:
234,323,14641,1,0,3:0:0:0:
309,285,14949,5,0,3:0:0:0:
341,258,15103,2,0,P|342:198|309:149,1,120,0|0,0:0|0:0,0:0:0:0:
271,131,15564,2,0,L|212:141,1,60,0|0,3:0|0:0,0:0:0:0:
184,173,15872,1,0,3:0:0:0:
115,124,16180,5,0,3:0:0:0:
46,172,16487,1,0,3:0:0:0:
10,149,16641,2,0,P|9:89|42:40,1,120,8|8,0:3|0:3,0:0:0:0:
77,18,17103,2,0,L|136:28,1,60,8|8,0:3|0:3,0:0:0:0:
169,53,17410,5,0,3:0:0:0:
242,93,17718,2,0,L|301:83,1,60,8|0,0:3|3:0,0:0:0:0:
327,49,18026,2,0,L|386:59,1,60,8|0,0:3|3:0,0:0:0:0:
418,85,18333,1,8,0:3:0:0:
479,142,18641,6,0,B|463:170|471:210|487:194|495:234|479:262,1,120,8|0,0:3|3:0,0:0:0:0:
459,293,19103,2,0,P|409:260|350:261,1,120,8|0,0:3|3:0,0:0:0:0:
316,285,19564,1,8,0:3:0:0:
248,235,19871,5,0,3:0:0:0:
215,261,20025,2,0,B|157:270|157:270|99:249,1,120,8|0,0:3|3:0,0:0:0:0:
70,219,20487,2,0,L|80:160,1,60,8|0,0:3|3:0,0:0:0:0:
54,125,20794,1,8,0:3:0:0:
104,58,21102,6,0,B|156:54|156:54|172:62|172:62|224:58,1,120,8|0,0:3|3:0,0:0:0:0:
254,32,21564,2,0,L|380:54,1,120,8|0,0:3|3:0,0:0:0:0:
397,86,22025,1,8,0:3:0:0:
346,152,22332,5,0,3:0:0:0:
319,184,22487,2,0,P|318:243|351:292,1,120,8|0,0:3|3:0,0:0:0:0:
372,328,22948,2,0,L|313:318,1,60,8|0,0:3|3:0,0:0:0:0:
277,341,23255,1,8,0:3:0:0:
207,293,23563,5,8,0:3:0:0:
131,330,23871,1,0,3:0:0:0:
93,311,24025,2,0,B|77:283|85:243|101:259|109:219|93:191,1,120,8|0,0:3|3:0,0:0:0:0:
67,163,24486,1,8,0:3:0:0:
124,101,24794,5,0,3:0:0:0:
155,128,24948,2,0,B|213:137|213:137|271:116,1,120,8|0,0:3|3:0,0:0:0:0:
309,100,25410,2,0,L|319:159,1,60,8|0,0:3|3:0,0:0:0:0:
295,193,25717,1,8,0:3:0:0:
348,257,26025,5,8,0:3:0:0:
301,326,26332,1,0,3:0:0:0:
322,361,26487,2,0,P|381:361|430:328,1,120,8|0,0:3|3:0,0:0:0:0:
452,292,26948,1,8,0:3:0:0:
421,214,27255,5,0,3:0:0:0:
449,182,27410,2,0,B|445:130|445:130|453:114|453:114|449:62,1,120,8|0,0:3|3:0,0:0:0:0:
423,30,27871,2,0,L|364:20,1,60,8|0,0:3|3:0,0:0:0:0:
289,59,28332,1,8,0:3:0:0:
250,76,28487,6,0,L|124:54,1,120,0|8,3:0|0:3,0:0:0:0:
59,12,29102,1,0,3:0:0:0:
59,12,29255,1,0,3:0:0:0:
0,72,29564,6,0,P|0:131|33:180,1,120,10|2,0:3|3:0,0:0:0:0:
74,191,30025,1,8,0:3:0:0:
143,144,30333,2,0,L|202:134,1,60,0|2,3:0|3:0,0:0:0:0:
235,159,30640,1,8,0:3:0:0:
265,187,30794,6,0,B|317:183|317:183|333:191|333:191|385:187,1,120,2|2,0:3|0:3,0:0:0:0:
413,216,31255,1,10,0:3:0:0:
479,164,31563,1,0,3:0:0:0:
479,164,31717,1,0,3:0:0:0:
498,245,32025,6,0,B|507:303|507:303|486:361,1,120,8|0,0:3|3:0,0:0:0:0:
449,381,32486,1,10,0:3:0:0:
375,339,32794,2,0,L|316:349,1,60,2|2,3:0|3:0,0:0:0:0:
278,328,33102,1,8,0:3:0:0:
200,359,33410,6,0,L|74:337,1,120,0|8,3:0|0:3,0:0:0:0:
44,358,33871,2,0,P|43:298|10:249,1,120,0|0,0:0|3:0,0:0:0:0:
0,208,34333,2,0,L|10:149,1,60,0|8,0:0|0:3,0:0:0:0:
83,105,34794,5,0,3:0:0:0:
119,125,34948,2,0,L|129:184,2,60,10|2|2,0:3|0:3|3:0,0:0:0:0:
156,106,35410,2,0,L|166:47,1,60,2|8,3:0|0:3,0:0:0:0:
245,17,35871,6,0,P|304:17|353:50,1,120,0|8,3:0|0:3,0:0:0:0:
371,88,36333,2,0,B|355:116|363:156|379:140|387:180|371:208,1,120,0|0,0:0|3:0,0:0:0:0:
345,235,36794,1,2,0:3:0:0:
268,199,37102,5,2,0:3:0:0:
230,216,37256,2,0,L|171:206,1,60,2|8,3:0|0:3,0:0:0:0:
142,237,37564,2,0,P|142:296|175:345,1,120,2|10,3:0|0:3,0:0:0:0:
214,359,38025,1,10,0:3:0:0:
283,312,38333,6,0,B|335:308|335:308|351:316|351:316|403:312,1,120,0|8,3:0|0:3,0:0:0:0:
437,332,38794,1,0,0:0:0:0:
497,273,39102,1,0,0:0:0:0:
475,237,39256,2,0,L|485:178,1,60,10|2,0:3|0:3,0:0:0:0:
466,139,39564,6,0,P|417:105|357:105,1,120,2|8,3:0|0:3,0:0:0:0:
319,120,40025,1,2,0:3:0:0:
255,174,40333,2,0,L|196:164,1,60,2|8,0:3|0:3,0:0:0:0:
164,192,40640,1,2,0:3:0:0:
133,220,40794,6,0,P|167:269|167:329,1,120,0|10,3:0|0:3,0:0:0:0:
140,360,41255,1,0,0:0:0:0:
55,361,41564,2,0,L|45:302,1,60,0|8,0:0|0:3,0:0:0:0:
14,272,41871,1,0,0:0:0:0:
19,230,42025,6,0,L|41:104,1,120,0|10,3:0|0:3,0:0:0:0:
77,93,42487,2,0,L|67:34,2,60,2|2|10,0:3|3:0|0:3,0:0:0:0:
143,145,43102,1,10,0:3:0:0:
178,123,43256,6,0,B|206:139|246:131|230:115|270:107|298:123,1,120,0|8,3:0|0:3,0:0:0:0:
332,137,43717,1,0,0:0:0:0:
403,93,44025,1,0,0:0:0:0:
437,116,44179,2,0,L|447:175,1,60,10|2,0:3|0:3,0:0:0:0:
477,204,44487,6,0,P|417:204|369:238,1,120,2|10,3:0|0:3,0:0:0:0:
352,276,44948,2,0,P|292:276|244:242,1,120,2|2,0:3|0:3,0:0:0:0:
192,176,45563,1,2,0:3:0:0:
159,149,45717,6,0,B|101:140|101:140|43:161,1,120,0|8,3:0|0:3,0:0:0:0:
0,233,46333,2,0,L|10:292,1,60,2|0,3:0|0:0,0:0:0:0:
45,314,46640,1,8,0:3:0:0:
125,290,46948,6,0,L|135:231,2,60,10|0|0,0:3|3:0|3:0,0:0:0:0:
159,314,47410,2,0,L|169:373,2,60,8|2|0,0:3|3:0|3:0,0:0:0:0:
198,299,47871,1,8,0:3:0:0:
275,330,48179,6,0,B|327:334|327:334|343:326|343:326|395:330,1,120,10|10,0:3|0:3,0:0:0:0:
426,354,48640,2,0,P|426:294|460:246,1,120,10|0,0:3|3:0,0:0:0:0:
499,232,49102,1,10,0:3:0:0:
453,161,49410,6,0,B|395:152|395:152|337:173,1,120,10|2,0:3|0:3,0:0:0:0:
307,203,49871,2,0,L|188:182,1,120,2|0,3:0|3:0,0:0:0:0:
163,148,50332,1,6,0:3:0:0:
89,188,50640,6,0,B|73:216|81:256|97:240|105:280|89:308,1,120,10|10,0:3|0:3,0:0:0:0:
71,340,51102,2,0,P|119:306|178:306,1,120,10|2,0:3|3:0,0:0:0:0:
215,325,51563,1,10,0:3:0:0:
285,279,51871,5,8,0:3:0:0:
300,318,52025,2,0,P|348:352|407:352,1,120,10|0,0:3|3:0,0:0:0:0:
446,337,52487,2,0,L|456:278,1,60,10|0,0:3|3:0,0:0:0:0:
484,246,52794,1,6,0:3:0:0:
429,181,53102,6,0,L|408:62,1,120,2|2,0:3|0:3,0:0:0:0:
369,46,53563,1,2,3:0:0:0:
304,100,53871,1,2,0:3:0:0:
304,100,54025,1,2,3:0:0:0:
231,57,54333,6,0,B|203:73|163:65|179:49|139:41|111:57,1,120,2|2,3:0|0:3,0:0:0:0:
87,86,54794,1,2,3:0:0:0:
20,34,55102,1,2,3:0:0:0:
20,34,55255,1,2,0:3:0:0:
1,115,55564,6,0,B|-8:173|-8:173|13:231,1,120,2|2,0:3|0:3,0:0:0:0:
48,253,56025,2,0,L|167:232,1,120,2|2,3:0|3:0,0:0:0:0:
193,199,56487,2,0,L|252:209,1,60,8|2,0:3|3:0,0:0:0:0:
315,153,56948,5,0,3:0:0:0:
353,170,57102,2,0,L|363:229,1,60,8|4,0:3|0:3,0:0:0:0:
330,255,57410,2,0,L|320:314,1,60,4|4,0:3|0:3,0:0:0:0:
349,344,57717,1,6,0:3:0:0:
274,382,58025,5,6,3:2:0:0:
262,370,59255,5,2,0:2:0:0:
250,358,60486,5,0,1:0:0:0:
238,346,61717,6,0,B|182:386|102:362|134:330|54:306|-2:346,1,240,2|0,0:2|3:2,0:0:0:0:
179,267,62948,6,0,B|175:215|175:215|183:199|183:199|179:147,1,120,8|0,0:3|3:0,0:0:0:0:
200,113,63409,1,0,3:0:0:0:
223,77,63564,2,0,L|282:87,1,60,0|0,3:0|3:0,0:0:0:0:
315,113,63871,2,0,L|374:103,1,60,0|0,3:0|3:0,0:0:0:0:
397,67,64179,5,8,0:3:0:0:
467,112,64487,2,0,P|501:160|501:219,1,120,10|2,0:3|3:0,0:0:0:0:
476,253,64948,1,8,0:3:0:0:
394,234,65255,1,10,0:3:0:0:
359,258,65410,6,0,L|240:237,1,120,0|0,3:0|3:0,0:0:0:0:
206,211,65871,2,0,B|197:153|197:153|218:95,1,120,4|0,0:3|3:0,0:0:0:0:
256,78,66332,1,4,0:3:0:0:
207,9,66641,6,0,L|148:-1,1,60,8|8,0:3|0:3,0:0:0:0:
122,32,66948,2,0,L|63:42,1,60,10|8,0:3|0:3,0:0:0:0:
14,203,67717,6,0,P|48:251|48:310,1,120,2|2,3:0|3:0,0:0:0:0:
22,344,68179,2,0,P|81:343|129:377,1,120,10|2,0:3|3:0,0:0:0:0:
198,330,68794,1,10,0:3:0:0:
232,353,68948,6,0,B|260:369|300:361|284:345|324:337|352:353,1,120,2|0,3:0|3:0,0:0:0:0:
375,381,69409,1,10,0:3:0:0:
448,340,69717,1,2,3:0:0:0:
426,303,69871,2,0,L|436:244,1,60,2|8,3:0|0:3,0:0:0:0:
472,221,70179,6,0,L|451:102,1,120,2|0,3:0|3:0,0:0:0:0:
412,85,70640,2,0,B|354:76|354:76|296:97,1,120,10|2,0:3|3:0,0:0:0:0:
235,154,71255,1,10,0:3:0:0:
264,184,71410,6,0,B|260:236|260:236|268:252|268:252|264:304,1,120,2|0,3:0|3:0,0:0:0:0:
233,330,71871,1,8,0:3:0:0:
153,357,72179,1,14,0:3:0:0:
121,384,72333,2,0,L|62:374,1,60,10|12,0:3|0:3,0:0:0:0:
36,340,72640,6,0,P|35:280|69:232,1,120,2|2,3:0|3:0,0:0:0:0:
103,209,73102,2,0,L|82:90,1,120,10|2,0:3|3:0,0:0:0:0:
113,12,73717,1,10,0:3:0:0:
146,37,73871,6,0,B|174:53|214:45|198:29|238:21|266:37,1,120,2|2,0:3|0:3,0:0:0:0:
300,50,74332,1,10,0:3:0:0:
376,16,74640,1,2,3:0:0:0:
409,40,74794,2,0,L|419:99,1,60,2|8,0:3|0:3,0:0:0:0:
459,109,75102,6,0,B|480:167|480:167|471:225,1,120,2|0,3:0|3:0,0:0:0:0:
449,260,75564,2,0,P|400:226|341:227,1,120,10|2,0:3|3:0,0:0:0:0:
289,293,76179,2,0,L|230:283,1,60,10|2,0:3|0:3,0:0:0:0:
210,245,76487,6,0,B|158:241|158:241|142:249|142:249|90:245,1,120,0|0,3:0|3:0,0:0:0:0:
29,301,77102,2,0,L|39:360,2,60,2|14|2,3:0|0:3|3:0,0:0:0:0:
1,269,77564,6,0,L|22:150,1,120,14|0,0:3|3:0,0:0:0:0:
4,112,78025,1,8,0:3:0:0:
58,48,78333,2,0,P|106:14|165:14,1,120,2|8,3:0|0:3,0:0:0:0:
200,37,78794,6,0,L|221:156,1,120,2|0,0:3|0:0,0:0:0:0:
199,191,79255,1,10,0:3:0:0:
255,253,79564,2,0,B|283:269|323:261|307:245|347:237|375:253,1,120,2|10,3:0|0:3,0:0:0:0:
409,267,80025,6,0,B|430:209|430:209|421:151,1,120,2|0,3:0|0:0,0:0:0:0:
394,118,80486,1,8,0:3:0:0:
325,69,80794,2,0,B|273:65|273:65|257:73|257:73|205:69,1,120,2|8,3:0|0:3,0:0:0:0:
140,119,81410,6,0,L|161:238,1,120,2|8,3:0|0:3,0:0:0:0:
221,295,82025,2,0,P|280:293|328:259,1,120,2|2,3:0|3:0,0:0:0:0:
359,286,82486,1,12,0:3:0:0:
395,307,82640,6,0,L|416:188,1,120,2|8,3:0|0:3,0:0:0:0:
394,152,83102,2,0,B|336:131|336:131|278:140,1,120,2|0,3:0|3:0,0:0:0:0:
244,164,83563,1,10,0:3:0:0:
182,221,83871,6,0,B|124:242|124:242|66:233,1,120,0|8,3:0|0:3,0:0:0:0:
33,206,84333,2,0,L|12:87,1,120,0|0,3:0|3:0,0:0:0:0:
43,59,84794,1,10,0:3:0:0:
118,95,85102,6,0,B|146:111|186:103|170:87|210:79|238:95,1,120,10|0,0:3|3:0,0:0:0:0:
267,117,85564,2,0,P|326:114|374:80,1,120,10|0,0:3|3:0,0:0:0:0:
395,42,86025,1,10,0:3:0:0:
478,50,86333,6,0,L|488:109,1,60,8|0,0:3|3:0,0:0:0:0:
450,129,86640,2,0,L|429:248,1,120,10|14,0:3|0:3,0:0:0:0:
453,281,87102,1,2,3:0:0:0:
381,324,87410,6,0,B|353:340|313:332|329:316|289:308|261:324,1,120,2|2,3:0|3:0,0:0:0:0:
228,342,87871,1,10,0:3:0:0:
153,380,88179,2,0,B|103:376|103:376|87:384|87:384|35:380,1,120,2|10,3:0|0:3,0:0:0:0:
6,349,88640,1,2,3:0:0:0:
49,277,88948,5,0,3:0:0:0:
49,277,89102,1,10,0:3:0:0:
9,203,89410,2,0,L|-1:144,1,60,2|2,3:0|3:0,0:0:0:0:
14,104,89717,1,8,0:3:0:0:
41,72,89871,6,0,B|99:51|99:51|157:60,1,120,2|0,3:0|3:0,0:0:0:0:
188,87,90332,1,10,0:3:0:0:
219,164,90640,2,0,L|198:283,1,120,2|8,3:0|0:3,0:0:0:0:
225,314,91102,6,0,B|283:335|283:335|341:326,1,120,2|0,3:0|3:0,0:0:0:0:
375,302,91563,1,8,0:3:0:0:
448,343,91871,1,10,0:3:0:0:
485,323,92025,2,0,L|475:264,1,60,6|8,0:3|0:3,0:0:0:0:
438,243,92333,6,0,B|442:193|442:193|434:177|434:177|438:125,1,120,2|2,3:0|0:3,0:0:0:0:
471,99,92794,1,10,0:3:0:0:
413,37,93102,2,0,P|364:2|305:0,1,120,2|10,3:0|0:3,0:0:0:0:
279,32,93564,6,0,P|230:67|171:69,1,120,2|0,0:3|0:0,0:0:0:0:
138,43,94025,1,10,0:3:0:0:
61,77,94332,1,2,3:0:0:0:
28,103,94487,2,0,L|18:162,1,60,0|8,0:0|0:3,0:0:0:0:
54,184,94794,6,0,L|75:303,1,120,2|0,3:0|0:0,0:0:0:0:
51,337,95255,1,10,0:3:0:0:
127,371,95564,2,0,B|155:387|195:379|179:363|219:355|247:371,1,120,2|10,3:0|0:3,0:0:0:0:
282,382,96025,1,2,0:3:0:0:
353,337,96332,5,8,0:3:0:0:
380,305,96487,2,0,L|370:246,1,60,4|12,3:0|0:3,0:0:0:0:
333,224,96794,2,0,L|343:165,2,60,2|2|10,3:0|0:3|0:3,0:0:0:0:
293,239,97255,1,2,3:0:0:0:
217,201,97563,5,0,3:0:0:0:
188,231,97718,2,0,L|198:290,1,60,8|0,0:3|3:0,0:0:0:0:
161,312,98025,2,0,P|101:309|53:274,1,120,10|10,0:3|0:3,0:0:0:0:
31,239,98486,1,2,3:0:0:0:
85,175,98794,5,0,3:0:0:0:
59,141,98948,2,0,L|49:82,1,60,8|2,0:3|3:0,0:0:0:0:
72,46,99256,2,0,B|100:62|140:54|124:38|164:30|192:46,1,120,8|10,0:3|0:3,0:0:0:0:
221,68,99717,1,2,3:0:0:0:
293,24,100025,6,0,L|352:14,1,60,0|8,3:0|0:3,0:0:0:0:
385,39,100333,2,0,P|350:87|347:146,1,120,2|0,3:0|3:0,0:0:0:0:
378,173,100794,1,10,0:3:0:0:
413,194,100948,6,0,P|447:241|451:300,1,120,2|0,3:0|3:0,0:0:0:0:
433,339,101409,1,8,0:3:0:0:
353,310,101718,2,0,L|294:320,1,60,6|2,0:3|3:0,0:0:0:0:
263,349,102025,1,10,0:3:0:0:
231,376,102179,6,0,L|112:355,1,120,2|0,3:0|3:0,0:0:0:0:
92,318,102640,1,10,0:3:0:0:
149,256,102948,2,0,L|139:197,1,60,2|2,3:0|3:0,0:0:0:0:
108,168,103255,1,10,0:3:0:0:
118,127,103410,6,0,P|165:93|224:89,1,120,2|0,3:0|3:0,0:0:0:0:
266,100,103871,1,10,0:3:0:0:
318,165,104179,2,0,L|377:175,1,60,2|2,0:3|3:0,0:0:0:0:
418,181,104486,1,10,0:3:0:0:
448,152,104640,6,0,B|469:94|469:94|460:36,1,120,2|8,3:0|0:3,0:0:0:0:
421,19,105102,1,2,3:0:0:0:
336,50,105410,2,0,L|277:40,1,60,12|4,0:3|3:0,0:0:0:0:
246,10,105717,1,0,3:0:0:0:
246,10,105871,5,8,0:3:0:0:
28,137,106794,1,0,3:0:0:0:
28,137,106948,1,10,0:3:0:0:
98,182,107256,6,0,P|131:232|130:291,1,120,8|0,0:3|3:0,0:0:0:0:
112,328,107717,2,0,P|162:295|221:296,1,120,8|0,0:3|3:0,0:0:0:0:
254,321,108179,1,8,0:3:0:0:
323,274,108486,5,0,3:0:0:0:
350,242,108640,2,0,B|359:184|359:184|338:126,1,120,8|0,0:3|3:0,0:0:0:0:
311,93,109102,2,0,L|252:83,1,60,8|0,0:3|3:0,0:0:0:0:
217,109,109410,1,8,0:3:0:0:
155,166,109717,6,0,B|105:170|105:170|89:162|89:162|37:166,1,120,8|0,0:3|3:0,0:0:0:0:
2,141,110179,2,0,P|1:81|34:32,1,120,8|0,0:3|3:0,0:0:0:0:
69,12,110640,1,8,0:3:0:0:
140,55,110948,5,0,3:0:0:0:
168,24,111102,2,0,L|287:3,1,120,8|0,0:3|3:0,0:0:0:0:
313,34,111564,2,0,L|372:44,1,60,8|0,0:3|3:0,0:0:0:0:
409,24,111871,1,8,0:3:0:0:
477,72,112179,5,8,0:3:0:0:
436,145,112486,1,0,0:0:0:0:
453,183,112640,2,0,B|469:211|461:251|445:235|437:275|453:303,1,120,8|0,0:3|3:0,0:0:0:0:
477,331,113102,1,8,0:3:0:0:
410,381,113409,5,0,0:0:0:0:
373,359,113564,2,0,B|315:338|315:338|257:347,1,120,8|0,0:3|3:0,0:0:0:0:
222,371,114025,2,0,L|163:361,1,60,8|0,0:3|3:0,0:0:0:0:
135,329,114332,1,0,0:0:0:0:
59,366,114640,5,8,0:3:0:0:
3,302,114948,1,0,3:0:0:0:
22,264,115102,2,0,L|1:145,1,120,8|0,0:3|3:0,0:0:0:0:
28,113,115563,1,8,0:3:0:0:
105,145,115871,5,0,3:0:0:0:
138,119,116025,2,0,B|188:115|188:115|204:123|204:123|256:119,1,120,8|0,0:3|3:0,0:0:0:0:
286,148,116487,2,0,L|345:158,1,60,8|0,0:3|3:0,0:0:0:0:
414,109,116948,1,8,0:3:0:0:
