osu file format v14

[General]
AudioFilename: audio.mp3
AudioLeadIn: 0
PreviewTime: 67229
Countdown: 0
SampleSet: Soft
StackLeniency: 0.7
Mode: 3
LetterboxInBreaks: 0
SpecialStyle: 0
WidescreenStoryboard: 1

[Editor]
DistanceSpacing: 1.1
BeatDivisor: 4
GridSize: 8
TimelineZoom: 2.600005

[Metadata]
Title:Ringing Bloom
TitleUnicode:Ringing Bloom
Artist:Roselia
ArtistUnicode:Roselia
Creator:Virtue-
Version:Bouquet for Friends
Source:バンドリ! ガールズバンドパーティ!
Tags:BanG Dream! Bandori! Girls Band Party! Gāruzu Bando Pāti! original song 9th single FIRE BIRD ロゼリア Rozeria 湊友希那 Minato Yukina 氷川紗夜 Hikawa Sayo 今井リサ Imai Lisa 宇田川あこ Udagawa Ako 白金燐子 Shirokane Rinko 相羽あいな Aiba Aina Aiai 工藤晴香 Kudō Haruka Kudo Kudou Kudoharu Kdhr 遠藤ゆりか Endō Yurika Endo Endou Yurishii 桜川めぐ Sakuragawa Megu Meguchii 明坂聡美 Akesaka Satomi Akeko 中島由貴 Nakashima Yuki Shimayuki 志崎樺音 Shizaki Kanon Nonchan Non-chan 織田あすか Oda Asuka (Elements Garden) 藤永龍太郎 Fujinaga Ryutaro video game japanese rock
BeatmapID:2125708
BeatmapSetID:1015663

[Difficulty]
HPDrainRate:8.5
CircleSize:4
OverallDifficulty:8
ApproachRate:5
SliderMultiplier:1.4
SliderTickRate:1

[Events]
//Background and Video events
0,0,"wallbgrb.jpg",0,0
//Break Periods
//Storyboard Layer 0 (Background)
//Storyboard Layer 1 (Fail)
//Storyboard Layer 2 (Pass)
//Storyboard Layer 3 (Foreground)
//Storyboard Layer 4 (Overlay)
//Storyboard Sound Samples

[TimingPoints]
420,377.358490566038,4,2,1,50,1,0
420,-81.3008130081301,4,2,1,50,0,0
1174,413.793103448276,4,2,1,50,1,0
1174,-74.6268656716418,4,2,1,50,0,0
1587,342.857142857143,4,2,1,50,1,0
1587,-90.0900900900901,4,2,1,50,0,0
1929,300,4,2,1,50,1,0
1929,-102.040816326531,4,2,1,50,0,0
2229,279.06976744186,4,2,1,50,1,0
2229,-109.89010989011,4,2,1,50,0,0
3066,315.789473684211,4,2,1,50,1,0
3066,-97.0873786407767,4,2,1,50,0,0
3381,375,4,2,1,50,1,0
3381,-81.9672131147541,4,2,1,50,0,0
3756,389.61038961039,4,2,1,50,1,0
3756,-78.740157480315,4,2,1,50,0,0
4145,983.606557377049,4,2,1,50,1,0
4145,-31.25,4,2,1,50,0,0
9076,307.692307692308,4,2,1,50,1,0
18614,-20,4,2,1,50,0,0
18633,-1000,4,2,1,50,0,0
18691,-500,4,2,1,50,0,0
18712.1,-285.714285714286,4,2,1,50,0,0
18733.2,-200,4,2,1,50,0,0
18754.3,-153.846153846154,4,2,1,50,0,0
18775.4,-125,4,2,1,50,0,0
18796.5,-105.263157894737,4,2,1,50,0,0
18817.6,-90.9090909090909,4,2,1,50,0,0
18838.7,-80,4,2,1,50,0,0
18859.8,-71.4285714285714,4,2,1,50,0,0
18880.9,-64.5161290322581,4,2,1,50,0,0
18902,-58.8235294117647,4,2,1,50,0,0
18922,-100,4,2,1,50,0,0
63229,-58.8235294117647,4,2,1,50,0,0
63306,-76.9230769230769,4,2,1,50,0,0
63383,-142.857142857143,4,2,1,50,0,0
63460,-333.333333333333,4,2,1,50,0,0
63537,-58.8235294117647,4,2,1,50,0,0
63614,-333.333333333333,4,2,1,50,0,0
63691,-58.8235294117647,4,2,1,50,0,0
63768,-333.333333333333,4,2,1,50,0,0
63845,-58.8235294117647,4,2,1,50,0,0
63922,-333.333333333333,4,2,1,50,0,0
63999,-58.8235294117647,4,2,1,50,0,0
64076,-333.333333333333,4,2,1,50,0,0
64152,-58.8235294117647,4,2,1,50,0,0
64229,-333.333333333333,4,2,1,50,0,0
64306,-58.8235294117647,4,2,1,50,0,0
64383,-333.333333333333,4,2,1,50,0,0
64460,-58.8235294117647,4,2,1,50,0,0
64537,-333.333333333333,4,2,1,50,0,0
64614,-58.8235294117647,4,2,1,50,0,0
64691,-333.333333333333,4,2,1,50,0,0
64768,-58.8235294117647,4,2,1,50,0,0
64845,-333.333333333333,4,2,1,50,0,0
64922,-58.8235294117647,4,2,1,50,0,0
64999,-333.333333333333,4,2,1,50,0,0
65076,-58.8235294117647,4,2,1,50,0,0
65152,-333.333333333333,4,2,1,50,0,0
65229,-58.8235294117647,4,2,1,50,0,0
65306,-333.333333333333,4,2,1,50,0,0
65383,-58.8235294117647,4,2,1,50,0,0
65460,-333.333333333333,4,2,1,50,0,0
65537,-58.8235294117647,4,2,1,50,0,0
65614,-333.333333333333,4,2,1,50,0,0
65691,-100,4,2,1,50,0,0
67229,-66.6666666666667,4,2,1,50,0,0
67306,-200,4,2,1,50,0,0
67383,-10,4,2,1,50,0,0
67402,-1000,4,2,1,50,0,0
67691,-500,4,2,1,50,0,0
67719.8,-277.777777777778,4,2,1,50,0,0
67748.6,-192.307692307692,4,2,1,50,0,0
67777.4,-147.058823529412,4,2,1,50,0,0
67806.2,-119.047619047619,4,2,1,50,0,0
67835,-100,4,2,1,50,0,0
67863.8,-86.2068965517241,4,2,1,50,0,0
67892.6,-75.7575757575758,4,2,1,50,0,0
67921.4,-67.5675675675676,4,2,1,50,0,0
67950.2,-60.9756097560976,4,2,1,50,0,0
67979,-55.5555555555556,4,2,1,50,0,0
67999,-100,4,2,1,50,0,1
107229,-10,4,2,1,50,0,0
107249,-1000,4,2,1,50,0,0
107306,-500,4,2,1,50,0,0
107327.1,-303.030303030303,4,2,1,50,0,0
107348.2,-217.391304347826,4,2,1,50,0,0
107369.3,-169.491525423729,4,2,1,50,0,0
107390.4,-138.888888888889,4,2,1,50,0,0
107411.5,-117.647058823529,4,2,1,50,0,0
107432.6,-102.040816326531,4,2,1,50,0,0
107453.7,-90.0900900900901,4,2,1,50,0,0
107474.8,-80.6451612903226,4,2,1,50,0,0
107495.9,-72.992700729927,4,2,1,50,0,0
107517,-66.6666666666667,4,2,1,50,0,0
107537,-100,4,2,1,50,0,0
126922,-10,4,2,1,50,0,0
126940,-1000,4,2,1,50,0,0
126998,-500,4,2,1,50,0,0
127019.2,-303.030303030303,4,2,1,50,0,0
127040.4,-217.391304347826,4,2,1,50,0,0
127061.6,-169.491525423729,4,2,1,50,0,0
127082.8,-138.888888888889,4,2,1,50,0,0
127104,-117.647058823529,4,2,1,50,0,0
127125.2,-102.040816326531,4,2,1,50,0,0
127146.4,-90.0900900900901,4,2,1,50,0,0
127167.6,-80.6451612903226,4,2,1,50,0,0
127188.8,-72.992700729927,4,2,1,50,0,0
127210,-66.6666666666667,4,2,1,50,0,0
127229,-100,4,2,1,50,0,0
150922,-66.6666666666667,4,2,1,50,0,0
150999,-200,4,2,1,50,0,0
151076,-66.6666666666667,4,2,1,50,0,0
151152,-200,4,2,1,50,0,0
151229,-100,4,2,1,50,0,0
151263.6,-99.009900990099,4,2,1,50,0,0
151298.2,-98.0392156862745,4,2,1,50,0,0
151332.8,-97.0873786407767,4,2,1,50,0,0
151367.4,-96.1538461538461,4,2,1,50,0,0
151402,-95.2380952380952,4,2,1,50,0,0
151436.6,-94.3396226415094,4,2,1,50,0,0
151471.2,-93.4579439252336,4,2,1,50,0,0
151505.8,-92.5925925925926,4,2,1,50,0,0
151540.4,-91.743119266055,4,2,1,50,0,0
151575,-90.9090909090909,4,2,1,50,0,0
151614,-100,4,2,1,50,0,0
151691,-100,4,2,1,50,0,1
191229,-100,4,2,1,50,0,0
253999,-58.8235294117647,4,2,1,50,0,0
254074,-333.333333333333,4,2,1,50,0,0
254151,-58.8235294117647,4,2,1,50,0,0
254229,-333.333333333333,4,2,1,50,0,0
254306,-58.8235294117647,4,2,1,50,0,0
254383,-333.333333333333,4,2,1,50,0,0
254460,-10,4,2,1,50,0,0
254499,-1000,4,2,1,50,0,0
255845,-500,4,2,1,50,0,0
255889.2,-277.777777777778,4,2,1,50,0,0
255933.4,-192.307692307692,4,2,1,50,0,0
255977.6,-147.058823529412,4,2,1,50,0,0
256021.8,-119.047619047619,4,2,1,50,0,0
256066,-100,4,2,1,50,0,0
256110.2,-86.2068965517241,4,2,1,50,0,0
256154.4,-75.7575757575758,4,2,1,50,0,0
256198.6,-67.5675675675676,4,2,1,50,0,0
256242.8,-60.9756097560976,4,2,1,50,0,0
256287,-55.5555555555556,4,2,1,50,0,0
256306,-133.333333333333,4,2,1,50,0,0
256680.95,-131.578947368421,4,2,1,50,0,0
257057.9,-128.205128205128,4,2,1,50,0,0
257434.85,-126.582278481013,4,2,1,50,0,0
257811.8,-125,4,2,1,50,0,0
258188.75,-123.456790123457,4,2,1,50,0,0
258565.7,-120.481927710843,4,2,1,50,0,0
258942.65,-119.047619047619,4,2,1,50,0,0
259319.6,-117.647058823529,4,2,1,50,0,0
259696.55,-116.279069767442,4,2,1,50,0,0
260073.5,-113.636363636364,4,2,1,50,0,0
260450.45,-112.359550561798,4,2,1,50,0,0
260827.4,-111.111111111111,4,2,1,50,0,0
261204.35,-109.89010989011,4,2,1,50,0,0
261581.3,-107.52688172043,4,2,1,50,0,0
261958.25,-106.382978723404,4,2,1,50,0,0
262335.2,-105.263157894737,4,2,1,50,0,0
262712.15,-104.166666666667,4,2,1,50,0,0
263089.1,-102.040816326531,4,2,1,50,0,0
263466.05,-101.010101010101,4,2,1,50,0,0
263843,-100,4,2,1,50,0,0
271229,-66.6666666666667,4,2,1,50,0,0
271306,-200,4,2,1,50,0,0
271383,-66.6666666666667,4,2,1,50,0,0
271460,-200,4,2,1,50,0,0
271537,-66.6666666666667,4,2,1,50,0,0
271614,-200,4,2,1,50,0,0
271691,-66.6666666666667,4,2,1,50,0,0
271768,-200,4,2,1,50,0,0
271845,-66.6666666666667,4,2,1,50,0,0
271922,-200,4,2,1,50,0,0
271999,-66.6666666666667,4,2,1,50,0,0
272076,-200,4,2,1,50,0,0
272152,-58.8235294117647,4,2,1,50,0,0
272229,-333.333333333333,4,2,1,50,0,0
272306,-58.8235294117647,4,2,1,50,0,0
272383,-333.333333333333,4,2,1,50,0,0
272460,-58.8235294117647,4,2,1,50,0,0
272537,-333.333333333333,4,2,1,50,0,0
272614,-58.8235294117647,4,2,1,50,0,0
272691,-333.333333333333,4,2,1,50,0,0
272768,-58.8235294117647,4,2,1,50,0,0
272845,-333.333333333333,4,2,1,50,0,0
272922,-58.8235294117647,4,2,1,50,0,0
272999,-333.333333333333,4,2,1,50,0,0
273076,-58.8235294117647,4,2,1,50,0,0
273152,-333.333333333333,4,2,1,50,0,0
273229,-58.8235294117647,4,2,1,50,0,0
273306,-333.333333333333,4,2,1,50,0,0
273383,-58.8235294117647,4,2,1,50,0,0
273460,-333.333333333333,4,2,1,50,0,0
273537,-100,4,2,1,50,0,0
275537,-58.8235294117647,4,2,1,50,0,0
275614,-333.333333333333,4,2,1,50,0,0
275691,-10,4,2,1,50,0,0
275710,-1000,4,2,1,50,0,0
275768,-500,4,2,1,15,0,0
275789.1,-303.030303030303,4,2,1,15,0,0
275810.2,-217.391304347826,4,2,1,15,0,0
275831.3,-169.491525423729,4,2,1,15,0,0
275852.4,-138.888888888889,4,2,1,15,0,0
275873.5,-117.647058823529,4,2,1,15,0,0
275894.6,-102.040816326531,4,2,1,15,0,0
275915.7,-90.0900900900901,4,2,1,15,0,0
275936.8,-80.6451612903226,4,2,1,15,0,0
275957.9,-72.992700729927,4,2,1,15,0,0
275979,-66.6666666666667,4,2,1,15,0,0
275999,-100,4,2,1,50,0,1
300460,-10,4,2,1,50,0,0
300479,-1000,4,2,1,50,0,0
300535,-500,4,2,1,50,0,0
300556.1,-303.030303030303,4,2,1,50,0,0
300577.2,-217.391304347826,4,2,1,50,0,0
300598.3,-169.491525423729,4,2,1,50,0,0
300619.4,-138.888888888889,4,2,1,50,0,0
300640.5,-117.647058823529,4,2,1,50,0,0
300661.6,-102.040816326531,4,2,1,50,0,0
300682.7,-90.0900900900901,4,2,1,50,0,0
300703.8,-80.6451612903226,4,2,1,50,0,0
300724.9,-72.992700729927,4,2,1,50,0,0
300749,-66.6666666666667,4,2,1,50,0,0
300768,-100,4,2,1,50,0,0
310614,-58.8235294117647,4,2,1,50,0,0
310652,-333.333333333333,4,2,1,50,0,0
310691,-58.8235294117647,4,2,1,50,0,0
310729,-333.333333333333,4,2,1,50,0,0
310768,-58.8235294117647,4,2,1,50,0,0
310806,-333.333333333333,4,2,1,50,0,0
310845,-58.8235294117647,4,2,1,50,0,0
310883,-333.333333333333,4,2,1,50,0,0
310922,-100,4,2,1,50,0,0
320383,-10,4,2,1,50,0,0
320422,-1000,4,2,1,50,0,0
320768,-500,4,2,1,50,0,0
320798.8,-277.777777777778,4,2,1,50,0,0
320829.6,-192.307692307692,4,2,1,50,0,0
320860.4,-147.058823529412,4,2,1,50,0,0
320891.2,-119.047619047619,4,2,1,50,0,0
320922,-100,4,2,1,50,0,0
320952.8,-86.2068965517241,4,2,1,50,0,0
320983.6,-75.7575757575758,4,2,1,50,0,0
321014.4,-67.5675675675676,4,2,1,50,0,0
321045.2,-60.9756097560976,4,2,1,50,0,0
321076,-55.5555555555556,4,2,1,50,0,0
321085,429.682464658617,4,2,1,50,1,0
321085,-71.4285714285714,4,2,1,50,0,0
321944,433.946161746199,4,2,1,50,1,0
321944,-70.9219858156028,4,2,1,50,0,0
322377,348.140927447431,4,2,1,50,1,0
322377,-88.495575221239,4,2,1,50,0,0
322725,521.748204316597,4,2,1,50,1,0
322725,-58.8235294117647,4,2,1,50,0,0
323246,284.308987007079,4,2,1,50,1,0
323246,-108.695652173913,4,2,1,50,0,0
323530,310.906603656262,4,2,1,50,1,0
323530,-99.009900990099,4,2,1,50,0,0
323840,305.237882056082,4,2,1,50,1,0
323840,-101.010101010101,4,2,1,50,0,0
324450,267.936686560966,4,2,1,50,1,0
324450,-114.942528735632,4,2,1,50,0,0
324583,344.67109760511,4,2,1,50,1,0
324583,-89.2857142857143,4,2,1,50,0,0
324755,386.712556556711,4,2,1,50,1,0
324755,-79.3650793650794,4,2,1,50,0,0
324948,434.285383401613,4,2,1,50,1,0
324948,-70.9219858156028,4,2,1,50,0,0
325382,382.584742520468,4,2,1,50,1,0
325382,-80.6451612903226,4,2,1,50,0,0
325764,391.905838090635,4,2,1,50,1,0
325764,-78.740157480315,4,2,1,50,0,0
326155,472.608404552794,4,2,1,50,1,0
326155,-64.9350649350649,4,2,1,50,0,0
326627,547.120776911503,4,2,1,50,1,0
326627,-56.1797752808989,4,2,1,50,0,0
327174,669.912018221607,4,2,1,50,1,0
327174,-45.8715596330275,4,2,1,50,0,0
327826,600,4,2,1,50,1,0
327826,-51.2820512820513,4,2,1,50,0,0

[HitObjects]
192,192,420,128,0,1174:0:0:0:0:
64,192,420,128,0,1174:0:0:0:0:
448,192,420,128,0,1380:0:0:0:0:
320,192,1174,128,0,1380:0:0:0:0:
192,192,1380,128,0,1715:0:0:0:0:
64,192,1484,128,0,1822:0:0:0:0:
448,192,1587,128,0,2154:0:0:0:0:
320,192,1715,128,0,1929:0:0:0:0:
192,192,1822,128,0,2022:0:0:0:0:
64,192,1929,128,0,2298:0:0:0:0:
320,192,2022,128,0,2229:0:0:0:0:
192,192,2135,128,0,2298:0:0:0:0:
448,192,2229,128,0,2508:0:0:0:0:
320,192,2298,128,0,2508:0:0:0:0:
192,192,2368,128,0,2612:0:0:0:0:
64,192,2508,128,0,2996:0:0:0:0:
320,192,2612,128,0,2926:0:0:0:0:
448,192,2717,128,0,2926:0:0:0:0:
192,192,2926,128,0,2996:0:0:0:0:
320,192,2996,128,0,3223:0:0:0:0:
448,192,3066,128,0,3223:0:0:0:0:
64,192,3223,128,0,3302:0:0:0:0:
448,192,3302,128,0,3498:0:0:0:0:
320,192,3381,128,0,3498:0:0:0:0:
64,192,3521,128,0,4072:0:0:0:0:
192,192,3615,128,0,3950:0:0:0:0:
320,192,3732,128,0,3853:0:0:0:0:
448,192,3853,128,0,4072:0:0:0:0:
320,192,3950,128,0,4072:0:0:0:0:
192,192,4072,128,0,4145:0:0:0:0:
64,192,4145,128,0,9001:0:0:0:0:
320,192,4145,128,0,9001:0:0:0:0:
448,192,4145,128,0,9001:0:0:0:0:
192,192,8079,128,0,9001:0:0:0:0:
192,192,9076,1,2,0:0:0:0:
64,192,9076,1,4,0:0:0:0:
448,192,9076,128,0,9306:0:0:0:0:
320,192,9076,128,0,9691:0:0:0:0:
192,192,9229,128,0,9614:0:0:0:0:
448,192,9383,1,2,0:0:0:0:
64,192,9383,128,0,9614:0:0:0:0:
448,192,9537,128,0,9691:0:0:0:0:
192,192,9691,1,2,0:0:0:0:
64,192,9691,1,0,0:0:0:0:
192,192,9845,1,0,0:0:0:0:
64,192,9999,128,2,10229:0:0:0:0:
448,192,9999,128,0,10614:0:0:0:0:
320,192,10152,128,0,10537:0:0:0:0:
192,192,10306,1,2,0:0:0:0:
64,192,10306,128,0,10537:0:0:0:0:
192,192,10460,128,0,10614:0:0:0:0:
64,192,10614,1,2,0:0:0:0:
320,192,10614,128,0,10768:0:0:0:0:
192,192,10768,128,0,10999:0:0:0:0:
448,192,10922,128,2,11152:0:0:0:0:
64,192,10922,128,0,10999:0:0:0:0:
64,192,11076,128,0,11152:0:0:0:0:
64,192,11229,128,2,11460:0:0:0:0:
448,192,11229,128,0,11306:0:0:0:0:
448,192,11383,128,0,11537:0:0:0:0:
320,192,11383,128,0,11537:0:0:0:0:
192,192,11537,128,0,12152:0:0:0:0:
64,192,11537,128,2,11768:0:0:0:0:
320,192,11691,128,0,12076:0:0:0:0:
448,192,11845,128,2,12076:0:0:0:0:
64,192,11845,1,0,0:0:0:0:
64,192,11999,128,0,12152:0:0:0:0:
320,192,12152,1,2,0:0:0:0:
448,192,12152,1,0,0:0:0:0:
64,192,12306,1,0,0:0:0:0:
192,192,12383,1,0,0:0:0:0:
320,192,12460,128,2,13076:0:0:0:0:
448,192,12460,128,0,12691:0:0:0:0:
192,192,12614,128,0,12999:0:0:0:0:
64,192,12768,128,2,12999:0:0:0:0:
448,192,12768,1,0,0:0:0:0:
448,192,12922,128,0,13076:0:0:0:0:
64,192,13076,1,0,0:0:0:0:
192,192,13076,128,2,13229:0:0:0:0:
320,192,13229,128,0,13460:0:0:0:0:
64,192,13383,128,0,13614:0:0:0:50:RimShot.wav
448,192,13383,128,2,13460:0:0:0:0:
448,192,13537,128,0,13614:0:0:0:0:
192,192,13614,1,0,0:0:0:50:RimShot.wav
448,192,13691,128,2,13922:0:0:0:0:
64,192,13691,128,0,13768:0:0:0:50:RimShot.wav
64,192,13845,128,0,13999:0:0:0:50:RimShot.wav
448,192,13999,128,4,14229:0:0:0:0:
320,192,13999,128,2,14383:0:0:0:0:
192,192,14152,128,0,14460:0:0:0:0:
64,192,14306,128,2,14460:0:0:0:0:
448,192,14306,1,0,0:0:0:0:
448,192,14460,128,0,14768:0:0:0:0:
320,192,14460,128,0,14768:0:0:0:0:
192,192,14614,1,2,0:0:0:0:
64,192,14614,1,0,0:0:0:0:
64,192,14768,1,0,0:0:0:0:
192,192,14922,128,0,15306:0:0:0:0:
320,192,14922,128,2,15152:0:0:0:0:
64,192,15076,128,0,15460:0:0:0:0:
320,192,15229,128,0,15614:0:0:0:0:
448,192,15229,128,2,15460:0:0:0:0:
192,192,15383,128,0,15768:0:0:0:0:
448,192,15537,128,0,16076:0:0:0:0:
64,192,15537,128,2,15768:0:0:0:0:
320,192,15691,128,0,15922:0:0:0:0:
64,192,15845,128,0,16076:0:0:0:0:
192,192,15845,128,2,16229:0:0:0:0:
320,192,15999,128,0,16306:0:0:0:0:
448,192,16152,128,2,16306:0:0:0:0:
64,192,16152,128,0,16229:0:0:0:0:
192,192,16306,1,8,0:0:0:0:
64,192,16306,1,0,0:0:0:0:
320,192,16383,1,8,0:0:0:0:
448,192,16460,1,4,0:0:0:0:
192,192,16460,128,2,16614:0:0:0:0:
64,192,16460,128,0,16691:0:0:0:0:
448,192,16614,128,0,16845:0:0:0:0:
192,192,16768,128,2,16999:0:0:0:0:
64,192,16768,128,0,16999:0:0:0:0:
320,192,16922,128,0,16999:0:0:0:0:
448,192,16922,128,0,16999:0:0:0:0:
64,192,17076,1,0,0:0:0:0:
448,192,17076,1,2,0:0:0:0:
320,192,17076,1,8,0:0:0:0:
64,192,17229,1,0,0:0:0:0:
320,192,17229,1,8,0:0:0:0:
448,192,17229,1,2,0:0:0:0:
64,192,17383,1,0,0:0:0:0:
320,192,17383,1,8,0:0:0:0:
448,192,17383,1,2,0:0:0:0:
64,192,17537,1,0,0:0:0:0:
320,192,17537,1,8,0:0:0:0:
448,192,17537,1,2,0:0:0:0:
320,192,17691,1,0,0:0:0:0:
448,192,17691,1,0,0:0:0:0:
64,192,17691,1,2,0:0:0:0:
192,192,17691,1,4,0:0:0:0:
64,192,17845,128,0,17922:0:0:0:0:
192,192,17845,128,8,17922:0:0:0:0:
448,192,17922,1,8,0:0:0:0:
320,192,17999,128,0,18076:0:0:0:0:
64,192,17999,128,8,18076:0:0:0:0:
192,192,18076,1,8,0:0:0:0:
320,192,18152,128,2,18229:0:0:0:0:
448,192,18152,128,0,18229:0:0:0:0:
64,192,18229,1,2,0:0:0:0:
192,192,18306,128,0,18383:0:0:0:0:
320,192,18306,128,0,18383:0:0:0:50:KICK 2.wav
448,192,18383,1,0,0:0:0:50:KICK 2.wav
64,192,18460,128,0,18537:0:0:0:0:
192,192,18460,128,2,18537:0:0:0:0:
320,192,18537,1,2,0:0:0:0:
64,192,18614,1,4,0:0:0:0:
192,192,18614,1,8,0:0:0:0:
448,192,18614,128,0,18922:0:0:0:0:
64,192,18922,1,4,0:0:0:0:
192,192,18922,1,8,0:0:0:0:
320,192,18922,1,0,0:0:0:0:
320,192,19076,1,2,0:0:0:0:
448,192,19076,1,0,0:0:0:0:
192,192,19229,1,2,0:0:0:0:
64,192,19229,1,0,0:0:0:0:
192,192,19383,1,0,0:0:0:0:
448,192,19383,1,4,0:0:0:0:
320,192,19383,1,8,0:0:0:0:
448,192,19537,1,0,0:0:0:0:
320,192,19537,1,2,0:0:0:0:
192,192,19691,1,2,0:0:0:0:
64,192,19691,1,0,0:0:0:0:
64,192,19845,1,8,0:0:0:0:
320,192,19845,1,4,0:0:0:0:
448,192,19845,1,0,0:0:0:0:
448,192,19999,1,0,0:0:0:0:
320,192,19999,1,2,0:0:0:0:
64,192,20152,1,0,0:0:0:0:
192,192,20152,1,2,0:0:0:0:
192,192,20306,1,8,0:0:0:0:
64,192,20306,1,0,0:0:0:0:
320,192,20306,1,4,0:0:0:0:
320,192,20460,1,2,0:0:0:0:
448,192,20460,1,0,0:0:0:0:
64,192,20614,1,0,0:0:0:0:
192,192,20614,1,2,0:0:0:0:
192,192,20768,1,0,0:0:0:0:
320,192,20768,1,8,0:0:0:0:
448,192,20768,1,4,0:0:0:0:
448,192,20922,1,0,0:0:0:0:
320,192,20922,1,2,0:0:0:0:
192,192,20999,1,0,0:0:0:0:
64,192,21076,1,8,0:0:0:0:
320,192,21076,1,0,0:0:0:0:
448,192,21076,1,4,0:0:0:0:
192,192,21229,1,2,0:0:0:0:
64,192,21229,1,0,0:0:0:0:
192,192,21383,1,8,0:0:0:0:
320,192,21383,1,4,0:0:0:0:
448,192,21383,1,0,0:0:0:0:
64,192,21537,1,0,0:0:0:0:
448,192,21537,1,2,0:0:0:0:
192,192,21691,1,0,0:0:0:0:
320,192,21691,1,2,0:0:0:0:
64,192,21845,1,0,0:0:0:0:
192,192,21845,1,8,0:0:0:0:
448,192,21845,1,4,0:0:0:0:
64,192,21999,1,0,0:0:0:0:
320,192,21999,1,2,0:0:0:0:
192,192,22152,1,2,0:0:0:0:
448,192,22152,1,0,0:0:0:0:
64,192,22306,1,4,0:0:0:0:
448,192,22306,1,0,0:0:0:0:
320,192,22306,1,8,0:0:0:0:
192,192,22460,1,0,0:0:0:0:
320,192,22460,1,2,0:0:0:0:
64,192,22614,1,0,0:0:0:0:
448,192,22614,1,2,0:0:0:0:
192,192,22768,1,4,0:0:0:0:
64,192,22768,1,8,0:0:0:0:
320,192,22768,1,0,0:0:0:0:
192,192,22922,1,0,0:0:0:0:
448,192,22922,1,2,0:0:0:0:
64,192,23076,1,0,0:0:0:0:
320,192,23076,1,2,0:0:0:0:
192,192,23229,1,8,0:0:0:0:
64,192,23229,1,0,0:0:0:0:
448,192,23229,1,4,0:0:0:0:
320,192,23383,1,2,0:0:0:0:
192,192,23383,1,0,0:0:0:0:
64,192,23460,1,0,0:0:0:0:
448,192,23537,1,0,0:0:0:50:KICK 2.wav
320,192,23537,1,0,0:0:0:0:
192,192,23691,1,2,0:0:0:0:
64,192,23691,1,0,0:0:0:0:
320,192,23768,1,2,0:0:0:0:
192,192,23845,1,0,0:0:0:0:
64,192,23845,1,8,0:0:0:0:
448,192,23845,1,4,0:0:0:0:
320,192,23999,1,2,0:0:0:0:
448,192,23999,1,0,0:0:0:0:
64,192,24152,1,0,0:0:0:0:
192,192,24152,1,2,0:0:0:0:
64,192,24306,1,4,0:0:0:0:
320,192,24306,1,8,0:0:0:0:
448,192,24306,1,0,0:0:0:0:
192,192,24460,1,0,0:0:0:0:
448,192,24460,1,2,0:0:0:0:
320,192,24614,1,2,0:0:0:0:
64,192,24614,1,0,0:0:0:0:
192,192,24768,1,8,0:0:0:0:
64,192,24768,1,0,0:0:0:0:
448,192,24768,1,4,0:0:0:0:
192,192,24922,1,0,0:0:0:0:
320,192,24922,1,2,0:0:0:0:
64,192,25076,1,0,0:0:0:0:
448,192,25076,1,2,0:0:0:0:
192,192,25229,1,0,0:0:0:0:
320,192,25229,1,8,0:0:0:0:
448,192,25229,1,4,0:0:0:0:
192,192,25383,1,2,0:0:0:0:
64,192,25383,1,0,0:0:0:0:
320,192,25537,1,2,0:0:0:0:
448,192,25537,1,0,0:0:0:0:
192,192,25691,1,8,0:0:0:0:
64,192,25691,1,4,0:0:0:0:
448,192,25691,1,0,0:0:0:0:
320,192,25845,1,0,0:0:0:0:
192,192,25845,1,2,0:0:0:0:
320,192,25999,1,8,0:0:0:0:
64,192,25999,1,0,0:0:0:0:
448,192,25999,1,0,0:0:0:0:
192,192,26076,1,0,0:0:0:0:
64,192,26152,1,2,0:0:0:0:
448,192,26152,1,0,0:0:0:0:
320,192,26229,1,0,0:0:0:0:
64,192,26306,1,0,0:0:0:0:
192,192,26306,1,8,0:0:0:0:
448,192,26306,1,0,0:0:0:0:
320,192,26460,1,0,0:0:0:50:KICK 2.wav
192,192,26537,1,0,0:0:0:50:KICK 2.wav
448,192,26614,1,0,0:0:0:50:KICK 2.wav
64,192,26691,1,0,0:0:0:50:KICK 2.wav
192,192,26768,1,8,0:0:0:0:
320,192,26768,1,0,0:0:0:0:
448,192,26768,1,0,0:0:0:0:
320,192,26922,1,0,0:0:0:50:KICK 2.wav
192,192,26999,1,0,0:0:0:50:KICK 2.wav
64,192,27076,1,0,0:0:0:50:KICK 2.wav
448,192,27152,1,0,0:0:0:0:
320,192,27152,1,2,0:0:0:0:
192,192,27229,1,8,0:0:0:0:
64,192,27229,1,0,0:0:0:0:
320,192,27306,1,8,0:0:0:0:
448,192,27306,1,0,0:0:0:0:
192,192,27383,1,8,0:0:0:0:
64,192,27383,1,0,0:0:0:0:
320,192,27460,1,8,0:0:0:0:
448,192,27460,1,0,0:0:0:0:
192,192,27537,1,2,0:0:0:0:
64,192,27537,1,0,0:0:0:0:
320,192,27614,1,2,0:0:0:0:
448,192,27614,1,0,0:0:0:0:
64,192,27691,1,0,0:0:0:50:KICK 2.wav
448,192,27768,1,0,0:0:0:50:KICK 2.wav
192,192,27845,1,0,0:0:0:50:KICK 2.wav
320,192,27922,1,0,0:0:0:50:KICK 2.wav
64,192,27999,1,2,0:0:0:0:
192,192,27999,1,0,0:0:0:0:
320,192,28076,1,0,0:0:0:0:
448,192,28076,1,2,0:0:0:0:
64,192,28152,1,0,0:0:0:50:KICK 2.wav
448,192,28229,1,0,0:0:0:50:KICK 2.wav
192,192,28306,1,2,0:0:0:0:
64,192,28306,1,0,0:0:0:0:
448,192,28383,1,0,0:0:0:0:
320,192,28383,1,2,0:0:0:0:
192,192,28460,1,8,0:0:0:0:
64,192,28460,1,0,0:0:0:0:
320,192,28537,1,8,0:0:0:0:
448,192,28537,1,0,0:0:0:0:
192,192,28614,1,8,0:0:0:0:
64,192,28614,1,0,0:0:0:0:
320,192,28691,1,8,0:0:0:0:
192,192,28768,1,4,0:0:0:0:
448,192,28768,1,2,0:0:0:0:
64,192,28768,128,0,29537:0:0:0:0:
192,192,29076,1,0,0:0:0:0:
320,192,29076,1,8,0:0:0:0:
448,192,29076,1,0,0:0:0:0:
448,192,29229,1,0,0:0:0:0:
192,192,29383,1,2,0:0:0:0:
320,192,29383,1,0,0:0:0:0:
192,192,29537,1,2,0:0:0:0:
448,192,29537,1,0,0:0:0:0:
320,192,29691,1,0,0:0:0:0:
64,192,29845,1,0,0:0:0:0:
448,192,29845,1,0,0:0:0:0:
192,192,29845,1,8,0:0:0:0:
320,192,29999,1,0,0:0:0:0:
192,192,30152,1,2,0:0:0:0:
64,192,30152,1,0,0:0:0:0:
192,192,30306,1,0,0:0:0:0:
320,192,30306,1,0,0:0:0:0:
448,192,30306,1,8,0:0:0:0:
64,192,30460,1,0,0:0:0:0:
320,192,30614,1,2,0:0:0:0:
448,192,30614,1,0,0:0:0:0:
192,192,30768,1,2,0:0:0:0:
64,192,30768,1,0,0:0:0:0:
64,192,30922,1,0,0:0:0:0:
320,192,30922,1,8,0:0:0:0:
448,192,30922,1,0,0:0:0:0:
192,192,31076,128,0,31229:0:0:0:0:
320,192,31229,1,2,0:0:0:0:
448,192,31229,128,0,31999:0:0:0:0:
64,192,31383,1,0,0:0:0:0:
64,192,31537,1,0,0:0:0:0:
192,192,31537,1,8,0:0:0:0:
320,192,31537,1,0,0:0:0:0:
320,192,31691,1,0,0:0:0:0:
192,192,31845,1,0,0:0:0:0:
64,192,31845,1,2,0:0:0:0:
64,192,31999,1,2,0:0:0:0:
320,192,31999,1,0,0:0:0:0:
192,192,32152,1,0,0:0:0:0:
64,192,32306,1,0,0:0:0:0:
320,192,32306,1,8,0:0:0:0:
448,192,32306,1,0,0:0:0:0:
192,192,32460,1,0,0:0:0:0:
320,192,32614,1,2,0:0:0:0:
448,192,32614,1,0,0:0:0:0:
192,192,32768,1,8,0:0:0:0:
64,192,32768,1,0,0:0:0:0:
448,192,32768,1,0,0:0:0:0:
320,192,32922,1,0,0:0:0:0:
448,192,33076,1,0,0:0:0:0:
64,192,33076,1,2,0:0:0:0:
192,192,33229,1,2,0:0:0:0:
320,192,33229,1,0,0:0:0:0:
64,192,33383,1,0,0:0:0:0:
320,192,33383,1,8,0:0:0:0:
448,192,33383,1,0,0:0:0:0:
192,192,33537,1,0,0:0:0:0:
64,192,33691,1,0,0:0:0:0:
320,192,33691,128,4,33999:0:0:0:0:
448,192,33691,1,2,0:0:0:0:
64,192,33999,1,0,0:0:0:0:
192,192,33999,1,8,0:0:0:0:
448,192,33999,1,0,0:0:0:0:
192,192,34152,128,0,34460:0:0:0:0:
64,192,34306,1,0,0:0:0:0:
448,192,34306,1,2,0:0:0:0:
320,192,34460,1,0,0:0:0:0:
448,192,34460,1,2,0:0:0:0:
64,192,34614,128,0,34922:0:0:0:0:
192,192,34768,1,0,0:0:0:0:
320,192,34768,1,8,0:0:0:0:
448,192,34768,1,0,0:0:0:0:
192,192,34922,1,0,0:0:0:0:
448,192,35076,128,0,35383:0:0:0:0:
320,192,35076,1,2,0:0:0:0:
64,192,35229,1,0,0:0:0:0:
192,192,35229,1,8,0:0:0:0:
320,192,35229,1,0,0:0:0:0:
64,192,35383,128,0,35691:0:0:0:0:
192,192,35537,128,0,35691:0:0:0:0:
448,192,35537,1,2,0:0:0:0:
320,192,35691,1,0,0:0:0:0:
448,192,35691,1,2,0:0:0:0:
64,192,35845,1,0,0:0:0:0:
192,192,35845,1,8,0:0:0:0:
320,192,35845,128,0,36152:0:0:0:0:
192,192,35999,1,0,0:0:0:0:
448,192,36152,1,2,0:0:0:0:
64,192,36152,128,0,36460:0:0:0:0:
448,192,36460,1,0,0:0:0:0:
192,192,36460,1,0,0:0:0:0:
320,192,36460,1,8,0:0:0:0:
192,192,36614,128,0,36922:0:0:0:0:
320,192,36768,1,0,0:0:0:0:
448,192,36768,1,2,0:0:0:0:
64,192,36922,1,0,0:0:0:0:
448,192,36922,1,2,0:0:0:0:
320,192,37076,128,0,37537:0:0:0:0:
192,192,37229,1,8,0:0:0:0:
64,192,37229,1,0,0:0:0:0:
448,192,37229,1,0,0:0:0:0:
448,192,37383,128,0,37537:0:0:0:0:
64,192,37537,128,0,37845:0:0:0:0:
192,192,37537,1,2,0:0:0:0:
192,192,37691,1,0,0:0:0:0:
320,192,37691,1,8,0:0:0:0:
448,192,37691,1,0,0:0:0:0:
320,192,37845,128,0,37999:0:0:0:0:
448,192,37845,1,2,0:0:0:0:
192,192,37999,1,2,0:0:0:0:
64,192,37999,1,0,0:0:0:0:
320,192,38152,1,8,0:0:0:0:
448,192,38152,1,0,0:0:0:0:
192,192,38229,1,8,0:0:0:0:
64,192,38229,1,0,0:0:0:0:
320,192,38306,1,8,0:0:0:0:
448,192,38306,1,0,0:0:0:0:
192,192,38383,1,8,0:0:0:0:
64,192,38383,1,0,0:0:0:0:
320,192,38460,1,8,0:0:0:0:
448,192,38460,1,0,0:0:0:0:
192,192,38537,1,8,0:0:0:0:
320,192,38614,128,4,38768:0:0:0:0:
448,192,38614,1,2,0:0:0:0:
64,192,38614,1,0,0:0:0:0:
64,192,38768,128,0,38922:0:0:0:0:
320,192,38922,1,8,0:0:0:0:
448,192,38922,128,0,39076:0:0:0:0:
64,192,39076,128,0,39229:0:0:0:0:
192,192,39076,128,0,39229:0:0:0:0:
320,192,39229,1,2,0:0:0:0:
448,192,39229,1,0,0:0:0:0:
448,192,39383,128,0,39460:0:0:0:0:
64,192,39383,128,0,39537:0:0:0:0:
448,192,39537,128,0,39691:0:0:0:0:
320,192,39537,128,8,39691:0:0:0:0:
192,192,39691,128,0,39845:0:0:0:0:
64,192,39845,1,2,0:0:0:0:
320,192,39845,128,0,39999:0:0:0:0:
192,192,39999,128,0,40152:0:0:0:0:
64,192,39999,128,0,40152:0:0:0:0:
320,192,40152,1,8,0:0:0:0:
448,192,40152,128,0,40306:0:0:0:0:
64,192,40306,128,0,40614:0:0:0:0:
448,192,40460,128,0,40614:0:0:0:0:
320,192,40460,128,2,40614:0:0:0:0:
192,192,40614,1,0,0:0:0:0:
64,192,40768,128,8,40922:0:0:0:0:
448,192,40768,128,0,40922:0:0:0:0:
320,192,40922,128,0,41076:0:0:0:0:
192,192,41076,1,2,0:0:0:0:
64,192,41076,128,0,41229:0:0:0:0:
448,192,41229,128,0,41383:0:0:0:0:
320,192,41383,1,8,0:0:0:0:
192,192,41383,128,0,41537:0:0:0:0:
448,192,41537,128,0,41691:0:0:0:0:
64,192,41537,128,0,41691:0:0:0:0:
320,192,41691,128,0,41999:0:0:0:0:
192,192,41691,1,2,0:0:0:0:
64,192,41845,128,0,41922:0:0:0:0:
448,192,41845,128,0,41999:0:0:0:0:
64,192,41999,128,0,42152:0:0:0:0:
192,192,41999,128,8,42152:0:0:0:0:
320,192,42152,128,0,42306:0:0:0:0:
64,192,42306,1,2,0:0:0:0:
192,192,42306,128,0,42460:0:0:0:0:
448,192,42460,128,0,42614:0:0:0:0:
320,192,42460,128,0,42614:0:0:0:0:
192,192,42614,1,8,0:0:0:0:
64,192,42614,128,0,42768:0:0:0:0:
448,192,42768,128,0,42922:0:0:0:0:
64,192,42922,1,0,0:0:0:0:
192,192,42922,1,2,0:0:0:0:
64,192,43076,1,0,0:0:0:0:
320,192,43076,1,0,0:0:0:0:
448,192,43076,1,8,0:0:0:0:
192,192,43229,1,2,0:0:0:0:
320,192,43229,1,0,0:0:0:0:
64,192,43383,1,0,0:0:0:0:
192,192,43383,1,0,0:0:0:0:
448,192,43383,1,8,0:0:0:0:
448,192,43537,1,0,0:0:0:0:
192,192,43537,1,4,0:0:0:0:
64,192,43537,128,2,43691:0:0:0:0:
320,192,43537,1,0,0:0:0:0:
320,192,43691,128,0,43845:0:0:0:0:
192,192,43845,1,8,0:0:0:0:
448,192,43845,128,0,43999:0:0:0:0:
64,192,43999,128,0,44152:0:0:0:0:
192,192,44152,1,2,0:0:0:0:
320,192,44152,128,0,44460:0:0:0:0:
448,192,44306,128,0,44460:0:0:0:0:
64,192,44460,1,8,0:0:0:0:
192,192,44460,128,0,44614:0:0:0:0:
320,192,44614,128,0,44768:0:0:0:0:
448,192,44768,1,2,0:0:0:0:
64,192,44768,128,0,44922:0:0:0:0:
192,192,44922,128,0,45076:0:0:0:0:
320,192,45076,1,8,0:0:0:0:
448,192,45076,128,0,45229:0:0:0:0:
64,192,45229,128,0,45537:0:0:0:0:
192,192,45383,1,2,0:0:0:0:
320,192,45383,128,0,45691:0:0:0:0:
448,192,45537,128,0,45691:0:0:0:0:
192,192,45691,128,0,45845:0:0:0:0:
64,192,45691,1,8,0:0:0:0:
320,192,45845,128,0,45999:0:0:0:0:
64,192,45999,128,2,46306:0:0:0:0:
448,192,45999,128,0,46152:0:0:0:0:
192,192,46152,128,0,46306:0:0:0:0:
320,192,46306,1,8,0:0:0:0:
448,192,46306,128,0,46460:0:0:0:0:
192,192,46460,128,0,46537:0:0:0:0:
192,192,46614,128,2,46922:0:0:0:0:
64,192,46614,1,0,0:0:0:0:
320,192,46768,128,0,46922:0:0:0:0:
64,192,46922,1,4,0:0:0:0:
448,192,46922,128,8,47076:0:0:0:0:
64,192,47076,128,0,47229:0:0:0:0:
192,192,47229,1,8,0:0:0:0:
448,192,47229,128,0,47383:0:0:0:0:
320,192,47306,1,0,0:0:0:50:KICK 2.wav
64,192,47383,1,2,0:0:0:0:
192,192,47383,128,0,47537:0:0:0:0:
448,192,47537,1,0,0:0:0:0:
320,192,47537,128,2,47691:0:0:0:0:
192,192,47691,128,0,47845:0:0:0:50:KICK 2.wav
320,192,47768,1,0,0:0:0:50:KICK 2.wav
64,192,47845,1,2,0:0:0:0:
448,192,47845,128,0,47999:0:0:0:0:
320,192,47999,1,2,0:0:0:0:
64,192,47999,128,0,48152:0:0:0:0:
192,192,48152,128,0,48306:0:0:0:50:KICK 2.wav
64,192,48229,1,0,0:0:0:50:KICK 2.wav
320,192,48306,1,2,0:0:0:0:
448,192,48306,128,0,48460:0:0:0:0:
192,192,48460,1,8,0:0:0:0:
320,192,48460,1,0,0:0:0:0:
64,192,48460,128,0,48537:0:0:0:0:
64,192,48614,128,0,48691:0:0:0:0:
448,192,48614,1,2,0:0:0:0:
64,192,48768,128,0,48845:0:0:0:0:
320,192,48768,1,8,0:0:0:0:
448,192,48768,1,0,0:0:0:0:
448,192,48922,128,0,49383:0:0:0:0:
192,192,48922,1,0,0:0:0:0:
320,192,48922,1,8,0:0:0:0:
320,192,49229,1,2,0:0:0:0:
64,192,49229,1,0,0:0:0:0:
64,192,49383,1,8,0:0:0:0:
320,192,49383,1,0,0:0:0:0:
192,192,49383,128,0,49460:0:0:0:0:
448,192,49537,1,2,0:0:0:0:
192,192,49537,128,0,49614:0:0:0:0:
320,192,49691,1,8,0:0:0:0:
448,192,49691,1,0,0:0:0:0:
192,192,49691,128,0,49768:0:0:0:0:
448,192,49845,1,8,0:0:0:0:
64,192,49845,1,0,0:0:0:0:
320,192,49845,128,0,50306:0:0:0:0:
64,192,50152,1,0,0:0:0:0:
448,192,50152,1,2,0:0:0:0:
64,192,50306,1,0,0:0:0:0:
192,192,50306,1,8,0:0:0:0:
448,192,50306,1,0,0:0:0:0:
320,192,50460,1,2,0:0:0:0:
192,192,50460,1,0,0:0:0:0:
448,192,50614,1,0,0:0:0:50:KICK 2.wav
64,192,50614,128,0,50922:0:0:0:0:
192,192,50652,1,0,0:0:0:50:KICK 2.wav
448,192,50768,1,0,0:0:0:0:
320,192,50768,1,2,0:0:0:0:
448,192,50922,128,0,50999:0:0:0:0:
320,192,50922,1,0,0:0:0:0:
192,192,50922,1,8,0:0:0:0:
448,192,51076,128,0,51152:0:0:0:0:
64,192,51076,1,2,0:0:0:0:
448,192,51229,128,0,51306:0:0:0:0:
64,192,51229,1,0,0:0:0:0:
192,192,51229,1,8,0:0:0:0:
64,192,51383,128,0,51845:0:0:0:0:
192,192,51383,1,0,0:0:0:0:
320,192,51383,1,8,0:0:0:0:
192,192,51691,1,0,0:0:0:0:
448,192,51691,1,2,0:0:0:0:
192,192,51845,1,0,0:0:0:0:
448,192,51845,1,8,0:0:0:0:
320,192,51845,128,0,51922:0:0:0:0:
64,192,51999,1,2,0:0:0:0:
320,192,51999,128,0,52076:0:0:0:0:
64,192,52152,1,8,0:0:0:0:
448,192,52152,1,0,0:0:0:0:
320,192,52152,128,0,52229:0:0:0:0:
192,192,52306,128,0,52768:0:0:0:0:
64,192,52306,1,0,0:0:0:0:
448,192,52306,1,8,0:0:0:0:
320,192,52614,1,2,0:0:0:0:
448,192,52614,1,0,0:0:0:0:
320,192,52768,1,8,0:0:0:0:
64,192,52768,1,0,0:0:0:0:
448,192,52768,1,0,0:0:0:0:
192,192,52922,1,2,0:0:0:0:
64,192,52922,1,0,0:0:0:0:
320,192,53076,128,0,53306:0:0:0:0:
64,192,53076,1,0,0:0:0:50:KICK 2.wav
448,192,53114,1,0,0:0:0:50:KICK 2.wav
192,192,53383,1,4,0:0:0:0:
320,192,53383,1,0,0:0:0:0:
64,192,53383,128,0,53999:0:0:0:0:
448,192,53383,1,2,0:0:0:0:
320,192,53845,1,2,0:0:0:0:
448,192,53845,1,0,0:0:0:0:
448,192,53999,128,0,54614:0:0:0:0:
320,192,53999,1,0,0:0:0:0:
192,192,53999,1,8,0:0:0:0:
64,192,54306,128,0,54460:0:0:0:0:
192,192,54306,1,2,0:0:0:0:
320,192,54460,128,0,54614:0:0:0:0:
64,192,54614,128,0,55768:0:0:0:0:
192,192,54614,1,2,0:0:0:0:
192,192,54768,1,0,0:0:0:0:
320,192,54768,1,8,0:0:0:0:
448,192,54768,1,0,0:0:0:0:
448,192,55076,1,0,0:0:0:0:
320,192,55076,1,2,0:0:0:0:
192,192,55152,1,2,0:0:0:0:
448,192,55229,1,0,0:0:0:0:
320,192,55229,1,8,0:0:0:0:
192,192,55383,1,2,0:0:0:0:
448,192,55383,1,0,0:0:0:0:
320,192,55537,1,0,0:0:0:0:
192,192,55691,1,0,0:0:0:0:
320,192,55691,1,2,0:0:0:0:
64,192,55845,128,0,55922:0:0:0:0:
320,192,55845,128,4,55922:0:0:0:0:
448,192,55845,128,2,56383:0:0:0:0:
192,192,55999,128,0,56076:0:0:0:0:
64,192,56152,128,0,56229:0:0:0:0:
64,192,56306,1,2,0:0:0:0:
320,192,56306,128,0,56383:0:0:0:0:
320,192,56460,1,0,0:0:0:0:
192,192,56460,1,8,0:0:0:0:
448,192,56460,128,0,56614:0:0:0:0:
192,192,56614,1,2,0:0:0:0:
64,192,56614,128,0,56768:0:0:0:0:
320,192,56768,1,8,0:0:0:0:
448,192,56768,1,0,0:0:0:0:
192,192,56922,128,4,58229:0:0:0:0:
64,192,56922,1,2,0:0:0:0:
448,192,56922,1,0,0:0:0:0:
320,192,56922,1,0,0:0:0:0:
64,192,57229,1,0,0:0:0:0:
448,192,57229,1,2,0:0:0:0:
64,192,57383,1,0,0:0:0:0:
320,192,57383,1,8,0:0:0:0:
448,192,57383,1,0,0:0:0:0:
320,192,57537,1,0,0:0:0:50:KICK 2.wav
64,192,57614,1,0,0:0:0:50:KICK 2.wav
448,192,57691,1,0,0:0:0:50:KICK 2.wav
320,192,57845,1,0,0:0:0:50:KICK 2.wav
64,192,57999,1,0,0:0:0:50:KICK 2.wav
448,192,58152,1,0,0:0:0:50:KICK 2.wav
64,192,58306,1,2,0:0:0:0:
192,192,58306,1,0,0:0:0:0:
320,192,58306,128,4,58614:0:0:0:0:
448,192,58306,128,0,59537:0:0:0:0:
64,192,58460,128,0,58768:0:0:0:0:
192,192,58614,128,0,58922:0:0:0:0:
320,192,58768,128,0,58922:0:0:0:0:
64,192,58922,128,0,59229:0:0:0:0:
192,192,59076,128,0,59229:0:0:0:0:
320,192,59229,128,0,59383:0:0:0:0:
192,192,59383,128,0,59537:0:0:0:0:
64,192,59537,128,0,60768:0:0:0:0:
320,192,59537,128,0,59845:0:0:0:0:
448,192,59691,128,0,59845:0:0:0:0:
192,192,59845,128,0,60152:0:0:0:0:
320,192,59999,128,0,60306:0:0:0:0:
448,192,60152,128,0,60306:0:0:0:0:
192,192,60306,128,0,60614:0:0:0:0:
320,192,60460,128,0,60614:0:0:0:0:
448,192,60614,1,0,0:0:0:50:Ride.wav
320,192,60691,1,0,0:0:0:50:Ride.wav
192,192,60768,128,0,61999:0:0:0:0:
448,192,60768,128,0,61076:0:0:0:50:RideCup.wav
64,192,60922,128,0,61229:0:0:0:0:
320,192,61076,128,0,61383:0:0:0:0:
448,192,61229,128,0,61383:0:0:0:0:
64,192,61383,128,0,61691:0:0:0:0:
320,192,61537,128,0,61845:0:0:0:0:
448,192,61691,128,0,61845:0:0:0:0:
64,192,61845,128,0,61999:0:0:0:0:
320,192,61999,128,0,63152:0:0:0:0:
448,192,61999,128,0,62306:0:0:0:0:
192,192,62152,128,0,62460:0:0:0:0:
64,192,62306,128,0,62460:0:0:0:0:
448,192,62460,128,0,62768:0:0:0:0:
192,192,62614,128,0,62922:0:0:0:0:
64,192,62768,128,0,62922:0:0:0:0:
448,192,62922,128,0,63152:0:0:0:0:
64,192,63076,128,0,63152:0:0:0:0:
64,192,63229,5,0,0:0:0:0:
192,192,63229,1,0,0:0:0:0:
320,192,63229,1,8,0:0:0:0:
448,192,63229,1,4,0:0:0:0:
64,192,63537,1,2,0:0:0:0:
192,192,63537,1,0,0:0:0:0:
448,192,63537,1,8,0:0:0:0:
64,192,63691,1,2,0:0:0:0:
192,192,63691,1,0,0:0:0:0:
448,192,63691,1,8,0:0:0:0:
64,192,63845,1,2,0:0:0:0:
192,192,63845,1,0,0:0:0:0:
448,192,63845,1,8,0:0:0:0:
192,192,63999,1,0,0:0:0:0:
448,192,63999,1,8,0:0:0:0:
64,192,63999,1,2,0:0:0:0:
64,192,64152,1,2,0:0:0:0:
192,192,64152,1,0,0:0:0:0:
448,192,64152,1,8,0:0:0:0:
64,192,64306,1,2,0:0:0:0:
192,192,64306,1,0,0:0:0:0:
448,192,64306,1,8,0:0:0:0:
448,192,64460,1,8,0:0:0:0:
320,192,64460,1,0,0:0:0:0:
64,192,64460,1,2,0:0:0:0:
448,192,64614,1,8,0:0:0:0:
320,192,64614,1,0,0:0:0:0:
64,192,64614,1,2,0:0:0:0:
448,192,64768,1,8,0:0:0:0:
320,192,64768,1,0,0:0:0:0:
64,192,64768,1,2,0:0:0:0:
320,192,64922,1,0,0:0:0:0:
64,192,64922,1,2,0:0:0:0:
448,192,64922,1,8,0:0:0:0:
448,192,65076,1,8,0:0:0:0:
320,192,65076,1,0,0:0:0:0:
64,192,65076,1,2,0:0:0:0:
448,192,65229,1,8,0:0:0:0:
320,192,65229,1,0,0:0:0:0:
64,192,65229,1,2,0:0:0:0:
448,192,65383,1,8,0:0:0:0:
320,192,65383,1,0,0:0:0:0:
64,192,65383,1,2,0:0:0:0:
448,192,65537,1,8,0:0:0:0:
320,192,65537,1,0,0:0:0:0:
64,192,65537,1,2,0:0:0:0:
64,192,65691,1,2,0:0:0:0:
192,192,65691,1,4,0:0:0:0:
448,192,65691,1,0,0:0:0:0:
320,192,65691,1,0,0:0:0:0:
320,192,65845,1,8,0:0:0:0:
448,192,65845,1,0,0:0:0:0:
192,192,65922,1,8,0:0:0:0:
64,192,65922,1,0,0:0:0:0:
320,192,65999,1,2,0:0:0:0:
448,192,65999,1,0,0:0:0:0:
192,192,66076,1,2,0:0:0:0:
64,192,66076,1,0,0:0:0:0:
448,192,66152,1,0,0:0:0:50:KICK 2.wav
64,192,66229,1,0,0:0:0:50:KICK 2.wav
192,192,66306,1,0,0:0:0:50:KICK 2.wav
320,192,66383,1,0,0:0:0:50:KICK 2.wav
192,192,66460,1,2,0:0:0:0:
64,192,66460,1,0,0:0:0:0:
320,192,66537,1,0,0:0:0:0:
448,192,66537,1,2,0:0:0:0:
64,192,66614,1,0,0:0:0:50:KICK 2.wav
448,192,66691,1,0,0:0:0:50:KICK 2.wav
192,192,66768,1,2,0:0:0:0:
64,192,66768,1,0,0:0:0:0:
320,192,66845,1,2,0:0:0:0:
448,192,66845,1,0,0:0:0:0:
192,192,66922,1,8,0:0:0:0:
64,192,66922,1,0,0:0:0:0:
320,192,66999,1,8,0:0:0:0:
448,192,66999,1,0,0:0:0:0:
192,192,67076,1,8,0:0:0:0:
64,192,67076,1,0,0:0:0:0:
320,192,67152,1,8,0:0:0:0:
64,192,67229,1,4,0:0:0:0:
448,192,67229,1,0,0:0:0:0:
192,192,67229,1,8,0:0:0:0:
64,192,67383,1,4,0:0:0:0:
320,192,67383,1,0,0:0:0:0:
448,192,67383,1,0,0:0:0:0:
192,192,67383,1,8,0:0:0:0:
64,192,67999,128,0,68229:0:0:0:0:
192,192,67999,128,0,68229:0:0:0:0:
320,192,67999,128,2,68383:0:0:0:0:
448,192,67999,128,4,68383:0:0:0:0:
64,192,68306,128,0,68691:0:0:0:0:
192,192,68306,128,2,68383:0:0:0:0:
192,192,68460,1,0,0:0:0:0:
448,192,68460,128,0,68691:0:0:0:0:
320,192,68460,128,8,68537:0:0:0:0:
192,192,68614,128,0,68691:0:0:0:0:
192,192,68768,128,2,68999:0:0:0:0:
64,192,68768,128,0,68999:0:0:0:0:
448,192,68768,128,0,68845:0:0:0:0:
448,192,68922,1,0,0:0:0:0:
320,192,68922,128,2,68999:0:0:0:0:
64,192,69076,1,0,0:0:0:0:
448,192,69076,128,8,69614:0:0:0:0:
192,192,69076,128,0,69152:0:0:0:0:
320,192,69229,128,2,69614:0:0:0:0:
64,192,69229,128,0,69306:0:0:0:0:
192,192,69383,128,0,69460:0:0:0:0:
192,192,69537,1,2,0:0:0:0:
64,192,69537,128,0,69614:0:0:0:0:
64,192,69691,128,0,69922:0:0:0:0:
448,192,69691,128,0,69922:0:0:0:0:
320,192,69691,128,8,69768:0:0:0:0:
192,192,69845,128,0,69922:0:0:0:0:
448,192,69999,128,2,70383:0:0:0:0:
64,192,69999,128,0,70076:0:0:0:0:
320,192,70152,128,2,70383:0:0:0:0:
192,192,70152,128,0,70229:0:0:0:0:
192,192,70306,1,8,0:0:0:0:
64,192,70306,128,0,70383:0:0:0:0:
64,192,70460,128,0,70691:0:0:0:0:
320,192,70460,128,2,70691:0:0:0:0:
448,192,70460,128,0,70691:0:0:0:0:
192,192,70460,128,4,70691:0:0:0:0:
64,192,70768,128,0,70845:0:0:0:0:
448,192,70768,128,2,70845:0:0:0:0:
448,192,70922,128,0,71152:0:0:0:0:
320,192,70922,128,8,71152:0:0:0:0:
192,192,70922,128,0,70999:0:0:0:0:
64,192,71076,128,0,71152:0:0:0:0:
192,192,71229,128,2,71460:0:0:0:0:
448,192,71229,128,0,71460:0:0:0:0:
320,192,71383,1,2,0:0:0:0:
64,192,71383,128,0,71460:0:0:0:0:
448,192,71537,1,0,0:0:0:0:
64,192,71537,128,0,71922:0:0:0:0:
320,192,71537,128,8,71614:0:0:0:0:
192,192,71691,128,0,71922:0:0:0:0:
448,192,71691,128,2,71768:0:0:0:0:
448,192,71845,128,0,72076:0:0:0:0:
320,192,71845,128,0,72076:0:0:0:0:
192,192,71999,128,2,72076:0:0:0:0:
64,192,71999,128,0,72076:0:0:0:0:
64,192,72152,128,0,72614:0:0:0:0:
192,192,72152,128,0,72383:0:0:0:0:
448,192,72152,128,8,72229:0:0:0:0:
448,192,72306,128,0,72537:0:0:0:0:
320,192,72306,128,2,72537:0:0:0:0:
192,192,72460,128,0,72614:0:0:0:50:KICK 2.wav
320,192,72614,1,8,0:0:0:0:
448,192,72614,1,0,0:0:0:0:
192,192,72691,1,8,0:0:0:0:
64,192,72691,1,0,0:0:0:0:
320,192,72768,1,8,0:0:0:0:
448,192,72768,1,0,0:0:0:0:
64,192,72922,128,0,73152:0:0:0:0:
448,192,72922,128,0,73152:0:0:0:0:
192,192,72922,128,2,73152:0:0:0:0:
320,192,72922,128,4,73152:0:0:0:0:
448,192,73229,128,2,73614:0:0:0:0:
64,192,73229,128,0,73306:0:0:0:0:
320,192,73383,128,8,73614:0:0:0:0:
64,192,73383,1,0,0:0:0:0:
192,192,73383,128,0,73460:0:0:0:0:
64,192,73537,128,0,73614:0:0:0:0:
64,192,73691,128,0,73922:0:0:0:0:
448,192,73691,128,0,73922:0:0:0:0:
192,192,73691,128,2,73922:0:0:0:0:
320,192,73845,128,0,73922:0:0:0:0:
320,192,73999,1,8,0:0:0:0:
64,192,73999,128,0,74383:0:0:0:0:
448,192,73999,128,0,74076:0:0:0:0:
192,192,74152,128,0,74383:0:0:0:0:
320,192,74152,128,0,74229:0:0:0:0:
320,192,74306,1,2,0:0:0:0:
448,192,74306,128,0,74383:0:0:0:0:
320,192,74460,128,0,74845:0:0:0:0:
448,192,74614,128,0,74845:0:0:0:0:
64,192,74614,1,0,0:0:0:0:
192,192,74614,128,8,74691:0:0:0:0:
64,192,74768,128,0,74845:0:0:0:0:
192,192,74922,128,2,75306:0:0:0:0:
448,192,74922,128,0,74999:0:0:0:0:
64,192,75076,128,0,75306:0:0:0:0:
320,192,75076,128,0,75152:0:0:0:0:
320,192,75229,1,8,0:0:0:0:
448,192,75229,128,0,75306:0:0:0:0:
64,192,75383,128,0,75614:0:0:0:0:
192,192,75383,128,0,75614:0:0:0:0:
320,192,75383,128,2,75614:0:0:0:0:
448,192,75383,128,4,75614:0:0:0:0:
64,192,75691,128,0,75768:0:0:0:0:
448,192,75691,128,2,75768:0:0:0:0:
64,192,75845,128,0,76076:0:0:0:0:
448,192,75845,128,0,76076:0:0:0:0:
320,192,75845,128,8,75922:0:0:0:0:
192,192,75999,128,0,76076:0:0:0:0:
64,192,76152,128,0,76383:0:0:0:0:
192,192,76152,128,2,76383:0:0:0:0:
448,192,76152,128,0,76229:0:0:0:0:
320,192,76306,128,0,76383:0:0:0:0:
320,192,76460,1,0,0:0:0:0:
64,192,76460,128,0,76768:0:0:0:0:
448,192,76460,128,8,76537:0:0:0:0:
192,192,76614,128,0,76768:0:0:0:0:
320,192,76768,128,2,76922:0:0:0:0:
448,192,76768,128,0,76845:0:0:0:0:
192,192,76845,128,8,76999:0:0:0:0:
64,192,76922,128,8,76999:0:0:0:0:
448,192,76922,128,0,77076:0:0:0:0:
320,192,76999,128,8,77152:0:0:0:0:
64,192,77076,128,0,77229:0:0:0:0:
192,192,77076,128,8,77229:0:0:0:0:
448,192,77152,128,0,77306:0:0:0:0:
320,192,77229,128,0,77383:0:0:0:0:
64,192,77306,128,0,77460:0:0:0:0:
192,192,77306,128,8,77383:0:0:0:0:
448,192,77383,128,8,77537:0:0:0:0:
320,192,77460,128,8,77614:0:0:0:0:
192,192,77460,128,0,77691:0:0:0:0:
64,192,77537,128,0,77768:0:0:0:50:KICK 2.wav
448,192,77614,128,0,77768:0:0:0:50:KICK 2.wav
320,192,77691,128,0,77845:0:0:0:50:KICK 2.wav
192,192,77768,128,0,77845:0:0:0:50:KICK 2.wav
64,192,77845,128,4,78229:0:0:0:0:
448,192,77845,128,2,78229:0:0:0:0:
192,192,78152,128,0,78229:0:0:0:0:
320,192,78152,128,2,78229:0:0:0:0:
64,192,78306,1,0,0:0:0:0:
320,192,78306,128,8,78383:0:0:0:0:
448,192,78306,128,0,78383:0:0:0:0:
192,192,78460,128,0,78537:0:0:0:0:
64,192,78460,128,0,78537:0:0:0:0:
448,192,78614,128,0,78999:0:0:0:0:
64,192,78614,128,2,78691:0:0:0:0:
192,192,78768,128,0,78845:0:0:0:0:
320,192,78768,128,0,78845:0:0:0:0:
64,192,78922,128,0,78999:0:0:0:0:
192,192,78922,128,8,78999:0:0:0:0:
320,192,78922,128,0,78999:0:0:0:0:
64,192,79076,128,0,79460:0:0:0:0:
448,192,79076,128,0,79152:0:0:0:0:
192,192,79229,128,2,79306:0:0:0:0:
320,192,79229,128,0,79306:0:0:0:0:
320,192,79383,128,0,79460:0:0:0:0:
448,192,79383,128,0,79460:0:0:0:0:
320,192,79537,128,0,79768:0:0:0:0:
192,192,79537,128,8,79614:0:0:0:0:
64,192,79537,128,0,79614:0:0:0:0:
64,192,79691,128,0,79768:0:0:0:0:
448,192,79691,128,0,79768:0:0:0:0:
192,192,79845,128,2,80076:0:0:0:0:
64,192,79845,128,0,79922:0:0:0:0:
320,192,79999,128,0,80076:0:0:0:0:
448,192,79999,128,0,80076:0:0:0:0:
64,192,80152,1,0,0:0:0:0:
192,192,80152,1,8,0:0:0:0:
448,192,80152,1,0,0:0:0:0:
64,192,80306,1,4,0:0:0:0:
192,192,80306,1,2,0:0:0:0:
320,192,80306,128,0,80845:0:0:0:0:
448,192,80306,1,0,0:0:0:0:
64,192,80614,128,0,80691:0:0:0:0:
192,192,80614,128,0,80691:0:0:0:0:
64,192,80768,128,0,80845:0:0:0:0:
192,192,80768,128,8,80845:0:0:0:0:
448,192,80768,128,0,80845:0:0:0:0:
320,192,80922,128,0,80999:0:0:0:0:
448,192,80922,128,0,80999:0:0:0:0:
64,192,81076,128,0,81614:0:0:0:0:
192,192,81076,128,2,81152:0:0:0:0:
320,192,81229,128,0,81306:0:0:0:0:
448,192,81229,128,0,81306:0:0:0:0:
192,192,81383,128,0,81460:0:0:0:0:
320,192,81383,128,8,81460:0:0:0:0:
448,192,81383,128,0,81460:0:0:0:0:
192,192,81537,128,0,81614:0:0:0:0:
320,192,81537,128,0,81614:0:0:0:0:
448,192,81691,128,0,82229:0:0:0:0:
64,192,81691,128,2,81768:0:0:0:0:
320,192,81845,128,0,81922:0:0:0:0:
192,192,81845,128,0,81922:0:0:0:0:
64,192,81999,128,0,82076:0:0:0:0:
192,192,81999,128,0,82076:0:0:0:0:
320,192,81999,128,8,82076:0:0:0:0:
320,192,82152,128,0,82229:0:0:0:0:
64,192,82152,128,0,82229:0:0:0:0:
192,192,82306,128,2,82460:0:0:0:0:
448,192,82306,128,0,82383:0:0:0:0:
64,192,82460,1,0,0:0:0:0:
320,192,82460,1,8,0:0:0:0:
448,192,82460,1,0,0:0:0:0:
320,192,82614,1,8,0:0:0:0:
448,192,82614,1,0,0:0:0:0:
192,192,82691,1,8,0:0:0:0:
64,192,82691,1,0,0:0:0:0:
320,192,82768,1,8,0:0:0:0:
448,192,82768,1,0,0:0:0:0:
64,192,82845,1,8,0:0:0:0:
192,192,82922,128,0,83152:0:0:0:0:
320,192,82922,128,2,83152:0:0:0:0:
448,192,82922,128,4,83152:0:0:0:0:
64,192,83229,1,0,0:0:0:0:
192,192,83229,1,8,0:0:0:0:
448,192,83229,1,0,0:0:0:0:
64,192,83383,128,4,83845:0:0:0:0:
320,192,83383,128,2,83691:0:0:0:0:
448,192,83383,128,0,83691:0:0:0:0:
192,192,83691,1,2,0:0:0:0:
320,192,83845,1,8,0:0:0:0:
448,192,83845,1,0,0:0:0:0:
64,192,83999,1,0,0:0:0:0:
192,192,83999,1,0,0:0:0:50:KICK 2.wav
448,192,84076,1,0,0:0:0:50:KICK 2.wav
64,192,84152,128,0,84383:0:0:0:0:
192,192,84152,128,4,84383:0:0:0:0:
320,192,84152,128,2,84383:0:0:0:0:
64,192,84460,1,0,0:0:0:0:
320,192,84460,1,8,0:0:0:0:
448,192,84460,1,0,0:0:0:0:
448,192,84614,128,2,84999:0:0:0:0:
64,192,84614,128,0,84845:0:0:0:0:
192,192,84614,128,4,84768:0:0:0:0:
320,192,84768,128,0,84999:0:0:0:0:
192,192,84845,128,0,84922:0:0:0:0:
64,192,84922,128,2,84999:0:0:0:0:
192,192,84999,128,0,85076:0:0:0:0:
320,192,85076,128,0,85229:0:0:0:50:KICK 2.wav
448,192,85076,128,0,85306:0:0:0:0:
192,192,85229,1,0,0:0:0:50:KICK 2.wav
64,192,85229,1,0,0:0:0:0:
320,192,85383,1,8,0:0:0:0:
448,192,85383,1,0,0:0:0:0:
64,192,85383,128,0,85768:0:0:0:0:
192,192,85537,1,2,0:0:0:0:
448,192,85537,1,0,0:0:0:0:
448,192,85691,1,0,0:0:0:0:
320,192,85691,1,2,0:0:0:0:
192,192,85845,128,0,86229:0:0:0:0:
64,192,85845,1,8,0:0:0:0:
320,192,85845,1,0,0:0:0:0:
64,192,85999,1,0,0:0:0:0:
448,192,85999,1,2,0:0:0:0:
320,192,86152,1,0,0:0:0:0:
448,192,86152,1,2,0:0:0:0:
320,192,86306,128,0,86614:0:0:0:0:
448,192,86306,1,8,0:0:0:0:
64,192,86306,1,0,0:0:0:0:
192,192,86460,1,2,0:0:0:0:
64,192,86460,1,0,0:0:0:0:
448,192,86537,1,2,0:0:0:0:
64,192,86614,1,0,0:0:0:0:
192,192,86614,1,8,0:0:0:0:
320,192,86691,1,0,0:0:0:0:
448,192,86691,1,8,0:0:0:0:
64,192,86768,1,0,0:0:0:0:
192,192,86768,1,2,0:0:0:0:
448,192,86845,1,0,0:0:0:0:
320,192,86845,1,2,0:0:0:0:
64,192,86922,1,0,0:0:0:50:KICK 2.wav
192,192,86999,1,0,0:0:0:50:KICK 2.wav
320,192,87076,1,2,0:0:0:0:
448,192,87076,1,0,0:0:0:0:
192,192,87152,1,2,0:0:0:0:
64,192,87152,1,0,0:0:0:0:
448,192,87229,1,0,0:0:0:50:KICK 2.wav
320,192,87306,1,0,0:0:0:50:KICK 2.wav
192,192,87383,1,2,0:0:0:0:
64,192,87383,1,0,0:0:0:0:
448,192,87460,1,2,0:0:0:0:
192,192,87537,1,8,0:0:0:0:
64,192,87537,1,0,0:0:0:0:
320,192,87537,1,0,0:0:0:0:
448,192,87691,128,0,87922:0:0:0:0:
320,192,87691,128,2,87922:0:0:0:0:
192,192,87691,128,4,88076:0:0:0:0:
64,192,87691,128,0,88076:0:0:0:0:
448,192,87999,128,0,88383:0:0:0:0:
320,192,87999,128,2,88076:0:0:0:0:
320,192,88152,1,0,0:0:0:0:
64,192,88152,128,0,88383:0:0:0:0:
192,192,88152,128,8,88229:0:0:0:0:
320,192,88306,128,0,88383:0:0:0:0:
320,192,88460,128,2,88691:0:0:0:0:
448,192,88460,128,0,88691:0:0:0:0:
64,192,88460,128,0,88537:0:0:0:0:
64,192,88614,1,0,0:0:0:0:
192,192,88614,128,2,88691:0:0:0:0:
448,192,88768,1,0,0:0:0:0:
64,192,88768,128,0,89306:0:0:0:0:
320,192,88768,128,8,88845:0:0:0:0:
192,192,88922,128,2,89306:0:0:0:0:
448,192,88922,128,0,88999:0:0:0:0:
320,192,89076,128,0,89152:0:0:0:0:
320,192,89229,1,2,0:0:0:0:
448,192,89229,128,0,89306:0:0:0:0:
448,192,89383,128,0,89614:0:0:0:0:
64,192,89383,128,0,89614:0:0:0:0:
192,192,89383,128,8,89460:0:0:0:0:
320,192,89537,128,0,89614:0:0:0:0:
64,192,89691,128,0,90076:0:0:0:0:
448,192,89691,128,2,89768:0:0:0:0:
192,192,89845,128,0,90076:0:0:0:0:
320,192,89845,128,2,89922:0:0:0:0:
320,192,89999,1,8,0:0:0:0:
448,192,89999,128,0,90076:0:0:0:0:
448,192,90152,128,0,90383:0:0:0:0:
192,192,90152,128,2,90383:0:0:0:0:
64,192,90152,128,0,90383:0:0:0:0:
320,192,90152,128,4,90383:0:0:0:0:
64,192,90460,128,2,90537:0:0:0:0:
448,192,90460,128,0,90537:0:0:0:0:
64,192,90614,128,0,90845:0:0:0:0:
192,192,90614,128,8,90845:0:0:0:0:
320,192,90614,128,0,90691:0:0:0:0:
448,192,90768,128,0,90845:0:0:0:0:
320,192,90922,128,2,91152:0:0:0:0:
64,192,90922,128,0,91152:0:0:0:0:
192,192,91076,1,2,0:0:0:0:
448,192,91076,128,0,91152:0:0:0:0:
64,192,91229,1,8,0:0:0:0:
448,192,91229,128,0,91614:0:0:0:0:
192,192,91229,128,0,91306:0:0:0:0:
320,192,91383,128,2,91614:0:0:0:0:
64,192,91383,128,0,91460:0:0:0:0:
64,192,91537,128,0,91768:0:0:0:0:
192,192,91537,128,0,91768:0:0:0:0:
320,192,91691,128,2,91768:0:0:0:0:
448,192,91691,128,0,91768:0:0:0:0:
448,192,91845,128,0,92076:0:0:0:0:
320,192,91845,128,8,92076:0:0:0:0:
64,192,91845,128,0,91922:0:0:0:0:
64,192,91999,128,0,92152:0:0:0:0:
192,192,91999,128,0,92152:0:0:0:50:KICK 2.wav
320,192,92152,1,8,0:0:0:0:
448,192,92152,1,0,0:0:0:0:
192,192,92229,1,0,0:0:0:50:KICK 2.wav
64,192,92306,1,0,0:0:0:0:
448,192,92306,1,2,0:0:0:0:
320,192,92383,1,2,0:0:0:0:
192,192,92460,1,0,0:0:0:0:
64,192,92460,1,0,0:0:0:0:
448,192,92460,1,8,0:0:0:0:
448,192,92614,128,0,92845:0:0:0:0:
64,192,92614,128,0,92845:0:0:0:0:
320,192,92614,128,2,92845:0:0:0:0:
192,192,92614,128,4,92845:0:0:0:0:
320,192,92922,128,0,93306:0:0:0:0:
448,192,93076,128,0,93306:0:0:0:0:
64,192,93076,1,0,0:0:0:0:
192,192,93076,128,8,93152:0:0:0:0:
64,192,93229,128,0,93306:0:0:0:0:
192,192,93383,128,2,93614:0:0:0:0:
448,192,93383,128,0,93614:0:0:0:0:
320,192,93537,128,0,93614:0:0:0:0:
64,192,93691,128,0,94229:0:0:0:0:
192,192,93691,1,8,0:0:0:0:
448,192,93691,128,0,93768:0:0:0:0:
320,192,93845,128,0,94229:0:0:0:0:
448,192,93999,1,0,0:0:0:0:
192,192,93999,128,2,94076:0:0:0:0:
448,192,94152,128,0,94229:0:0:0:0:
64,192,94306,128,0,94537:0:0:0:0:
192,192,94306,128,8,94537:0:0:0:0:
320,192,94306,128,0,94383:0:0:0:0:
448,192,94460,128,0,94537:0:0:0:0:
320,192,94614,128,0,94845:0:0:0:0:
64,192,94614,128,2,94691:0:0:0:0:
448,192,94768,128,0,94845:0:0:0:0:
192,192,94922,128,8,94999:0:0:0:0:
64,192,94922,128,0,94999:0:0:0:0:
448,192,94922,128,0,94999:0:0:0:0:
64,192,95076,128,0,95460:0:0:0:0:
192,192,95076,128,0,95460:0:0:0:0:
320,192,95076,128,2,95460:0:0:0:0:
448,192,95076,128,4,95460:0:0:0:0:
320,192,95537,128,8,95768:0:0:0:0:
448,192,95537,128,0,95768:0:0:0:0:
64,192,95537,128,0,95614:0:0:0:0:
192,192,95691,128,0,95768:0:0:0:0:
64,192,95845,128,0,96076:0:0:0:0:
320,192,95845,128,2,96076:0:0:0:0:
448,192,95845,128,0,96076:0:0:0:0:
192,192,95999,128,0,96076:0:0:0:0:
448,192,96152,1,0,0:0:0:0:
64,192,96152,128,0,96460:0:0:0:0:
320,192,96152,128,8,96229:0:0:0:0:
192,192,96306,128,0,96460:0:0:0:0:
320,192,96460,128,2,96691:0:0:0:0:
448,192,96460,128,0,96691:0:0:0:0:
64,192,96614,128,0,96768:0:0:0:0:
192,192,96614,128,8,96845:0:0:0:0:
320,192,96768,128,2,96922:0:0:0:0:
448,192,96768,128,0,96922:0:0:0:0:
64,192,96845,128,0,96999:0:0:0:0:
192,192,96922,128,0,96999:0:0:0:0:
320,192,96999,128,8,97229:0:0:0:0:
448,192,96999,128,0,97229:0:0:0:0:
64,192,97076,128,0,97152:0:0:0:0:
192,192,97076,128,8,97152:0:0:0:0:
192,192,97229,1,0,0:0:0:50:KICK 2.wav
64,192,97229,1,0,0:0:0:0:
320,192,97383,1,0,0:0:0:50:KICK 2.wav
448,192,97383,1,0,0:0:0:0:
192,192,97537,1,4,0:0:0:0:
64,192,97537,1,0,0:0:0:0:
320,192,97537,1,2,0:0:0:0:
448,192,97537,1,0,0:0:0:0:
192,192,97845,1,2,0:0:0:0:
64,192,97845,1,0,0:0:0:0:
448,192,97999,1,0,0:0:0:0:
320,192,97999,1,0,0:0:0:0:
192,192,97999,1,8,0:0:0:0:
448,192,98152,1,0,0:0:0:0:
64,192,98152,1,2,0:0:0:0:
64,192,98306,1,8,0:0:0:0:
192,192,98306,1,0,0:0:0:0:
320,192,98306,1,0,0:0:0:0:
448,192,98460,1,0,0:0:0:0:
192,192,98460,1,2,0:0:0:0:
448,192,98614,1,0,0:0:0:0:
320,192,98614,1,8,0:0:0:0:
64,192,98614,1,0,0:0:0:0:
64,192,98768,1,0,0:0:0:0:
192,192,98768,1,2,0:0:0:0:
320,192,98845,1,2,0:0:0:0:
448,192,98922,1,0,0:0:0:0:
192,192,98922,1,8,0:0:0:0:
64,192,98922,1,0,0:0:0:0:
448,192,99076,1,0,0:0:0:0:
320,192,99076,1,2,0:0:0:0:
64,192,99229,1,8,0:0:0:0:
192,192,99229,1,0,0:0:0:0:
320,192,99229,1,0,0:0:0:0:
448,192,99383,1,0,0:0:0:0:
192,192,99383,1,2,0:0:0:0:
448,192,99537,1,0,0:0:0:0:
64,192,99537,1,0,0:0:0:0:
320,192,99537,1,8,0:0:0:0:
64,192,99691,1,0,0:0:0:0:
192,192,99691,1,2,0:0:0:0:
448,192,99845,1,0,0:0:0:0:
320,192,99845,1,0,0:0:0:0:
192,192,99845,1,8,0:0:0:0:
448,192,99999,1,0,0:0:0:0:
64,192,99999,1,2,0:0:0:0:
192,192,99999,1,0,0:0:0:0:
320,192,99999,1,4,0:0:0:0:
448,192,100306,1,2,0:0:0:0:
64,192,100306,1,0,0:0:0:0:
64,192,100460,1,0,0:0:0:0:
192,192,100460,1,0,0:0:0:0:
320,192,100460,1,8,0:0:0:0:
448,192,100614,1,2,0:0:0:0:
192,192,100614,1,0,0:0:0:0:
64,192,100768,1,0,0:0:0:0:
448,192,100768,1,0,0:0:0:0:
320,192,100768,1,8,0:0:0:0:
64,192,100922,1,2,0:0:0:0:
192,192,100922,1,0,0:0:0:0:
192,192,101076,5,0,0:0:0:0:
320,192,101076,1,8,0:0:0:0:
448,192,101076,1,0,0:0:0:0:
64,192,101229,1,0,0:0:0:0:
448,192,101229,1,2,0:0:0:0:
320,192,101306,1,2,0:0:0:0:
64,192,101383,128,0,101460:0:0:0:0:
192,192,101383,128,0,101460:0:0:0:50:KICK 2.wav
448,192,101460,1,0,0:0:0:50:KICK 2.wav
320,192,101537,128,2,101614:0:0:0:0:
64,192,101537,128,0,101614:0:0:0:0:
192,192,101614,1,2,0:0:0:0:
64,192,101691,1,0,0:0:0:0:
320,192,101691,128,8,101768:0:0:0:0:
448,192,101691,128,0,101768:0:0:0:0:
192,192,101768,1,0,0:0:0:50:KICK 2.wav
64,192,101845,128,0,101922:0:0:0:0:
448,192,101845,128,2,101922:0:0:0:0:
320,192,101922,1,2,0:0:0:0:
192,192,101999,128,0,102076:0:0:0:50:KICK 2.wav
448,192,101999,128,0,102076:0:0:0:0:
320,192,102076,1,0,0:0:0:50:KICK 2.wav
192,192,102152,128,2,102229:0:0:0:0:
64,192,102152,128,0,102229:0:0:0:0:
448,192,102229,1,2,0:0:0:0:
320,192,102306,1,8,0:0:0:0:
192,192,102306,1,0,0:0:0:0:
64,192,102306,1,0,0:0:0:0:
448,192,102460,128,0,102845:0:0:0:0:
64,192,102460,1,0,0:0:0:0:
192,192,102460,1,2,0:0:0:0:
320,192,102460,128,4,102845:0:0:0:0:
64,192,102768,1,0,0:0:0:0:
192,192,102768,1,2,0:0:0:0:
192,192,102922,128,8,103229:0:0:0:0:
448,192,102922,1,0,0:0:0:0:
64,192,102922,128,0,103229:0:0:0:0:
448,192,103229,1,0,0:0:0:0:
320,192,103229,1,2,0:0:0:0:
64,192,103383,1,0,0:0:0:0:
192,192,103383,1,2,0:0:0:0:
448,192,103537,1,0,0:0:0:0:
320,192,103537,1,8,0:0:0:0:
192,192,103537,1,0,0:0:0:0:
320,192,103691,1,2,0:0:0:0:
64,192,103691,128,0,104076:0:0:0:0:
448,192,103691,1,4,0:0:0:0:
192,192,103691,128,0,104076:0:0:0:0:
448,192,103999,1,0,0:0:0:0:
320,192,103999,1,2,0:0:0:0:
448,192,104152,128,0,104460:0:0:0:0:
320,192,104152,128,0,104460:0:0:0:0:
64,192,104152,1,8,0:0:0:0:
192,192,104306,1,2,0:0:0:0:
64,192,104306,1,0,0:0:0:0:
64,192,104460,1,0,0:0:0:50:KICK 2.wav
192,192,104511,1,0,0:0:0:50:KICK 2.wav
448,192,104614,1,0,0:0:0:0:
320,192,104614,1,2,0:0:0:0:
448,192,104768,1,0,0:0:0:0:
192,192,104768,1,8,0:0:0:0:
64,192,104768,1,0,0:0:0:0:
64,192,104922,128,0,105229:0:0:0:0:
192,192,104922,128,2,105229:0:0:0:0:
320,192,104922,1,4,0:0:0:0:
448,192,104922,1,0,0:0:0:0:
320,192,105229,128,8,105383:0:0:0:0:
448,192,105229,128,0,105306:0:0:0:0:
192,192,105306,128,8,105460:0:0:0:0:
64,192,105383,128,2,105537:0:0:0:0:
448,192,105383,128,0,105614:0:0:0:0:
320,192,105460,128,0,105691:0:0:0:50:KICK 2.wav
192,192,105537,128,0,105845:0:0:0:50:KICK 2.wav
64,192,105614,128,0,105768:0:0:0:50:KICK 2.wav
448,192,105691,128,0,105922:0:0:0:50:KICK 2.wav
320,192,105768,128,0,105922:0:0:0:50:KICK 2.wav
64,192,105845,128,0,106076:0:0:0:50:KICK 2.wav
192,192,105922,128,0,105999:0:0:0:50:KICK 2.wav
320,192,105999,128,2,106076:0:0:0:0:
448,192,105999,128,0,106076:0:0:0:0:
192,192,106076,128,2,106152:0:0:0:0:
448,192,106152,128,0,107076:0:0:0:0:
320,192,106152,128,8,107076:0:0:0:0:
64,192,106152,128,0,106999:0:0:0:0:
192,192,107076,1,2,0:0:0:0:
64,192,107076,1,0,0:0:0:0:
448,192,107152,1,2,0:0:0:0:
320,192,107229,1,8,0:0:0:0:
192,192,107229,1,0,0:0:0:0:
64,192,107229,1,0,0:0:0:0:
64,192,107537,1,0,0:0:0:0:
192,192,107537,1,4,0:0:0:0:
320,192,107537,1,8,0:0:0:0:
448,192,107537,1,0,0:0:0:0:
448,192,107691,1,0,0:0:0:0:
320,192,107691,1,2,0:0:0:0:
64,192,107845,1,0,0:0:0:0:
192,192,107845,1,2,0:0:0:0:
320,192,107999,1,8,0:0:0:0:
448,192,107999,1,4,0:0:0:0:
192,192,107999,1,0,0:0:0:0:
320,192,108152,1,2,0:0:0:0:
448,192,108152,1,0,0:0:0:0:
64,192,108306,1,0,0:0:0:0:
192,192,108306,1,2,0:0:0:0:
448,192,108460,1,0,0:0:0:0:
320,192,108460,1,4,0:0:0:0:
64,192,108460,1,8,0:0:0:0:
320,192,108614,1,2,0:0:0:0:
448,192,108614,1,0,0:0:0:0:
192,192,108768,1,2,0:0:0:0:
64,192,108768,1,0,0:0:0:0:
320,192,108922,1,8,0:0:0:0:
64,192,108922,1,0,0:0:0:0:
192,192,108922,1,4,0:0:0:0:
448,192,109076,1,0,0:0:0:0:
320,192,109076,1,2,0:0:0:0:
192,192,109229,1,2,0:0:0:0:
64,192,109229,1,0,0:0:0:0:
448,192,109383,1,4,0:0:0:0:
320,192,109383,1,8,0:0:0:0:
192,192,109383,1,0,0:0:0:0:
64,192,109537,1,0,0:0:0:0:
448,192,109537,1,2,0:0:0:0:
192,192,109614,1,0,0:0:0:0:
448,192,109691,1,0,0:0:0:0:
320,192,109691,1,8,0:0:0:0:
64,192,109691,1,4,0:0:0:0:
320,192,109845,1,2,0:0:0:0:
192,192,109845,1,0,0:0:0:0:
448,192,109999,1,4,0:0:0:0:
192,192,109999,1,8,0:0:0:0:
64,192,109999,1,0,0:0:0:0:
448,192,110152,1,0,0:0:0:0:
64,192,110152,1,2,0:0:0:0:
320,192,110306,1,2,0:0:0:0:
192,192,110306,1,0,0:0:0:0:
448,192,110460,1,4,0:0:0:0:
192,192,110460,1,8,0:0:0:0:
64,192,110460,1,0,0:0:0:0:
320,192,110614,1,2,0:0:0:0:
64,192,110614,1,0,0:0:0:0:
448,192,110768,1,0,0:0:0:0:
192,192,110768,1,2,0:0:0:0:
320,192,110922,1,8,0:0:0:0:
448,192,110922,1,4,0:0:0:0:
64,192,110922,1,0,0:0:0:0:
320,192,111076,1,2,0:0:0:0:
192,192,111076,1,0,0:0:0:0:
448,192,111229,1,2,0:0:0:0:
64,192,111229,1,0,0:0:0:0:
320,192,111383,1,4,0:0:0:0:
64,192,111383,1,0,0:0:0:0:
192,192,111383,1,8,0:0:0:0:
448,192,111537,1,2,0:0:0:0:
192,192,111537,1,0,0:0:0:0:
320,192,111691,1,2,0:0:0:0:
64,192,111691,1,0,0:0:0:0:
448,192,111845,1,0,0:0:0:0:
64,192,111845,1,4,0:0:0:0:
192,192,111845,1,8,0:0:0:0:
320,192,111922,1,0,0:0:0:50:KICK 2.wav
192,192,111999,1,0,0:0:0:50:KICK 2.wav
448,192,112076,1,0,0:0:0:50:KICK 2.wav
320,192,112152,1,0,0:0:0:0:
64,192,112152,1,0,0:0:0:50:KICK 2.wav
192,192,112229,1,0,0:0:0:50:KICK 2.wav
448,192,112306,1,0,0:0:0:50:KICK 2.wav
64,192,112383,1,0,0:0:0:50:KICK 2.wav
448,192,112460,1,4,0:0:0:0:
320,192,112460,1,8,0:0:0:0:
192,192,112460,1,0,0:0:0:0:
64,192,112614,1,0,0:0:0:0:
192,192,112614,1,2,0:0:0:0:
448,192,112768,1,0,0:0:0:0:
320,192,112768,1,2,0:0:0:0:
320,192,112922,1,8,0:0:0:0:
192,192,112922,1,0,0:0:0:0:
64,192,112922,1,4,0:0:0:0:
448,192,113076,1,2,0:0:0:0:
192,192,113076,1,0,0:0:0:0:
64,192,113229,1,0,0:0:0:0:
320,192,113229,1,2,0:0:0:0:
448,192,113383,1,4,0:0:0:0:
64,192,113383,1,8,0:0:0:0:
192,192,113383,1,0,0:0:0:0:
320,192,113537,1,2,0:0:0:0:
192,192,113537,1,0,0:0:0:0:
448,192,113691,1,2,0:0:0:0:
64,192,113691,1,0,0:0:0:0:
448,192,113845,1,4,0:0:0:0:
320,192,113845,1,8,0:0:0:0:
192,192,113845,1,0,0:0:0:0:
64,192,113999,1,0,0:0:0:0:
192,192,113999,1,2,0:0:0:0:
448,192,114152,1,0,0:0:0:0:
320,192,114152,1,2,0:0:0:0:
448,192,114306,1,4,0:0:0:0:
64,192,114306,1,0,0:0:0:0:
192,192,114306,1,8,0:0:0:0:
64,192,114460,1,0,0:0:0:0:
320,192,114460,1,2,0:0:0:0:
320,192,114614,1,8,0:0:0:0:
448,192,114614,1,0,0:0:0:0:
192,192,114614,1,0,0:0:0:0:
64,192,114691,1,0,0:0:0:0:
448,192,114768,1,0,0:0:0:0:
320,192,114768,1,2,0:0:0:0:
192,192,114845,1,0,0:0:0:0:
448,192,114922,1,0,0:0:0:0:
320,192,114922,1,8,0:0:0:0:
64,192,114922,1,0,0:0:0:0:
64,192,115076,1,0,0:0:0:0:
192,192,115076,1,2,0:0:0:0:
448,192,115229,1,0,0:0:0:0:
320,192,115229,1,2,0:0:0:0:
320,192,115383,1,0,0:0:0:0:
64,192,115383,1,2,0:0:0:0:
448,192,115537,1,2,0:0:0:0:
64,192,115537,1,0,0:0:0:0:
192,192,115537,1,8,0:0:0:0:
192,192,115691,1,8,0:0:0:0:
448,192,115691,1,2,0:0:0:0:
64,192,115691,1,0,0:0:0:0:
192,192,115845,1,8,0:0:0:0:
64,192,115845,1,0,0:0:0:0:
448,192,115845,1,2,0:0:0:0:
192,192,115999,1,8,0:0:0:0:
64,192,115999,1,0,0:0:0:0:
448,192,115999,1,2,0:0:0:0:
320,192,116152,1,2,0:0:0:0:
448,192,116152,1,4,0:0:0:0:
192,192,116152,1,0,0:0:0:0:
64,192,116152,1,0,0:0:0:0:
64,192,116306,1,0,0:0:0:50:KICK 2.wav
320,192,116383,1,0,0:0:0:50:KICK 2.wav
448,192,116460,1,0,0:0:0:0:
192,192,116460,1,2,0:0:0:0:
64,192,116537,1,0,0:0:0:50:KICK 2.wav
320,192,116614,1,0,0:0:0:50:KICK 2.wav
192,192,116691,1,0,0:0:0:50:KICK 2.wav
64,192,116768,1,2,0:0:0:0:
448,192,116768,1,0,0:0:0:0:
320,192,116845,1,0,0:0:0:50:KICK 2.wav
64,192,116922,1,0,0:0:0:0:
192,192,116922,1,0,0:0:0:50:KICK 2.wav
448,192,116999,1,0,0:0:0:0:
320,192,116999,1,0,0:0:0:50:KICK 2.wav
64,192,117076,1,2,0:0:0:0:
192,192,117076,1,0,0:0:0:50:KICK 2.wav
448,192,117152,1,0,0:0:0:0:
320,192,117152,1,0,0:0:0:50:KICK 2.wav
64,192,117229,1,0,0:0:0:0:
192,192,117229,1,0,0:0:0:50:KICK 2.wav
320,192,117306,1,0,0:0:0:50:KICK 2.wav
448,192,117383,128,0,117537:0:0:0:0:
64,192,117383,1,4,0:0:0:0:
192,192,117383,1,2,0:0:0:0:
192,192,117537,128,0,117691:0:0:0:0:
64,192,117691,128,0,117845:0:0:0:0:
320,192,117691,1,2,0:0:0:0:
448,192,117845,128,0,118306:0:0:0:0:
64,192,117999,1,0,0:0:0:0:
192,192,117999,1,2,0:0:0:0:
320,192,118152,128,0,118306:0:0:0:0:
192,192,118306,128,0,118460:0:0:0:0:
64,192,118306,1,2,0:0:0:0:
448,192,118460,128,0,118614:0:0:0:0:
64,192,118614,128,0,118768:0:0:0:0:
192,192,118614,1,2,0:0:0:0:
320,192,118768,128,0,118922:0:0:0:0:
192,192,118922,128,0,119076:0:0:0:0:
64,192,118922,1,2,0:0:0:0:
448,192,119076,128,0,119229:0:0:0:0:
320,192,119152,128,0,119229:0:0:0:0:
64,192,119229,128,0,119383:0:0:0:0:
192,192,119229,1,2,0:0:0:0:
448,192,119383,128,0,119537:0:0:0:0:
192,192,119537,128,0,119691:0:0:0:0:
64,192,119537,1,2,0:0:0:0:
448,192,119691,128,0,119845:0:0:0:0:
320,192,119845,128,0,119999:0:0:0:0:
64,192,119845,1,2,0:0:0:0:
192,192,119999,128,0,120152:0:0:0:0:
320,192,120152,128,0,120306:0:0:0:0:
64,192,120152,1,2,0:0:0:0:
448,192,120306,128,0,120768:0:0:0:0:
64,192,120460,1,2,0:0:0:0:
320,192,120460,1,0,0:0:0:0:
192,192,120614,128,0,120768:0:0:0:0:
64,192,120768,128,0,120922:0:0:0:0:
320,192,120768,1,2,0:0:0:0:
448,192,120922,128,0,121076:0:0:0:0:
320,192,121076,128,0,121229:0:0:0:0:
64,192,121076,1,2,0:0:0:0:
192,192,121229,128,0,121383:0:0:0:0:
320,192,121383,128,0,121537:0:0:0:0:
64,192,121383,1,2,0:0:0:0:
192,192,121537,128,0,121691:0:0:0:0:
448,192,121614,128,0,121691:0:0:0:0:
64,192,121691,128,0,121845:0:0:0:0:
320,192,121691,1,2,0:0:0:0:
320,192,121845,128,0,121999:0:0:0:0:
64,192,121999,128,0,122306:0:0:0:0:
448,192,121999,1,2,0:0:0:0:
192,192,122152,128,0,122306:0:0:0:0:
448,192,122306,128,4,122460:0:0:0:0:
320,192,122306,1,2,0:0:0:0:
64,192,122460,128,0,122614:0:0:0:0:
192,192,122614,128,0,122768:0:0:0:0:
448,192,122614,1,2,0:0:0:0:
320,192,122768,128,0,123076:0:0:0:0:
192,192,122922,1,0,0:0:0:0:
448,192,122922,1,2,0:0:0:0:
64,192,123076,128,0,123229:0:0:0:0:
448,192,123229,128,0,123383:0:0:0:0:
192,192,123229,1,2,0:0:0:0:
320,192,123383,128,0,123537:0:0:0:0:
64,192,123537,128,0,123691:0:0:0:0:
448,192,123537,1,2,0:0:0:0:
320,192,123691,128,0,123845:0:0:0:0:
448,192,123845,128,0,123999:0:0:0:0:
192,192,123845,1,2,0:0:0:0:
320,192,123999,128,0,124152:0:0:0:0:
64,192,124076,128,0,124152:0:0:0:0:
192,192,124152,128,0,124306:0:0:0:0:
448,192,124152,1,2,0:0:0:0:
320,192,124306,128,0,124460:0:0:0:0:
64,192,124460,1,2,0:0:0:0:
448,192,124460,128,0,124768:0:0:0:0:
192,192,124614,128,0,124768:0:0:0:0:
320,192,124768,128,0,124922:0:0:0:0:
64,192,124768,1,2,0:0:0:0:
192,192,124922,128,0,125076:0:0:0:0:
320,192,125076,128,0,125229:0:0:0:0:
448,192,125076,1,2,0:0:0:0:
64,192,125229,128,0,125537:0:0:0:0:
448,192,125383,128,0,125537:0:0:0:0:
320,192,125383,1,2,0:0:0:0:
192,192,125537,128,0,125691:0:0:0:0:
320,192,125691,128,0,125845:0:0:0:0:
448,192,125691,1,2,0:0:0:0:
64,192,125845,128,0,125999:0:0:0:0:
192,192,125999,1,0,0:0:0:0:
448,192,125999,1,0,0:0:0:0:
320,192,125999,1,8,0:0:0:0:
448,192,126537,1,0,0:0:0:0:
64,192,126537,1,0,0:0:0:0:
320,192,126614,1,0,0:0:0:0:
192,192,126691,1,0,0:0:0:0:
448,192,126768,1,0,0:0:0:0:
64,192,126768,1,2,0:0:0:0:
320,192,126845,1,2,0:0:0:0:
192,192,126922,1,0,0:0:0:0:
448,192,126922,1,8,0:0:0:0:
64,192,126922,1,0,0:0:0:0:
64,192,127229,1,0,0:0:0:0:
320,192,127229,1,2,0:0:0:0:
448,192,127229,1,4,0:0:0:0:
192,192,127229,128,0,127383:0:0:0:0:
448,192,127383,128,0,127537:0:0:0:0:
192,192,127537,1,8,0:0:0:0:
64,192,127537,128,0,127691:0:0:0:0:
448,192,127691,128,0,127845:0:0:0:0:
320,192,127691,128,0,127845:0:0:0:0:
64,192,127845,1,0,0:0:0:0:
192,192,127845,1,2,0:0:0:0:
64,192,127999,128,0,128076:0:0:0:0:
448,192,127999,128,0,128152:0:0:0:0:
64,192,128152,128,0,128306:0:0:0:0:
192,192,128152,128,8,128306:0:0:0:0:
320,192,128306,128,0,128460:0:0:0:0:
448,192,128460,1,2,0:0:0:0:
192,192,128460,128,0,128614:0:0:0:0:
320,192,128614,128,0,128768:0:0:0:0:
448,192,128614,128,0,128768:0:0:0:0:
192,192,128768,1,8,0:0:0:0:
64,192,128768,128,0,128922:0:0:0:0:
448,192,128922,128,0,129229:0:0:0:0:
64,192,129076,128,0,129229:0:0:0:0:
192,192,129076,128,2,129229:0:0:0:0:
320,192,129229,1,0,0:0:0:0:
448,192,129383,128,8,129537:0:0:0:0:
64,192,129383,128,0,129537:0:0:0:0:
192,192,129537,128,0,129691:0:0:0:0:
320,192,129691,1,2,0:0:0:0:
448,192,129691,128,0,129845:0:0:0:0:
64,192,129845,128,0,129999:0:0:0:0:
192,192,129999,1,8,0:0:0:0:
320,192,129999,128,0,130152:0:0:0:0:
64,192,130152,128,0,130306:0:0:0:0:
448,192,130152,128,0,130306:0:0:0:0:
192,192,130306,128,0,130614:0:0:0:0:
320,192,130306,1,2,0:0:0:0:
448,192,130460,128,0,130537:0:0:0:0:
64,192,130460,128,0,130614:0:0:0:0:
448,192,130614,128,0,130768:0:0:0:0:
320,192,130614,128,8,130768:0:0:0:0:
192,192,130768,128,0,130922:0:0:0:0:
448,192,130922,1,2,0:0:0:0:
320,192,130922,128,0,131076:0:0:0:0:
64,192,131076,128,0,131229:0:0:0:0:
192,192,131076,128,0,131229:0:0:0:0:
320,192,131229,1,8,0:0:0:0:
448,192,131229,128,0,131383:0:0:0:0:
64,192,131383,128,0,131537:0:0:0:0:
448,192,131537,1,0,0:0:0:0:
320,192,131537,1,2,0:0:0:0:
448,192,131691,1,0,0:0:0:0:
192,192,131691,1,8,0:0:0:0:
64,192,131691,1,0,0:0:0:0:
320,192,131845,1,2,0:0:0:0:
192,192,131845,1,0,0:0:0:0:
448,192,131999,1,0,0:0:0:0:
320,192,131999,1,0,0:0:0:0:
64,192,131999,1,8,0:0:0:0:
64,192,132152,1,0,0:0:0:0:
320,192,132152,1,4,0:0:0:0:
448,192,132152,128,0,132306:0:0:0:0:
192,192,132152,1,2,0:0:0:0:
192,192,132306,128,0,132460:0:0:0:0:
320,192,132460,1,8,0:0:0:0:
64,192,132460,128,0,132614:0:0:0:0:
448,192,132614,128,0,132768:0:0:0:0:
320,192,132768,1,2,0:0:0:0:
192,192,132768,128,0,132922:0:0:0:0:
64,192,132922,128,0,133076:0:0:0:0:
448,192,133076,1,8,0:0:0:0:
320,192,133076,128,0,133229:0:0:0:0:
192,192,133229,128,0,133383:0:0:0:0:
64,192,133383,1,2,0:0:0:0:
448,192,133383,128,0,133537:0:0:0:0:
320,192,133537,128,0,133691:0:0:0:0:
192,192,133691,1,8,0:0:0:0:
64,192,133691,128,0,133845:0:0:0:0:
448,192,133845,128,0,134152:0:0:0:0:
320,192,133999,1,2,0:0:0:0:
192,192,133999,128,0,134306:0:0:0:0:
64,192,134152,128,0,134306:0:0:0:0:
320,192,134306,1,8,0:0:0:0:
448,192,134306,1,0,0:0:0:0:
192,192,134460,1,0,0:0:0:0:
448,192,134614,128,0,134922:0:0:0:0:
64,192,134614,128,2,134768:0:0:0:0:
320,192,134768,128,0,134922:0:0:0:0:
64,192,134922,1,8,0:0:0:0:
192,192,134922,128,0,135076:0:0:0:0:
64,192,135076,128,0,135229:0:0:0:0:
448,192,135076,128,0,135152:0:0:0:0:
320,192,135229,128,2,135383:0:0:0:0:
448,192,135229,128,0,135383:0:0:0:0:
192,192,135383,128,0,135537:0:0:0:0:
448,192,135537,1,8,0:0:0:0:
64,192,135537,128,0,135691:0:0:0:0:
320,192,135691,128,0,135845:0:0:0:0:
192,192,135845,1,2,0:0:0:0:
64,192,135845,128,0,135999:0:0:0:0:
320,192,135999,1,8,0:0:0:0:
448,192,135999,128,0,136152:0:0:0:0:
64,192,136152,1,8,0:0:0:0:
192,192,136152,128,0,136306:0:0:0:0:
448,192,136306,1,2,0:0:0:0:
320,192,136306,128,0,136460:0:0:0:0:
192,192,136460,1,2,0:0:0:0:
64,192,136460,128,0,136614:0:0:0:0:
320,192,136614,128,0,136768:0:0:0:0:
64,192,136691,1,8,0:0:0:0:
192,192,136768,1,8,0:0:0:0:
448,192,136768,128,0,136922:0:0:0:0:
64,192,136922,1,0,0:0:0:0:
320,192,136922,1,2,0:0:0:0:
448,192,137076,1,0,0:0:0:0:
64,192,137076,1,0,0:0:0:0:
192,192,137076,1,8,0:0:0:0:
320,192,137076,1,4,0:0:0:0:
448,192,137229,1,2,0:0:0:0:
192,192,137229,1,0,0:0:0:0:
64,192,137383,1,0,0:0:0:0:
320,192,137383,1,2,0:0:0:0:
448,192,137537,1,0,0:0:0:0:
64,192,137537,1,0,0:0:0:0:
192,192,137537,1,8,0:0:0:0:
320,192,137691,1,2,0:0:0:0:
192,192,137691,1,0,0:0:0:0:
448,192,137845,1,2,0:0:0:0:
64,192,137845,1,0,0:0:0:0:
448,192,137999,1,0,0:0:0:0:
320,192,137999,1,0,0:0:0:0:
192,192,137999,1,8,0:0:0:0:
64,192,138152,1,0,0:0:0:0:
192,192,138152,1,2,0:0:0:0:
448,192,138306,1,0,0:0:0:0:
320,192,138306,1,2,0:0:0:0:
320,192,138460,1,0,0:0:0:0:
64,192,138460,1,0,0:0:0:0:
192,192,138460,1,8,0:0:0:0:
448,192,138614,1,2,0:0:0:0:
64,192,138614,1,0,0:0:0:0:
320,192,138768,1,2,0:0:0:0:
192,192,138768,1,0,0:0:0:0:
448,192,138922,1,0,0:0:0:0:
192,192,138922,1,8,0:0:0:0:
64,192,138922,1,0,0:0:0:0:
64,192,139076,1,2,0:0:0:0:
320,192,139076,1,0,0:0:0:0:
320,192,139229,1,8,0:0:0:0:
448,192,139229,1,0,0:0:0:0:
192,192,139229,1,0,0:0:0:0:
64,192,139383,1,0,0:0:0:0:
192,192,139383,1,2,0:0:0:0:
320,192,139460,1,2,0:0:0:0:
448,192,139537,1,0,0:0:0:0:
64,192,139537,1,0,0:0:0:0:
192,192,139537,1,8,0:0:0:0:
64,192,139691,1,0,0:0:0:0:
320,192,139691,1,2,0:0:0:0:
448,192,139845,1,0,0:0:0:0:
192,192,139845,1,2,0:0:0:0:
64,192,139999,1,0,0:0:0:0:
448,192,139999,1,0,0:0:0:0:
320,192,139999,1,8,0:0:0:0:
320,192,140152,1,2,0:0:0:0:
192,192,140152,1,0,0:0:0:0:
448,192,140306,1,2,0:0:0:0:
64,192,140306,1,0,0:0:0:0:
448,192,140460,1,0,0:0:0:0:
320,192,140460,1,0,0:0:0:0:
192,192,140460,1,8,0:0:0:0:
192,192,140614,1,2,0:0:0:0:
64,192,140614,1,0,0:0:0:0:
448,192,140768,1,0,0:0:0:0:
320,192,140768,1,2,0:0:0:0:
320,192,140922,1,0,0:0:0:0:
64,192,140922,1,0,0:0:0:0:
192,192,140922,1,8,0:0:0:0:
448,192,141076,1,2,0:0:0:0:
64,192,141076,1,0,0:0:0:0:
320,192,141229,1,2,0:0:0:0:
192,192,141229,1,0,0:0:0:0:
448,192,141383,1,0,0:0:0:0:
320,192,141383,1,8,0:0:0:0:
64,192,141422,1,0,0:0:0:0:
192,192,141422,1,8,0:0:0:0:
448,192,141537,1,0,0:0:0:0:
320,192,141537,1,2,0:0:0:0:
64,192,141691,1,0,0:0:0:0:
192,192,141691,1,0,0:0:0:50:KICK 2.wav
448,192,141729,1,0,0:0:0:0:
320,192,141729,1,0,0:0:0:50:KICK 2.wav
64,192,141845,1,0,0:0:0:0:
192,192,141845,1,2,0:0:0:0:
320,192,141999,1,8,0:0:0:0:
448,192,141999,1,4,0:0:0:0:
64,192,141999,1,0,0:0:0:0:
192,192,141999,1,0,0:0:0:0:
448,192,142152,1,0,0:0:0:0:
320,192,142152,1,2,0:0:0:0:
192,192,142306,1,2,0:0:0:0:
64,192,142306,1,0,0:0:0:0:
448,192,142460,1,0,0:0:0:0:
320,192,142460,1,8,0:0:0:0:
64,192,142460,1,0,0:0:0:0:
320,192,142614,1,2,0:0:0:0:
192,192,142614,1,0,0:0:0:0:
448,192,142768,1,2,0:0:0:0:
64,192,142768,1,0,0:0:0:0:
448,192,142922,1,0,0:0:0:0:
320,192,142922,1,0,0:0:0:0:
192,192,142922,1,8,0:0:0:0:
320,192,143076,1,2,0:0:0:0:
64,192,143076,1,0,0:0:0:0:
448,192,143229,1,0,0:0:0:0:
192,192,143229,1,2,0:0:0:0:
64,192,143383,1,0,0:0:0:0:
192,192,143383,1,0,0:0:0:0:
320,192,143383,1,8,0:0:0:0:
448,192,143537,1,0,0:0:0:0:
320,192,143537,1,2,0:0:0:0:
64,192,143691,1,0,0:0:0:0:
192,192,143691,1,2,0:0:0:0:
320,192,143845,1,0,0:0:0:0:
448,192,143845,1,0,0:0:0:0:
192,192,143845,1,8,0:0:0:0:
448,192,143999,1,2,0:0:0:0:
64,192,143999,1,0,0:0:0:0:
64,192,144152,1,0,0:0:0:0:
320,192,144152,1,0,0:0:0:0:
192,192,144152,1,8,0:0:0:0:
320,192,144306,1,2,0:0:0:0:
448,192,144306,1,0,0:0:0:0:
192,192,144383,1,2,0:0:0:0:
448,192,144460,1,0,0:0:0:0:
320,192,144460,1,8,0:0:0:0:
64,192,144460,1,0,0:0:0:0:
448,192,144614,1,2,0:0:0:0:
192,192,144614,1,0,0:0:0:0:
64,192,144768,1,0,0:0:0:0:
320,192,144768,1,2,0:0:0:0:
448,192,144922,1,0,0:0:0:0:
192,192,144922,1,8,0:0:0:0:
64,192,144922,1,0,0:0:0:0:
448,192,145076,1,0,0:0:0:0:
320,192,145076,1,2,0:0:0:0:
64,192,145229,1,0,0:0:0:0:
192,192,145229,1,2,0:0:0:0:
448,192,145383,1,0,0:0:0:0:
320,192,145383,1,8,0:0:0:0:
192,192,145383,1,0,0:0:0:0:
448,192,145537,1,2,0:0:0:0:
64,192,145537,1,0,0:0:0:0:
320,192,145691,1,2,0:0:0:0:
192,192,145691,1,0,0:0:0:0:
320,192,145845,5,8,0:0:0:0:
448,192,145845,1,0,0:0:0:0:
64,192,145845,1,0,0:0:0:0:
192,192,145999,1,0,0:0:0:0:
448,192,145999,1,2,0:0:0:0:
64,192,146152,1,0,0:0:0:0:
320,192,146152,1,2,0:0:0:0:
448,192,146306,1,0,0:0:0:0:
320,192,146306,1,0,0:0:0:0:
192,192,146306,1,8,0:0:0:0:
192,192,146460,1,2,0:0:0:0:
64,192,146460,1,0,0:0:0:0:
448,192,146614,1,0,0:0:0:0:
320,192,146614,1,8,0:0:0:0:
64,192,146614,1,0,0:0:0:0:
192,192,146768,1,0,0:0:0:0:
320,192,146922,5,8,0:0:0:0:
448,192,146922,1,2,0:0:0:0:
64,192,146999,1,8,0:0:0:0:
448,192,147076,1,8,0:0:0:0:
192,192,147152,1,8,0:0:0:0:
448,192,147229,1,2,0:0:0:0:
320,192,147229,1,8,0:0:0:0:
64,192,147306,1,8,0:0:0:0:
448,192,147383,1,8,0:0:0:0:
192,192,147460,1,8,0:0:0:0:
448,192,147537,1,2,0:0:0:0:
320,192,147537,1,8,0:0:0:0:
64,192,147614,1,8,0:0:0:0:
448,192,147691,1,8,0:0:0:0:
192,192,147768,1,8,0:0:0:0:
448,192,147845,1,2,0:0:0:0:
320,192,147845,1,8,0:0:0:0:
64,192,147922,1,8,0:0:0:0:
448,192,147999,1,8,0:0:0:0:
320,192,148076,1,8,0:0:0:0:
64,192,148152,1,2,0:0:0:0:
192,192,148152,1,8,0:0:0:0:
448,192,148229,1,8,0:0:0:0:
64,192,148306,1,8,0:0:0:0:
320,192,148383,1,8,0:0:0:0:
192,192,148460,1,8,0:0:0:0:
64,192,148460,1,2,0:0:0:0:
448,192,148537,1,8,0:0:0:0:
64,192,148614,1,8,0:0:0:0:
320,192,148691,1,8,0:0:0:0:
192,192,148768,1,2,0:0:0:0:
64,192,148768,1,8,0:0:0:0:
448,192,148845,1,0,0:0:0:0:
320,192,148845,1,8,0:0:0:0:
64,192,148922,1,0,0:0:0:0:
192,192,148922,1,8,0:0:0:0:
448,192,148999,1,0,0:0:0:0:
320,192,148999,1,8,0:0:0:0:
192,192,149076,1,8,0:0:0:0:
64,192,149076,1,0,0:0:0:0:
448,192,149152,1,0,0:0:0:0:
320,192,149152,1,8,0:0:0:0:
64,192,149229,1,0,0:0:0:0:
192,192,149229,1,8,0:0:0:0:
320,192,149306,1,8,0:0:0:0:
448,192,149383,1,0,0:0:0:0:
64,192,149383,1,4,0:0:0:0:
192,192,149383,1,2,0:0:0:0:
320,192,149537,1,0,0:0:0:50:KICK 2.wav
192,192,149614,1,0,0:0:0:50:KICK 2.wav
64,192,149691,1,0,0:0:0:50:KICK 2.wav
448,192,149768,1,0,0:0:0:50:KICK 2.wav
192,192,149845,1,2,0:0:0:0:
64,192,149845,1,0,0:0:0:0:
320,192,149922,1,2,0:0:0:0:
192,192,149999,1,8,0:0:0:0:
64,192,149999,1,0,0:0:0:0:
448,192,149999,1,0,0:0:0:0:
320,192,150076,1,0,0:0:0:50:KICK 2.wav
64,192,150152,1,0,0:0:0:0:
448,192,150152,1,2,0:0:0:0:
192,192,150229,1,0,0:0:0:0:
320,192,150229,1,2,0:0:0:0:
448,192,150306,1,0,0:0:0:50:KICK 2.wav
64,192,150383,1,0,0:0:0:50:KICK 2.wav
320,192,150460,1,0,0:0:0:0:
448,192,150460,1,2,0:0:0:0:
64,192,150537,5,2,0:0:0:0:
192,192,150537,1,0,0:0:0:0:
320,192,150614,1,0,0:0:0:50:KICK 2.wav
448,192,150691,1,0,0:0:0:50:KICK 2.wav
192,192,150768,1,0,0:0:0:0:
64,192,150768,1,2,0:0:0:0:
320,192,150845,1,2,0:0:0:0:
192,192,150922,1,0,0:0:0:0:
448,192,150922,1,8,0:0:0:0:
64,192,150922,1,4,0:0:0:0:
320,192,151076,1,4,0:0:0:0:
192,192,151076,1,2,0:0:0:0:
64,192,151076,1,0,0:0:0:0:
448,192,151076,1,0,0:0:0:0:
448,192,151229,128,0,151614:0:0:0:0:
64,192,151229,128,0,151383:0:0:0:0:
320,192,151383,128,0,151614:0:0:0:0:
192,192,151537,128,0,151614:0:0:0:0:
64,192,151537,128,0,151614:0:0:0:0:
192,192,151691,128,4,152076:0:0:0:0:
320,192,151691,128,2,151922:0:0:0:0:
448,192,151691,128,0,151922:0:0:0:0:
64,192,151691,128,0,152076:0:0:0:0:
448,192,151999,128,0,152383:0:0:0:0:
320,192,151999,128,2,152076:0:0:0:0:
64,192,152152,128,0,152383:0:0:0:0:
192,192,152152,128,8,152229:0:0:0:0:
320,192,152152,1,0,0:0:0:0:
320,192,152306,128,0,152383:0:0:0:0:
448,192,152460,128,0,152691:0:0:0:0:
64,192,152460,128,2,152537:0:0:0:0:
192,192,152614,128,2,152691:0:0:0:0:
64,192,152614,128,0,152691:0:0:0:0:
320,192,152691,128,0,152768:0:0:0:0:
192,192,152768,1,0,0:0:0:0:
64,192,152768,128,0,153306:0:0:0:0:
448,192,152768,128,8,152845:0:0:0:0:
192,192,152922,128,0,153306:0:0:0:0:
320,192,152922,128,2,152999:0:0:0:0:
448,192,153076,128,0,153152:0:0:0:0:
448,192,153229,1,0,0:0:0:0:
320,192,153229,128,2,153306:0:0:0:0:
448,192,153383,128,0,153614:0:0:0:0:
64,192,153383,128,0,153614:0:0:0:0:
192,192,153383,128,8,153460:0:0:0:0:
320,192,153537,128,0,153614:0:0:0:0:
64,192,153691,128,2,154076:0:0:0:0:
448,192,153691,128,0,153768:0:0:0:0:
192,192,153845,128,0,154076:0:0:0:0:
320,192,153845,128,2,153922:0:0:0:0:
320,192,153999,1,8,0:0:0:0:
448,192,153999,128,0,154076:0:0:0:0:
448,192,154152,128,0,154383:0:0:0:0:
192,192,154152,128,4,154383:0:0:0:0:
64,192,154152,128,0,154383:0:0:0:0:
320,192,154152,128,2,154383:0:0:0:0:
64,192,154460,128,0,154537:0:0:0:0:
448,192,154460,128,2,154537:0:0:0:0:
64,192,154614,128,0,154845:0:0:0:0:
192,192,154614,128,0,154845:0:0:0:0:
320,192,154614,128,8,154691:0:0:0:0:
448,192,154768,128,0,154845:0:0:0:0:
320,192,154922,128,2,155152:0:0:0:0:
64,192,154922,128,0,155152:0:0:0:0:
192,192,155076,1,2,0:0:0:0:
448,192,155076,128,0,155152:0:0:0:0:
64,192,155229,1,8,0:0:0:0:
448,192,155229,128,0,155614:0:0:0:0:
192,192,155229,128,0,155306:0:0:0:0:
320,192,155383,128,2,155614:0:0:0:0:
64,192,155383,128,0,155460:0:0:0:0:
64,192,155537,128,0,155768:0:0:0:0:
192,192,155537,128,0,155768:0:0:0:0:
320,192,155691,128,2,155768:0:0:0:0:
448,192,155691,128,0,155768:0:0:0:0:
448,192,155845,128,0,156076:0:0:0:0:
64,192,155845,128,0,155922:0:0:0:0:
320,192,155845,128,8,156076:0:0:0:0:
64,192,155999,128,0,156152:0:0:0:0:
192,192,155999,128,0,156152:0:0:0:50:KICK 2.wav
320,192,156152,1,8,0:0:0:0:
448,192,156152,1,0,0:0:0:0:
192,192,156229,1,8,0:0:0:0:
64,192,156229,1,0,0:0:0:0:
320,192,156306,1,0,0:0:0:50:KICK 2.wav
448,192,156306,1,0,0:0:0:0:
192,192,156460,1,0,0:0:0:50:KICK 2.wav
64,192,156460,1,0,0:0:0:0:
448,192,156614,128,0,156845:0:0:0:0:
64,192,156614,128,0,156845:0:0:0:0:
320,192,156614,128,2,156845:0:0:0:0:
192,192,156614,128,4,156845:0:0:0:0:
64,192,156922,128,0,157306:0:0:0:0:
448,192,156922,128,2,156999:0:0:0:0:
192,192,157076,128,0,157306:0:0:0:0:
448,192,157076,1,0,0:0:0:0:
320,192,157076,128,8,157152:0:0:0:0:
448,192,157229,128,0,157306:0:0:0:0:
448,192,157383,128,0,157614:0:0:0:0:
64,192,157383,128,2,157460:0:0:0:0:
320,192,157537,128,0,157614:0:0:0:0:
192,192,157537,128,0,157614:0:0:0:0:
64,192,157691,128,0,157768:0:0:0:0:
320,192,157691,128,8,157768:0:0:0:0:
448,192,157691,128,0,157768:0:0:0:0:
64,192,157845,128,0,158229:0:0:0:0:
192,192,157845,128,0,158229:0:0:0:0:
320,192,157999,1,0,0:0:0:0:
448,192,157999,128,2,158076:0:0:0:0:
320,192,158152,128,0,158229:0:0:0:0:
64,192,158306,128,0,158537:0:0:0:0:
448,192,158306,128,0,158537:0:0:0:0:
192,192,158306,128,8,158383:0:0:0:0:
320,192,158460,128,0,158537:0:0:0:0:
320,192,158614,128,0,158922:0:0:0:0:
64,192,158614,128,2,158691:0:0:0:0:
192,192,158768,128,0,158922:0:0:0:0:
448,192,158922,1,8,0:0:0:0:
64,192,158922,1,0,0:0:0:0:
448,192,159076,128,0,159306:0:0:0:0:
320,192,159076,128,2,159306:0:0:0:0:
192,192,159076,128,4,159306:0:0:0:0:
64,192,159076,128,0,159306:0:0:0:0:
64,192,159383,128,0,159460:0:0:0:0:
448,192,159383,128,2,159460:0:0:0:0:
448,192,159537,128,0,159768:0:0:0:0:
64,192,159537,128,0,159768:0:0:0:0:
192,192,159537,128,8,159614:0:0:0:0:
320,192,159691,128,0,159768:0:0:0:0:
448,192,159845,128,0,160076:0:0:0:0:
320,192,159845,128,2,160076:0:0:0:0:
64,192,159845,128,0,160076:0:0:0:0:
192,192,159999,128,0,160076:0:0:0:0:
320,192,160152,1,8,0:0:0:0:
448,192,160152,128,0,160460:0:0:0:0:
64,192,160152,128,0,160229:0:0:0:0:
320,192,160306,128,0,160460:0:0:0:0:
64,192,160460,128,0,160614:0:0:0:0:
192,192,160460,128,0,160614:0:0:0:50:KICK 2.wav
320,192,160537,128,8,160691:0:0:0:0:
448,192,160614,128,8,160691:0:0:0:0:
192,192,160691,128,8,160845:0:0:0:0:
64,192,160691,128,0,160768:0:0:0:0:
320,192,160768,128,2,160922:0:0:0:0:
448,192,160768,128,0,160922:0:0:0:0:
64,192,160845,128,8,160999:0:0:0:0:
192,192,160922,128,8,160999:0:0:0:0:
320,192,160999,128,8,161076:0:0:0:0:
448,192,160999,128,0,161152:0:0:0:0:
192,192,161076,128,2,161306:0:0:0:0:
64,192,161076,128,0,161229:0:0:0:0:
320,192,161152,128,0,161383:0:0:0:50:KICK 2.wav
448,192,161229,128,0,161460:0:0:0:50:KICK 2.wav
64,192,161306,128,0,161460:0:0:0:50:KICK 2.wav
192,192,161383,128,0,161537:0:0:0:50:KICK 2.wav
320,192,161460,128,0,161537:0:0:0:50:KICK 2.wav
448,192,161537,128,4,161922:0:0:0:0:
64,192,161537,128,2,161922:0:0:0:0:
320,192,161845,128,0,161922:0:0:0:0:
192,192,161845,128,0,161922:0:0:0:0:
64,192,161999,128,0,162076:0:0:0:0:
192,192,161999,128,8,162076:0:0:0:0:
448,192,161999,1,0,0:0:0:0:
448,192,162152,128,0,162229:0:0:0:0:
320,192,162152,128,0,162229:0:0:0:0:
448,192,162306,128,2,162383:0:0:0:0:
64,192,162306,128,0,162691:0:0:0:0:
192,192,162460,128,0,162537:0:0:0:0:
320,192,162460,128,0,162537:0:0:0:0:
192,192,162614,128,0,162691:0:0:0:0:
320,192,162614,128,8,162691:0:0:0:0:
448,192,162614,128,0,162691:0:0:0:0:
64,192,162768,128,0,162845:0:0:0:0:
448,192,162768,128,0,163152:0:0:0:0:
192,192,162922,128,0,162999:0:0:0:0:
320,192,162922,128,2,162999:0:0:0:0:
64,192,163076,128,0,163152:0:0:0:0:
192,192,163076,128,0,163152:0:0:0:0:
448,192,163229,128,0,163306:0:0:0:0:
320,192,163229,128,8,163306:0:0:0:0:
192,192,163229,128,0,163460:0:0:0:0:
64,192,163383,128,0,163460:0:0:0:0:
448,192,163383,128,0,163460:0:0:0:0:
448,192,163537,128,0,163614:0:0:0:0:
320,192,163537,128,2,163768:0:0:0:0:
64,192,163691,128,0,163768:0:0:0:0:
192,192,163691,128,0,163768:0:0:0:0:
64,192,163845,1,0,0:0:0:0:
320,192,163845,1,8,0:0:0:0:
448,192,163845,1,0,0:0:0:0:
192,192,163999,128,0,164537:0:0:0:0:
64,192,163999,1,0,0:0:0:0:
448,192,163999,1,4,0:0:0:0:
320,192,163999,1,2,0:0:0:0:
320,192,164306,128,0,164383:0:0:0:0:
448,192,164306,128,0,164383:0:0:0:0:
64,192,164460,128,0,164537:0:0:0:0:
320,192,164460,128,8,164537:0:0:0:0:
448,192,164460,128,0,164537:0:0:0:0:
64,192,164614,128,0,164691:0:0:0:0:
192,192,164614,128,0,164691:0:0:0:0:
320,192,164768,128,2,164845:0:0:0:0:
448,192,164768,128,0,165306:0:0:0:0:
64,192,164922,128,0,164999:0:0:0:0:
192,192,164922,128,0,164999:0:0:0:0:
64,192,165076,128,0,165152:0:0:0:0:
192,192,165076,128,8,165152:0:0:0:0:
320,192,165076,128,0,165152:0:0:0:0:
192,192,165229,128,0,165306:0:0:0:0:
320,192,165229,128,0,165306:0:0:0:0:
448,192,165383,128,2,165460:0:0:0:0:
64,192,165383,128,0,165922:0:0:0:0:
320,192,165537,128,0,165614:0:0:0:0:
192,192,165537,128,0,165614:0:0:0:0:
192,192,165691,128,8,165768:0:0:0:0:
320,192,165691,128,0,165768:0:0:0:0:
448,192,165691,128,0,165768:0:0:0:0:
448,192,165845,128,0,165922:0:0:0:0:
192,192,165845,128,0,165922:0:0:0:0:
64,192,165999,128,0,166076:0:0:0:0:
448,192,165999,128,2,166152:0:0:0:0:
64,192,166152,1,8,0:0:0:0:
320,192,166229,1,8,0:0:0:0:
448,192,166229,1,0,0:0:0:0:
64,192,166306,1,0,0:0:0:0:
192,192,166306,1,8,0:0:0:0:
448,192,166383,1,0,0:0:0:0:
320,192,166383,1,8,0:0:0:0:
64,192,166460,1,0,0:0:0:0:
192,192,166460,1,8,0:0:0:0:
448,192,166537,1,8,0:0:0:0:
64,192,166614,128,4,166845:0:0:0:0:
192,192,166614,128,2,166845:0:0:0:0:
320,192,166614,128,0,166845:0:0:0:0:
448,192,166922,1,0,0:0:0:0:
64,192,166922,1,0,0:0:0:0:
192,192,166922,1,8,0:0:0:0:
448,192,167076,128,4,167537:0:0:0:0:
192,192,167076,128,2,167383:0:0:0:0:
64,192,167076,128,0,167383:0:0:0:0:
320,192,167383,1,2,0:0:0:0:
64,192,167537,1,0,0:0:0:0:
192,192,167537,1,8,0:0:0:0:
320,192,167691,1,0,0:0:0:50:KICK 2.wav
448,192,167691,1,0,0:0:0:0:
64,192,167768,1,0,0:0:0:50:KICK 2.wav
192,192,167845,128,2,168076:0:0:0:0:
320,192,167845,128,4,168076:0:0:0:0:
448,192,167845,128,0,168076:0:0:0:0:
192,192,168152,1,8,0:0:0:0:
64,192,168152,1,0,0:0:0:0:
448,192,168152,1,0,0:0:0:0:
64,192,168306,128,0,168691:0:0:0:0:
448,192,168306,128,4,168537:0:0:0:0:
320,192,168306,128,2,168460:0:0:0:0:
192,192,168460,128,0,168691:0:0:0:0:
320,192,168537,128,0,168614:0:0:0:0:
448,192,168614,128,2,168691:0:0:0:0:
320,192,168691,128,0,168768:0:0:0:0:
192,192,168768,128,8,168922:0:0:0:0:
64,192,168768,128,0,168999:0:0:0:0:
320,192,168922,1,2,0:0:0:0:
448,192,168922,1,0,0:0:0:0:
192,192,168999,1,2,0:0:0:0:
320,192,169076,1,8,0:0:0:0:
64,192,169076,1,0,0:0:0:0:
448,192,169076,128,4,169460:0:0:0:0:
192,192,169229,1,2,0:0:0:0:
64,192,169229,1,0,0:0:0:0:
64,192,169383,1,0,0:0:0:0:
320,192,169383,1,2,0:0:0:0:
320,192,169537,128,0,169922:0:0:0:0:
448,192,169537,1,0,0:0:0:0:
192,192,169537,1,8,0:0:0:0:
448,192,169691,1,0,0:0:0:0:
64,192,169691,1,2,0:0:0:0:
192,192,169845,1,2,0:0:0:0:
64,192,169845,1,0,0:0:0:0:
192,192,169999,128,0,170306:0:0:0:0:
64,192,169999,1,0,0:0:0:0:
448,192,169999,1,8,0:0:0:0:
320,192,170152,1,2,0:0:0:0:
448,192,170152,1,0,0:0:0:0:
64,192,170229,1,2,0:0:0:0:
320,192,170306,1,8,0:0:0:0:
448,192,170306,1,0,0:0:0:0:
192,192,170383,1,8,0:0:0:0:
64,192,170383,1,0,0:0:0:0:
320,192,170460,1,8,0:0:0:0:
448,192,170460,1,0,0:0:0:0:
64,192,170537,1,0,0:0:0:0:
192,192,170537,1,8,0:0:0:0:
448,192,170614,1,0,0:0:0:0:
320,192,170614,1,2,0:0:0:0:
64,192,170691,1,0,0:0:0:50:KICK 2.wav
192,192,170768,1,0,0:0:0:50:KICK 2.wav
448,192,170845,1,0,0:0:0:50:KICK 2.wav
320,192,170922,1,0,0:0:0:50:KICK 2.wav
192,192,170999,1,0,0:0:0:50:KICK 2.wav
64,192,171076,1,2,0:0:0:0:
448,192,171076,1,0,0:0:0:0:
320,192,171152,1,2,0:0:0:0:
192,192,171229,1,8,0:0:0:0:
64,192,171229,1,0,0:0:0:0:
448,192,171229,1,0,0:0:0:0:
64,192,171383,128,0,171614:0:0:0:0:
192,192,171383,128,4,171614:0:0:0:0:
320,192,171383,128,2,171768:0:0:0:0:
448,192,171383,128,0,171768:0:0:0:0:
64,192,171691,128,0,172076:0:0:0:0:
192,192,171691,128,2,171768:0:0:0:0:
448,192,171845,128,0,172076:0:0:0:0:
320,192,171845,128,8,171922:0:0:0:0:
192,192,171845,1,0,0:0:0:0:
192,192,171999,128,0,172076:0:0:0:0:
448,192,172152,128,0,172383:0:0:0:0:
64,192,172152,128,2,172229:0:0:0:0:
64,192,172306,128,0,172383:0:0:0:0:
320,192,172306,128,2,172383:0:0:0:0:
192,192,172383,128,0,172460:0:0:0:0:
320,192,172460,1,8,0:0:0:0:
448,192,172460,128,0,172999:0:0:0:0:
64,192,172460,128,0,172537:0:0:0:0:
320,192,172614,128,0,172999:0:0:0:0:
192,192,172614,128,2,172691:0:0:0:0:
64,192,172768,128,0,172845:0:0:0:0:
64,192,172922,1,0,0:0:0:0:
192,192,172922,128,2,172999:0:0:0:0:
64,192,173076,128,0,173306:0:0:0:0:
448,192,173076,128,0,173306:0:0:0:0:
320,192,173076,128,8,173152:0:0:0:0:
192,192,173229,128,0,173306:0:0:0:0:
448,192,173383,128,0,173768:0:0:0:0:
64,192,173383,128,2,173460:0:0:0:0:
320,192,173537,128,2,173768:0:0:0:0:
192,192,173537,128,0,173614:0:0:0:0:
192,192,173691,1,8,0:0:0:0:
64,192,173691,128,0,173768:0:0:0:0:
64,192,173845,128,0,174076:0:0:0:0:
320,192,173845,128,4,174076:0:0:0:0:
448,192,173845,128,0,174076:0:0:0:0:
192,192,173845,128,2,174076:0:0:0:0:
448,192,174152,128,2,174229:0:0:0:0:
64,192,174152,128,0,174229:0:0:0:0:
448,192,174306,128,0,174537:0:0:0:0:
320,192,174306,128,8,174537:0:0:0:0:
192,192,174306,128,0,174383:0:0:0:0:
64,192,174460,128,0,174537:0:0:0:0:
192,192,174614,128,2,174845:0:0:0:0:
448,192,174614,128,0,174845:0:0:0:0:
320,192,174768,1,2,0:0:0:0:
64,192,174768,128,0,174845:0:0:0:0:
64,192,174922,128,0,175306:0:0:0:0:
448,192,174922,1,0,0:0:0:0:
320,192,174922,128,8,174999:0:0:0:0:
192,192,175076,128,0,175306:0:0:0:0:
448,192,175076,128,2,175152:0:0:0:0:
448,192,175229,128,0,175460:0:0:0:0:
320,192,175229,128,0,175460:0:0:0:0:
192,192,175383,128,2,175460:0:0:0:0:
64,192,175383,128,0,175460:0:0:0:0:
448,192,175537,128,8,175614:0:0:0:0:
192,192,175537,128,0,175768:0:0:0:0:
64,192,175537,128,0,175999:0:0:0:0:
320,192,175691,128,2,175922:0:0:0:0:
448,192,175691,128,0,175922:0:0:0:0:
192,192,175845,128,2,175999:0:0:0:0:
448,192,175999,1,0,0:0:0:0:
320,192,175999,1,8,0:0:0:0:
64,192,176076,1,0,0:0:0:0:
192,192,176076,1,8,0:0:0:0:
448,192,176152,1,0,0:0:0:0:
320,192,176152,1,8,0:0:0:0:
64,192,176306,128,0,176691:0:0:0:0:
448,192,176306,128,0,176691:0:0:0:0:
192,192,176306,128,2,176691:0:0:0:0:
320,192,176306,128,4,176691:0:0:0:0:
64,192,176768,128,0,176999:0:0:0:0:
448,192,176768,128,0,176999:0:0:0:0:
192,192,176768,128,8,176845:0:0:0:0:
320,192,176922,128,0,176999:0:0:0:0:
192,192,177076,128,2,177306:0:0:0:0:
64,192,177076,128,0,177306:0:0:0:0:
448,192,177229,128,0,177306:0:0:0:0:
448,192,177383,128,0,177922:0:0:0:0:
320,192,177383,1,8,0:0:0:0:
64,192,177383,128,0,177460:0:0:0:0:
192,192,177537,128,0,177922:0:0:0:0:
64,192,177691,1,2,0:0:0:0:
320,192,177691,128,0,177768:0:0:0:0:
64,192,177845,128,0,177922:0:0:0:0:
448,192,177999,128,0,178229:0:0:0:0:
320,192,177999,128,8,178229:0:0:0:0:
192,192,177999,128,0,178076:0:0:0:0:
64,192,178152,128,0,178229:0:0:0:0:
192,192,178306,128,0,178537:0:0:0:0:
448,192,178306,128,2,178383:0:0:0:0:
320,192,178460,128,0,178537:0:0:0:0:
448,192,178614,1,0,0:0:0:0:
320,192,178614,1,8,0:0:0:0:
64,192,178614,1,0,0:0:0:0:
448,192,178768,128,0,179152:0:0:0:0:
320,192,178768,128,4,179152:0:0:0:0:
192,192,178768,128,2,179152:0:0:0:0:
64,192,178768,128,0,179152:0:0:0:0:
192,192,179229,128,8,179460:0:0:0:0:
64,192,179229,128,0,179460:0:0:0:0:
448,192,179229,128,0,179306:0:0:0:0:
320,192,179383,128,0,179460:0:0:0:0:
448,192,179537,128,0,179768:0:0:0:0:
320,192,179537,128,2,179768:0:0:0:0:
64,192,179537,128,0,179768:0:0:0:0:
192,192,179691,128,0,179768:0:0:0:0:
192,192,179845,1,8,0:0:0:0:
448,192,179845,128,0,180152:0:0:0:0:
64,192,179845,128,0,179922:0:0:0:0:
320,192,179999,128,0,180152:0:0:0:0:
64,192,180152,128,0,180306:0:0:0:0:
192,192,180152,128,2,180383:0:0:0:0:
320,192,180306,128,8,180460:0:0:0:0:
448,192,180306,128,0,180383:0:0:0:0:
64,192,180383,128,0,180537:0:0:0:0:
192,192,180460,128,0,180691:0:0:0:0:
448,192,180460,128,2,180614:0:0:0:0:
320,192,180537,128,8,180614:0:0:0:0:
64,192,180614,128,8,180691:0:0:0:0:
320,192,180691,128,8,180845:0:0:0:0:
448,192,180691,128,0,180845:0:0:0:0:
192,192,180768,128,8,180922:0:0:0:0:
64,192,180768,128,0,180922:0:0:0:0:
320,192,180922,1,0,0:0:0:50:KICK 2.wav
448,192,180922,1,0,0:0:0:0:
192,192,181076,1,0,0:0:0:50:KICK 2.wav
64,192,181076,1,0,0:0:0:0:
64,192,181229,1,0,0:0:0:0:
192,192,181229,1,0,0:0:0:0:
320,192,181229,1,2,0:0:0:0:
448,192,181229,1,4,0:0:0:0:
448,192,181537,1,0,0:0:0:0:
320,192,181537,1,2,0:0:0:0:
320,192,181691,1,0,0:0:0:0:
192,192,181691,1,8,0:0:0:0:
64,192,181691,1,0,0:0:0:0:
448,192,181845,1,0,0:0:0:0:
64,192,181845,1,2,0:0:0:0:
192,192,181999,1,8,0:0:0:0:
320,192,181999,1,0,0:0:0:0:
448,192,181999,1,0,0:0:0:0:
320,192,182152,1,2,0:0:0:0:
64,192,182152,1,0,0:0:0:0:
448,192,182306,1,0,0:0:0:0:
192,192,182306,1,8,0:0:0:0:
64,192,182306,1,0,0:0:0:0:
320,192,182460,1,2,0:0:0:0:
448,192,182460,1,0,0:0:0:0:
192,192,182537,1,2,0:0:0:0:
448,192,182614,1,0,0:0:0:0:
320,192,182614,1,8,0:0:0:0:
64,192,182614,1,0,0:0:0:0:
192,192,182768,1,2,0:0:0:0:
64,192,182768,1,0,0:0:0:0:
192,192,182922,1,8,0:0:0:0:
320,192,182922,1,0,0:0:0:0:
448,192,182922,1,0,0:0:0:0:
320,192,183076,1,2,0:0:0:0:
64,192,183076,1,0,0:0:0:0:
192,192,183229,1,8,0:0:0:0:
448,192,183229,1,0,0:0:0:0:
64,192,183229,1,0,0:0:0:0:
320,192,183383,1,2,0:0:0:0:
448,192,183383,1,0,0:0:0:0:
320,192,183537,1,0,0:0:0:0:
192,192,183537,1,8,0:0:0:0:
64,192,183537,1,0,0:0:0:0:
320,192,183691,1,4,0:0:0:0:
192,192,183691,1,2,0:0:0:0:
64,192,183691,1,0,0:0:0:0:
448,192,183691,1,0,0:0:0:0:
448,192,183999,1,0,0:0:0:0:
64,192,183999,1,2,0:0:0:0:
192,192,184152,1,8,0:0:0:0:
320,192,184152,1,0,0:0:0:0:
448,192,184152,1,0,0:0:0:0:
320,192,184306,1,2,0:0:0:0:
64,192,184306,1,0,0:0:0:0:
192,192,184460,1,8,0:0:0:0:
64,192,184460,1,0,0:0:0:0:
448,192,184460,1,0,0:0:0:0:
320,192,184614,1,2,0:0:0:0:
448,192,184614,1,0,0:0:0:0:
320,192,184768,5,0,0:0:0:0:
192,192,184768,1,8,0:0:0:0:
64,192,184768,1,0,0:0:0:0:
448,192,184922,1,0,0:0:0:0:
64,192,184922,1,2,0:0:0:0:
320,192,185076,128,8,185152:0:0:0:0:
448,192,185076,128,0,185152:0:0:0:0:
64,192,185152,1,8,0:0:0:0:
192,192,185229,128,2,185306:0:0:0:0:
320,192,185229,128,0,185306:0:0:0:0:
448,192,185306,1,2,0:0:0:0:
64,192,185383,128,0,185460:0:0:0:0:
192,192,185383,128,0,185460:0:0:0:50:KICK 2.wav
320,192,185460,1,0,0:0:0:50:KICK 2.wav
192,192,185537,128,0,185614:0:0:0:0:
448,192,185537,128,2,185614:0:0:0:0:
64,192,185614,1,2,0:0:0:0:
320,192,185691,128,0,185768:0:0:0:0:
448,192,185691,128,0,185768:0:0:0:50:KICK 2.wav
192,192,185768,1,0,0:0:0:50:KICK 2.wav
448,192,185845,128,0,185922:0:0:0:0:
64,192,185845,128,2,185922:0:0:0:0:
320,192,185922,1,2,0:0:0:0:
192,192,185999,1,8,0:0:0:0:
64,192,185999,1,0,0:0:0:0:
448,192,185999,1,0,0:0:0:0:
448,192,186152,1,2,0:0:0:0:
320,192,186152,1,4,0:0:0:0:
64,192,186152,128,0,186537:0:0:0:0:
192,192,186152,128,0,186537:0:0:0:0:
320,192,186460,1,2,0:0:0:0:
448,192,186460,1,0,0:0:0:0:
448,192,186614,128,0,186922:0:0:0:0:
64,192,186614,1,8,0:0:0:0:
320,192,186614,128,0,186922:0:0:0:0:
192,192,186922,1,2,0:0:0:0:
64,192,186922,1,0,0:0:0:0:
320,192,187076,1,2,0:0:0:0:
448,192,187076,1,0,0:0:0:0:
320,192,187229,1,0,0:0:0:0:
192,192,187229,1,8,0:0:0:0:
64,192,187229,1,0,0:0:0:0:
64,192,187383,1,2,0:0:0:0:
192,192,187383,1,4,0:0:0:0:
448,192,187383,128,0,187768:0:0:0:0:
320,192,187383,128,0,187768:0:0:0:0:
192,192,187691,1,0,0:0:0:0:
64,192,187691,1,2,0:0:0:0:
448,192,187845,1,8,0:0:0:0:
192,192,187845,128,0,188152:0:0:0:0:
64,192,187845,128,0,188152:0:0:0:0:
448,192,187999,1,0,0:0:0:0:
320,192,187999,1,2,0:0:0:0:
448,192,188152,1,0,0:0:0:50:KICK 2.wav
320,192,188229,1,0,0:0:0:50:KICK 2.wav
192,192,188306,1,0,0:0:0:50:KICK 2.wav
64,192,188306,1,0,0:0:0:0:
448,192,188383,1,0,0:0:0:50:KICK 2.wav
320,192,188460,1,8,0:0:0:0:
192,192,188460,1,0,0:0:0:0:
64,192,188460,1,0,0:0:0:0:
448,192,188614,128,0,188922:0:0:0:0:
320,192,188614,128,4,188922:0:0:0:0:
192,192,188614,1,2,0:0:0:0:
64,192,188614,1,0,0:0:0:0:
64,192,188922,128,0,188999:0:0:0:0:
192,192,188922,128,8,189076:0:0:0:0:
320,192,188999,128,8,189152:0:0:0:0:
64,192,189076,128,0,189306:0:0:0:0:
448,192,189076,128,2,189229:0:0:0:0:
192,192,189152,128,2,189383:0:0:0:0:
320,192,189229,128,0,189537:0:0:0:50:KICK 2.wav
448,192,189306,128,0,189460:0:0:0:50:KICK 2.wav
64,192,189383,128,2,189614:0:0:0:0:
192,192,189460,128,2,189614:0:0:0:0:
448,192,189537,128,0,189768:0:0:0:50:KICK 2.wav
320,192,189614,128,0,189691:0:0:0:50:KICK 2.wav
192,192,189691,128,2,189768:0:0:0:0:
64,192,189691,128,0,189768:0:0:0:0:
320,192,189768,128,2,189845:0:0:0:0:
64,192,189845,128,0,190922:0:0:0:0:
192,192,189845,128,8,190922:0:0:0:0:
448,192,189845,128,4,190922:0:0:0:0:
448,192,191229,1,2,0:0:0:0:
320,192,191229,1,4,0:0:0:0:
64,192,191229,1,0,0:0:0:0:
192,192,191229,128,0,191383:0:0:0:0:
320,192,191383,128,0,191537:0:0:0:0:
64,192,191537,128,0,191691:0:0:0:0:
448,192,191691,128,0,192152:0:0:0:0:
320,192,191845,128,0,191999:0:0:0:0:
64,192,191999,128,0,192152:0:0:0:0:
192,192,192152,128,0,192306:0:0:0:0:
320,192,192306,128,0,192460:0:0:0:0:
448,192,192460,128,0,192614:0:0:0:0:
64,192,192614,128,0,193076:0:0:0:0:
192,192,192768,128,0,192922:0:0:0:0:
320,192,192922,128,0,193076:0:0:0:0:
448,192,193076,128,0,193460:0:0:0:0:
64,192,193229,128,0,193306:0:0:0:0:
64,192,193383,128,0,193614:0:0:0:0:
448,192,193537,128,0,193691:0:0:0:0:
320,192,193614,1,0,0:0:0:0:
192,192,193691,128,0,193845:0:0:0:0:
64,192,193691,1,0,0:0:0:0:
448,192,193845,128,0,193999:0:0:0:0:
320,192,193999,128,0,194152:0:0:0:0:
64,192,194152,128,0,194614:0:0:0:0:
192,192,194306,128,0,194460:0:0:0:0:
320,192,194460,128,0,194614:0:0:0:0:
448,192,194614,128,0,194768:0:0:0:0:
192,192,194768,128,0,194922:0:0:0:0:
320,192,194922,128,0,195076:0:0:0:0:
448,192,195076,128,0,195537:0:0:0:0:
64,192,195229,128,0,195383:0:0:0:0:
320,192,195383,128,0,195537:0:0:0:0:
64,192,195537,128,0,195845:0:0:0:0:
192,192,195691,128,0,196076:0:0:0:0:
448,192,195691,128,0,195768:0:0:0:0:
320,192,195845,128,0,196076:0:0:0:0:
448,192,195845,128,0,196076:0:0:0:0:
64,192,195999,128,0,196076:0:0:0:0:
64,192,196152,1,4,0:0:0:0:
192,192,196152,1,2,0:0:0:0:
320,192,196152,128,0,196306:0:0:0:0:
448,192,196152,1,0,0:0:0:0:
192,192,196306,128,0,196460:0:0:0:0:
448,192,196460,128,0,196614:0:0:0:0:
64,192,196614,128,0,197076:0:0:0:0:
192,192,196768,128,0,197076:0:0:0:0:
448,192,197076,128,0,197229:0:0:0:0:
320,192,197178,1,0,0:0:0:50:KICK 2.wav
192,192,197229,128,0,197691:0:0:0:0:
64,192,197281,1,0,0:0:0:50:KICK 2.wav
448,192,197383,128,0,197537:0:0:0:0:
320,192,197383,128,0,197845:0:0:0:50:KICK 2.wav
64,192,197537,128,0,197691:0:0:0:0:
448,192,197691,128,0,198152:0:0:0:0:
192,192,197845,128,0,198152:0:0:0:50:KICK 2.wav
64,192,197845,128,0,197999:0:0:0:0:
320,192,197999,128,0,198306:0:0:0:0:
64,192,198152,128,0,198460:0:0:0:0:
448,192,198306,128,0,198460:0:0:0:50:KICK 2.wav
192,192,198306,128,0,198460:0:0:0:0:
320,192,198460,128,0,198614:0:0:0:0:
192,192,198614,128,0,199076:0:0:0:0:
448,192,198614,1,2,0:0:0:0:
64,192,198614,1,4,0:0:0:0:
320,192,198768,128,0,198922:0:0:0:0:
64,192,198922,128,0,199076:0:0:0:0:
320,192,199076,128,8,199306:0:0:0:0:
448,192,199076,128,0,199306:0:0:0:0:
64,192,199229,128,0,199383:0:0:0:0:
192,192,199383,1,0,0:0:0:50:KICK 2.wav
448,192,199383,128,0,199460:0:0:0:0:
64,192,199537,1,0,0:0:0:50:KICK 2.wav
320,192,199537,128,0,199614:0:0:0:0:
448,192,199691,1,0,0:0:0:50:KICK 2.wav
192,192,199691,128,0,199768:0:0:0:0:
448,192,199845,1,0,0:0:0:0:
64,192,199845,1,0,0:0:0:0:
192,192,199845,1,2,0:0:0:0:
320,192,199845,1,4,0:0:0:0:
64,192,199999,128,0,200229:0:0:0:50:KICK 2.wav
192,192,200076,128,0,200229:0:0:0:50:KICK 2.wav
448,192,200152,128,0,200691:0:0:0:0:
320,192,200152,128,0,200460:0:0:0:50:KICK 2.wav
64,192,200306,128,0,200691:0:0:0:50:KICK 2.wav
192,192,200460,128,0,200691:0:0:0:50:KICK 2.wav
320,192,200614,128,0,200922:0:0:0:50:KICK 2.wav
448,192,200768,128,0,200999:0:0:0:50:KICK 2.wav
64,192,200768,128,0,200922:0:0:0:0:
192,192,200922,1,0,0:0:0:0:
320,192,200999,1,0,0:0:0:0:
448,192,201076,128,0,201306:0:0:0:0:
64,192,201076,128,2,201306:0:0:0:0:
192,192,201076,128,4,201460:0:0:0:0:
320,192,201229,128,0,201614:0:0:0:0:
64,192,201383,128,0,201768:0:0:0:0:
448,192,201383,128,2,201614:0:0:0:0:
192,192,201537,128,0,201922:0:0:0:0:
448,192,201691,128,0,202076:0:0:0:0:
320,192,201691,128,2,201922:0:0:0:0:
64,192,201845,128,0,202229:0:0:0:0:
320,192,201999,128,0,202383:0:0:0:0:
192,192,201999,128,2,202229:0:0:0:0:
448,192,202152,128,0,202537:0:0:0:0:
64,192,202306,128,2,202537:0:0:0:0:
192,192,202306,128,0,202691:0:0:0:0:
320,192,202460,128,0,202845:0:0:0:0:
64,192,202614,128,0,202999:0:0:0:0:
448,192,202614,128,2,202845:0:0:0:0:
192,192,202768,128,0,203076:0:0:0:0:
448,192,202922,128,0,203152:0:0:0:0:
320,192,202922,128,2,203152:0:0:0:0:
64,192,203076,128,0,203306:0:0:0:0:
192,192,203152,128,0,203306:0:0:0:0:
448,192,203229,128,0,203460:0:0:0:0:
320,192,203229,128,2,203460:0:0:0:0:
64,192,203383,128,0,203460:0:0:0:0:
192,192,203383,128,8,203460:0:0:0:0:
448,192,203537,128,0,203922:0:0:0:0:
64,192,203537,128,2,203768:0:0:0:0:
320,192,203691,128,0,204076:0:0:0:0:
64,192,203845,128,0,204229:0:0:0:0:
192,192,203845,128,2,204076:0:0:0:0:
448,192,203999,128,0,204383:0:0:0:0:
192,192,204152,128,0,204537:0:0:0:0:
320,192,204152,128,2,204383:0:0:0:0:
64,192,204306,128,0,204691:0:0:0:0:
448,192,204460,128,0,204691:0:0:0:0:
320,192,204460,128,2,204845:0:0:0:0:
192,192,204614,128,0,204999:0:0:0:0:
448,192,204768,128,0,205306:0:0:0:0:
64,192,204768,128,2,204999:0:0:0:0:
320,192,204922,128,0,205152:0:0:0:50:KICK 2.wav
64,192,205076,128,0,205306:0:0:0:0:
192,192,205076,128,2,205614:0:0:0:0:
320,192,205229,128,0,205460:0:0:0:50:KICK 2.wav
64,192,205383,128,2,205614:0:0:0:0:
448,192,205383,128,0,205460:0:0:0:0:
448,192,205537,128,0,205922:0:0:0:50:KICK 2.wav
320,192,205537,128,0,205768:0:0:0:0:
64,192,205691,128,0,205922:0:0:0:0:
192,192,205691,128,0,205922:0:0:0:50:KICK 2.wav
320,192,205845,128,0,205922:0:0:0:0:
64,192,205999,128,0,206383:0:0:0:0:
192,192,205999,128,4,206229:0:0:0:0:
320,192,205999,1,2,0:0:0:0:
448,192,205999,1,0,0:0:0:0:
448,192,206152,128,0,206537:0:0:0:0:
192,192,206306,128,0,206691:0:0:0:0:
320,192,206306,128,2,206537:0:0:0:0:
64,192,206460,128,0,206845:0:0:0:0:
448,192,206614,128,0,206845:0:0:0:0:
320,192,206614,128,2,206999:0:0:0:0:
192,192,206768,128,0,207152:0:0:0:0:
448,192,206922,128,0,207306:0:0:0:0:
64,192,206922,128,2,207152:0:0:0:0:
320,192,207076,128,0,207460:0:0:0:0:
64,192,207229,128,0,207614:0:0:0:0:
192,192,207229,128,2,207460:0:0:0:0:
448,192,207383,128,0,207768:0:0:0:0:
320,192,207537,128,2,207768:0:0:0:0:
192,192,207537,128,0,208152:0:0:0:0:
64,192,207691,128,0,207922:0:0:0:0:
448,192,207845,128,0,208076:0:0:0:0:
320,192,207845,128,2,208076:0:0:0:0:
64,192,207999,128,0,208306:0:0:0:0:
320,192,208152,128,8,208229:0:0:0:0:
448,192,208152,128,0,208229:0:0:0:0:
192,192,208229,128,0,208383:0:0:0:0:
448,192,208306,128,0,208383:0:0:0:0:
320,192,208306,128,2,208383:0:0:0:0:
64,192,208383,128,0,208691:0:0:0:0:
448,192,208460,128,0,208691:0:0:0:0:
320,192,208460,128,4,208691:0:0:0:0:
192,192,208460,128,8,208691:0:0:0:0:
64,192,208768,1,0,0:0:0:0:
448,192,208768,1,2,0:0:0:0:
448,192,208922,1,0,0:0:0:0:
320,192,208922,1,0,0:0:0:0:
192,192,208922,1,8,0:0:0:0:
64,192,209076,1,2,0:0:0:0:
320,192,209076,1,0,0:0:0:0:
448,192,209229,1,0,0:0:0:0:
64,192,209229,1,0,0:0:0:0:
192,192,209229,1,8,0:0:0:0:
448,192,209383,1,0,0:0:0:0:
64,192,209383,1,0,0:0:0:0:
192,192,209383,1,8,0:0:0:0:
448,192,209537,1,0,0:0:0:0:
320,192,209537,1,2,0:0:0:0:
192,192,209614,1,2,0:0:0:0:
64,192,209691,1,0,0:0:0:0:
320,192,209691,1,8,0:0:0:0:
448,192,209691,1,0,0:0:0:0:
192,192,209768,1,0,0:0:0:50:KICK 2.wav
320,192,209845,1,0,0:0:0:50:KICK 2.wav
64,192,209922,1,0,0:0:0:50:KICK 2.wav
448,192,209999,1,0,0:0:0:0:
192,192,209999,1,2,0:0:0:0:
320,192,210076,1,2,0:0:0:0:
448,192,210152,1,0,0:0:0:0:
192,192,210152,1,8,0:0:0:0:
64,192,210152,1,0,0:0:0:0:
320,192,210229,1,0,0:0:0:50:KICK 2.wav
192,192,210306,1,0,0:0:0:50:KICK 2.wav
448,192,210383,1,0,0:0:0:50:KICK 2.wav
64,192,210460,1,0,0:0:0:0:
192,192,210460,1,2,0:0:0:0:
448,192,210537,1,0,0:0:0:0:
320,192,210537,1,2,0:0:0:0:
64,192,210614,1,0,0:0:0:0:
192,192,210614,1,8,0:0:0:0:
448,192,210691,1,0,0:0:0:0:
320,192,210691,1,8,0:0:0:0:
64,192,210768,1,0,0:0:0:0:
192,192,210768,1,8,0:0:0:0:
448,192,210845,1,0,0:0:0:0:
320,192,210845,1,8,0:0:0:0:
64,192,210922,128,4,211152:0:0:0:0:
192,192,210922,128,2,211152:0:0:0:0:
320,192,210922,128,0,211152:0:0:0:0:
448,192,210922,128,0,211152:0:0:0:0:
64,192,211229,128,0,211460:0:0:0:0:
192,192,211229,128,0,211345:0:0:0:0:
448,192,211229,128,8,211460:0:0:0:0:
320,192,211345,128,0,211537:0:0:0:0:
192,192,211460,128,0,211640:0:0:0:0:
448,192,211537,128,0,211742:0:0:0:0:
64,192,211537,128,2,211742:0:0:0:0:
320,192,211640,128,0,211742:0:0:0:0:
192,192,211742,128,0,211845:0:0:0:0:
320,192,211845,128,8,212152:0:0:0:0:
448,192,211845,128,0,211947:0:0:0:0:
64,192,211845,128,0,212050:0:0:0:0:
192,192,211947,128,0,212050:0:0:0:0:
448,192,212050,128,0,212358:0:0:0:0:
64,192,212152,128,0,212255:0:0:0:0:
192,192,212152,128,2,212358:0:0:0:0:
320,192,212255,128,0,212358:0:0:0:0:
64,192,212358,128,0,212460:0:0:0:0:
448,192,212460,128,0,212563:0:0:0:0:
320,192,212460,128,8,212665:0:0:0:0:
192,192,212460,128,0,212665:0:0:0:0:
64,192,212563,128,0,212768:0:0:0:0:
448,192,212665,128,0,212973:0:0:0:0:
192,192,212768,128,2,212973:0:0:0:0:
320,192,212768,128,0,212870:0:0:0:0:
64,192,212870,128,0,212973:0:0:0:0:
320,192,212973,128,0,213076:0:0:0:0:
192,192,213076,128,8,213281:0:0:0:0:
64,192,213076,128,0,213281:0:0:0:0:
448,192,213076,128,0,213178:0:0:0:0:
320,192,213178,128,0,213383:0:0:0:0:
448,192,213281,128,0,213383:0:0:0:0:
192,192,213383,1,0,0:0:0:0:
64,192,213383,128,2,213845:0:0:0:0:
320,192,213537,1,0,0:0:0:0:
448,192,213691,1,0,0:0:0:0:
320,192,213691,1,0,0:0:0:0:
192,192,213691,1,8,0:0:0:0:
448,192,213845,128,0,214306:0:0:0:0:
64,192,213999,1,0,0:0:0:0:
192,192,213999,1,2,0:0:0:0:
320,192,214152,1,0,0:0:0:0:
320,192,214306,1,8,0:0:0:0:
192,192,214306,128,0,214768:0:0:0:0:
64,192,214306,1,0,0:0:0:0:
448,192,214460,1,0,0:0:0:0:
64,192,214614,1,0,0:0:0:0:
320,192,214614,1,2,0:0:0:0:
320,192,214768,128,0,215229:0:0:0:0:
448,192,214922,1,0,0:0:0:0:
64,192,214922,1,0,0:0:0:0:
192,192,214922,1,8,0:0:0:0:
192,192,215076,1,0,0:0:0:0:
448,192,215229,1,2,0:0:0:0:
64,192,215229,128,0,215364:0:0:0:0:
192,192,215364,128,0,215441:0:0:0:0:
320,192,215441,128,0,215537:0:0:0:0:
448,192,215537,1,0,0:0:0:0:
192,192,215537,128,0,215633:0:0:0:0:
64,192,215537,1,8,0:0:0:0:
320,192,215633,128,0,215710:0:0:0:0:
448,192,215710,128,0,215845:0:0:0:0:
192,192,215845,1,4,0:0:0:0:
320,192,215845,1,2,0:0:0:0:
64,192,215845,1,0,0:0:0:0:
64,192,215999,1,0,0:0:0:0:
448,192,216152,1,0,0:0:0:0:
320,192,216152,1,8,0:0:0:0:
192,192,216152,1,0,0:0:0:0:
64,192,216306,1,0,0:0:0:0:
192,192,216306,1,0,0:0:0:0:
64,192,216383,1,0,0:0:0:0:
192,192,216383,1,0,0:0:0:0:
320,192,216460,1,2,0:0:0:0:
448,192,216460,128,0,216691:0:0:0:0:
64,192,216614,1,0,0:0:0:0:
192,192,216691,128,0,216922:0:0:0:0:
64,192,216768,1,0,0:0:0:0:
448,192,216768,1,0,0:0:0:0:
320,192,216768,1,8,0:0:0:0:
320,192,216922,128,0,217076:0:0:0:0:
448,192,217076,1,2,0:0:0:0:
64,192,217076,128,0,217306:0:0:0:0:
192,192,217229,1,0,0:0:0:0:
448,192,217306,128,0,217537:0:0:0:0:
320,192,217383,1,0,0:0:0:0:
192,192,217383,1,8,0:0:0:0:
64,192,217383,1,0,0:0:0:0:
320,192,217537,128,0,217691:0:0:0:0:
192,192,217691,1,2,0:0:0:0:
64,192,217691,128,0,217845:0:0:0:0:
448,192,217768,1,8,0:0:0:0:
320,192,217845,1,8,0:0:0:0:
192,192,217922,1,8,0:0:0:0:
64,192,217922,1,0,0:0:0:0:
320,192,217999,1,8,0:0:0:0:
448,192,217999,1,0,0:0:0:0:
192,192,218076,1,8,0:0:0:0:
64,192,218152,1,2,0:0:0:0:
448,192,218152,1,0,0:0:0:0:
320,192,218229,1,2,0:0:0:0:
448,192,218306,128,0,218691:0:0:0:0:
64,192,218306,128,4,218383:0:0:0:0:
192,192,218306,1,8,0:0:0:0:
320,192,218460,128,2,218537:0:0:0:0:
64,192,218460,1,0,0:0:0:0:
192,192,218614,128,2,218691:0:0:0:0:
320,192,218614,1,0,0:0:0:0:
64,192,218768,128,4,219152:0:0:0:0:
448,192,218768,128,0,218845:0:0:0:0:
192,192,218768,1,8,0:0:0:0:
320,192,218922,128,0,218999:0:0:0:0:
448,192,218922,1,2,0:0:0:0:
192,192,219076,128,0,219152:0:0:0:0:
320,192,219076,1,2,0:0:0:0:
448,192,219229,1,8,0:0:0:0:
192,192,219229,128,4,219460:0:0:0:0:
64,192,219229,128,0,219460:0:0:0:0:
320,192,219383,1,2,0:0:0:0:
448,192,219383,1,0,0:0:0:0:
192,192,219537,128,2,219691:0:0:0:0:
64,192,219537,128,0,219614:0:0:0:0:
320,192,219614,128,0,219768:0:0:0:0:
448,192,219691,128,0,219768:0:0:0:0:
64,192,219691,128,8,219845:0:0:0:0:
192,192,219768,128,0,219922:0:0:0:0:
448,192,219845,128,0,219999:0:0:0:0:
320,192,219845,128,8,219922:0:0:0:0:
64,192,219922,128,0,220076:0:0:0:0:
320,192,219999,128,0,220152:0:0:0:0:
192,192,219999,128,2,220076:0:0:0:0:
448,192,220076,128,0,220152:0:0:0:0:
192,192,220152,128,8,220229:0:0:0:0:
64,192,220152,128,0,220229:0:0:0:0:
448,192,220229,128,0,220306:0:0:0:0:
320,192,220229,128,8,220306:0:0:0:0:
192,192,220306,128,8,220383:0:0:0:0:
64,192,220306,128,0,220383:0:0:0:0:
448,192,220383,128,0,220460:0:0:0:0:
320,192,220383,128,8,220460:0:0:0:0:
64,192,220460,1,8,0:0:0:0:
192,192,220499,1,0,0:0:0:0:
320,192,220537,1,8,0:0:0:0:
448,192,220576,1,0,0:0:0:0:
64,192,220614,1,8,0:0:0:0:
192,192,220652,1,0,0:0:0:0:
320,192,220691,1,8,0:0:0:0:
448,192,220729,1,0,0:0:0:0:
192,192,220768,128,4,220845:0:0:0:0:
64,192,220768,128,2,221152:0:0:0:0:
320,192,220922,128,0,220999:0:0:0:0:
320,192,221076,1,8,0:0:0:0:
192,192,221076,1,0,0:0:0:0:
448,192,221076,128,0,221152:0:0:0:0:
64,192,221229,128,0,221614:0:0:0:0:
192,192,221229,128,0,221614:0:0:0:0:
448,192,221383,1,0,0:0:0:0:
320,192,221383,1,2,0:0:0:0:
448,192,221537,1,0,0:0:0:0:
320,192,221691,128,0,221999:0:0:0:0:
64,192,221691,1,0,0:0:0:0:
192,192,221691,1,8,0:0:0:0:
448,192,221845,128,0,221999:0:0:0:0:
64,192,221999,128,0,222229:0:0:0:0:
192,192,221999,1,2,0:0:0:0:
320,192,222152,1,0,0:0:0:0:
192,192,222229,1,0,0:0:0:0:
320,192,222306,128,0,222614:0:0:0:0:
448,192,222306,1,8,0:0:0:0:
64,192,222306,1,0,0:0:0:0:
192,192,222460,128,0,222768:0:0:0:0:
64,192,222614,128,0,222845:0:0:0:0:
448,192,222614,1,2,0:0:0:0:
448,192,222768,1,0,0:0:0:0:
320,192,222768,1,0,0:0:0:0:
192,192,222845,1,0,0:0:0:0:
448,192,222922,128,0,223152:0:0:0:0:
320,192,222922,1,8,0:0:0:0:
64,192,222922,1,0,0:0:0:0:
192,192,223076,1,0,0:0:0:0:
64,192,223229,128,0,223460:0:0:0:0:
192,192,223229,128,0,223460:0:0:0:0:
320,192,223229,1,2,0:0:0:0:
448,192,223229,1,4,0:0:0:0:
320,192,223383,128,0,223614:0:0:0:0:
448,192,223537,128,0,223768:0:0:0:0:
192,192,223537,128,8,223922:0:0:0:0:
64,192,223537,128,0,223768:0:0:0:0:
320,192,223691,128,0,224076:0:0:0:0:
448,192,223845,128,2,224076:0:0:0:0:
64,192,223845,128,0,224076:0:0:0:0:
192,192,223999,128,0,224229:0:0:0:0:
448,192,224152,128,0,224383:0:0:0:0:
320,192,224152,128,8,224537:0:0:0:0:
64,192,224152,128,0,224383:0:0:0:0:
192,192,224306,128,0,224691:0:0:0:0:
448,192,224460,128,0,224999:0:0:0:0:
64,192,224460,128,2,224691:0:0:0:0:
320,192,224614,128,0,224845:0:0:0:50:KICK 2.wav
64,192,224768,128,0,224999:0:0:0:0:
192,192,224845,1,8,0:0:0:0:
320,192,224922,128,8,224999:0:0:0:0:
64,192,225076,128,0,225152:0:0:0:0:
448,192,225076,128,0,225614:0:0:0:0:
192,192,225076,128,0,225152:0:0:0:0:
320,192,225229,128,0,225306:0:0:0:0:
192,192,225383,128,0,225460:0:0:0:0:
64,192,225537,128,0,225614:0:0:0:0:
64,192,225691,5,0,0:0:0:0:
448,192,225691,1,8,0:0:0:0:
320,192,225691,128,0,225768:0:0:0:0:
320,192,225845,128,0,225922:0:0:0:0:
192,192,225845,1,2,0:0:0:0:
320,192,225999,128,0,226076:0:0:0:0:
64,192,225999,1,2,0:0:0:0:
64,192,226152,1,4,0:0:0:0:
448,192,226152,1,0,0:0:0:0:
192,192,226152,128,8,226229:0:0:0:0:
192,192,226306,128,0,226383:0:0:0:0:
320,192,226306,1,2,0:0:0:0:
192,192,226460,128,0,226537:0:0:0:0:
448,192,226460,1,2,0:0:0:0:
320,192,226614,1,8,0:0:0:0:
448,192,226614,1,0,0:0:0:0:
64,192,226614,128,0,226691:0:0:0:0:
64,192,226768,128,0,226845:0:0:0:0:
192,192,226768,1,2,0:0:0:0:
64,192,226922,128,0,226999:0:0:0:0:
320,192,226922,1,2,0:0:0:0:
192,192,227076,1,8,0:0:0:0:
320,192,227076,1,4,0:0:0:0:
448,192,227076,128,0,227152:0:0:0:0:
448,192,227229,128,0,227306:0:0:0:0:
64,192,227229,1,2,0:0:0:0:
448,192,227383,128,0,227460:0:0:0:0:
320,192,227383,1,2,0:0:0:0:
192,192,227537,1,8,0:0:0:0:
320,192,227537,1,0,0:0:0:0:
64,192,227537,128,0,227614:0:0:0:0:
64,192,227691,128,0,227768:0:0:0:0:
448,192,227691,1,2,0:0:0:0:
192,192,227845,1,0,0:0:0:0:
448,192,227845,1,8,0:0:0:0:
320,192,227845,128,0,227922:0:0:0:0:
64,192,227999,1,2,0:0:0:0:
320,192,227999,128,0,228076:0:0:0:0:
192,192,228076,1,2,0:0:0:0:
320,192,228152,1,8,0:0:0:0:
64,192,228152,128,0,228229:0:0:0:0:
448,192,228152,128,0,228229:0:0:0:0:
192,192,228306,128,2,228383:0:0:0:0:
448,192,228306,128,0,228383:0:0:0:0:
320,192,228460,128,2,228537:0:0:0:0:
64,192,228460,128,0,228537:0:0:0:0:
64,192,228614,128,0,228999:0:0:0:0:
192,192,228614,1,8,0:0:0:0:
448,192,228614,1,4,0:0:0:0:
320,192,228768,1,2,0:0:0:0:
448,192,228768,1,0,0:0:0:0:
192,192,228922,1,0,0:0:0:0:
320,192,228922,1,2,0:0:0:0:
64,192,229076,1,0,0:0:0:0:
192,192,229076,128,8,229152:0:0:0:0:
448,192,229076,128,0,229152:0:0:0:0:
320,192,229229,128,2,229306:0:0:0:0:
448,192,229229,128,0,229306:0:0:0:0:
64,192,229383,128,0,229460:0:0:0:0:
192,192,229383,128,2,229460:0:0:0:0:
64,192,229537,5,0,0:0:0:0:
320,192,229537,1,8,0:0:0:0:
448,192,229537,128,0,229922:0:0:0:0:
320,192,229691,1,0,0:0:0:0:
192,192,229691,1,2,0:0:0:0:
192,192,229845,1,2,0:0:0:0:
64,192,229845,1,0,0:0:0:0:
320,192,229999,1,8,0:0:0:0:
64,192,229999,128,0,230076:0:0:0:0:
448,192,229999,128,0,230076:0:0:0:0:
192,192,230152,128,2,230229:0:0:0:0:
64,192,230152,128,0,230229:0:0:0:0:
448,192,230306,128,0,230383:0:0:0:0:
320,192,230306,128,0,230383:0:0:0:0:
192,192,230306,1,8,0:0:0:0:
64,192,230460,128,0,230537:0:0:0:0:
320,192,230460,128,2,230537:0:0:0:0:
64,192,230614,5,0,0:0:0:0:
192,192,230614,1,8,0:0:0:0:
320,192,230691,1,8,0:0:0:0:
448,192,230691,1,0,0:0:0:0:
64,192,230768,1,0,0:0:0:0:
192,192,230768,1,8,0:0:0:0:
448,192,230845,1,0,0:0:0:0:
320,192,230845,1,8,0:0:0:0:
192,192,230922,1,2,0:0:0:0:
64,192,230922,1,0,0:0:0:0:
320,192,230999,1,2,0:0:0:0:
448,192,230999,1,0,0:0:0:0:
192,192,231076,1,0,0:0:0:50:KICK 2.wav
448,192,231152,1,0,0:0:0:50:KICK 2.wav
64,192,231229,1,0,0:0:0:50:KICK 2.wav
320,192,231306,1,0,0:0:0:50:KICK 2.wav
64,192,231383,1,0,0:0:0:0:
192,192,231383,1,2,0:0:0:0:
448,192,231460,1,0,0:0:0:0:
320,192,231460,1,2,0:0:0:0:
64,192,231537,1,0,0:0:0:0:
192,192,231537,1,8,0:0:0:0:
448,192,231614,1,0,0:0:0:0:
320,192,231614,1,8,0:0:0:0:
64,192,231691,1,0,0:0:0:0:
192,192,231691,1,8,0:0:0:0:
448,192,231768,1,0,0:0:0:0:
320,192,231768,1,8,0:0:0:0:
64,192,231845,1,0,0:0:0:0:
192,192,231845,1,2,0:0:0:0:
448,192,231922,1,0,0:0:0:0:
320,192,231922,1,2,0:0:0:0:
64,192,231999,1,0,0:0:0:50:KICK 2.wav
448,192,232076,1,0,0:0:0:50:KICK 2.wav
192,192,232152,1,0,0:0:0:50:KICK 2.wav
320,192,232229,1,0,0:0:0:50:KICK 2.wav
64,192,232306,1,0,0:0:0:0:
192,192,232306,1,2,0:0:0:0:
448,192,232383,1,0,0:0:0:0:
320,192,232383,1,2,0:0:0:0:
64,192,232460,1,0,0:0:0:50:KICK 2.wav
448,192,232537,1,0,0:0:0:50:KICK 2.wav
64,192,232614,1,0,0:0:0:0:
192,192,232614,1,2,0:0:0:0:
448,192,232691,1,0,0:0:0:0:
320,192,232691,1,2,0:0:0:0:
192,192,232768,1,0,0:0:0:0:
64,192,232768,1,0,0:0:0:50:KICK 2.wav
448,192,232845,1,0,0:0:0:0:
320,192,232845,1,0,0:0:0:50:KICK 2.wav
64,192,232922,1,0,0:0:0:0:
192,192,232922,1,2,0:0:0:0:
320,192,232999,1,2,0:0:0:0:
192,192,233076,1,8,0:0:0:0:
64,192,233076,1,4,0:0:0:0:
448,192,233076,1,0,0:0:0:0:
320,192,233229,1,0,0:0:0:0:
192,192,233306,1,0,0:0:0:0:
64,192,233306,1,8,0:0:0:0:
448,192,233383,1,0,0:0:0:0:
320,192,233383,1,8,0:0:0:0:
64,192,233537,1,0,0:0:0:0:
448,192,233614,1,0,0:0:0:0:
320,192,233614,1,8,0:0:0:0:
64,192,233691,1,0,0:0:0:0:
192,192,233691,1,8,0:0:0:0:
448,192,233845,1,0,0:0:0:0:
64,192,233922,1,0,0:0:0:0:
192,192,233922,1,8,0:0:0:0:
448,192,233999,1,0,0:0:0:0:
320,192,233999,1,8,0:0:0:0:
64,192,234152,128,0,234383:0:0:0:0:
192,192,234152,128,4,234383:0:0:0:0:
320,192,234152,1,2,0:0:0:0:
448,192,234152,1,0,0:0:0:0:
448,192,234460,1,0,0:0:0:0:
192,192,234460,1,8,0:0:0:0:
64,192,234460,1,0,0:0:0:0:
448,192,234614,1,0,0:0:0:0:
320,192,234614,1,2,0:0:0:0:
64,192,234768,1,8,0:0:0:0:
448,192,234845,1,8,0:0:0:0:
320,192,234845,1,0,0:0:0:0:
64,192,234922,1,8,0:0:0:0:
192,192,234922,1,0,0:0:0:0:
448,192,234999,1,8,0:0:0:0:
64,192,235076,1,0,0:0:0:0:
192,192,235076,1,0,0:0:0:50:KICK 2.wav
448,192,235152,1,0,0:0:0:0:
320,192,235152,1,0,0:0:0:50:KICK 2.wav
64,192,235229,1,0,0:0:0:0:
192,192,235229,1,0,0:0:0:50:KICK 2.wav
448,192,235306,1,0,0:0:0:0:
320,192,235306,1,0,0:0:0:50:KICK 2.wav
64,192,235383,1,0,0:0:0:0:
192,192,235383,1,0,0:0:0:50:KICK 2.wav
320,192,235460,1,0,0:0:0:50:KICK 2.wav
448,192,235537,1,4,0:0:0:0:
64,192,235537,1,0,0:0:0:0:
192,192,235537,1,2,0:0:0:0:
448,192,235845,1,0,0:0:0:0:
192,192,235845,1,8,0:0:0:0:
64,192,235845,1,0,0:0:0:0:
448,192,235999,1,0,0:0:0:0:
320,192,235999,1,0,0:0:0:50:KICK 2.wav
192,192,236152,1,0,0:0:0:50:KICK 2.wav
64,192,236152,1,0,0:0:0:0:
448,192,236306,1,0,0:0:0:50:KICK 2.wav
192,192,236306,1,0,0:0:0:0:
448,192,236460,1,0,0:0:0:0:
320,192,236460,1,8,0:0:0:0:
64,192,236460,1,0,0:0:0:0:
64,192,236614,1,0,0:0:0:0:
192,192,236614,1,0,0:0:0:50:KICK 2.wav
448,192,236768,1,0,0:0:0:0:
320,192,236768,1,0,0:0:0:50:KICK 2.wav
64,192,236922,1,0,0:0:0:0:
192,192,236922,1,0,0:0:0:50:KICK 2.wav
448,192,237076,1,0,0:0:0:0:
320,192,237076,1,8,0:0:0:0:
192,192,237076,1,0,0:0:0:0:
64,192,237229,1,0,0:0:0:0:
448,192,237383,1,0,0:0:0:0:
320,192,237383,1,0,0:0:0:50:KICK 2.wav
64,192,237537,1,0,0:0:0:0:
192,192,237537,1,0,0:0:0:50:KICK 2.wav
448,192,237691,1,0,0:0:0:0:
320,192,237691,1,8,0:0:0:0:
64,192,237691,1,0,0:0:0:0:
320,192,237845,1,0,0:0:0:50:KICK 2.wav
192,192,237845,1,0,0:0:0:0:
448,192,237922,1,0,0:0:0:50:KICK 2.wav
64,192,237999,1,0,0:0:0:0:
192,192,237999,1,0,0:0:0:50:KICK 2.wav
320,192,238152,1,0,0:0:0:0:
448,192,238306,1,0,0:0:0:0:
192,192,238306,1,0,0:0:0:0:
64,192,238306,1,8,0:0:0:0:
448,192,238460,1,0,0:0:0:0:
320,192,238460,1,0,0:0:0:50:KICK 2.wav
320,192,238614,1,0,0:0:0:50:KICK 2.wav
64,192,238614,1,0,0:0:0:0:
192,192,238768,1,0,0:0:0:50:KICK 2.wav
448,192,238768,1,0,0:0:0:0:
448,192,238922,1,0,0:0:0:0:
320,192,238922,1,8,0:0:0:0:
64,192,238922,1,0,0:0:0:0:
192,192,239076,1,0,0:0:0:50:KICK 2.wav
64,192,239076,1,0,0:0:0:0:
320,192,239229,1,0,0:0:0:0:
448,192,239229,1,0,0:0:0:50:KICK 2.wav
320,192,239383,1,0,0:0:0:50:KICK 2.wav
64,192,239383,1,0,0:0:0:0:
448,192,239537,1,0,0:0:0:0:
64,192,239537,1,0,0:0:0:0:
192,192,239537,1,8,0:0:0:0:
448,192,239691,1,0,0:0:0:0:
320,192,239691,1,0,0:0:0:50:KICK 2.wav
64,192,239768,1,0,0:0:0:50:KICK 2.wav
320,192,239845,1,0,0:0:0:0:
192,192,239845,1,0,0:0:0:50:KICK 2.wav
448,192,239922,1,0,0:0:0:0:
192,192,239999,1,0,0:0:0:50:KICK 2.wav
64,192,239999,1,0,0:0:0:0:
320,192,240076,1,0,0:0:0:50:KICK 2.wav
64,192,240152,1,0,0:0:0:0:
192,192,240152,1,8,0:0:0:0:
448,192,240152,1,0,0:0:0:0:
320,192,240229,1,0,0:0:0:50:KICK 2.wav
64,192,240306,1,0,0:0:0:0:
448,192,240306,1,0,0:0:0:0:
192,192,240383,1,0,0:0:0:50:KICK 2.wav
64,192,240460,1,0,0:0:0:0:
448,192,240460,1,2,0:0:0:0:
320,192,240460,1,4,0:0:0:0:
448,192,240768,1,0,0:0:0:0:
64,192,240768,1,0,0:0:0:0:
192,192,240768,1,8,0:0:0:0:
64,192,240922,1,0,0:0:0:0:
320,192,240922,1,0,0:0:0:50:KICK 2.wav
448,192,241076,1,0,0:0:0:0:
320,192,241076,1,0,0:0:0:50:KICK 2.wav
192,192,241229,1,0,0:0:0:50:KICK 2.wav
64,192,241229,1,0,0:0:0:0:
448,192,241383,1,0,0:0:0:0:
64,192,241383,1,0,0:0:0:0:
320,192,241383,1,8,0:0:0:0:
448,192,241537,1,0,0:0:0:0:
192,192,241537,1,0,0:0:0:50:KICK 2.wav
192,192,241691,1,0,0:0:0:50:KICK 2.wav
64,192,241691,1,0,0:0:0:0:
448,192,241845,1,0,0:0:0:0:
320,192,241845,1,0,0:0:0:50:KICK 2.wav
448,192,241999,1,0,0:0:0:0:
64,192,241999,1,0,0:0:0:0:
192,192,241999,1,8,0:0:0:0:
320,192,242152,1,0,0:0:0:0:
448,192,242306,1,0,0:0:0:0:
64,192,242306,1,0,0:0:0:50:KICK 2.wav
320,192,242460,1,0,0:0:0:0:
192,192,242460,1,0,0:0:0:50:KICK 2.wav
448,192,242614,1,0,0:0:0:0:
320,192,242614,1,8,0:0:0:0:
64,192,242614,1,0,0:0:0:0:
64,192,242768,1,0,0:0:0:0:
192,192,242768,1,2,0:0:0:0:
192,192,242922,1,0,0:0:0:0:
448,192,242922,1,8,0:0:0:0:
320,192,242922,1,4,0:0:0:0:
448,192,243076,1,2,0:0:0:0:
64,192,243076,1,0,0:0:0:0:
64,192,243229,1,0,0:0:0:0:
320,192,243229,1,8,0:0:0:0:
192,192,243229,1,4,0:0:0:0:
448,192,243383,1,2,0:0:0:0:
192,192,243383,1,0,0:0:0:0:
320,192,243537,1,2,0:0:0:0:
64,192,243537,1,0,0:0:0:0:
320,192,243691,1,4,0:0:0:0:
448,192,243691,1,8,0:0:0:0:
192,192,243691,1,0,0:0:0:0:
64,192,243845,1,2,0:0:0:0:
448,192,243845,1,0,0:0:0:0:
320,192,243999,128,0,244306:0:0:0:0:
448,192,243999,128,0,244306:0:0:0:0:
64,192,243999,1,4,0:0:0:0:
192,192,243999,1,8,0:0:0:0:
192,192,244306,1,2,0:0:0:0:
64,192,244306,1,0,0:0:0:0:
192,192,244460,1,0,0:0:0:0:
448,192,244460,1,0,0:0:0:0:
320,192,244460,1,8,0:0:0:0:
448,192,244614,1,0,0:0:0:0:
320,192,244614,1,2,0:0:0:0:
64,192,244768,1,0,0:0:0:0:
192,192,244768,1,0,0:0:0:50:KICK 2.wav
320,192,244845,1,0,0:0:0:50:KICK 2.wav
448,192,244922,1,0,0:0:0:50:KICK 2.wav
64,192,244999,1,0,0:0:0:50:KICK 2.wav
192,192,245076,1,0,0:0:0:50:KICK 2.wav
448,192,245152,1,0,0:0:0:50:KICK 2.wav
320,192,245229,1,0,0:0:0:50:KICK 2.wav
192,192,245306,1,0,0:0:0:50:KICK 2.wav
64,192,245383,1,0,0:0:0:0:
448,192,245383,128,4,246614:0:0:0:0:
320,192,245383,128,2,245691:0:0:0:0:
64,192,245537,128,0,245845:0:0:0:0:
192,192,245691,128,0,245999:0:0:0:0:
320,192,245845,128,0,245999:0:0:0:0:
64,192,245999,128,0,246306:0:0:0:0:
192,192,246152,128,0,246306:0:0:0:0:
320,192,246306,128,0,246460:0:0:0:0:
192,192,246460,128,0,246614:0:0:0:0:
64,192,246614,128,0,247845:0:0:0:0:
320,192,246614,128,0,246922:0:0:0:0:
448,192,246768,128,0,246922:0:0:0:0:
192,192,246922,128,0,247229:0:0:0:0:
320,192,247076,128,0,247383:0:0:0:0:
448,192,247229,128,0,247383:0:0:0:0:
192,192,247383,128,0,247691:0:0:0:0:
320,192,247537,128,0,247691:0:0:0:0:
448,192,247691,1,0,0:0:0:50:Ride.wav
320,192,247768,1,0,0:0:0:50:Ride.wav
192,192,247845,128,0,249076:0:0:0:0:
448,192,247845,128,0,248152:0:0:0:50:RideCup.wav
64,192,247999,128,0,248306:0:0:0:0:
320,192,248152,128,0,248460:0:0:0:0:
448,192,248306,128,0,248460:0:0:0:0:
64,192,248460,128,0,248768:0:0:0:0:
320,192,248614,128,0,248922:0:0:0:0:
448,192,248768,128,0,248922:0:0:0:0:
64,192,248922,128,0,249076:0:0:0:0:
320,192,249076,128,0,250229:0:0:0:0:
448,192,249076,128,0,249383:0:0:0:0:
192,192,249229,128,0,249537:0:0:0:0:
64,192,249383,128,0,249537:0:0:0:0:
448,192,249537,128,0,249845:0:0:0:0:
64,192,249691,128,0,249845:0:0:0:0:
192,192,249845,128,0,249999:0:0:0:0:
448,192,249999,128,0,250229:0:0:0:50:KICK 2.wav
64,192,249999,128,0,250229:0:0:0:0:
192,192,250152,128,0,250229:0:0:0:0:
448,192,250306,1,0,0:0:0:0:
320,192,250306,1,8,0:0:0:0:
192,192,250306,1,4,0:0:0:0:
64,192,250306,1,0,0:0:0:0:
448,192,250460,5,0,0:0:0:0:
320,192,250460,1,2,0:0:0:0:
64,192,250614,1,0,0:0:0:0:
192,192,250614,1,2,0:0:0:0:
448,192,250768,1,0,0:0:0:0:
320,192,250768,1,8,0:0:0:0:
64,192,250768,1,0,0:0:0:0:
448,192,250922,1,2,0:0:0:0:
192,192,250922,1,0,0:0:0:0:
64,192,251076,1,0,0:0:0:0:
320,192,251076,1,2,0:0:0:0:
448,192,251229,1,0,0:0:0:0:
192,192,251229,1,8,0:0:0:0:
64,192,251229,1,0,0:0:0:0:
448,192,251383,1,0,0:0:0:0:
320,192,251383,1,2,0:0:0:0:
64,192,251537,1,0,0:0:0:0:
192,192,251537,1,2,0:0:0:0:
448,192,251691,1,0,0:0:0:0:
320,192,251691,1,0,0:0:0:0:
192,192,251691,1,8,0:0:0:0:
448,192,251845,1,2,0:0:0:0:
64,192,251845,1,0,0:0:0:0:
320,192,251999,1,2,0:0:0:0:
192,192,251999,1,0,0:0:0:0:
448,192,252152,1,0,0:0:0:0:
192,192,252152,1,8,0:0:0:0:
64,192,252152,1,0,0:0:0:0:
64,192,252306,1,0,0:0:0:0:
320,192,252306,1,2,0:0:0:0:
448,192,252460,1,0,0:0:0:0:
192,192,252460,1,8,0:0:0:0:
320,192,252460,1,0,0:0:0:0:
192,192,252614,1,2,0:0:0:0:
64,192,252614,1,0,0:0:0:0:
448,192,252691,1,0,0:0:0:0:
320,192,252691,1,2,0:0:0:0:
192,192,252768,1,8,0:0:0:0:
64,192,252768,1,0,0:0:0:0:
448,192,252845,1,0,0:0:0:0:
320,192,252845,1,8,0:0:0:0:
64,192,252922,1,0,0:0:0:0:
192,192,252922,1,8,0:0:0:0:
448,192,252999,1,0,0:0:0:0:
320,192,252999,1,8,0:0:0:0:
192,192,253076,1,2,0:0:0:0:
64,192,253076,1,0,0:0:0:0:
448,192,253152,1,0,0:0:0:0:
320,192,253152,1,2,0:0:0:0:
64,192,253229,1,0,0:0:0:50:KICK 2.wav
448,192,253306,1,0,0:0:0:50:KICK 2.wav
192,192,253383,1,0,0:0:0:50:KICK 2.wav
320,192,253460,1,0,0:0:0:50:KICK 2.wav
64,192,253537,1,0,0:0:0:0:
192,192,253537,1,2,0:0:0:0:
448,192,253614,1,0,0:0:0:0:
320,192,253614,1,2,0:0:0:0:
64,192,253691,1,0,0:0:0:50:KICK 2.wav
192,192,253768,1,0,0:0:0:50:KICK 2.wav
448,192,253845,1,0,0:0:0:0:
320,192,253845,1,2,0:0:0:0:
64,192,253922,1,2,0:0:0:0:
448,192,253999,1,0,0:0:0:0:
320,192,253999,1,4,0:0:0:0:
192,192,253999,1,8,0:0:0:0:
64,192,254152,1,0,0:0:0:0:
448,192,254152,1,4,0:0:0:0:
320,192,254152,1,8,0:0:0:0:
64,192,254306,1,4,0:0:0:0:
448,192,254306,1,0,0:0:0:0:
192,192,254306,1,8,0:0:0:0:
192,192,254460,1,8,0:0:0:0:
64,192,254460,1,0,0:0:0:0:
320,192,254460,1,4,0:0:0:0:
448,192,254460,1,0,0:0:0:0:
64,192,256306,5,0,0:0:0:0:
320,192,256306,1,2,0:0:0:0:
448,192,256306,128,0,257691:0:0:0:0:
192,192,256306,1,4,0:0:0:0:
64,192,257076,1,0,0:0:0:0:
320,192,257691,128,0,258922:0:0:0:0:
192,192,258306,1,0,0:0:0:0:
64,192,258922,1,2,0:0:0:0:
192,192,258922,128,0,260152:0:0:0:0:
320,192,259537,1,0,0:0:0:0:
448,192,260152,1,0,0:0:0:50:KICK 2.wav
64,192,260152,128,0,261306:0:0:0:0:
320,192,260191,1,0,0:0:0:50:KICK 2.wav
192,192,260614,1,0,0:0:0:50:KICK 2.wav
320,192,261076,1,0,0:0:0:50:KICK 2.wav
448,192,261383,1,0,0:0:0:0:
64,192,261383,1,0,0:0:0:0:
192,192,261383,128,2,262614:0:0:0:0:
320,192,261383,1,4,0:0:0:0:
448,192,261999,1,0,0:0:0:0:
320,192,262614,128,0,263845:0:0:0:0:
64,192,263229,1,0,0:0:0:0:
192,192,263845,1,2,0:0:0:0:
448,192,263845,128,0,264845:0:0:0:0:
320,192,264460,1,0,0:0:0:0:
64,192,264922,5,2,0:0:0:0:
448,192,264922,1,0,0:0:0:0:
192,192,264999,1,2,0:0:0:0:
320,192,265076,128,4,265152:0:0:0:0:
448,192,265076,128,8,265229:0:0:0:0:
64,192,265152,128,0,265306:0:0:0:0:
192,192,265229,128,8,265383:0:0:0:0:
320,192,265229,128,0,265460:0:0:0:0:
448,192,265306,128,0,265460:0:0:0:0:
64,192,265383,128,0,265537:0:0:0:0:
192,192,265460,128,0,265614:0:0:0:0:
320,192,265537,128,0,265691:0:0:0:50:KICK 2.wav
448,192,265537,128,0,265768:0:0:0:0:
64,192,265614,128,0,265768:0:0:0:0:
192,192,265691,128,0,265922:0:0:0:0:
320,192,265768,128,0,266076:0:0:0:0:
448,192,265845,128,0,266229:0:0:0:50:KICK 2.wav
64,192,265845,128,0,265922:0:0:0:0:
192,192,265999,128,0,266229:0:0:0:50:KICK 2.wav
64,192,265999,128,0,266229:0:0:0:0:
320,192,266152,128,0,266229:0:0:0:50:KICK 2.wav
192,192,266306,1,2,0:0:0:0:
448,192,266306,128,0,266460:0:0:0:0:
64,192,266306,1,0,0:0:0:0:
320,192,266306,1,4,0:0:0:0:
64,192,266460,128,0,266614:0:0:0:0:
320,192,266614,128,0,266768:0:0:0:0:
448,192,266614,1,2,0:0:0:0:
192,192,266768,128,0,266922:0:0:0:0:
320,192,266922,128,0,267076:0:0:0:0:
448,192,266922,1,2,0:0:0:0:
64,192,267076,128,0,267229:0:0:0:0:
448,192,267229,128,0,267383:0:0:0:0:
320,192,267229,1,2,0:0:0:0:
192,192,267383,128,0,267537:0:0:0:0:
320,192,267537,128,0,267691:0:0:0:0:
448,192,267537,1,2,0:0:0:0:
64,192,267691,128,0,267845:0:0:0:0:
320,192,267845,128,0,267999:0:0:0:0:
448,192,267845,1,2,0:0:0:0:
192,192,267999,128,0,268152:0:0:0:0:
448,192,268152,128,0,268306:0:0:0:0:
320,192,268152,1,2,0:0:0:0:
64,192,268306,128,0,268460:0:0:0:0:
320,192,268460,128,0,268614:0:0:0:0:
448,192,268460,1,2,0:0:0:0:
192,192,268614,1,8,0:0:0:0:
64,192,268614,1,0,0:0:0:0:
320,192,268691,1,8,0:0:0:0:
448,192,268768,1,0,0:0:0:0:
192,192,268768,128,4,268922:0:0:0:0:
64,192,268768,1,2,0:0:0:0:
320,192,268922,128,0,269076:0:0:0:0:
64,192,269076,128,0,269229:0:0:0:0:
192,192,269076,1,2,0:0:0:0:
448,192,269229,128,0,269383:0:0:0:0:
192,192,269383,128,0,269537:0:0:0:0:
64,192,269383,1,2,0:0:0:0:
320,192,269537,128,0,269691:0:0:0:0:
192,192,269691,128,0,269845:0:0:0:0:
64,192,269691,1,2,0:0:0:0:
448,192,269845,128,0,269999:0:0:0:0:
64,192,269999,128,0,270152:0:0:0:0:
192,192,269999,1,2,0:0:0:0:
448,192,270152,128,0,270306:0:0:0:0:
192,192,270306,128,0,270460:0:0:0:0:
64,192,270306,1,2,0:0:0:0:
320,192,270460,128,0,270614:0:0:0:0:
64,192,270614,128,0,270768:0:0:0:0:
192,192,270614,1,2,0:0:0:0:
320,192,270768,128,0,270922:0:0:0:0:
448,192,270922,128,0,271076:0:0:0:0:
64,192,270922,1,0,0:0:0:50:KICK 2.wav
192,192,271076,1,0,0:0:0:0:
64,192,271229,5,2,0:0:0:0:
320,192,271229,1,0,0:0:0:0:
448,192,271229,1,0,0:0:0:0:
192,192,271229,1,4,0:0:0:0:
448,192,271383,1,0,0:0:0:0:
64,192,271383,1,2,0:0:0:0:
448,192,271537,1,0,0:0:0:0:
64,192,271537,1,2,0:0:0:0:
448,192,271691,1,0,0:0:0:0:
64,192,271691,1,2,0:0:0:0:
64,192,271845,1,2,0:0:0:0:
448,192,271845,1,0,0:0:0:0:
448,192,271999,1,0,0:0:0:0:
64,192,271999,1,2,0:0:0:0:
448,192,272152,1,0,0:0:0:0:
320,192,272152,1,8,0:0:0:0:
64,192,272152,1,2,0:0:0:0:
448,192,272306,1,0,0:0:0:0:
320,192,272306,1,8,0:0:0:0:
64,192,272306,1,2,0:0:0:0:
448,192,272460,1,0,0:0:0:0:
320,192,272460,1,8,0:0:0:0:
64,192,272460,1,2,0:0:0:0:
448,192,272614,1,0,0:0:0:0:
320,192,272614,1,8,0:0:0:0:
64,192,272614,1,2,0:0:0:0:
448,192,272768,1,0,0:0:0:0:
320,192,272768,1,8,0:0:0:0:
64,192,272768,1,2,0:0:0:0:
448,192,272922,1,0,0:0:0:0:
320,192,272922,1,8,0:0:0:0:
64,192,272922,1,2,0:0:0:0:
448,192,273076,1,0,0:0:0:0:
320,192,273076,1,8,0:0:0:0:
64,192,273076,1,2,0:0:0:0:
448,192,273229,1,0,0:0:0:0:
320,192,273229,1,8,0:0:0:0:
64,192,273229,1,2,0:0:0:0:
448,192,273383,1,0,0:0:0:0:
320,192,273383,1,8,0:0:0:0:
64,192,273383,1,2,0:0:0:0:
448,192,273537,1,0,0:0:0:0:
64,192,273537,1,2,0:0:0:0:
192,192,273614,1,2,0:0:0:0:
448,192,273691,1,0,0:0:0:0:
320,192,273691,1,8,0:0:0:0:
192,192,273768,1,8,0:0:0:0:
64,192,273768,1,0,0:0:0:0:
448,192,273845,1,0,0:0:0:0:
320,192,273845,1,8,0:0:0:0:
64,192,273922,1,0,0:0:0:0:
192,192,273922,1,8,0:0:0:0:
320,192,273999,1,2,0:0:0:0:
448,192,273999,1,0,0:0:0:0:
192,192,274076,1,2,0:0:0:0:
64,192,274076,1,0,0:0:0:0:
448,192,274152,1,0,0:0:0:50:KICK 2.wav
64,192,274229,1,0,0:0:0:50:KICK 2.wav
320,192,274306,1,0,0:0:0:50:KICK 2.wav
192,192,274383,1,0,0:0:0:50:KICK 2.wav
448,192,274460,1,0,0:0:0:0:
320,192,274460,1,2,0:0:0:0:
192,192,274537,1,2,0:0:0:0:
64,192,274537,1,0,0:0:0:0:
448,192,274614,1,0,0:0:0:50:KICK 2.wav
64,192,274691,1,0,0:0:0:50:KICK 2.wav
320,192,274768,1,0,0:0:0:50:KICK 2.wav
192,192,274845,1,0,0:0:0:50:KICK 2.wav
64,192,274922,1,2,0:0:0:0:
448,192,274922,1,0,0:0:0:0:
320,192,274999,1,2,0:0:0:0:
448,192,275076,1,0,0:0:0:0:
64,192,275076,1,0,0:0:0:0:
192,192,275076,1,8,0:0:0:0:
320,192,275229,1,2,0:0:0:0:
192,192,275229,1,0,0:0:0:0:
64,192,275383,1,0,0:0:0:0:
448,192,275383,1,2,0:0:0:0:
448,192,275537,1,0,0:0:0:0:
320,192,275537,1,8,0:0:0:0:
64,192,275537,1,0,0:0:0:0:
448,192,275691,1,0,0:0:0:0:
192,192,275691,1,8,0:0:0:0:
64,192,275691,1,0,0:0:0:0:
320,192,275691,1,0,0:0:0:0:
64,192,275999,128,0,276229:0:0:0:0:
192,192,275999,128,2,276229:0:0:0:0:
320,192,275999,128,4,276383:0:0:0:0:
448,192,275999,128,0,276383:0:0:0:0:
64,192,276306,128,0,276691:0:0:0:0:
192,192,276306,128,2,276383:0:0:0:0:
192,192,276460,1,0,0:0:0:0:
448,192,276460,128,0,276691:0:0:0:0:
320,192,276460,128,8,276537:0:0:0:0:
192,192,276614,128,0,276691:0:0:0:0:
192,192,276768,128,2,276999:0:0:0:0:
64,192,276768,128,0,276999:0:0:0:0:
448,192,276768,128,0,276845:0:0:0:0:
448,192,276922,1,0,0:0:0:0:
320,192,276922,128,2,276999:0:0:0:0:
64,192,277076,1,0,0:0:0:0:
448,192,277076,128,0,277614:0:0:0:0:
192,192,277076,128,8,277152:0:0:0:0:
320,192,277229,128,2,277614:0:0:0:0:
64,192,277229,128,0,277306:0:0:0:0:
192,192,277383,128,0,277460:0:0:0:0:
192,192,277537,1,2,0:0:0:0:
64,192,277537,128,0,277614:0:0:0:0:
64,192,277691,128,0,277922:0:0:0:0:
448,192,277691,128,0,277922:0:0:0:0:
320,192,277691,128,8,277768:0:0:0:0:
192,192,277845,128,0,277922:0:0:0:0:
448,192,277999,128,0,278383:0:0:0:0:
64,192,277999,128,2,278076:0:0:0:0:
320,192,278152,128,0,278383:0:0:0:0:
192,192,278152,128,2,278229:0:0:0:0:
192,192,278306,1,8,0:0:0:0:
64,192,278306,128,0,278383:0:0:0:0:
64,192,278460,128,0,278691:0:0:0:0:
320,192,278460,128,2,278691:0:0:0:0:
448,192,278460,128,0,278691:0:0:0:0:
192,192,278460,128,4,278691:0:0:0:0:
448,192,278768,128,2,278845:0:0:0:0:
64,192,278768,128,0,278845:0:0:0:0:
448,192,278922,128,0,279152:0:0:0:0:
320,192,278922,128,8,279152:0:0:0:0:
192,192,278922,128,0,278999:0:0:0:0:
64,192,279076,128,0,279152:0:0:0:0:
192,192,279229,128,2,279460:0:0:0:0:
448,192,279229,128,0,279460:0:0:0:0:
320,192,279383,1,2,0:0:0:0:
64,192,279383,128,0,279460:0:0:0:0:
448,192,279537,1,8,0:0:0:0:
64,192,279537,128,0,279922:0:0:0:0:
320,192,279537,128,0,279614:0:0:0:0:
192,192,279691,128,2,279922:0:0:0:0:
448,192,279691,128,0,279768:0:0:0:0:
448,192,279845,128,0,280076:0:0:0:0:
320,192,279845,128,0,280076:0:0:0:0:
192,192,279999,128,2,280076:0:0:0:0:
64,192,279999,128,0,280076:0:0:0:0:
64,192,280152,128,0,280383:0:0:0:0:
192,192,280152,128,8,280383:0:0:0:0:
448,192,280152,128,0,280229:0:0:0:0:
448,192,280306,128,0,280460:0:0:0:0:
320,192,280306,128,0,280460:0:0:0:50:KICK 2.wav
192,192,280460,1,8,0:0:0:0:
64,192,280460,1,0,0:0:0:0:
320,192,280537,1,0,0:0:0:50:KICK 2.wav
448,192,280614,1,0,0:0:0:0:
64,192,280614,1,2,0:0:0:0:
192,192,280691,1,2,0:0:0:0:
320,192,280768,1,0,0:0:0:0:
448,192,280768,1,0,0:0:0:0:
64,192,280768,1,8,0:0:0:0:
64,192,280922,128,0,281152:0:0:0:0:
448,192,280922,128,0,281152:0:0:0:0:
192,192,280922,128,2,281152:0:0:0:0:
320,192,280922,128,4,281152:0:0:0:0:
192,192,281229,128,0,281614:0:0:0:0:
64,192,281383,128,0,281614:0:0:0:0:
448,192,281383,1,0,0:0:0:0:
320,192,281383,128,8,281460:0:0:0:0:
448,192,281537,128,0,281614:0:0:0:0:
320,192,281691,128,2,281922:0:0:0:0:
64,192,281691,128,0,281922:0:0:0:0:
192,192,281845,128,0,281922:0:0:0:0:
448,192,281999,128,0,282537:0:0:0:0:
320,192,281999,1,8,0:0:0:0:
64,192,281999,128,0,282076:0:0:0:0:
192,192,282152,128,0,282537:0:0:0:0:
64,192,282306,1,0,0:0:0:0:
320,192,282306,128,2,282383:0:0:0:0:
64,192,282460,128,0,282537:0:0:0:0:
448,192,282614,128,0,282845:0:0:0:0:
320,192,282614,128,8,282845:0:0:0:0:
192,192,282614,128,0,282691:0:0:0:0:
64,192,282768,128,0,282845:0:0:0:0:
192,192,282922,128,0,283152:0:0:0:0:
448,192,282922,128,2,282999:0:0:0:0:
64,192,283076,128,0,283152:0:0:0:0:
320,192,283229,128,8,283306:0:0:0:0:
448,192,283229,128,0,283306:0:0:0:0:
64,192,283229,128,0,283306:0:0:0:0:
448,192,283383,128,0,283768:0:0:0:0:
320,192,283383,128,0,283768:0:0:0:0:
192,192,283383,128,2,283768:0:0:0:0:
64,192,283383,128,4,283768:0:0:0:0:
192,192,283845,128,8,284076:0:0:0:0:
64,192,283845,128,0,284076:0:0:0:0:
448,192,283845,128,0,283922:0:0:0:0:
320,192,283999,128,0,284076:0:0:0:0:
448,192,284152,128,0,284383:0:0:0:0:
192,192,284152,128,2,284383:0:0:0:0:
64,192,284152,128,0,284383:0:0:0:0:
320,192,284306,128,0,284383:0:0:0:0:
64,192,284460,1,0,0:0:0:0:
448,192,284460,128,0,284768:0:0:0:0:
192,192,284460,128,8,284537:0:0:0:0:
320,192,284614,128,0,284768:0:0:0:0:
64,192,284768,128,0,284999:0:0:0:0:
192,192,284768,128,2,284999:0:0:0:0:
320,192,284922,128,8,285152:0:0:0:0:
448,192,284922,128,0,285076:0:0:0:0:
192,192,285076,128,8,285229:0:0:0:0:
64,192,285076,128,0,285229:0:0:0:0:
448,192,285152,128,0,285306:0:0:0:0:
320,192,285229,128,8,285306:0:0:0:0:
192,192,285306,128,8,285383:0:0:0:0:
64,192,285306,128,0,285460:0:0:0:0:
320,192,285383,128,8,285537:0:0:0:0:
448,192,285383,128,0,285537:0:0:0:0:
192,192,285460,128,8,285614:0:0:0:0:
64,192,285537,128,8,285614:0:0:0:0:
320,192,285614,128,8,285768:0:0:0:0:
448,192,285614,128,0,285768:0:0:0:0:
64,192,285691,128,0,285768:0:0:0:0:
192,192,285691,128,8,285768:0:0:0:0:
320,192,285845,1,4,0:0:0:0:
448,192,285845,1,0,0:0:0:0:
192,192,285845,1,2,0:0:0:0:
64,192,285845,1,0,0:0:0:0:
320,192,286152,1,2,0:0:0:0:
448,192,286152,1,0,0:0:0:0:
64,192,286306,1,0,0:0:0:0:
192,192,286306,1,0,0:0:0:0:
320,192,286306,1,8,0:0:0:0:
64,192,286460,1,0,0:0:0:0:
448,192,286460,1,2,0:0:0:0:
448,192,286614,1,8,0:0:0:0:
320,192,286614,1,0,0:0:0:0:
192,192,286614,1,0,0:0:0:0:
64,192,286768,1,0,0:0:0:0:
320,192,286768,1,2,0:0:0:0:
64,192,286922,1,0,0:0:0:0:
192,192,286922,1,8,0:0:0:0:
448,192,286922,1,0,0:0:0:0:
448,192,287076,1,0,0:0:0:0:
320,192,287076,1,2,0:0:0:0:
192,192,287152,1,2,0:0:0:0:
64,192,287229,1,0,0:0:0:0:
320,192,287229,1,8,0:0:0:0:
448,192,287229,1,0,0:0:0:0:
64,192,287383,1,0,0:0:0:0:
192,192,287383,1,2,0:0:0:0:
448,192,287537,1,8,0:0:0:0:
320,192,287537,1,0,0:0:0:0:
192,192,287537,1,0,0:0:0:0:
64,192,287691,1,0,0:0:0:0:
320,192,287691,1,2,0:0:0:0:
64,192,287845,1,0,0:0:0:0:
448,192,287845,1,0,0:0:0:0:
192,192,287845,1,8,0:0:0:0:
448,192,287999,1,0,0:0:0:0:
320,192,287999,1,2,0:0:0:0:
64,192,288152,1,0,0:0:0:0:
192,192,288152,1,0,0:0:0:0:
320,192,288152,1,8,0:0:0:0:
64,192,288306,1,0,0:0:0:0:
448,192,288306,1,2,0:0:0:0:
320,192,288306,1,0,0:0:0:0:
192,192,288306,1,4,0:0:0:0:
64,192,288614,1,2,0:0:0:0:
448,192,288614,1,0,0:0:0:0:
448,192,288768,1,0,0:0:0:0:
320,192,288768,1,0,0:0:0:0:
192,192,288768,1,8,0:0:0:0:
64,192,288922,1,2,0:0:0:0:
320,192,288922,1,0,0:0:0:0:
448,192,289076,1,0,0:0:0:0:
64,192,289076,1,0,0:0:0:0:
192,192,289076,1,8,0:0:0:0:
448,192,289229,1,2,0:0:0:0:
320,192,289229,1,0,0:0:0:0:
320,192,289383,5,0,0:0:0:0:
192,192,289383,1,8,0:0:0:0:
64,192,289383,1,0,0:0:0:0:
448,192,289537,1,0,0:0:0:0:
64,192,289537,1,2,0:0:0:0:
192,192,289614,1,2,0:0:0:0:
448,192,289691,128,0,289768:0:0:0:0:
320,192,289691,128,8,289768:0:0:0:0:
64,192,289768,1,8,0:0:0:0:
192,192,289845,128,2,289922:0:0:0:0:
448,192,289845,128,0,289922:0:0:0:0:
320,192,289922,1,2,0:0:0:0:
64,192,289999,128,0,290076:0:0:0:0:
192,192,289999,128,0,290076:0:0:0:50:KICK 2.wav
320,192,290076,1,0,0:0:0:50:KICK 2.wav
448,192,290152,128,2,290229:0:0:0:0:
64,192,290152,128,0,290229:0:0:0:0:
192,192,290229,1,2,0:0:0:0:
64,192,290306,128,0,290383:0:0:0:0:
320,192,290306,128,0,290383:0:0:0:50:KICK 2.wav
192,192,290383,1,0,0:0:0:50:KICK 2.wav
448,192,290460,128,0,290537:0:0:0:0:
320,192,290460,128,2,290537:0:0:0:0:
64,192,290537,1,2,0:0:0:0:
192,192,290614,1,8,0:0:0:0:
320,192,290614,1,0,0:0:0:0:
448,192,290614,1,0,0:0:0:0:
64,192,290768,128,0,291152:0:0:0:0:
448,192,290768,1,0,0:0:0:0:
320,192,290768,1,2,0:0:0:0:
192,192,290768,128,4,291152:0:0:0:0:
448,192,291076,1,0,0:0:0:0:
320,192,291076,1,2,0:0:0:0:
320,192,291229,128,8,291537:0:0:0:0:
64,192,291229,1,0,0:0:0:0:
448,192,291229,128,0,291537:0:0:0:0:
64,192,291537,1,0,0:0:0:0:
192,192,291537,1,2,0:0:0:0:
448,192,291691,1,0,0:0:0:0:
320,192,291691,1,2,0:0:0:0:
64,192,291845,1,0,0:0:0:0:
192,192,291845,1,8,0:0:0:0:
320,192,291845,1,0,0:0:0:0:
192,192,291999,1,2,0:0:0:0:
448,192,291999,128,0,292383:0:0:0:0:
64,192,291999,1,4,0:0:0:0:
320,192,291999,128,0,292383:0:0:0:0:
64,192,292306,5,0,0:0:0:0:
192,192,292306,1,2,0:0:0:0:
64,192,292460,128,0,292768:0:0:0:0:
192,192,292460,128,0,292768:0:0:0:0:
448,192,292460,1,8,0:0:0:0:
320,192,292614,1,2,0:0:0:0:
448,192,292614,1,0,0:0:0:0:
448,192,292768,1,0,0:0:0:50:KICK 2.wav
320,192,292845,1,0,0:0:0:50:KICK 2.wav
64,192,292922,1,0,0:0:0:0:
192,192,292922,1,2,0:0:0:0:
448,192,292999,1,0,0:0:0:0:
64,192,293076,1,0,0:0:0:0:
320,192,293076,1,8,0:0:0:0:
192,192,293076,1,0,0:0:0:0:
192,192,293229,128,2,293537:0:0:0:0:
320,192,293229,1,0,0:0:0:0:
64,192,293229,128,0,293537:0:0:0:0:
448,192,293229,1,4,0:0:0:0:
320,192,293537,128,2,293691:0:0:0:0:
448,192,293537,128,0,293768:0:0:0:0:
192,192,293691,128,8,293845:0:0:0:0:
64,192,293691,128,0,293768:0:0:0:0:
320,192,293768,128,0,293922:0:0:0:0:
448,192,293845,128,2,293922:0:0:0:0:
64,192,293845,128,0,293999:0:0:0:0:
192,192,293922,128,0,294076:0:0:0:0:
320,192,293999,128,8,294076:0:0:0:0:
448,192,293999,128,0,294152:0:0:0:0:
64,192,294076,128,0,294229:0:0:0:0:
192,192,294152,128,2,294229:0:0:0:0:
320,192,294152,128,0,294306:0:0:0:0:
448,192,294229,128,0,294383:0:0:0:0:
192,192,294306,128,8,294460:0:0:0:0:
64,192,294306,128,0,294383:0:0:0:0:
320,192,294383,128,0,294460:0:0:0:0:
64,192,294460,128,4,294999:0:0:0:0:
448,192,294460,128,2,294845:0:0:0:0:
192,192,294768,128,8,294999:0:0:0:0:
320,192,294768,128,0,294845:0:0:0:0:
320,192,294922,128,2,294999:0:0:0:0:
448,192,294922,128,0,294999:0:0:0:0:
64,192,295076,1,8,0:0:0:0:
320,192,295152,1,8,0:0:0:0:
448,192,295152,1,0,0:0:0:0:
192,192,295229,1,8,0:0:0:0:
64,192,295229,1,0,0:0:0:0:
320,192,295383,1,8,0:0:0:0:
448,192,295383,1,0,0:0:0:0:
192,192,295460,1,8,0:0:0:0:
64,192,295460,1,0,0:0:0:0:
320,192,295537,1,8,0:0:0:0:
448,192,295537,1,0,0:0:0:0:
448,192,295691,128,0,296076:0:0:0:0:
320,192,295691,128,0,296076:0:0:0:0:
192,192,295691,1,2,0:0:0:0:
64,192,295691,1,4,0:0:0:0:
192,192,295999,1,2,0:0:0:0:
64,192,295999,1,0,0:0:0:0:
64,192,296152,128,0,296383:0:0:0:0:
192,192,296152,128,0,296383:0:0:0:0:
448,192,296152,1,8,0:0:0:0:
320,192,296306,1,2,0:0:0:0:
448,192,296306,1,0,0:0:0:0:
64,192,296460,1,0,0:0:0:0:
192,192,296460,1,8,0:0:0:0:
448,192,296460,1,0,0:0:0:0:
192,192,296614,1,2,0:0:0:0:
320,192,296614,1,0,0:0:0:0:
448,192,296768,5,0,0:0:0:0:
320,192,296768,1,8,0:0:0:0:
64,192,296768,1,0,0:0:0:0:
64,192,296922,128,0,297306:0:0:0:0:
192,192,296922,1,2,0:0:0:0:
320,192,296999,1,2,0:0:0:0:
192,192,297076,1,8,0:0:0:0:
448,192,297076,1,0,0:0:0:0:
448,192,297229,1,0,0:0:0:0:
320,192,297229,1,2,0:0:0:0:
320,192,297383,128,0,297614:0:0:0:0:
448,192,297383,128,0,297614:0:0:0:0:
64,192,297383,1,8,0:0:0:0:
64,192,297537,1,0,0:0:0:0:
192,192,297537,1,2,0:0:0:0:
448,192,297691,1,0,0:0:0:0:
64,192,297691,1,0,0:0:0:0:
320,192,297691,1,8,0:0:0:0:
448,192,297845,1,0,0:0:0:0:
192,192,297845,1,2,0:0:0:0:
64,192,297999,1,0,0:0:0:0:
192,192,297999,1,0,0:0:0:0:
320,192,297999,1,8,0:0:0:0:
192,192,298152,1,4,0:0:0:0:
64,192,298152,1,2,0:0:0:0:
320,192,298152,128,0,298460:0:0:0:0:
448,192,298152,128,0,298460:0:0:0:0:
192,192,298460,128,8,298614:0:0:0:0:
64,192,298460,128,0,298537:0:0:0:0:
320,192,298537,128,8,298691:0:0:0:0:
448,192,298614,128,2,298768:0:0:0:0:
64,192,298614,128,0,298845:0:0:0:50:KICK 2.wav
192,192,298691,128,0,298922:0:0:0:50:KICK 2.wav
320,192,298768,128,0,299076:0:0:0:50:KICK 2.wav
448,192,298845,128,0,298999:0:0:0:50:KICK 2.wav
64,192,298922,128,2,299152:0:0:0:0:
192,192,298999,128,2,299152:0:0:0:0:
448,192,299076,128,0,299306:0:0:0:50:KICK 2.wav
320,192,299152,128,0,299229:0:0:0:50:KICK 2.wav
192,192,299229,128,2,299306:0:0:0:0:
64,192,299229,128,0,299306:0:0:0:0:
320,192,299306,128,2,299383:0:0:0:0:
448,192,299383,128,4,300229:0:0:0:0:
64,192,299383,128,0,300306:0:0:0:0:
192,192,299383,128,8,300306:0:0:0:0:
320,192,300306,1,2,0:0:0:0:
448,192,300306,1,0,0:0:0:0:
64,192,300383,1,2,0:0:0:0:
192,192,300460,1,8,0:0:0:0:
320,192,300460,1,0,0:0:0:0:
448,192,300460,1,0,0:0:0:0:
192,192,300768,5,0,0:0:0:0:
448,192,300768,1,8,0:0:0:0:
64,192,300768,1,0,0:0:0:0:
320,192,300768,1,4,0:0:0:0:
192,192,300922,1,2,0:0:0:0:
64,192,300922,1,0,0:0:0:0:
320,192,301076,1,2,0:0:0:0:
448,192,301076,1,0,0:0:0:0:
320,192,301229,1,8,0:0:0:0:
64,192,301229,1,0,0:0:0:0:
192,192,301229,1,4,0:0:0:0:
64,192,301383,1,0,0:0:0:0:
192,192,301383,1,2,0:0:0:0:
320,192,301537,1,2,0:0:0:0:
448,192,301537,1,0,0:0:0:0:
448,192,301691,1,4,0:0:0:0:
192,192,301691,1,8,0:0:0:0:
64,192,301691,1,0,0:0:0:0:
64,192,301845,1,0,0:0:0:0:
192,192,301845,1,2,0:0:0:0:
448,192,301999,1,0,0:0:0:0:
320,192,301999,1,2,0:0:0:0:
320,192,302152,1,4,0:0:0:0:
448,192,302152,1,0,0:0:0:0:
192,192,302152,1,8,0:0:0:0:
192,192,302306,1,2,0:0:0:0:
64,192,302306,1,0,0:0:0:0:
448,192,302460,1,0,0:0:0:0:
320,192,302460,1,2,0:0:0:0:
320,192,302614,1,8,0:0:0:0:
192,192,302614,1,4,0:0:0:0:
64,192,302614,1,0,0:0:0:0:
64,192,302768,1,0,0:0:0:0:
192,192,302768,1,2,0:0:0:0:
320,192,302845,1,0,0:0:0:0:
448,192,302922,1,8,0:0:0:0:
192,192,302922,1,4,0:0:0:0:
64,192,302922,1,0,0:0:0:0:
320,192,303076,1,2,0:0:0:0:
448,192,303076,1,0,0:0:0:0:
320,192,303229,1,4,0:0:0:0:
192,192,303229,1,8,0:0:0:0:
64,192,303229,1,0,0:0:0:0:
448,192,303383,1,0,0:0:0:0:
64,192,303383,1,2,0:0:0:0:
320,192,303537,1,0,0:0:0:0:
192,192,303537,1,2,0:0:0:0:
448,192,303691,1,4,0:0:0:0:
320,192,303691,1,8,0:0:0:0:
64,192,303691,1,0,0:0:0:0:
448,192,303845,1,2,0:0:0:0:
192,192,303845,1,0,0:0:0:0:
320,192,303999,1,2,0:0:0:0:
64,192,303999,1,0,0:0:0:0:
448,192,304152,1,0,0:0:0:0:
64,192,304152,1,4,0:0:0:0:
192,192,304152,1,8,0:0:0:0:
320,192,304306,1,2,0:0:0:0:
192,192,304306,1,0,0:0:0:0:
448,192,304460,1,2,0:0:0:0:
64,192,304460,1,0,0:0:0:0:
320,192,304614,1,4,0:0:0:0:
448,192,304614,1,0,0:0:0:0:
192,192,304614,1,8,0:0:0:0:
320,192,304768,1,2,0:0:0:0:
64,192,304768,1,0,0:0:0:0:
448,192,304922,1,0,0:0:0:0:
192,192,304922,1,2,0:0:0:0:
320,192,305076,1,8,0:0:0:0:
448,192,305076,1,0,0:0:0:0:
64,192,305076,1,0,0:0:0:0:
192,192,305152,1,0,0:0:0:50:KICK 2.wav
448,192,305229,1,0,0:0:0:0:
320,192,305229,1,0,0:0:0:50:KICK 2.wav
64,192,305306,1,0,0:0:0:50:KICK 2.wav
320,192,305383,1,0,0:0:0:0:
192,192,305383,1,0,0:0:0:50:KICK 2.wav
448,192,305460,1,0,0:0:0:50:KICK 2.wav
192,192,305537,1,0,0:0:0:50:KICK 2.wav
64,192,305537,1,0,0:0:0:0:
320,192,305614,1,0,0:0:0:50:KICK 2.wav
192,192,305691,1,4,0:0:0:0:
448,192,305691,1,8,0:0:0:0:
64,192,305691,1,0,0:0:0:0:
64,192,305845,1,0,0:0:0:0:
320,192,305845,1,2,0:0:0:0:
448,192,305999,1,0,0:0:0:0:
192,192,305999,1,2,0:0:0:0:
448,192,306152,1,8,0:0:0:0:
320,192,306152,1,4,0:0:0:0:
64,192,306152,1,0,0:0:0:0:
320,192,306306,1,0,0:0:0:0:
192,192,306306,1,2,0:0:0:0:
64,192,306460,1,0,0:0:0:0:
448,192,306460,1,2,0:0:0:0:
320,192,306614,1,8,0:0:0:0:
192,192,306614,1,4,0:0:0:0:
64,192,306614,1,0,0:0:0:0:
320,192,306768,1,2,0:0:0:0:
448,192,306768,1,0,0:0:0:0:
192,192,306922,1,2,0:0:0:0:
64,192,306922,1,0,0:0:0:0:
448,192,307076,1,8,0:0:0:0:
320,192,307076,1,4,0:0:0:0:
192,192,307076,1,0,0:0:0:0:
64,192,307229,1,0,0:0:0:0:
448,192,307229,1,2,0:0:0:0:
320,192,307383,1,2,0:0:0:0:
192,192,307383,1,0,0:0:0:0:
448,192,307537,1,0,0:0:0:0:
64,192,307537,1,4,0:0:0:0:
320,192,307537,1,8,0:0:0:0:
192,192,307691,1,2,0:0:0:0:
448,192,307691,1,0,0:0:0:0:
64,192,307845,1,0,0:0:0:0:
320,192,307845,1,8,0:0:0:0:
192,192,307845,1,0,0:0:0:0:
448,192,307922,1,0,0:0:0:0:
192,192,307999,1,2,0:0:0:0:
64,192,307999,1,0,0:0:0:0:
320,192,308076,1,2,0:0:0:0:
448,192,308152,1,0,0:0:0:0:
192,192,308152,1,8,0:0:0:0:
64,192,308152,1,0,0:0:0:0:
448,192,308306,1,0,0:0:0:0:
320,192,308306,1,2,0:0:0:0:
192,192,308460,1,2,0:0:0:0:
64,192,308460,1,0,0:0:0:0:
320,192,308614,1,8,0:0:0:0:
192,192,308614,1,0,0:0:0:0:
448,192,308614,1,4,0:0:0:0:
448,192,308768,1,0,0:0:0:0:
64,192,308768,1,2,0:0:0:0:
192,192,308922,1,2,0:0:0:0:
320,192,308922,1,0,0:0:0:0:
448,192,309076,1,8,0:0:0:0:
192,192,309076,1,4,0:0:0:0:
64,192,309076,1,0,0:0:0:0:
64,192,309229,1,0,0:0:0:0:
320,192,309229,1,2,0:0:0:0:
192,192,309383,1,2,0:0:0:0:
448,192,309383,1,0,0:0:0:0:
448,192,309537,1,8,0:0:0:0:
64,192,309537,1,0,0:0:0:0:
320,192,309537,1,4,0:0:0:0:
192,192,309691,1,2,0:0:0:0:
64,192,309691,1,0,0:0:0:0:
448,192,309845,1,0,0:0:0:0:
320,192,309845,1,2,0:0:0:0:
64,192,309999,1,0,0:0:0:0:
448,192,309999,1,0,0:0:0:50:KICK 2.wav
320,192,310076,1,0,0:0:0:50:KICK 2.wav
192,192,310152,1,2,0:0:0:0:
64,192,310152,1,0,0:0:0:0:
448,192,310229,1,0,0:0:0:0:
320,192,310229,1,2,0:0:0:0:
192,192,310306,1,8,0:0:0:0:
64,192,310306,1,0,0:0:0:0:
320,192,310383,1,8,0:0:0:0:
448,192,310383,1,0,0:0:0:0:
192,192,310460,1,8,0:0:0:0:
64,192,310460,1,0,0:0:0:0:
448,192,310537,1,0,0:0:0:0:
320,192,310537,1,8,0:0:0:0:
64,192,310614,1,0,0:0:0:0:
192,192,310614,1,2,0:0:0:0:
320,192,310691,1,0,0:0:0:0:
448,192,310691,1,2,0:0:0:0:
448,192,310768,1,0,0:0:0:0:
320,192,310768,1,2,0:0:0:0:
192,192,310845,1,0,0:0:0:0:
64,192,310845,1,2,0:0:0:0:
64,192,310922,128,0,311152:0:0:0:0:
192,192,310922,128,0,311152:0:0:0:0:
448,192,310922,1,8,0:0:0:0:
320,192,310922,1,4,0:0:0:0:
64,192,311229,1,2,0:0:0:0:
448,192,311229,128,0,311460:0:0:0:0:
192,192,311383,128,0,311460:0:0:0:0:
64,192,311383,128,0,311460:0:0:0:0:
64,192,311537,128,0,311768:0:0:0:0:
448,192,311537,1,0,0:0:0:0:
320,192,311537,1,8,0:0:0:0:
320,192,311691,128,0,311768:0:0:0:0:
448,192,311691,128,0,311768:0:0:0:0:
192,192,311845,128,0,312076:0:0:0:0:
64,192,311845,1,2,0:0:0:0:
448,192,311999,128,0,312076:0:0:0:0:
320,192,311999,128,0,312076:0:0:0:0:
320,192,312152,128,0,312383:0:0:0:0:
192,192,312152,1,8,0:0:0:0:
64,192,312152,1,0,0:0:0:0:
64,192,312306,128,0,312383:0:0:0:0:
448,192,312306,128,0,312383:0:0:0:0:
64,192,312460,128,0,312691:0:0:0:0:
192,192,312460,128,2,312614:0:0:0:0:
320,192,312614,1,0,0:0:0:0:
448,192,312614,1,0,0:0:0:0:
192,192,312691,1,0,0:0:0:0:
320,192,312768,128,8,312845:0:0:0:0:
448,192,312768,128,0,312999:0:0:0:0:
64,192,312768,128,0,312845:0:0:0:0:
320,192,312922,128,0,312999:0:0:0:0:
192,192,312922,128,0,312999:0:0:0:0:
64,192,313076,1,0,0:0:0:0:
192,192,313076,128,0,313306:0:0:0:0:
448,192,313076,1,2,0:0:0:0:
320,192,313076,1,4,0:0:0:0:
448,192,313229,128,0,313306:0:0:0:0:
64,192,313229,128,0,313306:0:0:0:0:
448,192,313383,128,0,313614:0:0:0:0:
192,192,313383,1,8,0:0:0:0:
64,192,313383,1,0,0:0:0:0:
192,192,313537,128,0,313614:0:0:0:0:
64,192,313537,128,0,313614:0:0:0:0:
320,192,313691,128,0,313922:0:0:0:0:
64,192,313691,1,2,0:0:0:0:
64,192,313845,128,0,313922:0:0:0:0:
448,192,313845,128,0,313922:0:0:0:0:
192,192,313999,128,0,314229:0:0:0:0:
448,192,313999,1,0,0:0:0:0:
320,192,313999,1,8,0:0:0:0:
320,192,314152,128,0,314229:0:0:0:0:
64,192,314152,128,0,314229:0:0:0:0:
64,192,314306,128,0,314537:0:0:0:0:
448,192,314306,1,2,0:0:0:0:
320,192,314460,128,0,314537:0:0:0:0:
192,192,314460,128,0,314537:0:0:0:0:
448,192,314614,128,0,314845:0:0:0:0:
192,192,314614,1,8,0:0:0:0:
64,192,314614,1,0,0:0:0:0:
192,192,314768,128,0,314845:0:0:0:0:
64,192,314768,128,0,314845:0:0:0:0:
64,192,314922,128,0,315306:0:0:0:0:
448,192,314922,128,2,314999:0:0:0:0:
192,192,315076,128,0,315152:0:0:0:0:
320,192,315076,128,8,315152:0:0:0:0:
448,192,315076,128,0,315306:0:0:0:0:
320,192,315229,128,0,315306:0:0:0:0:
192,192,315229,128,2,315460:0:0:0:0:
64,192,315383,128,0,315460:0:0:0:0:
320,192,315383,128,8,315460:0:0:0:0:
448,192,315383,128,0,315460:0:0:0:0:
448,192,315537,1,2,0:0:0:0:
192,192,315537,128,0,315768:0:0:0:0:
64,192,315537,1,0,0:0:0:0:
320,192,315537,1,4,0:0:0:0:
448,192,315691,128,0,315768:0:0:0:0:
320,192,315691,128,0,315768:0:0:0:0:
448,192,315845,128,0,316076:0:0:0:0:
192,192,315845,1,8,0:0:0:0:
64,192,315845,1,0,0:0:0:0:
192,192,315999,128,0,316076:0:0:0:0:
64,192,315999,128,0,316076:0:0:0:0:
64,192,316152,128,0,316383:0:0:0:0:
448,192,316152,1,2,0:0:0:0:
320,192,316306,128,0,316383:0:0:0:0:
192,192,316306,128,0,316383:0:0:0:0:
320,192,316460,128,0,316691:0:0:0:0:
448,192,316460,1,0,0:0:0:0:
64,192,316460,1,8,0:0:0:0:
448,192,316614,128,0,316691:0:0:0:0:
192,192,316614,128,0,316691:0:0:0:0:
64,192,316768,128,0,316999:0:0:0:0:
192,192,316768,1,2,0:0:0:0:
448,192,316922,128,0,316999:0:0:0:0:
320,192,316922,128,0,316999:0:0:0:0:
448,192,317076,128,0,317306:0:0:0:0:
192,192,317076,1,8,0:0:0:0:
64,192,317076,1,0,0:0:0:0:
320,192,317229,128,0,317306:0:0:0:0:
192,192,317229,128,0,317306:0:0:0:0:
192,192,317383,128,0,317614:0:0:0:0:
64,192,317383,1,2,0:0:0:0:
448,192,317537,128,0,317614:0:0:0:0:
64,192,317537,128,0,317614:0:0:0:0:
448,192,317691,1,0,0:0:0:0:
320,192,317691,1,8,0:0:0:0:
64,192,317691,1,0,0:0:0:0:
192,192,317768,1,0,0:0:0:0:
448,192,317845,1,0,0:0:0:0:
320,192,317845,1,0,0:0:0:0:
64,192,317922,1,0,0:0:0:0:
320,192,317999,1,4,0:0:0:0:
448,192,317999,1,0,0:0:0:0:
192,192,317999,1,2,0:0:0:0:
192,192,318152,1,8,0:0:0:0:
64,192,318152,1,0,0:0:0:0:
448,192,318229,1,0,0:0:0:0:
320,192,318229,1,8,0:0:0:0:
64,192,318306,1,0,0:0:0:0:
192,192,318306,1,2,0:0:0:0:
448,192,318383,1,0,0:0:0:0:
320,192,318383,1,2,0:0:0:0:
64,192,318460,1,0,0:0:0:50:KICK 2.wav
448,192,318537,1,0,0:0:0:50:KICK 2.wav
64,192,318614,1,0,0:0:0:0:
192,192,318614,1,2,0:0:0:0:
448,192,318691,1,0,0:0:0:0:
320,192,318691,1,2,0:0:0:0:
64,192,318768,1,0,0:0:0:0:
192,192,318768,1,8,0:0:0:0:
448,192,318845,1,0,0:0:0:0:
320,192,318845,1,8,0:0:0:0:
64,192,318922,1,0,0:0:0:0:
192,192,318922,1,8,0:0:0:0:
448,192,318999,5,0,0:0:0:0:
320,192,318999,1,8,0:0:0:0:
64,192,319076,1,0,0:0:0:0:
192,192,319076,1,2,0:0:0:0:
320,192,319152,1,2,0:0:0:0:
448,192,319152,1,0,0:0:0:0:
64,192,319229,1,0,0:0:0:0:
192,192,319229,1,8,0:0:0:0:
448,192,319306,1,0,0:0:0:50:KICK 2.wav
192,192,319383,1,0,0:0:0:0:
64,192,319383,1,2,0:0:0:0:
448,192,319460,1,0,0:0:0:0:
320,192,319460,1,2,0:0:0:0:
64,192,319537,1,0,0:0:0:50:KICK 2.wav
320,192,319614,1,0,0:0:0:50:KICK 2.wav
64,192,319691,1,0,0:0:0:0:
192,192,319691,1,2,0:0:0:0:
448,192,319768,1,0,0:0:0:0:
320,192,319768,1,2,0:0:0:0:
192,192,319845,1,0,0:0:0:50:KICK 2.wav
448,192,319922,1,0,0:0:0:50:KICK 2.wav
64,192,319999,1,0,0:0:0:0:
192,192,319999,1,2,0:0:0:0:
448,192,320076,1,0,0:0:0:0:
320,192,320076,1,2,0:0:0:0:
192,192,320152,5,8,0:0:0:0:
64,192,320152,1,0,0:0:0:0:
448,192,320229,1,0,0:0:0:0:
320,192,320229,1,8,0:0:0:0:
64,192,320306,1,0,0:0:0:0:
192,192,320306,1,8,0:0:0:0:
448,192,320383,1,0,0:0:0:0:
320,192,320383,1,8,0:0:0:0:
64,192,321085,5,2,0:0:0:0:
320,192,321085,1,0,0:0:0:0:
448,192,321085,128,0,330526:0:0:0:0:
192,192,321085,1,4,0:0:0:0:
320,192,321944,1,0,0:0:0:0:
192,192,322377,1,0,0:0:0:0:
64,192,322725,1,0,0:0:0:0:
320,192,323116,1,0,0:0:0:0:
64,192,323246,1,0,0:0:0:0:
192,192,323530,1,0,0:0:0:0:
320,192,323840,1,0,0:0:0:0:
64,192,324145,1,0,0:0:0:0:
192,192,324450,1,0,0:0:0:0:
64,192,324583,1,0,0:0:0:0:
320,192,324755,1,0,0:0:0:0:
192,192,324948,1,0,0:0:0:0:
64,192,324948,1,0,0:0:0:0:
320,192,325056,1,0,0:0:0:0:
64,192,325165,1,0,0:0:0:0:
192,192,325273,1,0,0:0:0:0:
320,192,325382,1,0,0:0:0:0:
64,192,325716,1,0,0:0:0:0:
320,192,326155,1,0,0:0:0:0:
192,192,326627,1,0,0:0:0:0:
320,192,327174,1,0,0:0:0:0:
64,192,327826,1,0,0:0:0:0:
192,192,327863,1,0,0:0:0:0:
320,192,327901,1,0,0:0:0:0:
64,192,330076,128,0,330526:0:0:0:0:
192,192,330226,128,0,330526:0:0:0:0:
