osu file format v14

[General]
AudioFilename: audio.mp3
AudioLeadIn: 0
PreviewTime: 275128
Countdown: 0
SampleSet: Soft
StackLeniency: 0.4
Mode: 0
LetterboxInBreaks: 0
WidescreenStoryboard: 0

[Editor]
Bookmarks: 9052,18898,28744,48436,58282,68129,107513,117359,137052,146898,151821,191205,201052,210898,220744,235513,245359,256436,300743
DistanceSpacing: 1.8
BeatDivisor: 4
GridSize: 32
TimelineZoom: 3.099999

[Metadata]
Title:Ringing Bloom
TitleUnicode:Ringing Bloom
Artist:Roselia
ArtistUnicode:Roselia
Creator:Vanya2
Version:Awakening
Source:バンドリ! ガールズバンドパーティ!
Tags:japanese ロゼリア rock jrock j-rock pop jpop j-pop bang dream! girls band party bandori video game garupa ガルパ ロゼリア minato yukina 湊友希那 aiba aina 相羽あいな hikawa sayo 氷川紗夜 kudou haruka 工藤晴香 imai lisa 今井リサ nakashima yuki 中島由貴 udagawa ako 宇田川あこ sakuragawa megu 櫻川めぐ shirokane rinko 白金燐子 akesaka satomi 明坂聡美 shizaki kanon 志崎樺音 anime fire bird elements garden female vocal
BeatmapID:3458527
BeatmapSetID:1692546

[Difficulty]
HPDrainRate:4
CircleSize:3.8
OverallDifficulty:9.4
ApproachRate:9.6
SliderMultiplier:1.8
SliderTickRate:1

[Events]
//Background and Video events
0,0,"ss.jpg",0,0
//Break Periods
//Storyboard Layer 0 (Background)
//Storyboard Layer 1 (Fail)
//Storyboard Layer 2 (Pass)
//Storyboard Layer 3 (Foreground)
//Storyboard Layer 4 (Overlay)
//Storyboard Sound Samples

[TimingPoints]
4129,307.692307692308,4,2,38,60,1,0
8898,-100,4,2,38,5,0,0
9052,-133.333333333333,4,2,27,60,0,0
9513,-133.333333333333,4,2,26,60,0,0
9975,-133.333333333333,4,2,27,60,0,0
10436,-133.333333333333,4,2,26,60,0,0
10898,-133.333333333333,4,2,27,60,0,0
11205,-133.333333333333,4,2,26,60,0,0
11359,-133.333333333333,4,2,99,60,0,0
11513,-133.333333333333,4,2,27,60,0,0
11975,-133.333333333333,4,2,26,60,0,0
12436,-133.333333333333,4,2,27,60,0,0
12898,-133.333333333333,4,2,26,60,0,0
13359,-133.333333333333,4,2,27,60,0,0
13590,-133.333333333333,4,2,99,60,0,0
13667,-133.333333333333,4,2,26,60,0,0
13821,-133.333333333333,4,2,99,60,0,0
13975,-133.333333333333,4,2,26,60,0,0
14436,-133.333333333333,4,2,24,60,0,0
14898,-133.333333333333,4,2,14,60,0,0
16436,-133.333333333333,4,2,26,60,0,0
16898,-133.333333333333,4,2,27,60,0,0
17359,-133.333333333333,4,2,37,60,0,0
17667,-133.333333333333,4,2,99,60,0,0
17821,-100,4,2,99,60,0,0
18667,-100,4,2,99,5,0,0
18898,-100,4,2,99,85,0,0
28744,-133.333333333333,4,2,99,60,0,0
29052,-100,4,2,99,60,0,0
29282,-133.333333333333,4,2,99,5,0,0
29359,-133.333333333333,4,2,99,60,0,0
31129,-133.333333333333,4,2,99,5,0,0
31205,-133.333333333333,4,2,99,60,0,0
31513,-100,4,2,99,60,0,0
31744,-100,4,2,99,5,0,0
31821,-133.333333333333,4,2,99,60,0,0
33590,-133.333333333333,4,2,99,5,0,0
33667,-133.333333333333,4,2,99,60,0,0
33975,-100,4,2,99,60,0,0
34205,-100,4,2,99,5,0,0
34282,-133.333333333333,4,2,99,60,0,0
36052,-133.333333333333,4,2,99,5,0,0
36129,-133.333333333333,4,2,99,60,0,0
36436,-100,4,2,99,60,0,0
36667,-100,4,2,99,5,0,0
36744,-133.333333333333,4,2,99,60,0,0
37975,-100,4,2,99,60,0,0
38590,-90.9090909090909,4,2,99,75,0,0
38821,-90.9090909090909,4,2,99,5,0,0
38898,-111.111111111111,4,2,99,75,0,0
43513,-90.9090909090908,4,2,99,75,0,0
43744,-90.9090909090908,4,2,99,5,0,0
43821,-111.111111111111,4,2,99,75,0,0
45975,-90.9090909090908,4,2,99,75,0,0
46205,-90.9090909090908,4,2,99,5,0,0
46282,-111.111111111111,4,2,99,75,0,0
48436,-100,4,2,99,85,0,0
57129,-100,4,2,99,5,0,0
57205,-100,4,2,99,85,0,0
58282,-250,4,2,99,50,0,0
59129,-250,4,2,99,5,0,0
59205,-250,4,2,99,50,0,0
59436,-250,4,2,99,5,0,0
59513,-200,4,2,99,50,0,0
63205,-100,4,2,99,75,0,0
63436,-100,4,2,99,5,0,0
63513,-100,4,2,99,50,0,0
63821,-100,4,2,99,55,0,0
64129,-100,4,2,99,60,0,0
64436,-100,4,2,99,65,0,0
64744,-100,4,2,99,70,0,0
65052,-100,4,2,99,75,0,0
65359,-100,4,2,99,80,0,0
65667,-100,4,2,99,85,0,0
67975,-76.9230769230769,4,2,99,95,0,1
68205,-76.9230769230769,4,2,99,5,0,1
68282,-90.9090909090909,4,2,99,95,0,1
69205,-76.9230769230769,4,2,99,95,0,1
69436,-76.9230769230769,4,2,99,5,0,1
69513,-90.9090909090909,4,2,99,95,0,1
71898,-90.9090909090909,4,2,99,5,0,1
71975,-90.9090909090909,4,2,99,95,0,1
72898,-76.9230769230769,4,2,99,95,0,1
73129,-76.9230769230769,4,2,99,5,0,1
73205,-90.9090909090909,4,2,99,95,0,1
74129,-76.9230769230769,4,2,99,95,0,1
74359,-76.9230769230769,4,2,99,5,0,1
74436,-90.9090909090909,4,2,99,95,0,1
76744,-90.9090909090909,4,2,30,95,0,1
76821,-90.9090909090909,4,2,19,95,0,1
76898,-90.9090909090909,4,2,20,95,0,1
76975,-90.9090909090909,4,2,29,95,0,1
77052,-90.9090909090909,4,2,20,95,0,1
77129,-90.9090909090909,4,2,29,95,0,1
77205,-90.9090909090909,4,2,21,95,0,1
77282,-90.9090909090909,4,2,22,95,0,1
77359,-90.9090909090909,4,2,19,95,0,1
77513,-90.9090909090909,4,2,20,95,0,1
77667,-90.9090909090909,4,2,21,95,0,1
77821,-76.9230769230769,4,2,29,95,0,1
77898,-76.9230769230769,4,2,99,95,0,1
78052,-76.9230769230769,4,2,99,5,0,1
78129,-90.9090909090909,4,2,99,95,0,1
82898,-76.9230769230769,4,2,23,95,0,1
83129,-76.9230769230769,4,2,23,5,0,1
83205,-76.9230769230769,4,2,23,95,0,1
83359,-76.9230769230769,4,2,31,95,0,1
83590,-76.9230769230769,4,2,31,5,0,1
83667,-76.9230769230769,4,2,31,95,0,1
83821,-76.9230769230769,4,2,32,95,0,1
84359,-76.9230769230769,4,2,32,5,0,1
84436,-76.9230769230769,4,2,32,95,0,1
84590,-76.9230769230769,4,2,22,95,0,1
84667,-76.9230769230769,4,2,99,95,0,1
84744,-76.9230769230769,4,2,29,95,0,1
84821,-76.9230769230769,4,2,20,95,0,1
84898,-76.9230769230769,4,2,19,95,0,1
84975,-76.9230769230769,4,2,30,95,0,1
85052,-76.9230769230769,4,2,33,95,0,1
85129,-76.9230769230769,4,2,34,95,0,1
85205,-76.9230769230769,4,2,35,95,0,1
85282,-76.9230769230769,4,2,99,95,0,1
85359,-76.9230769230769,4,2,99,95,0,1
87667,-76.9230769230769,4,2,99,95,0,1
87898,-76.9230769230769,4,2,99,5,0,1
87975,-90.9090909090909,4,2,99,95,0,1
88898,-76.9230769230769,4,2,99,95,0,1
89129,-76.9230769230769,4,2,99,5,0,1
89205,-90.9090909090909,4,2,99,95,0,1
90129,-90.9090909090909,4,2,99,95,0,1
91590,-90.9090909090909,4,2,99,5,0,1
91667,-90.9090909090909,4,2,99,95,0,1
92590,-76.9230769230769,4,2,99,95,0,1
92821,-76.9230769230769,4,2,99,5,0,1
92898,-90.9090909090909,4,2,99,95,0,1
93821,-76.9230769230769,4,2,99,95,0,1
94052,-76.9230769230769,4,2,99,5,0,1
94129,-90.9090909090909,4,2,99,95,0,1
102436,-76.9230769230769,4,2,99,95,0,1
102667,-76.9230769230769,4,2,99,5,0,1
102744,-90.9090909090909,4,2,99,95,0,1
102898,-76.9230769230769,4,2,99,95,0,1
103129,-76.9230769230769,4,2,99,5,0,1
103205,-90.9090909090909,4,2,99,95,0,1
103667,-76.9230769230769,4,2,99,95,0,1
103898,-76.9230769230769,4,2,99,5,0,1
103975,-90.9090909090909,4,2,99,95,0,1
104129,-76.9230769230769,4,2,99,95,0,1
104359,-76.9230769230769,4,2,99,5,0,1
104436,-90.9090909090909,4,2,99,95,0,1
106129,-250.000000000001,4,2,99,95,0,1
107052,-100,4,2,99,95,0,1
107513,-100,4,2,99,85,0,0
117359,-133.333333333333,4,2,99,60,0,0
126898,-111.111111111111,4,2,99,60,0,0
127129,-111.111111111111,4,2,99,5,0,0
127205,-90.9090909090909,4,2,99,75,0,0
127436,-90.9090909090909,4,2,99,5,0,0
127513,-111.111111111111,4,2,99,75,0,0
132129,-90.9090909090908,4,2,99,75,0,0
132359,-90.9090909090908,4,2,99,5,0,0
132436,-111.111111111111,4,2,99,75,0,0
134590,-90.9090909090908,4,2,99,75,0,0
134821,-90.9090909090908,4,2,99,5,0,0
134898,-111.111111111111,4,2,99,75,0,0
137052,-100,4,2,99,85,0,0
141359,-66.6666666666667,4,2,99,85,0,0
141975,-100,4,2,99,85,0,0
146898,-100,4,2,99,85,0,0
151667,-76.9230769230769,4,2,99,95,0,1
151898,-76.9230769230769,4,2,99,5,0,1
151975,-90.9090909090909,4,2,99,95,0,1
152898,-76.9230769230769,4,2,99,95,0,1
153129,-76.9230769230769,4,2,99,5,0,1
153205,-90.9090909090909,4,2,99,95,0,1
155590,-90.9090909090909,4,2,99,5,0,1
155667,-90.9090909090909,4,2,99,95,0,1
156590,-76.9230769230769,4,2,99,95,0,1
156821,-76.9230769230769,4,2,99,5,0,1
156898,-90.9090909090909,4,2,99,95,0,1
157821,-76.9230769230769,4,2,99,95,0,1
158052,-76.9230769230769,4,2,99,5,0,1
158129,-90.9090909090909,4,2,99,95,0,1
160436,-100,4,2,30,95,0,1
160513,-100,4,2,19,95,0,1
160590,-100,4,2,20,95,0,1
160667,-100,4,2,29,95,0,1
160744,-100,4,2,20,95,0,1
160821,-100,4,2,29,95,0,1
160898,-100,4,2,21,95,0,1
160975,-100,4,2,22,95,0,1
161052,-100,4,2,19,95,0,1
161205,-100,4,2,20,95,0,1
161359,-100,4,2,21,95,0,1
161513,-76.9230769230769,4,2,29,95,0,1
161590,-90.9090909090909,4,2,99,95,0,1
161744,-90.9090909090909,4,2,99,5,0,1
161821,-90.9090909090909,4,2,99,95,0,1
166590,-76.9230769230769,4,2,23,95,0,1
166821,-76.9230769230769,4,2,23,5,0,1
166898,-76.9230769230769,4,2,23,95,0,1
167052,-76.9230769230769,4,2,31,95,0,1
167282,-76.9230769230769,4,2,31,5,0,1
167359,-76.9230769230769,4,2,31,95,0,1
167513,-100,4,2,32,95,0,1
167821,-76.9230769230769,4,2,32,95,0,1
168052,-76.9230769230769,4,2,32,5,0,1
168129,-76.9230769230769,4,2,32,95,0,1
168282,-100,4,2,22,95,0,1
168359,-100,4,2,99,95,0,1
168436,-100,4,2,29,95,0,1
168513,-100,4,2,20,95,0,1
168590,-100,4,2,19,95,0,1
168667,-100,4,2,30,95,0,1
168744,-100,4,2,33,95,0,1
168821,-100,4,2,34,95,0,1
168898,-100,4,2,35,95,0,1
168975,-100,4,2,99,95,0,1
169052,-76.9230769230769,4,2,99,95,0,1
171359,-76.9230769230769,4,2,99,95,0,1
171590,-76.9230769230769,4,2,99,5,0,1
171667,-90.9090909090909,4,2,99,95,0,1
172590,-76.9230769230769,4,2,99,95,0,1
172821,-76.9230769230769,4,2,99,5,0,1
172898,-90.9090909090909,4,2,99,95,0,1
175052,-76.9230769230769,4,2,99,95,0,1
175282,-76.9230769230769,4,2,99,5,0,1
175359,-90.9090909090909,4,2,99,95,0,1
176282,-76.9230769230769,4,2,99,95,0,1
176513,-76.9230769230769,4,2,99,5,0,1
176590,-90.9090909090909,4,2,99,95,0,1
177513,-76.9230769230769,4,2,99,95,0,1
177744,-76.9230769230769,4,2,99,5,0,1
177821,-90.9090909090909,4,2,99,95,0,1
186129,-76.9230769230769,4,2,99,95,0,1
186359,-76.9230769230769,4,2,99,5,0,1
186436,-76.9230769230769,4,2,99,95,0,1
186821,-76.9230769230769,4,2,99,5,0,1
186898,-76.9230769230769,4,2,99,95,0,1
187590,-76.9230769230769,4,2,99,5,0,1
187667,-76.9230769230769,4,2,99,95,0,1
188052,-76.9230769230769,4,2,99,5,0,1
188129,-76.9230769230769,4,2,99,95,0,1
188590,-90.9090909090909,4,2,99,95,0,1
189821,-200,4,2,99,95,0,1
190898,-200,4,2,99,5,0,1
191205,-133.333333333333,4,2,27,95,0,0
191667,-133.333333333333,4,2,26,50,0,0
192129,-133.333333333333,4,2,27,50,0,0
192590,-133.333333333333,4,2,26,50,0,0
193052,-133.333333333333,4,2,27,50,0,0
193359,-133.333333333333,4,2,26,50,0,0
193513,-133.333333333333,4,2,99,50,0,0
193667,-133.333333333333,4,2,27,50,0,0
194129,-133.333333333333,4,2,26,50,0,0
194590,-133.333333333333,4,2,27,50,0,0
195052,-133.333333333333,4,2,26,50,0,0
195513,-133.333333333333,4,2,27,50,0,0
195821,-133.333333333333,4,2,26,50,0,0
196590,-133.333333333333,4,2,24,50,0,0
197052,-133.333333333333,4,2,14,50,0,0
198590,-133.333333333333,4,2,26,60,0,0
199052,-133.333333333333,4,2,27,60,0,0
199513,-133.333333333333,4,2,37,60,0,0
199821,-133.333333333333,4,2,99,60,0,0
208436,-100,4,2,99,75,0,0
210898,-66.6666666666667,4,2,3,85,0,1
211205,-66.6666666666667,4,2,12,85,0,1
211411,-66.6666666666667,4,2,13,85,0,1
211513,-66.6666666666667,4,2,12,85,0,1
211616,-66.6666666666667,4,2,14,85,0,1
211718,-66.6666666666667,4,2,15,85,0,1
211821,-66.6666666666667,4,2,16,85,0,1
211923,-66.6666666666667,4,2,17,85,0,1
212026,-66.6666666666667,4,2,18,85,0,1
212129,-66.6666666666667,4,2,19,85,0,1
212231,-66.6666666666667,4,2,20,85,0,1
212334,-66.6666666666667,4,2,21,85,0,1
212436,-66.6666666666667,4,2,22,85,0,1
212539,-66.6666666666667,4,2,23,85,0,1
212641,-66.6666666666667,4,2,17,85,0,1
212744,-66.6666666666667,4,2,18,85,0,1
212846,-66.6666666666667,4,2,24,85,0,1
212949,-66.6666666666667,4,2,25,85,0,1
213052,-66.6666666666667,4,2,14,85,0,1
213154,-66.6666666666667,4,2,26,85,0,1
213359,-76.9230769230769,4,2,4,85,0,1
213590,-76.9230769230769,4,2,4,5,0,1
213667,-76.9230769230769,4,2,4,85,0,1
213821,-76.9230769230769,4,2,5,85,0,1
214052,-76.9230769230769,4,2,5,5,0,1
214129,-76.9230769230769,4,2,5,85,0,1
214282,-76.9230769230769,4,2,6,85,0,1
214513,-76.9230769230769,4,2,6,5,0,1
214590,-76.9230769230769,4,2,6,85,0,1
214744,-76.9230769230769,4,2,5,85,0,1
214975,-76.9230769230769,4,2,5,5,0,1
215052,-76.9230769230769,4,2,5,85,0,1
215205,-100,4,2,18,85,0,1
215308,-100,4,2,24,85,0,1
215411,-100,4,2,18,85,0,1
215513,-100,4,2,17,85,0,1
215616,-100,4,2,23,85,0,1
215718,-100,4,2,21,85,0,1
215821,-76.9230769230769,4,2,8,85,0,1
216282,-76.9230769230769,4,2,9,85,0,1
216667,-76.9230769230769,4,2,15,85,0,1
216821,-76.9230769230769,4,2,15,85,0,1
216898,-76.9230769230769,4,2,10,85,0,1
216975,-76.9230769230769,4,2,10,85,0,1
217052,-76.9230769230769,4,2,10,85,0,1
217205,-76.9230769230769,4,2,10,5,0,1
217282,-76.9230769230769,4,2,14,85,0,1
217436,-76.9230769230769,4,2,14,85,0,1
217513,-76.9230769230769,4,2,26,85,0,1
217590,-76.9230769230769,4,2,26,85,0,1
217667,-76.9230769230769,4,2,26,85,0,1
217898,-76.9230769230769,4,2,24,85,0,1
218052,-76.9230769230769,4,2,24,5,0,1
218129,-76.9230769230769,4,2,27,85,0,1
218282,-76.9230769230769,4,2,11,85,0,1
218590,-76.9230769230769,4,2,12,85,0,1
218744,-76.9230769230769,4,2,11,85,0,1
219052,-76.9230769230769,4,2,12,85,0,1
219205,-76.9230769230769,4,2,10,85,0,1
219513,-76.9230769230769,4,2,26,85,0,1
219590,-76.9230769230769,4,2,14,85,0,1
219667,-76.9230769230769,4,2,25,85,0,1
219744,-76.9230769230769,4,2,15,85,0,1
219821,-76.9230769230769,4,2,24,85,0,1
219898,-76.9230769230769,4,2,16,85,0,1
219975,-76.9230769230769,4,2,18,85,0,1
220052,-76.9230769230769,4,2,17,85,0,1
220129,-76.9230769230769,4,2,22,85,0,1
220205,-76.9230769230769,4,2,23,85,0,1
220282,-76.9230769230769,4,2,17,85,0,1
220436,-76.9230769230769,4,2,19,85,0,1
220475,-76.9230769230769,4,2,20,85,0,1
220513,-76.9230769230769,4,2,29,85,0,1
220552,-76.9230769230769,4,2,21,85,0,1
220590,-76.9230769230769,4,2,28,85,0,1
220629,-76.9230769230769,4,2,22,85,0,1
220667,-76.9230769230769,4,2,23,85,0,1
220705,-76.9230769230769,4,2,17,85,0,1
220744,-100,4,2,99,85,0,1
233052,-76.9230769230769,4,2,99,85,0,1
234359,-76.9230769230769,4,2,99,5,0,1
234436,-76.9230769230769,4,2,99,85,0,1
235513,-100,4,2,99,85,0,0
236667,-100,4,2,99,5,0,0
236744,-100,4,2,99,85,0,0
236975,-100,4,2,99,5,0,0
237052,-100,4,2,99,85,0,0
238205,-100,4,2,99,5,0,0
238282,-100,4,2,99,85,0,0
239129,-100,4,2,99,5,0,0
239205,-100,4,2,99,85,0,0
240667,-100,4,2,99,5,0,0
240744,-100,4,2,99,85,0,0
245359,-250,4,2,99,60,0,0
246205,-250,4,2,99,5,0,0
246282,-250,4,2,99,60,0,0
246513,-250,4,2,99,5,0,0
246590,-250,4,2,99,60,0,0
247821,-200,4,2,99,60,0,0
249975,-100,4,2,99,60,0,0
250205,-100,4,2,99,5,0,0
250282,-100,4,2,99,75,0,0
254282,-100,4,2,99,85,0,0
256282,-200,4,2,99,75,0,0
256436,-100,4,2,99,75,0,0
258897,-200,4,2,99,75,0,0
260128,-100,4,2,99,75,0,0
260628,-100,4,2,99,5,0,0
261051,-100,4,2,99,75,0,0
261089,-100,4,2,99,5,0,0
261359,-200,4,2,99,75,0,0
265051,-100,4,2,30,75,0,0
265128,-100,4,2,19,75,0,0
265205,-100,4,2,20,75,0,0
265282,-100,4,2,29,75,0,0
265359,-100,4,2,20,75,0,0
265436,-100,4,2,29,75,0,0
265512,-100,4,2,21,75,0,0
265589,-100,4,2,22,75,0,0
265666,-100,4,2,19,75,0,0
265820,-100,4,2,20,75,0,0
265974,-100,4,2,21,75,0,0
266128,-100,4,2,29,75,0,0
266205,-100,4,2,99,75,0,0
266282,-100,4,2,99,75,0,0
270589,-76.9230769230769,4,2,99,75,0,0
270821,-76.9230769230769,4,2,99,5,0,0
270898,-76.9230769230769,4,2,99,75,0,0
271129,-76.9230769230769,4,2,99,5,0,0
271205,-100,4,2,23,75,0,0
271512,-100,4,2,23,50,0,0
271666,-100,4,2,31,50,0,0
271820,-100,4,2,31,55,0,0
272128,-100,4,2,32,60,0,0
272436,-100,4,2,32,65,0,0
272743,-100,4,2,32,70,0,0
272897,-100,4,2,22,70,0,0
272974,-100,4,2,99,70,0,0
273051,-100,4,2,29,75,0,0
273128,-100,4,2,20,75,0,0
273205,-100,4,2,19,75,0,0
273282,-100,4,2,30,75,0,0
273359,-100,4,2,33,80,0,0
273436,-100,4,2,34,80,0,0
273512,-100,4,2,35,80,0,0
273589,-100,4,2,99,80,0,0
273666,-100,4,2,99,85,0,0
275205,-100,4,2,99,85,0,0
275975,-76.9230769230769,4,2,99,95,0,1
276205,-76.9230769230769,4,2,99,5,0,1
276282,-90.9090909090909,4,2,99,95,0,1
277205,-76.9230769230769,4,2,99,95,0,1
277436,-90.9090909090909,4,2,99,5,0,1
277513,-90.9090909090909,4,2,99,95,0,1
279898,-90.9090909090909,4,2,99,5,0,1
279975,-90.9090909090909,4,2,99,95,0,1
280898,-76.9230769230769,4,2,99,95,0,1
281129,-76.9230769230769,4,2,99,5,0,1
281205,-90.9090909090909,4,2,99,95,0,1
282129,-76.9230769230769,4,2,99,95,0,1
282359,-76.9230769230769,4,2,99,5,0,1
282436,-90.9090909090909,4,2,99,95,0,1
290744,-76.9230769230769,4,2,99,95,0,1
290975,-76.9230769230769,4,2,99,5,0,1
291052,-76.9230769230769,4,2,99,95,0,1
291205,-76.9230769230769,4,2,99,95,0,1
291436,-76.9230769230769,4,2,99,5,0,1
291513,-76.9230769230769,4,2,99,95,0,1
292205,-76.9230769230769,4,2,99,5,0,1
292282,-76.9230769230769,4,2,99,95,0,1
292667,-76.9230769230769,4,2,99,5,0,1
292744,-76.9230769230769,4,2,99,95,0,1
293436,-76.9230769230769,4,2,99,5,0,1
293513,-76.9230769230769,4,2,99,95,0,1
294436,-83.3333333333333,4,2,99,95,0,1
295052,-76.9230769230769,4,2,99,95,0,1
295667,-76.9230769230769,4,2,99,95,0,1
295898,-76.9230769230769,4,2,99,5,0,1
295975,-76.9230769230769,4,2,99,95,0,1
298129,-90.9090909090909,4,2,99,95,0,1
299359,-250,4,2,99,95,0,1
300744,-100,4,2,99,85,0,0
311129,-100,4,2,99,5,0,0
311205,-100,4,2,99,85,0,0
321051,-250,4,2,36,85,0,0
321129,-250,4,2,36,5,0,0
327821,-250,4,2,99,30,0,0

[Colours]
Combo1 : 37,226,170
Combo2 : 152,250,165
Combo3 : 252,153,148
Combo4 : 168,228,239

[HitObjects]
256,192,4129,5,2,0:0:0:0:
256,192,4206,12,0,8899,0:0:0:0:
512,134,9052,6,0,P|450:114|406:161,1,135.000005149842,6|0,1:2|1:0,0:0:0:0:
303,151,9513,2,0,L|314:217,1,67.5000025749208,2|0,0:0|1:0,0:0:0:0:
422,286,9821,1,0,0:0:0:0:
422,286,9975,6,0,B|352:266|365:325|295:307,1,135.000005149842,2|0,1:2|1:0,0:0:0:0:
194,383,10436,2,0,L|205:316,1,67.5000025749208,2|0,0:0|1:0,0:0:0:0:
93,240,10744,1,0,0:0:0:0:
93,240,10898,2,0,P|125:247|158:240,1,67.5000025749208,2|0,1:2|0:0,0:0:0:0:
41,162,11205,1,2,1:2:0:0:
0,244,11359,1,2,0:0:0:0:
126,159,11513,6,0,L|102:26,1,135.000005149842,2|0,1:2|1:0,0:0:0:0:
222,136,11975,2,0,L|233:69,1,67.5000025749208,2|0,0:0|1:0,0:0:0:0:
355,27,12282,1,0,0:0:0:0:
355,27,12436,6,0,B|377:5|377:5|428:43|393:98,1,135.000005149842,2|0,1:2|1:0,0:0:0:0:
307,183,12898,2,0,P|339:175|372:182,1,67.5000025749208,2|0,0:0|1:0,0:0:0:0:
442,275,13205,1,0,0:0:0:0:
442,275,13359,2,0,L|375:286,1,67.5000025749208,2|0,1:2|0:0,0:0:0:0:
362,290,13590,1,2,0:0:0:0:
348,293,13667,1,2,1:2:0:0:
276,356,13821,1,0,0:0:0:0:
177,279,13975,6,0,L|200:146,1,135.000005149842,6|0,1:2|1:0,0:0:0:0:
281,61,14436,2,0,P|248:68|215:61,1,67.5000025749208,2|0,0:0|1:0,0:0:0:0:
108,0,14744,1,0,0:0:0:0:
30,72,14898,5,2,1:2:0:0:
30,72,15052,2,0,L|41:138,1,67.5000025749208,2|0,0:0|1:0,0:0:0:0:
180,200,15359,2,0,P|187:167|179:134,1,67.5000025749208,2|0,0:0|1:0,0:0:0:0:
49,224,15667,1,2,0:0:0:0:
49,224,15821,2,0,P|73:246|105:256,1,67.5000025749208,2|0,1:2|0:0,0:0:0:0:
216,346,16129,2,0,P|240:323|272:313,1,67.5000025749208,2|8,1:2|0:0,0:0:0:0:
349,336,16359,1,8,0:0:0:0:
361,340,16436,6,0,P|407:295|388:234,1,135.000005149842,6|2,1:2|1:2,0:0:0:0:
204,108,16898,5,2,1:2:0:0:
290,123,17051,5,10,1:2:0:0:
376,138,17205,5,10,1:2:0:0:
175,19,17359,5,10,1:2:0:0:
258,233,17513,1,10,1:2:0:0:
363,30,17667,1,6,1:2:0:0:
139,202,17821,6,0,P|162:203|183:210,1,45,10|8,0:0|0:0,0:0:0:0:
376,138,17975,5,10,0:0:0:0:
338,182,18051,1,8,0:0:0:0:
341,238,18128,1,10,0:0:0:0:
382,278,18205,1,8,0:0:0:0:
439,283,18282,5,10,0:3:0:0:
442,260,18358,1,8,0:3:0:0:
446,238,18435,1,6,0:3:0:0:
450,216,18512,1,4,0:3:0:0:
454,194,18590,2,0,L|462:150,1,45,10|0,1:2|0:0,0:0:0:0:
4,19,18898,5,14,0:2:0:0:
127,230,19052,1,0,1:2:0:0:
204,0,19205,1,0,1:2:0:0:
0,154,19359,2,0,P|42:142|88:139,1,90,14|0,0:0|1:2,0:0:0:0:
295,261,19667,1,0,1:2:0:0:
231,119,19821,5,14,0:0:0:0:
216,205,19974,5,0,1:2:0:0:
201,291,20128,5,0,1:2:0:0:
366,151,20282,5,14,0:0:0:0:
127,230,20436,1,0,1:2:0:0:
349,335,20590,1,0,1:2:0:0:
222,74,20744,6,0,L|230:118,1,45,10|2,0:0|0:0,0:0:0:0:
432,254,20898,2,0,L|440:210,1,45,2|2,1:2|0:0,0:0:0:0:
303,24,21052,6,0,L|311:68,1,45,10|0,0:0|1:0,0:0:0:0:
127,230,21205,2,0,L|135:186,1,45,2|2,1:2|1:2,0:0:0:0:
262,384,21359,5,14,0:0:0:0:
45,250,21513,1,0,1:2:0:0:
294,187,21667,1,0,1:2:0:0:
148,356,21821,2,0,L|133:267,1,90,14|0,0:0|1:2,0:0:0:0:
112,28,22129,1,0,1:2:0:0:
229,135,22282,5,14,0:0:0:0:
143,120,22435,5,0,1:2:0:0:
57,105,22589,5,0,1:2:0:0:
205,0,22744,5,14,0:0:0:0:
316,151,22897,1,0,1:2:0:0:
167,263,23052,1,0,1:2:0:0:
205,0,23205,6,0,L|213:44,1,45,10|2,0:0|0:0,0:0:0:0:
387,182,23359,2,0,L|379:226,1,45,2|2,1:2|0:0,0:0:0:0:
331,0,23513,6,0,L|323:44,1,45,10|0,0:0|1:2,0:0:0:0:
158,218,23667,2,0,L|166:262,1,45,2|0,1:2|1:2,0:0:0:0:
484,376,23821,5,14,0:0:0:0:
367,164,23975,1,0,1:2:0:0:
258,373,24129,1,0,1:2:0:0:
480,268,24282,2,0,P|436:255|391:253,1,90,14|0,0:0|1:2,0:0:0:0:
170,207,24590,1,0,1:2:0:0:
234,65,24744,5,14,0:0:0:0:
249,151,24897,5,0,1:2:0:0:
264,237,25051,5,0,1:2:0:0:
100,96,25205,5,14,0:0:0:0:
342,182,25359,1,0,1:2:0:0:
114,303,25513,1,0,1:2:0:0:
234,65,25667,5,10,0:0:0:0:
329,315,25821,1,2,1:2:0:0:
334,45,25975,6,0,L|326:89,1,45,10|2,0:0|1:2,0:0:0:0:
204,338,26129,2,0,L|196:294,1,45,2|2,1:2|1:2,0:0:0:0:
55,87,26282,6,0,P|77:92|99:95,1,45,6|0,1:2|1:2,0:0:0:0:
264,237,26436,5,0,1:2:0:0:
308,229,26512,1,8,0:3:0:0:
352,222,26589,1,8,0:3:0:0:
397,214,26666,1,8,0:3:0:0:
441,207,26744,2,0,P|466:200|485:199,1,45,6|0,1:2|1:2,0:0:0:0:
233,20,26898,5,8,0:0:0:0:
200,34,26974,1,8,0:3:0:0:
179,63,27051,1,8,0:3:0:0:
176,99,27128,1,4,0:3:0:0:
190,131,27205,5,10,0:0:0:0:
199,74,27282,1,8,0:0:0:0:
168,27,27359,1,8,0:0:0:0:
112,13,27436,1,8,0:0:0:0:
63,42,27513,2,0,L|71:86,1,45,8|8,0:3|0:3,0:0:0:0:
0,332,27667,5,10,0:3:0:0:
22,329,27743,1,8,0:3:0:0:
44,325,27820,1,8,0:3:0:0:
66,321,27897,1,8,0:3:0:0:
86,295,27975,5,0,1:2:0:0:
108,298,28051,1,0,1:2:0:0:
130,302,28128,1,10,0:3:0:0:
152,306,28205,1,8,0:3:0:0:
174,309,28282,2,0,P|197:311|218:317,1,45,6|6,0:3|0:3,0:0:0:0:
492,307,28436,5,10,0:0:0:0:
428,354,28512,1,10,0:0:0:0:
350,344,28589,1,10,0:0:0:0:
299,283,28666,1,10,0:0:0:0:
305,205,28743,5,6,1:2:0:0:
512,74,29052,2,0,P|484:114|401:110,1,135,8|0,0:0|0:0,0:0:0:0:
363,42,29359,1,0,1:2:0:0:
276,196,29513,2,0,L|265:130,1,67.5000025749208,0|2,1:2|0:0,0:0:0:0:
147,5,29821,6,0,B|77:-15|90:44|20:26,1,135.000005149842,10|2,0:0|1:2,0:0:0:0:
133,91,30282,2,0,B|203:73|190:132|260:112,1,135.000005149842,8|0,0:0|1:2,0:0:0:0:
260,111,30744,1,2,1:2:0:0:
162,277,30898,2,0,L|145:178,1,101.250003862381,8|0,0:0|0:0,0:0:0:0:
133,91,31205,5,4,1:2:0:0:
0,308,31513,6,0,B|80:293|80:293|85:326|111:342,1,135,10|0,0:0|0:0,0:0:0:0:
182,358,31821,1,0,1:2:0:0:
304,234,31975,2,0,P|271:226|238:233,1,67.5000025749208,0|0,1:2|0:0,0:0:0:0:
368,382,32282,6,0,L|390:248,1,135.000005149842,8|0,0:0|1:2,0:0:0:0:
465,304,32744,2,0,L|453:370,1,67.5000025749208,10|2,0:0|0:0,0:0:0:0:
359,160,33052,1,2,1:2:0:0:
474,213,33205,1,2,1:2:0:0:
299,316,33359,2,0,L|282:216,1,101.250003862381,8|0,0:0|0:0,0:0:0:0:
266,118,33667,5,4,1:2:0:0:
34,50,33975,2,0,B|115:37|115:37|141:60|110:98,1,135,8|0,0:0|0:0,0:0:0:0:
55,131,34282,1,0,1:2:0:0:
187,249,34436,2,0,L|199:183,1,67.5000025749208,0|2,1:2|0:0,0:0:0:0:
244,25,34744,6,0,B|293:18|293:18|322:39|322:39|371:31,1,135.000005149842,8|0,0:0|1:2,0:0:0:0:
484,112,35205,2,0,B|435:105|435:105|406:126|406:126|356:118,1,135.000005149842,10|2,0:0|1:2,0:0:0:0:
356,118,35667,1,2,1:2:0:0:
484,252,35821,2,0,P|457:209|393:219,1,101.250003862381,8|0,0:0|0:0,0:0:0:0:
344,258,36129,5,4,1:2:0:0:
217,117,36436,2,0,B|234:207|234:207|190:176,1,135,8|0,0:0|0:0,0:0:0:0:
135,134,36744,1,0,1:2:0:0:
99,276,36898,2,0,P|131:283|164:277,1,67.5000025749208,0|2,1:2|0:0,0:0:0:0:
74,196,37205,6,0,P|22:235|28:322,1,135.000005149842,8|2,0:0|1:2,0:0:0:0:
154,384,37667,2,0,L|166:318,1,67.5000025749208,8|2,0:0|1:2,0:0:0:0:
232,265,37898,1,2,0:0:0:0:
244,259,37975,2,0,P|265:261|288:267,1,45,0|0,1:2|1:2,0:0:0:0:
372,329,38129,2,0,P|398:323|416:321,1,45,10|8,0:0|0:0,0:0:0:0:
512,141,38282,5,10,0:0:0:0:
470,116,38358,1,8,0:0:0:0:
423,115,38435,1,8,0:0:0:0:
381,137,38512,1,8,0:0:0:0:
355,175,38590,6,0,P|300:188|235:101,1,148.50000453186,4|0,1:2|0:0,0:0:0:0:
170,79,38898,2,0,L|183:-1,1,80.9999975280763,8|0,0:0|0:0,0:0:0:0:
48,167,39205,2,0,L|34:87,1,80.9999975280763,0|0,1:2|0:0,0:0:0:0:
238,208,39513,5,10,0:0:0:0:
65,306,39667,1,2,0:0:0:0:
136,188,39821,5,2,1:2:0:0:
223,341,39975,2,0,P|183:343|143:354,1,80.9999975280763,2|8,0:0|0:0,0:0:0:0:
318,273,40282,2,0,P|340:305|339:345,1,80.9999975280763,2|0,0:0|1:2,0:0:0:0:
222,214,40590,2,0,P|238:177|274:159,1,80.9999975280763,2|8,0:0|0:0,0:0:0:0:
381,85,40898,1,2,0:0:0:0:
381,85,40975,1,2,0:0:0:0:
381,85,41052,6,0,P|341:81|301:71,1,80.9999975280763,0|2,1:2|0:0,0:0:0:0:
345,245,41359,2,0,B|425:231|425:231|430:234|430:234|505:223,2,161.999995056153,10|0|8,0:0|1:2|0:0,0:0:0:0:
99,383,42282,6,0,L|85:303,1,80.9999975280763,0|0,1:2|0:0,0:0:0:0:
211,197,42590,5,8,0:0:0:0:
177,286,42744,1,2,0:0:0:0:
71,163,42898,5,2,1:2:0:0:
264,272,43052,1,10,0:0:0:0:
238,107,43205,5,0,1:2:0:0:
87,303,43359,1,10,0:0:0:0:
12,63,43513,6,0,B|89:43|74:108|152:87,1,148.50000453186,4|0,1:2|0:0,0:0:0:0:
238,107,43821,2,0,L|251:27,1,80.9999975280763,8|0,0:0|0:0,0:0:0:0:
424,154,44129,2,0,L|410:74,1,80.9999975280763,0|0,1:2|0:0,0:0:0:0:
224,186,44436,5,10,0:0:0:0:
357,255,44590,1,2,0:0:0:0:
187,357,44744,6,0,P|173:320|185:282,1,80.9999975280763,2|0,1:2|0:0,0:0:0:0:
318,162,45052,1,10,0:0:0:0:
238,107,45205,2,0,L|224:187,1,80.9999975280763,2|0,0:0|1:2,0:0:0:0:
410,74,45513,2,0,L|424:154,1,80.9999975280763,2|8,0:0|0:0,0:0:0:0:
512,307,45821,1,2,0:0:0:0:
512,307,45898,1,2,0:0:0:0:
512,307,45975,6,0,B|477:265|430:291|430:291|416:322|382:334,1,148.50000453186,0|0,1:2|0:0,0:0:0:0:
357,255,46282,2,0,P|318:244|277:240,1,80.9999975280763,8|0,0:0|0:0,0:0:0:0:
118,135,46590,2,0,P|158:131|197:120,1,80.9999975280763,2|0,1:2|0:0,0:0:0:0:
158,344,46898,2,0,L|144:264,1,80.9999975280763,12|0,0:0|0:0,0:0:0:0:
288,94,47205,5,10,0:0:0:0:
274,173,47282,1,8,0:0:0:0:
260,253,47359,1,8,0:0:0:0:
215,33,47513,5,0,1:2:0:0:
377,144,47667,5,8,0:3:0:0:
367,199,47744,1,8,0:3:0:0:
357,255,47821,1,10,0:3:0:0:
299,0,47975,5,0,1:2:0:0:
463,177,48129,5,8,0:3:0:0:
455,218,48206,1,4,0:3:0:0:
448,260,48283,1,4,0:3:0:0:
369,58,48436,5,14,0:2:0:0:
109,158,48590,1,2,1:2:0:0:
357,255,48744,1,10,0:0:0:0:
215,33,48898,6,0,B|166:-2|166:-2|196:136,1,180,14|0,0:2|1:2,0:0:0:0:
30,255,49359,2,0,P|71:240|113:254,1,90,10|0,0:0|1:2,0:0:0:0:
271,372,49667,5,14,0:2:0:0:
189,201,49821,1,10,0:2:0:0:
70,371,49976,5,0,1:2:0:0:
180,321,50129,1,2,1:2:0:0:
271,166,50282,5,10,0:2:0:0:
363,231,50436,1,2,1:2:0:0:
273,263,50590,5,10,0:3:0:0:
273,263,50744,1,4,0:3:0:0:
486,91,50898,5,14,0:2:0:0:
362,323,51052,1,2,1:2:0:0:
271,71,51205,1,10,0:0:0:0:
512,180,51359,2,0,B|418:155|435:234|341:208,1,180,14|2,0:2|1:2,0:0:0:0:
99,101,51821,5,10,0:0:0:0:
185,86,51974,5,0,1:2:0:0:
271,71,52128,5,8,0:2:0:0:
111,238,52282,6,0,B|57:231|16:221|16:221|-26:260|7:300,1,180,8|0,0:2|1:2,0:0:0:0:
271,372,52744,5,10,0:2:0:0:
180,173,52898,1,0,1:2:0:0:
61,354,53052,2,0,P|102:368|144:354,1,90,8|0,0:3|0:0,0:0:0:0:
93,116,53359,6,0,B|43:163|43:163|93:262,1,180,6|2,1:2|0:0,0:0:0:0:
93,262,53821,1,2,1:2:0:0:
267,157,53975,2,0,P|225:159|178:172,1,90,8|2,0:0|0:0,0:0:0:0:
289,295,54282,5,2,1:2:0:0:
341,224,54436,1,8,0:0:0:0:
179,172,54590,5,2,1:2:0:0:
391,378,54744,2,0,L|406:289,1,90,8|2,0:0|0:0,0:0:0:0:
278,78,55052,5,2,1:2:0:0:
254,116,55129,1,0,1:2:0:0:
268,157,55205,5,8,0:0:0:0:
387,8,55359,1,2,1:2:0:0:
427,190,55513,5,2,0:0:0:0:
253,0,55667,1,0,1:2:0:0:
116,103,55821,6,0,L|147:280,1,180,6|2,1:2|0:0,0:0:0:0:
147,280,56282,1,2,1:2:0:0:
0,60,56436,5,10,0:0:0:0:
268,157,56590,1,2,1:2:0:0:
10,280,56744,1,8,0:0:0:0:
222,81,56898,6,0,B|301:66|301:66|311:95|339:106,1,135,6|0,1:2|0:0,0:0:0:0:
380,36,57205,1,0,1:2:0:0:
181,160,57359,1,8,0:0:0:0:
397,236,57513,5,8,0:3:0:0:
422,198,57590,1,8,0:3:0:0:
408,157,57666,5,8,0:3:0:0:
252,214,57821,1,8,0:3:0:0:
248,330,57975,5,6,0:3:0:0:
400,380,58129,1,6,0:3:0:0:
407,255,58282,6,0,B|351:225|309:271|309:271|294:321|244:332,1,198,6|0,1:2|0:0,0:0:0:0:
188,268,59205,2,0,P|162:260|135:259,1,54,2|0,0:0|0:0,0:0:0:0:
78,199,59513,6,0,L|100:332,2,135,2|2|2,0:0|0:0|0:0,0:0:0:0:
0,154,60590,1,2,0:0:0:0:
0,154,60667,1,2,0:0:0:0:
0,154,60744,6,0,P|75:153|98:49,1,180,2|0,0:0|0:0,0:0:0:0:
105,64,61667,5,2,0:0:0:0:
242,0,61975,2,0,B|304:19|304:19|328:60|328:60|392:79,1,180,2|2,0:0|0:0,0:0:0:0:
512,274,63052,1,2,0:0:0:0:
512,274,63129,1,2,0:0:0:0:
512,274,63205,6,0,P|474:221|410:226,1,135,6|0,1:2|0:0,0:0:0:0:
355,284,63513,5,0,1:2:0:0:
201,167,63667,1,8,1:2:0:0:
333,141,63821,5,8,1:2:0:0:
144,235,63975,1,8,1:2:0:0:
162,65,64129,5,8,1:2:0:0:
220,273,64282,1,8,1:2:0:0:
56,256,64436,5,8,1:2:0:0:
275,208,64590,1,8,1:2:0:0:
84,85,64744,5,10,1:2:0:0:
144,337,64898,1,8,1:2:0:0:
381,71,65052,5,10,1:2:0:0:
304,347,65205,1,8,1:2:0:0:
306,30,65359,5,8,1:2:0:0:
449,309,65513,1,10,1:2:0:0:
76,188,65667,5,12,1:2:0:0:
391,31,65821,2,0,L|383:75,1,45,8|8,0:2|0:2,0:0:0:0:
482,232,65975,5,0,1:2:0:0:
428,227,66051,1,0,1:2:0:0:
384,257,66128,1,8,0:3:0:0:
371,308,66205,1,8,0:3:0:0:
394,356,66282,5,8,0:3:0:0:
396,320,66359,1,8,0:3:0:0:
382,288,66436,1,0,1:2:0:0:
353,266,66513,1,0,1:2:0:0:
318,261,66590,6,0,P|295:263|274:269,1,45,8|8,0:3|0:3,0:0:0:0:
127,158,66744,2,0,P|104:159|82:166,1,45,4|4,0:3|0:3,0:0:0:0:
180,366,66898,5,8,0:2:0:0:
190,290,66974,1,8,0:2:0:0:
200,214,67051,1,8,0:2:0:0:
210,138,67128,1,8,0:2:0:0:
221,62,67205,5,8,0:2:0:0:
319,343,67359,1,8,0:2:0:0:
512,122,67975,6,0,B|470:71|413:102|413:102|403:139|374:152,1,175.499991966248,6|0,1:2|0:0,0:0:0:0:
333,80,68282,1,2,1:2:0:0:
467,309,68436,2,0,P|482:262|466:216,1,99.0000030212403,10|0,0:0|0:0,0:0:0:0:
244,43,68744,1,2,1:2:0:0:
386,266,68898,1,0,1:2:0:0:
465,51,69052,1,10,0:0:0:0:
250,226,69205,6,0,B|183:214|183:214|148:239|148:239|84:226,1,175.499991966248,2|0,1:2|0:0,0:0:0:0:
1,206,69513,1,0,1:2:0:0:
108,0,69667,2,0,L|124:97,1,99.0000030212403,10|0,0:0|0:0,0:0:0:0:
327,342,69975,1,2,1:2:0:0:
213,128,70129,1,2,1:2:0:0:
76,309,70282,1,8,0:0:0:0:
320,141,70436,6,0,B|372:108|372:108|346:252,1,198.000006042481,6|0,1:2|1:2,0:0:0:0:
115,225,70898,2,0,P|164:222|211:208,1,99.0000030212403,10|0,0:0|0:0,0:0:0:0:
403,316,71205,5,2,1:2:0:0:
211,207,71359,1,0,1:2:0:0:
321,367,71512,1,10,0:0:0:0:
458,135,71667,6,0,L|482:281,1,148.50000453186,6|0,1:2|0:0,0:0:0:0:
496,368,71975,1,0,1:2:0:0:
293,223,72129,5,8,0:0:0:0:
379,182,72282,1,0,1:2:0:0:
221,352,72436,5,10,0:3:0:0:
130,149,72590,1,10,0:0:0:0:
168,125,72667,1,8,0:0:0:0:
209,139,72743,5,8,0:0:0:0:
48,219,72898,6,0,B|-1:165|-1:165|48:75,1,175.499991966248,6|0,1:2|0:0,0:0:0:0:
91,2,73205,1,2,1:2:0:0:
193,236,73359,2,0,L|209:139,1,99.0000030212403,10|0,0:0|0:0,0:0:0:0:
442,100,73667,1,2,1:2:0:0:
278,200,73821,1,0,1:2:0:0:
408,16,73975,1,10,0:0:0:0:
467,256,74129,6,0,B|364:236|364:236|351:274|317:287,1,175.499991966248,2|0,1:2|0:0,0:0:0:0:
278,200,74436,1,2,0:0:0:0:
113,373,74590,2,0,P|97:326|112:280,1,99.0000030212403,10|0,0:0|0:0,0:0:0:0:
292,105,74898,1,2,1:2:0:0:
27,197,75052,1,2,1:2:0:0:
197,330,75205,1,8,0:0:0:0:
118,95,75359,6,0,B|87:56|33:54|-2:98|-2:98|35:81|76:109,1,198.000006042481,6|0,1:2|1:2,0:0:0:0:
197,232,75821,2,0,P|244:218|293:215,1,99.0000030212403,10|0,0:0|0:0,0:0:0:0:
455,37,76129,5,2,1:2:0:0:
286,127,76282,1,0,1:2:0:0:
448,218,76436,1,10,0:0:0:0:
306,16,76590,1,6,1:2:0:0:
184,243,76744,5,2,1:2:0:0:
137,229,76820,1,2,0:0:0:0:
108,189,76897,1,2,1:2:0:0:
110,141,76974,1,10,0:0:0:0:
141,104,77052,5,10,0:0:0:0:
152,151,77128,1,2,0:0:0:0:
136,197,77205,1,2,1:2:0:0:
98,227,77282,1,10,0:0:0:0:
49,230,77359,6,0,P|25:223|0:221,1,49.5000015106202,10|8,0:0|0:0,0:0:0:0:
231,119,77513,2,0,P|254:112|279:110,1,49.5000015106202,10|8,0:3|0:3,0:0:0:0:
48,23,77667,2,0,P|24:16|0:14,1,49.5000015106202,6|4,0:3|0:3,0:0:0:0:
228,209,77821,6,0,P|313:188|400:180,1,175.499991966248,6|0,1:2|0:0,0:0:0:0:
490,178,78129,1,0,1:2:0:0:
345,366,78282,2,0,P|308:332|299:284,1,99.0000030212403,8|0,0:0|0:0,0:0:0:0:
425,79,78590,2,0,P|414:127|377:159,1,99.0000030212403,2|0,1:2|0:0,0:0:0:0:
150,54,78898,1,8,0:0:0:0:
239,13,79052,1,2,0:0:0:0:
239,13,79129,1,2,0:0:0:0:
239,13,79205,6,0,B|245:71|263:118|263:118|219:159|180:129,2,198.000006042481,0|8|2,1:2|0:0|1:2,0:0:0:0:
157,384,80129,1,10,0:0:0:0:
27,210,80282,6,0,B|130:182|111:269|214:241,1,198.000006042481,6|0,1:2|0:0,0:0:0:0:
261,83,80744,2,0,P|213:93|181:130,1,99.0000030212403,8|0,0:0|0:0,0:0:0:0:
391,302,81052,2,0,L|407:205,1,99.0000030212403,2|0,1:2|0:0,0:0:0:0:
230,338,81359,2,0,L|214:241,1,99.0000030212403,8|0,0:0|0:0,0:0:0:0:
386,36,81667,6,0,B|420:-4|477:-3|512:42|512:42|460:88,2,198.000006042481,2|8|2,1:2|0:0|1:2,0:0:0:0:
131,205,82436,1,8,0:0:0:0:
284,42,82590,1,8,0:0:0:0:
292,95,82666,1,8,0:0:0:0:
301,149,82743,1,8,0:0:0:0:
310,203,82820,1,8,0:0:0:0:
319,256,82898,6,0,B|216:236|216:236|203:274|170:287,1,175.499991966248,6|0,1:2|0:0,0:0:0:0:
131,205,83205,1,8,0:0:0:0:
0,24,83359,6,0,P|6:88|110:109,1,175.499991966248,6|0,0:0|0:0,0:0:0:0:
166,64,83667,1,0,1:2:0:0:
260,328,83821,1,10,0:0:0:0:
405,92,83975,1,4,0:3:0:0:
397,83,84052,1,4,0:3:0:0:
389,74,84129,6,0,B|336:33|288:76|288:76|286:115|261:134,1,175.499991966248,6|0,1:2|0:0,0:0:0:0:
194,72,84436,1,8,0:0:0:0:
450,320,84590,5,2,1:2:0:0:
455,305,84667,1,2,0:0:0:0:
453,283,84744,1,2,0:0:0:0:
435,261,84821,1,2,0:0:0:0:
402,248,84898,1,2,1:2:0:0:
361,259,84975,1,2,0:0:0:0:
336,296,85052,1,10,0:0:0:0:
290,337,85129,1,2,0:0:0:0:
206,326,85205,1,2,1:2:0:0:
156,248,85282,1,2,0:0:0:0:
176,158,85359,5,14,0:0:0:0:
377,372,85513,1,0,1:2:0:0:
61,243,85667,1,0,1:2:0:0:
315,101,85821,5,14,0:0:0:0:
67,0,85975,1,0,1:2:0:0:
249,238,86128,1,0,1:2:0:0:
437,0,86282,5,14,0:0:0:0:
165,74,86436,2,0,L|176:132,1,58.4999973220826,0|0,1:2|1:2,0:0:0:0:
455,244,86590,5,8,0:0:0:0:
398,236,86666,1,8,0:0:0:0:
352,270,86743,1,0,1:2:0:0:
344,326,86820,1,0,1:2:0:0:
377,372,86898,5,10,0:3:0:0:
363,321,86974,1,8,0:3:0:0:
324,288,87051,1,4,0:3:0:0:
272,282,87128,1,4,0:3:0:0:
227,307,87206,5,6,0:3:0:0:
197,349,87283,1,4,0:3:0:0:
150,371,87360,1,2,1:2:0:0:
99,361,87437,1,0,1:2:0:0:
62,325,87513,2,0,L|73:267,1,58.4999973220826,8|0,0:0|0:0,0:0:0:0:
0,47,87667,6,0,B|91:22|74:99|165:74,1,175.499991966248,6|0,1:2|0:0,0:0:0:0:
243,32,87975,1,2,1:2:0:0:
387,206,88129,2,0,L|403:109,1,99.0000030212403,10|0,0:0|0:0,0:0:0:0:
227,307,88436,1,2,1:2:0:0:
444,272,88590,1,0,1:2:0:0:
216,324,88744,1,10,0:0:0:0:
403,108,88898,6,0,B|357:103|314:91|314:91|275:127|305:171,1,175.499991966248,2|0,1:2|0:0,0:0:0:0:
387,206,89205,1,0,1:2:0:0:
204,343,89359,2,0,P|156:357|110:341,1,99.0000030212403,10|0,0:0|0:0,0:0:0:0:
213,113,89667,1,2,1:2:0:0:
389,336,89821,1,2,1:2:0:0:
157,260,89975,1,8,0:0:0:0:
305,40,90129,6,0,B|359:91|359:91|302:208,1,198.000006042481,6|0,1:2|1:2,0:0:0:0:
116,130,90590,2,0,P|165:126|212:112,1,99.0000030212403,10|0,0:0|0:0,0:0:0:0:
411,265,90898,5,2,1:2:0:0:
225,194,91052,1,0,1:2:0:0:
440,125,91205,1,10,0:0:0:0:
282,0,91359,6,0,L|306:146,1,148.50000453186,6|0,1:2|0:0,0:0:0:0:
320,233,91667,1,0,1:2:0:0:
116,130,91821,5,8,0:0:0:0:
212,82,91975,1,0,1:2:0:0:
82,270,92129,6,0,L|71:212,1,49.5000015106202,10|8,0:0|0:3,0:0:0:0:
271,305,92282,1,6,0:3:0:0:
285,346,92358,1,0,1:2:0:0:
261,384,92435,5,8,0:0:0:0:
218,181,92590,6,0,B|285:169|285:169|320:194|320:194|384:181,1,175.499991966248,6|0,1:2|0:0,0:0:0:0:
461,195,92898,1,2,1:2:0:0:
336,0,93052,2,0,P|320:46|334:92,1,99.0000030212403,10|0,0:0|0:0,0:0:0:0:
512,262,93359,1,2,1:2:0:0:
404,49,93513,1,0,1:2:0:0:
306,286,93667,1,10,0:0:0:0:
507,121,93821,6,0,P|424:99|333:92,1,175.499991966248,2|0,1:2|0:0,0:0:0:0:
248,99,94129,1,0,0:0:0:0:
129,290,94282,2,0,P|176:276|225:273,1,99.0000030212403,10|0,0:0|0:0,0:0:0:0:
97,69,94590,1,2,1:2:0:0:
11,311,94744,1,2,1:2:0:0:
217,188,94898,1,8,0:0:0:0:
0,35,95052,6,0,L|32:230,1,198.000006042481,6|0,1:2|1:2,0:0:0:0:
230,183,95513,2,0,P|183:167|137:181,1,99.0000030212403,10|0,0:0|0:0,0:0:0:0:
252,384,95821,5,2,1:2:0:0:
329,197,95975,1,0,1:2:0:0:
182,252,96128,1,10,0:0:0:0:
425,357,96282,1,2,0:0:0:0:
362,117,96436,5,0,1:2:0:0:
261,369,96590,1,8,0:0:0:0:
462,180,96744,5,0,1:2:0:0:
476,221,96820,1,0,1:2:0:0:
452,259,96898,2,0,P|428:252|403:250,1,49.5000015106202,0|8,1:2|1:2,0:0:0:0:
122,103,97052,5,10,1:2:0:0:
272,76,97206,5,10,0:3:0:0:
423,50,97359,5,6,0:3:0:0:
141,0,97513,6,0,B|156:93|156:93|159:96|159:96|175:194,1,198.000006042481,6|0,1:2|1:2,0:0:0:0:
385,364,97975,5,8,0:0:0:0:
262,164,98129,1,0,1:2:0:0:
234,368,98282,5,10,0:0:0:0:
339,131,98436,1,0,1:2:0:0:
89,221,98590,5,10,0:0:0:0:
301,318,98744,1,2,1:2:0:0:
325,280,98821,1,0,1:2:0:0:
311,239,98897,5,8,0:0:0:0:
122,367,99052,1,0,1:2:0:0:
38,153,99205,5,8,0:0:0:0:
190,250,99359,1,2,1:2:0:0:
26,324,99513,5,10,0:0:0:0:
257,155,99667,1,2,1:2:0:0:
120,384,99821,1,10,0:0:0:0:
0,74,99975,6,0,B|103:46|84:133|187:105,1,198.000006042481,6|0,1:2|1:2,0:0:0:0:
490,272,100436,5,8,0:0:0:0:
267,73,100590,1,0,1:2:0:0:
218,269,100744,5,10,0:0:0:0:
383,6,100898,1,0,1:2:0:0:
119,75,101052,5,10,0:0:0:0:
385,219,101205,1,2,1:2:0:0:
399,178,101281,1,0,1:2:0:0:
375,140,101359,6,0,P|351:147|326:149,1,49.5000015106202,8|8,0:3|0:3,0:0:0:0:
189,286,101513,2,0,P|165:279|140:277,1,49.5000015106202,0|0,1:2|1:2,0:0:0:0:
414,347,101667,6,0,P|389:349|365:356,1,49.5000015106202,8|4,0:0|0:3,0:0:0:0:
185,171,101821,2,0,P|161:164|136:161,1,49.5000015106202,2|0,1:2|1:2,0:0:0:0:
268,384,101975,5,10,0:3:0:0:
278,308,102051,1,8,0:3:0:0:
288,232,102128,1,6,0:3:0:0:
298,156,102205,1,4,0:3:0:0:
309,80,102282,1,10,0:0:0:0:
80,215,102436,6,0,B|1:150|1:150|83:166,1,175.499991966248,6|0,1:2|0:0,0:0:0:0:
162,181,102744,1,0,1:2:0:0:
37,337,102898,2,0,P|60:270|160:272,1,175.499991966248,10|0,0:0|0:0,0:0:0:0:
195,337,103205,1,2,1:2:0:0:
309,80,103359,1,2,1:2:0:0:
80,215,103513,1,10,0:0:0:0:
417,197,103667,6,0,B|496:132|496:132|414:148,1,175.499991966248,6|0,1:2|0:0,0:0:0:0:
335,163,103975,1,0,1:2:0:0:
469,318,104129,2,0,P|445:251|345:253,1,175.499991966248,10|0,0:0|0:0,0:0:0:0:
301,311,104436,1,2,1:2:0:0:
134,64,104590,1,2,1:2:0:0:
417,197,104744,1,10,0:0:0:0:
176,354,104898,6,0,B|160:260|160:260|162:255|162:255|147:159,1,198.000006042481,6|8,1:2|0:0,0:0:0:0:
215,105,105282,1,8,0:0:0:0:
228,97,105359,2,0,P|256:106|286:108,1,49.5000015106202,2|0,1:2|1:2,0:0:0:0:
496,202,105513,5,10,0:3:0:0:
500,182,105590,1,8,0:3:0:0:
504,163,105667,5,2,1:2:0:0:
443,114,105743,1,2,1:2:0:0:
366,123,105820,1,6,0:3:0:0:
321,188,105898,1,6,0:3:0:0:
330,264,105975,1,2,1:2:0:0:
282,324,106052,1,2,1:2:0:0:
206,333,106129,6,0,B|111:308|130:384|36:358,1,180,10|2,0:0|0:0,0:0:0:0:
231,201,107052,1,0,1:2:0:0:
234,214,107129,1,0,1:2:0:0:
237,226,107205,1,10,1:2:0:0:
79,0,107513,5,14,0:2:0:0:
289,109,107667,1,0,1:2:0:0:
63,175,107821,1,0,1:2:0:0:
214,7,107975,2,0,L|199:96,1,90,14|0,0:0|1:2,0:0:0:0:
443,235,108282,1,0,1:2:0:0:
289,109,108436,5,14,0:0:0:0:
304,195,108589,5,0,1:2:0:0:
319,281,108743,5,0,1:2:0:0:
456,119,108898,5,14,0:0:0:0:
229,256,109052,1,0,1:2:0:0:
376,47,109205,1,0,1:2:0:0:
454,326,109359,6,0,P|432:321|410:318,1,45,10|2,0:0|0:0,0:0:0:0:
168,176,109513,2,0,P|184:172|212:168,1,45,2|2,1:2|0:0,0:0:0:0:
341,373,109667,6,0,P|318:375|297:381,1,45,10|0,0:0|1:0,0:0:0:0:
87,247,109821,2,0,P|110:250|131:255,1,45,2|2,1:2|1:2,0:0:0:0:
369,71,109975,5,14,0:0:0:0:
226,285,110129,1,0,1:2:0:0:
145,49,110282,1,0,1:2:0:0:
329,244,110436,2,0,P|371:257|412:243,1,90,14|0,0:0|1:2,0:0:0:0:
259,11,110744,1,0,1:2:0:0:
82,161,110898,5,14,0:0:0:0:
168,176,111051,5,0,1:2:0:0:
254,191,111205,5,0,1:2:0:0:
145,49,111359,5,14,0:0:0:0:
0,145,111513,1,0,1:2:0:0:
107,297,111667,1,0,1:2:0:0:
145,49,111821,6,0,P|123:43|101:41,1,45,10|2,0:0|0:0,0:0:0:0:
320,202,111975,2,0,P|297:204|276:210,1,45,2|2,1:2|0:0,0:0:0:0:
84,275,112129,6,0,P|60:268|40:267,1,45,10|0,0:0|1:2,0:0:0:0:
254,94,112282,2,0,P|236:99|210:102,1,45,2|0,1:2|1:2,0:0:0:0:
373,340,112436,5,14,0:0:0:0:
443,91,112590,1,0,1:2:0:0:
239,217,112744,1,0,1:2:0:0:
490,194,112898,2,0,P|445:191|402:178,1,90,14|0,0:0|1:2,0:0:0:0:
265,8,113205,1,0,1:2:0:0:
320,202,113359,5,14,0:0:0:0:
335,116,113513,5,0,1:2:0:0:
350,30,113666,5,0,1:2:0:0:
152,152,113821,5,14,0:0:0:0:
383,261,113975,1,0,1:2:0:0:
254,94,114129,1,0,1:2:0:0:
190,293,114282,5,10,0:0:0:0:
402,178,114436,1,2,1:2:0:0:
107,160,114590,6,0,P|131:157|151:152,1,45,10|2,0:0|1:2,0:0:0:0:
427,269,114744,2,0,P|403:263|383:261,1,45,2|2,1:2|1:2,0:0:0:0:
168,57,114898,5,6,1:2:0:0:
180,318,115052,1,0,1:2:0:0:
335,116,115205,1,2,1:2:0:0:
91,284,115359,5,10,1:2:0:0:
77,325,115436,1,8,1:2:0:0:
101,363,115513,1,10,1:2:0:0:
320,202,115667,1,10,1:2:0:0:
37,87,115821,5,10,1:2:0:0:
180,318,115975,1,10,1:2:0:0:
266,61,116129,1,14,1:2:0:0:
22,257,116282,2,0,P|46:251|66:249,1,45,10|8,0:3|0:3,0:0:0:0:
293,384,116435,5,2,1:2:0:0:
332,379,116512,1,0,1:2:0:0:
363,354,116589,1,10,0:3:0:0:
376,317,116666,1,8,0:3:0:0:
407,291,116745,1,6,0:3:0:0:
446,287,116822,1,4,0:3:0:0:
482,305,116898,5,2,1:2:0:0:
403,320,116974,1,0,1:2:0:0:
331,286,117051,1,2,1:2:0:0:
293,216,117128,1,2,1:2:0:0:
304,137,117205,1,2,1:2:0:0:
359,79,117282,1,2,1:2:0:0:
438,66,117359,6,0,L|460:199,2,135,6|0|0,1:2|1:2|1:2,0:0:0:0:
228,6,118282,2,0,L|217:72,1,67.5000025749208,2|2,1:2|0:0,0:0:0:0:
159,149,118590,5,2,1:2:0:0:
159,149,118744,2,0,P|126:157|93:150,1,67.5000025749208,2|0,0:0|1:2,0:0:0:0:
217,224,119052,2,0,P|250:232|283:225,1,67.5000025749208,2|0,0:0|1:2,0:0:0:0:
343,93,119359,2,0,L|354:159,1,67.5000025749208,2|0,0:0|1:2,0:0:0:0:
504,195,119667,1,2,0:0:0:0:
504,195,119744,1,2,0:0:0:0:
504,195,119821,6,0,P|471:187|438:193,1,67.5000025749208,0|2,1:2|0:0,0:0:0:0:
373,368,120129,2,0,B|407:293|407:293|373:253,2,135.000005149842,2|0|0,1:2|1:2|1:2,0:0:0:0:
185,330,121052,6,0,P|217:320|250:317,1,67.5000025749208,0|0,1:2|0:0,0:0:0:0:
107,211,121359,2,0,P|140:214|172:223,1,67.5000025749208,2|2,1:2|0:0,0:0:0:0:
59,98,121667,1,2,1:2:0:0:
6,197,121821,1,2,0:0:0:0:
155,129,121975,2,0,P|163:96|156:63,1,67.5000025749208,0|2,1:2|0:0,0:0:0:0:
20,6,122282,6,0,P|85:21|152:27,2,135.000005149842,4|0|0,1:2|1:2|1:2,0:0:0:0:
246,103,123205,2,0,L|257:169,1,67.5000025749208,0|0,1:2|0:0,0:0:0:0:
378,70,123513,6,0,L|367:136,1,67.5000025749208,0|0,1:2|0:0,0:0:0:0:
478,217,123821,2,0,P|445:210|412:218,1,67.5000025749208,2|2,1:2|0:0,0:0:0:0:
324,370,124129,1,2,1:2:0:0:
452,308,124282,1,2,0:0:0:0:
326,218,124436,2,0,L|337:284,1,67.5000025749208,0|2,1:2|0:0,0:0:0:0:
195,349,124744,6,0,B|125:331|138:390|68:370,2,135.000005149842,0|0|0,1:2|1:2|1:2,0:0:0:0:
82,237,125667,2,0,L|93:171,1,67.5000025749208,2|0,1:2|0:0,0:0:0:0:
125,0,125975,5,10,0:0:0:0:
323,176,126744,5,2,1:2:0:0:
326,184,126821,1,0,1:2:0:0:
328,193,126898,2,0,P|405:188|423:141,1,121.499996292114,10|0,0:0|0:0,0:0:0:0:
453,78,127205,6,0,L|477:224,1,148.50000453186,4|0,1:2|0:0,0:0:0:0:
454,304,127513,2,0,P|414:305|381:283,1,80.9999975280763,8|0,0:0|0:0,0:0:0:0:
255,213,127821,2,0,P|294:214|327:192,1,80.9999975280763,0|0,1:2|0:0,0:0:0:0:
233,21,128129,5,10,0:0:0:0:
150,194,128282,1,2,0:0:0:0:
320,99,128436,5,2,1:2:0:0:
122,22,128590,2,0,L|108:102,1,80.9999975280763,2|8,0:0|0:0,0:0:0:0:
0,265,128898,2,0,P|32:242|72:243,1,80.9999975280763,2|0,0:0|1:2,0:0:0:0:
225,347,129205,2,0,P|188:329|169:294,1,80.9999975280763,2|8,0:0|0:0,0:0:0:0:
345,187,129513,1,2,0:0:0:0:
345,187,129590,1,2,0:0:0:0:
345,187,129667,6,0,L|359:267,1,80.9999975280763,0|2,1:2|0:0,0:0:0:0:
483,145,129975,2,0,B|472:220|472:220|475:225|475:225|461:305,2,161.999995056153,10|0|8,0:0|1:2|0:0,0:0:0:0:
268,22,130898,6,0,L|282:102,1,80.9999975280763,0|0,1:2|0:0,0:0:0:0:
126,128,131205,5,8,0:0:0:0:
191,72,131359,1,2,0:0:0:0:
216,283,131513,5,2,1:2:0:0:
39,187,131667,1,10,0:0:0:0:
251,192,131821,5,0,1:2:0:0:
50,349,131975,1,10,0:0:0:0:
104,104,132129,6,0,L|129:250,1,148.50000453186,4|0,1:2|0:0,0:0:0:0:
202,309,132436,2,0,P|241:298|282:294,1,80.9999975280763,8|0,0:0|0:0,0:0:0:0:
393,108,132744,2,0,P|354:118|313:122,1,80.9999975280763,0|0,1:2|0:0,0:0:0:0:
435,304,133052,1,10,0:0:0:0:
498,104,133205,1,2,0:0:0:0:
323,213,133359,6,0,P|283:214|250:191,1,80.9999975280763,2|0,1:2|0:0,0:0:0:0:
123,60,133667,1,10,0:0:0:0:
226,8,133821,2,0,L|212:88,1,80.9999975280763,2|0,0:0|1:2,0:0:0:0:
63,213,134129,2,0,L|49:133,1,80.9999975280763,2|8,0:0|0:0,0:0:0:0:
186,333,134436,1,2,0:0:0:0:
186,333,134513,1,2,0:0:0:0:
186,333,134590,6,0,B|227:335|263:344|263:344|291:308|255:265,1,148.50000453186,0|0,1:2|0:0,0:0:0:0:
251,192,134898,2,0,P|211:190|178:213,1,80.9999975280763,8|0,0:0|0:0,0:0:0:0:
367,302,135205,2,0,P|406:303|439:280,1,80.9999975280763,2|0,1:2|0:0,0:0:0:0:
349,78,135513,2,0,L|335:158,1,80.9999975280763,12|0,0:0|0:0,0:0:0:0:
168,233,135821,5,2,1:2:0:0:
56,60,135975,1,12,0:0:0:0:
335,157,136129,1,12,0:0:0:0:
73,273,136282,1,2,1:2:0:0:
224,31,136436,5,2,1:2:0:0:
233,86,136512,1,0,1:2:0:0:
243,142,136589,1,8,0:0:0:0:
253,198,136666,1,8,0:0:0:0:
263,254,136743,1,8,0:0:0:0:
61,147,136898,1,0,1:2:0:0:
385,54,137052,6,0,L|369:142,1,90,14|0,0:0|1:2,0:0:0:0:
455,319,137359,1,0,1:2:0:0:
263,254,137513,5,14,0:0:0:0:
463,119,137667,2,0,P|478:160|464:202,1,90,2|0,1:2|1:2,0:0:0:0:
299,0,137975,5,14,0:0:0:0:
172,185,138129,2,0,P|216:172|260:169,1,90,2|0,1:2|1:2,0:0:0:0:
24,42,138436,5,14,0:0:0:0:
122,263,138590,1,2,1:2:0:0:
213,95,138744,1,0,1:2:0:0:
19,294,138898,5,12,0:0:0:0:
116,116,139052,1,2,1:2:0:0:
214,340,139205,5,14,0:0:0:0:
214,340,139359,2,0,P|235:333|257:330,1,45,2|0,1:2|1:2,0:0:0:0:
412,266,139513,6,0,P|456:268|499:281,1,90,14|0,0:0|1:2,0:0:0:0:
330,108,139821,1,0,1:2:0:0:
246,246,139975,5,14,0:0:0:0:
426,127,140129,2,0,L|410:39,1,90,2|0,1:2|1:2,0:0:0:0:
197,0,140436,5,14,0:0:0:0:
314,196,140590,2,0,L|329:108,1,90,2|0,1:2|1:2,0:0:0:0:
78,167,140898,5,14,0:0:0:0:
320,294,141052,1,2,1:2:0:0:
201,122,141205,1,0,1:2:0:0:
67,283,141359,6,0,L|31:292,1,33.7500012874604,12|8,0:0|0:0,0:0:0:0:
234,339,141513,1,0,1:2:0:0:
213,255,141667,6,0,L|245:246,1,33.7500012874604,8|8,0:3|0:3,0:0:0:0:
85,364,141821,1,0,1:2:0:0:
320,378,141975,6,0,P|335:336|320:294,1,90,14|0,0:0|1:2,0:0:0:0:
97,181,142282,1,0,1:2:0:0:
234,339,142436,5,14,0:0:0:0:
288,137,142590,2,0,P|243:134|200:121,1,90,2|0,1:2|1:2,0:0:0:0:
383,252,142898,5,14,0:0:0:0:
470,57,143052,2,0,L|485:145,1,90,2|0,1:2|1:2,0:0:0:0:
234,339,143359,1,14,0:0:0:0:
388,122,143513,1,2,1:2:0:0:
441,325,143667,1,0,1:2:0:0:
288,137,143821,5,12,0:0:0:0:
474,234,143975,1,2,1:2:0:0:
277,349,144129,5,14,0:0:0:0:
277,349,144282,2,0,P|256:342|234:339,1,45,2|0,1:2|1:2,0:0:0:0:
44,192,144436,6,0,L|59:280,1,90,14|0,0:0|1:2,0:0:0:0:
216,164,144744,1,2,1:2:0:0:
83,60,144898,6,0,P|41:45|0:60,1,90,14|0,0:0|1:2,0:0:0:0:
149,216,145205,1,2,1:2:0:0:
355,124,145359,5,12,0:0:0:0:
180,12,145513,2,0,L|165:100,1,90,2|0,1:2|1:2,0:0:0:0:
316,248,145821,5,12,0:0:0:0:
402,233,145974,5,0,1:2:0:0:
488,218,146128,5,0,1:2:0:0:
266,87,146282,5,12,0:0:0:0:
379,321,146436,1,2,1:2:0:0:
251,74,146590,1,14,0:0:0:0:
504,133,146744,1,0,1:2:0:0:
225,264,146898,5,14,1:2:0:0:
202,260,146974,1,0,1:2:0:0:
180,256,147051,1,0,1:2:0:0:
158,252,147128,1,0,1:2:0:0:
136,248,147205,1,8,1:2:0:0:
114,245,147282,1,0,1:2:0:0:
82,254,147359,5,2,1:2:0:0:
73,292,147435,1,0,1:2:0:0:
96,324,147512,1,8,1:2:0:0:
135,330,147589,1,0,1:2:0:0:
165,305,147666,1,0,1:2:0:0:
168,266,147743,1,0,1:2:0:0:
143,237,147821,5,10,1:2:0:0:
105,211,147897,1,0,1:2:0:0:
78,176,147974,1,0,1:2:0:0:
63,134,148051,1,0,1:2:0:0:
62,89,148128,1,12,1:2:0:0:
76,46,148205,1,0,1:2:0:0:
96,16,148282,5,0,1:2:0:0:
143,6,148359,1,0,1:2:0:0:
190,21,148435,1,10,1:2:0:0:
224,56,148512,1,0,1:2:0:0:
237,103,148589,1,8,1:2:0:0:
271,138,148668,1,8,1:2:0:0:
318,153,148744,6,0,P|341:147|362:144,1,45,10|8,1:2|0:0,0:0:0:0:
468,37,148898,2,0,P|490:34|512:28,1,45,8|8,0:0|0:0,0:0:0:0:
316,56,149052,2,0,P|338:58|360:64,1,45,10|8,1:2|0:0,0:0:0:0:
467,192,149205,2,0,P|488:186|511:183,1,45,8|8,0:0|0:0,0:0:0:0:
297,286,149359,5,14,1:2:0:0:
266,260,149435,1,8,0:3:0:0:
228,252,149512,1,8,0:3:0:0:
190,263,149589,1,8,0:3:0:0:
161,290,149666,1,10,0:3:0:0:
149,327,149743,1,8,0:3:0:0:
156,366,149820,5,2,1:2:0:0:
189,324,149897,1,0,1:2:0:0:
198,271,149974,1,8,0:0:0:0:
182,220,150051,1,8,0:3:0:0:
144,183,150128,1,2,1:2:0:0:
105,145,150205,1,0,1:2:0:0:
89,94,150282,1,6,0:3:0:0:
99,42,150359,1,4,0:3:0:0:
131,0,150436,5,2,1:2:0:0:
196,39,150512,1,0,1:2:0:0:
227,112,150589,1,8,0:3:0:0:
210,190,150666,1,8,0:3:0:0:
149,241,150743,1,4,0:3:0:0:
69,247,150820,1,4,0:3:0:0:
1,206,150897,5,14,0:0:0:0:
284,43,151052,1,4,1:2:0:0:
472,288,151667,6,0,B|380:263|397:340|305:315,1,175.499991966248,6|0,1:2|0:0,0:0:0:0:
232,275,151975,1,2,1:2:0:0:
404,97,152129,2,0,L|388:194,1,99.0000030212403,10|0,0:0|0:0,0:0:0:0:
147,328,152436,1,2,1:2:0:0:
274,93,152590,1,2,1:2:0:0:
399,333,152744,1,10,0:0:0:0:
145,240,152898,6,0,B|128:234|105:248|105:248|64:220|58:168|89:132,1,175.499991966248,2|0,1:2|0:0,0:0:0:0:
154,80,153205,1,0,1:2:0:0:
328,258,153359,2,0,P|278:260|231:274,1,99.0000030212403,10|0,0:0|0:0,0:0:0:0:
33,65,153667,1,2,1:2:0:0:
147,328,153821,1,2,1:2:0:0:
279,124,153975,1,8,0:0:0:0:
12,152,154129,6,0,B|85:142|85:142|125:174|125:174|203:163,1,198.000006042481,6|0,1:2|1:2,0:0:0:0:
73,373,154590,2,0,P|57:326|73:280,1,99.0000030212403,10|0,0:0|0:0,0:0:0:0:
296,213,154898,5,2,1:2:0:0:
147,328,155052,1,0,1:2:0:0:
278,122,155205,1,10,0:0:0:0:
479,306,155359,6,0,P|456:367|362:364,1,148.50000453186,6|0,1:2|0:0,0:0:0:0:
319,331,155667,1,0,1:2:0:0:
389,113,155821,5,8,0:0:0:0:
230,267,155975,1,0,1:2:0:0:
485,152,156129,5,10,0:3:0:0:
237,27,156282,1,10,0:0:0:0:
223,68,156358,1,8,0:0:0:0:
247,106,156435,5,8,0:0:0:0:
512,23,156590,6,0,B|410:48|410:48|414:88|389:114,1,175.499991966248,6|0,1:2|0:0,0:0:0:0:
324,57,156898,1,2,1:2:0:0:
469,250,157052,2,0,L|485:153,1,99.0000030212403,10|0,0:0|0:0,0:0:0:0:
220,241,157359,1,2,1:2:0:0:
451,384,157513,1,2,1:2:0:0:
331,180,157667,1,8,0:0:0:0:
190,351,157821,6,0,B|236:356|279:368|279:368|318:332|288:288,1,175.499991966248,2|0,1:2|0:0,0:0:0:0:
220,241,158129,1,0,0:0:0:0:
71,384,158282,2,0,P|55:337|71:291,1,99.0000030212403,10|0,0:0|0:0,0:0:0:0:
210,60,158590,1,2,1:2:0:0:
23,229,158744,1,2,1:2:0:0:
223,160,158898,1,8,0:0:0:0:
69,31,159052,6,0,B|26:2|26:2|-19:37|-20:94|20:128,1,198.000006042481,6|0,1:2|1:2,0:0:0:0:
205,264,159513,2,0,P|252:250|301:248,1,99.0000030212403,10|0,0:0|0:0,0:0:0:0:
419,49,159821,5,2,1:2:0:0:
310,166,159974,1,0,1:2:0:0:
501,78,160128,1,10,0:0:0:0:
304,0,160282,1,6,1:2:0:0:
512,191,160436,5,2,1:2:0:0:
464,181,160512,1,2,0:0:0:0:
420,201,160589,1,2,1:2:0:0:
396,243,160666,1,10,0:0:0:0:
402,292,160743,5,10,0:0:0:0:
378,335,160822,1,2,0:0:0:0:
334,355,160899,1,2,1:2:0:0:
286,345,160975,1,10,0:0:0:0:
255,305,161052,6,0,L|266:249,1,45,10|8,0:0|0:0,0:0:0:0:
64,173,161205,2,0,L|75:229,1,45,10|8,0:3|0:3,0:0:0:0:
317,148,161359,2,0,L|328:92,1,45,6|4,0:3|0:3,0:0:0:0:
36,0,161513,6,0,L|64:173,1,175.499991966248,6|0,1:2|0:0,0:0:0:0:
81,256,161821,1,0,1:2:0:0:
202,79,161975,2,0,L|186:176,1,99.0000030212403,8|0,0:0|0:0,0:0:0:0:
330,25,162282,2,0,L|346:122,1,99.0000030212403,2|0,1:2|0:0,0:0:0:0:
471,299,162590,1,8,0:0:0:0:
503,185,162744,1,2,0:0:0:0:
503,185,162821,1,2,0:0:0:0:
503,185,162898,6,0,B|400:157|419:244|316:216,2,198.000006042481,0|8|2,1:2|0:0|1:2,0:0:0:0:
149,159,163821,1,10,0:0:0:0:
260,384,163975,2,0,L|228:188,1,198.000006042481,6|0,1:2|0:0,0:0:0:0:
20,186,164436,2,0,P|29:233|66:265,1,99.0000030212403,8|0,0:0|0:0,0:0:0:0:
194,39,164744,2,0,P|147:23|101:39,1,99.0000030212403,2|0,1:2|0:0,0:0:0:0:
228,188,165052,2,0,P|275:174|324:172,1,99.0000030212403,8|0,0:0|0:0,0:0:0:0:
260,384,165359,6,0,P|164:359|65:353,2,198.000006042481,2|8|2,1:2|0:0|1:2,0:0:0:0:
8,80,166129,5,8,0:0:0:0:
12,66,166205,1,8,0:0:0:0:
15,52,166282,5,8,0:0:0:0:
63,27,166359,1,8,0:0:0:0:
116,30,166436,1,8,0:0:0:0:
161,60,166513,1,8,0:0:0:0:
185,108,166590,6,0,B|227:159|284:128|284:128|294:91|323:78,1,175.499991966248,6|0,1:2|0:0,0:0:0:0:
369,148,166898,1,8,0:0:0:0:
512,338,167052,6,0,P|478:281|379:301,1,175.499991966248,6|0,0:0|0:0,0:0:0:0:
325,352,167359,1,0,1:2:0:0:
58,201,167513,1,10,0:0:0:0:
176,377,167667,1,4,0:3:0:0:
189,381,167744,1,4,0:3:0:0:
201,384,167821,6,0,B|250:330|250:330|201:240,1,175.499991966248,6|0,1:2|0:0,0:0:0:0:
158,170,168129,1,8,0:0:0:0:
439,192,168282,5,2,1:2:0:0:
436,205,168359,1,2,0:0:0:0:
424,223,168436,1,2,0:0:0:0:
399,239,168513,1,2,0:0:0:0:
348,236,168590,1,2,1:2:0:0:
288,197,168667,1,2,0:0:0:0:
269,124,168744,1,10,0:0:0:0:
304,51,168821,1,2,0:0:0:0:
385,23,168898,1,2,1:2:0:0:
469,54,168975,1,2,0:0:0:0:
512,132,169052,5,14,0:0:0:0:
257,296,169205,1,0,1:2:0:0:
398,111,169359,1,0,1:2:0:0:
495,354,169513,5,14,0:0:0:0:
269,124,169667,1,0,1:2:0:0:
388,382,169820,1,0,1:2:0:0:
158,170,169975,5,14,0:0:0:0:
398,111,170129,2,0,L|387:169,1,58.4999973220826,0|0,1:2|1:2,0:0:0:0:
174,337,170282,5,8,0:0:0:0:
132,305,170358,1,8,0:0:0:0:
80,300,170435,1,0,1:2:0:0:
33,322,170512,1,0,1:2:0:0:
4,365,170590,5,10,0:3:0:0:
61,367,170666,1,8,0:3:0:0:
110,337,170743,1,4,0:3:0:0:
135,285,170820,1,4,0:3:0:0:
127,228,170897,5,6,0:3:0:0:
88,184,170975,1,4,0:3:0:0:
80,127,171052,1,2,1:2:0:0:
105,75,171129,1,0,1:2:0:0:
154,45,171206,1,8,0:0:0:0:
212,47,171282,1,0,0:0:0:0:
258,83,171359,6,0,B|349:58|332:135|424:110,1,175.499991966248,6|0,1:2|0:0,0:0:0:0:
502,78,171667,1,2,1:2:0:0:
303,268,171821,2,0,L|287:171,1,99.0000030212403,10|0,0:0|0:0,0:0:0:0:
497,255,172129,1,2,1:2:0:0:
316,379,172282,1,2,1:2:0:0:
512,271,172436,1,10,0:0:0:0:
286,170,172590,6,0,B|183:150|183:150|170:188|136:201,1,175.499991966248,2|0,1:2|0:0,0:0:0:0:
102,124,172898,1,0,1:2:0:0:
247,18,173052,2,0,P|292:2|339:17,1,99.0000030212403,10|0,0:0|0:0,0:0:0:0:
223,241,173359,1,2,1:2:0:0:
63,24,173513,1,2,1:2:0:0:
294,83,173667,1,8,0:0:0:0:
107,300,173821,6,0,L|74:104,1,198.000006042481,6|0,1:2|1:2,0:0:0:0:
310,68,174282,2,0,L|294:165,1,99.0000030212403,10|0,0:0|0:0,0:0:0:0:
188,320,174590,5,2,1:2:0:0:
363,239,174743,1,0,1:2:0:0:
191,115,174897,1,10,0:0:0:0:
460,7,175052,6,0,B|509:61|509:61|460:151,1,175.499991966248,6|0,1:2|0:0,0:0:0:0:
449,231,175359,1,0,1:2:0:0:
278,151,175513,5,8,0:0:0:0:
396,74,175667,1,0,1:2:0:0:
137,5,175821,5,10,0:0:0:0:
247,230,175975,1,2,1:2:0:0:
288,244,176051,1,0,1:2:0:0:
326,220,176128,5,8,0:0:0:0:
94,168,176282,6,0,B|45:222|45:222|94:312,1,175.499991966248,6|0,1:2|0:0,0:0:0:0:
139,377,176589,1,2,1:2:0:0:
288,244,176744,2,0,L|272:147,1,99.0000030212403,10|0,0:0|0:0,0:0:0:0:
418,384,177052,1,2,1:2:0:0:
194,284,177205,1,0,1:2:0:0:
432,117,177359,1,10,0:0:0:0:
287,337,177513,6,0,L|258:163,1,175.499991966248,2|0,1:2|0:0,0:0:0:0:
245,84,177821,1,0,0:0:0:0:
62,50,177975,2,0,P|46:96|62:142,1,99.0000030212403,10|0,0:0|0:0,0:0:0:0:
315,260,178282,1,2,1:2:0:0:
132,96,178436,1,2,1:2:0:0:
342,185,178590,1,8,0:0:0:0:
157,346,178744,6,0,B|115:295|58:326|58:326|45:374|-2:384,1,198.000006042481,6|0,1:2|1:2,0:0:0:0:
204,164,179205,2,0,L|188:261,1,99.0000030212403,10|0,0:0|0:0,0:0:0:0:
26,143,179513,5,2,1:2:0:0:
212,72,179666,1,0,1:2:0:0:
116,215,179820,1,10,0:0:0:0:
9,18,179974,1,2,0:0:0:0:
116,232,180129,5,0,1:2:0:0:
256,0,180282,1,8,0:0:0:0:
319,204,180436,5,0,1:2:0:0:
278,218,180512,1,0,1:2:0:0:
240,194,180590,2,0,L|249:145,1,49.5000015106202,0|8,1:2|1:2,0:0:0:0:
442,0,180744,5,10,1:2:0:0:
469,150,180898,5,10,0:3:0:0:
495,301,181051,5,6,0:3:0:0:
504,54,181205,6,0,B|400:25|419:113|317:85,1,198.000006042481,6|0,1:2|1:2,0:0:0:0:
86,301,181667,5,8,0:0:0:0:
327,182,181821,1,0,1:2:0:0:
192,384,181975,5,10,0:0:0:0:
90,158,182129,1,0,1:2:0:0:
278,347,182282,5,10,0:0:0:0:
358,99,182436,1,2,1:2:0:0:
317,85,182512,1,0,1:2:0:0:
279,109,182590,5,8,0:0:0:0:
439,213,182744,1,0,1:2:0:0:
314,0,182898,5,8,0:0:0:0:
172,99,183052,1,2,1:2:0:0:
338,7,183205,5,10,0:0:0:0:
228,276,183359,1,2,1:2:0:0:
77,24,183513,1,10,0:0:0:0:
331,180,183667,6,0,B|393:180|423:131|396:76|396:76|372:102|328:102,1,198.000006042481,6|0,1:2|1:2,0:0:0:0:
102,146,184129,5,8,0:0:0:0:
357,301,184282,1,0,1:2:0:0:
194,65,184436,5,10,0:0:0:0:
96,333,184590,1,0,1:2:0:0:
204,43,184744,5,10,0:0:0:0:
338,331,184898,1,2,1:2:0:0:
297,345,184974,1,0,1:2:0:0:
259,321,185052,6,0,L|268:272,1,49.5000015106202,8|8,0:3|0:3,0:0:0:0:
120,97,185205,2,0,L|111:48,1,49.5000015106202,0|0,1:2|1:2,0:0:0:0:
96,333,185359,6,0,L|87:284,1,49.5000015106202,8|4,0:0|0:3,0:0:0:0:
272,121,185513,2,0,L|281:72,1,49.5000015106202,2|0,1:2|1:2,0:0:0:0:
0,177,185667,5,10,0:3:0:0:
76,184,185743,1,8,0:3:0:0:
152,190,185820,1,6,0:3:0:0:
228,199,185897,1,4,0:3:0:0:
305,207,185974,1,10,0:0:0:0:
470,91,186129,6,0,B|428:59|434:13|434:13|408:52|362:52,1,175.499991966248,6|0,1:2|0:0,0:0:0:0:
393,131,186436,1,0,1:2:0:0:
507,283,186590,2,0,B|439:273|439:273|405:299|405:299|341:288,1,175.499991966248,10|0,0:0|0:0,0:0:0:0:
255,280,186898,1,2,1:2:0:0:
189,21,187052,1,2,1:2:0:0:
382,214,187205,1,10,0:0:0:0:
65,170,187359,6,0,B|106:138|100:92|100:92|126:131|172:131,1,175.499991966248,6|0,1:2|0:0,0:0:0:0:
142,210,187666,1,0,1:2:0:0:
36,363,187821,2,0,B|103:353|103:353|137:379|137:379|201:368,1,175.499991966248,10|0,0:0|0:0,0:0:0:0:
289,384,188129,2,0,L|299:323,1,58.4999973220826,2|8,1:2|0:3,0:0:0:0:
51,193,188282,2,0,L|61:254,1,58.4999973220826,6|0,0:3|1:2,0:0:0:0:
280,164,188436,2,0,L|290:103,1,58.4999973220826,10|0,0:0|1:2,0:0:0:0:
112,14,188590,6,0,B|128:108|128:108|126:113|126:113|141:209,1,198.000006042481,6|8,1:2|0:0,0:0:0:0:
209,254,188975,1,8,0:0:0:0:
222,260,189052,2,0,P|253:252|283:250,1,49.5000015106202,2|2,1:2|1:2,0:0:0:0:
505,332,189205,5,10,0:3:0:0:
502,346,189282,1,10,0:3:0:0:
500,360,189359,5,2,1:2:0:0:
422,361,189435,1,2,1:2:0:0:
362,312,189512,1,6,0:3:0:0:
349,236,189589,1,6,0:3:0:0:
388,169,189666,1,2,1:2:0:0:
375,93,189745,1,2,1:2:0:0:
315,43,189821,6,0,B|255:8|175:41|157:121|193:174|193:174|194:175|194:175|191:146|208:118|236:113,1,315,10|0,0:0|0:0,0:0:0:0:
1,308,191205,6,0,B|71:288|58:347|128:329,1,135.000005149842,6|0,1:2|0:0,0:0:0:0:
212,384,191667,2,0,L|236:251,1,135.000005149842,2|0,0:0|0:0,0:0:0:0:
211,163,192129,6,0,P|255:117|316:137,1,135.000005149842,2|0,0:0|0:0,0:0:0:0:
380,202,192590,2,0,P|440:222|485:176,1,135.000005149842,2|0,0:0|0:0,0:0:0:0:
454,88,193052,2,0,P|420:85|387:76,1,67.5000025749208,2|0,0:0|0:0,0:0:0:0:
241,3,193359,1,2,0:0:0:0:
316,137,193513,1,2,0:0:0:0:
316,137,193590,1,2,0:0:0:0:
316,137,193667,6,0,B|246:117|259:176|189:158,1,135.000005149842,2|0,0:0|0:0,0:0:0:0:
100,109,194129,2,0,B|78:87|78:87|27:125|62:180,1,135.000005149842,2|0,0:0|0:0,0:0:0:0:
24,266,194590,6,0,P|68:220|129:240,1,135.000005149842,2|0,0:0|0:0,0:0:0:0:
201,298,195052,2,0,P|266:280|333:276,1,135.000005149842,2|0,0:0|0:0,0:0:0:0:
317,357,195513,2,0,P|283:359|250:367,1,67.5000025749208,2|0,0:0|0:0,0:0:0:0:
380,203,195821,2,0,P|412:211|446:213,1,67.5000025749208,2|0,0:0|0:0,0:0:0:0:
262,244,196129,6,0,L|238:111,1,135.000005149842,6|0,1:2|0:0,0:0:0:0:
299,29,196590,2,0,B|369:9|356:68|426:50,1,135.000005149842,2|0,0:0|0:0,0:0:0:0:
512,161,197052,5,2,0:0:0:0:
491,178,197154,5,8,0:3:0:0:
416,143,197257,5,8,0:3:0:0:
347,203,197359,6,0,L|371:336,1,135.000005149842,10|2,0:3|0:0,0:0:0:0:
281,353,197821,2,0,L|257:220,1,135.000005149842,6|2,0:3|0:0,0:0:0:0:
176,171,198282,2,0,P|144:181|119:203,1,67.5000025749208,2|2,0:0|0:0,0:0:0:0:
41,239,198590,6,0,P|107:246|171:267,1,135.000005149842,6|2,1:2|0:0,0:0:0:0:
259,252,199052,2,0,P|306:209|289:147,1,135.000005149842,10|10,0:0|0:3,0:0:0:0:
140,66,199513,5,6,0:3:0:0:
83,140,199667,1,6,0:3:0:0:
235,63,199821,5,6,1:2:0:0:
335,212,199975,1,10,0:3:0:0:
337,221,200052,1,8,0:3:0:0:
339,230,200129,5,10,0:3:0:0:
440,176,200282,1,10,0:3:0:0:
377,308,200436,5,6,0:3:0:0:
259,252,200590,1,6,0:3:0:0:
156,350,200744,5,2,1:2:0:0:
156,350,200898,1,2,1:2:0:0:
71,206,201052,6,0,L|82:140,1,67.5000025749208,6|2,1:2|0:0,0:0:0:0:
170,19,201359,1,2,1:2:0:0:
36,22,201513,2,0,P|61:44|93:54,1,67.5000025749208,2|0,0:0|1:2,0:0:0:0:
175,153,201821,1,0,0:0:0:0:
175,153,201975,6,0,P|200:130|232:120,1,67.5000025749208,2|2,1:2|0:0,0:0:0:0:
393,35,202282,1,2,1:2:0:0:
312,24,202436,2,0,L|323:90,1,67.5000025749208,2|2,0:0|1:2,0:0:0:0:
443,103,202744,1,0,0:0:0:0:
443,103,202898,6,0,L|437:136,3,33.7500012874604,2|2|2|2,1:2|0:0|0:0|0:0,0:0:0:0:
428,219,203205,1,2,1:2:0:0:
299,262,203359,1,10,0:0:0:0:
413,367,203513,6,0,P|387:344|355:334,1,67.5000025749208,2|2,1:2|0:0,0:0:0:0:
186,356,203821,1,2,1:2:0:0:
277,250,203975,2,0,P|251:272|219:282,1,67.5000025749208,2|0,0:0|1:2,0:0:0:0:
136,182,204282,1,0,0:0:0:0:
136,182,204436,6,0,P|168:190|202:193,1,67.5000025749208,2|2,1:2|0:0,0:0:0:0:
67,252,204744,1,2,1:2:0:0:
67,252,204898,6,0,L|50:254,1,16.8750006437302,10|8,0:3|0:3,0:0:0:0:
140,303,205052,1,2,1:2:0:0:
227,180,205205,5,10,0:3:0:0:
147,215,205359,1,2,1:2:0:0:
243,75,205513,5,6,0:3:0:0:
306,230,205667,1,0,1:2:0:0:
151,105,205821,1,2,0:0:0:0:
331,47,205975,6,0,L|342:113,1,67.5000025749208,6|2,1:2|0:0,0:0:0:0:
84,35,206282,1,2,1:2:0:0:
168,11,206436,2,0,L|157:77,1,67.5000025749208,2|0,0:0|1:2,0:0:0:0:
3,146,206744,1,0,0:0:0:0:
3,146,206898,6,0,P|28:123|60:113,1,67.5000025749208,2|2,1:2|0:0,0:0:0:0:
0,234,207205,1,2,1:2:0:0:
133,243,207359,2,0,P|101:232|76:209,1,67.5000025749208,2|0,0:0|1:2,0:0:0:0:
227,180,207667,1,0,0:0:0:0:
227,180,207821,6,0,L|238:246,1,67.5000025749208,2|2,1:2|1:2,0:0:0:0:
325,365,208129,2,0,L|330:332,1,33.7500012874604,10|2,1:2|0:0,0:0:0:0:
229,384,208282,2,0,L|223:351,1,33.7500012874604,2|2,1:2|0:0,0:0:0:0:
332,230,208436,5,4,1:2:0:0:
332,230,208744,5,2,1:2:0:0:
219,145,208898,1,2,1:2:0:0:
155,246,209052,5,0,1:2:0:0:
337,120,209205,1,2,1:2:0:0:
99,55,209359,5,2,1:2:0:0:
251,297,209513,1,2,1:2:0:0:
255,309,209590,1,0,1:2:0:0:
260,321,209667,6,0,L|304:313,1,45,8|8,0:0|0:3,0:0:0:0:
512,320,209821,5,6,0:3:0:0:
473,342,209897,1,4,0:3:0:0:
429,338,209974,1,2,1:2:0:0:
395,309,210051,1,0,1:2:0:0:
384,267,210129,2,0,L|391:222,1,45,10|8,0:0|0:3,0:0:0:0:
500,54,210282,5,6,0:3:0:0:
503,65,210359,1,0,1:2:0:0:
506,75,210436,2,0,L|513:120,1,45,2|2,1:2|1:2,0:0:0:0:
339,35,210590,5,10,0:0:0:0:
270,1,210667,1,10,0:0:0:0:
196,20,210744,1,10,0:0:0:0:
152,79,210821,1,10,0:0:0:0:
152,155,210897,1,6,1:2:0:0:
0,254,211205,5,10,0:0:0:0:
23,235,211308,5,2,0:0:0:0:
69,233,211411,5,2,0:0:0:0:
119,277,211513,5,2,1:2:0:0:
156,339,211616,5,2,0:0:0:0:
234,384,211718,5,2,0:0:0:0:
322,374,211821,5,10,0:0:0:0:
377,293,211923,5,2,0:0:0:0:
352,191,212026,5,2,0:0:0:0:
220,113,212129,5,2,1:2:0:0:
208,206,212231,5,2,0:0:0:0:
269,283,212334,5,2,0:0:0:0:
356,293,212436,5,10,0:0:0:0:
433,242,212539,5,2,0:0:0:0:
494,248,212641,5,2,0:0:0:0:
512,290,212744,5,2,1:2:0:0:
425,264,212846,5,2,0:0:0:0:
402,190,212949,5,2,0:0:0:0:
439,120,213052,5,10,0:0:0:0:
419,48,213154,5,2,0:0:0:0:
379,21,213257,5,2,0:0:0:0:
335,21,213359,6,0,B|243:-4|260:73|168:48,1,175.499991966248,2|0,1:2|0:0,0:0:0:0:
87,22,213667,1,8,0:0:0:0:
0,251,213821,6,0,P|22:189|142:207,1,175.499991966248,2|0,0:0|0:0,0:0:0:0:
186,244,214129,1,0,0:0:0:0:
334,384,214282,6,0,L|362:211,1,175.499991966248,10|0,0:0|0:0,0:0:0:0:
376,126,214590,1,0,1:2:0:0:
207,30,214744,6,0,B|168:1|168:1|128:33|127:84|161:113,1,175.499991966248,2|0,0:0|0:0,0:0:0:0:
232,157,215052,1,0,0:0:0:0:
424,288,215205,5,2,1:2:0:0:
399,276,215308,5,2,0:0:0:0:
400,302,215411,5,2,0:0:0:0:
450,256,215513,5,10,0:0:0:0:
359,265,215616,5,2,0:0:0:0:
407,341,215718,5,2,0:0:0:0:
503,335,215821,6,0,P|389:305|273:290,1,233.999989288331,6|8,1:2|0:0,0:0:0:0:
150,306,216282,5,2,0:0:0:0:
163,302,216359,1,2,0:0:0:0:
173,293,216436,6,0,P|184:238|149:193,1,116.999994644165,2|0,1:2|0:0,0:0:0:0:
61,206,216667,1,2,0:0:0:0:
52,195,216744,2,0,P|41:140|76:95,1,116.999994644165,8|2,0:0|0:0,0:0:0:0:
174,0,217052,6,0,P|226:22|244:75,1,116.999994644165,2|0,1:2|0:0,0:0:0:0:
241,162,217282,1,2,0:0:0:0:
236,176,217359,2,0,P|253:229|305:252,1,116.999994644165,8|2,0:0|0:0,0:0:0:0:
483,233,217667,6,0,P|494:177|461:131,1,116.999994644165,2|0,1:2|1:2,0:0:0:0:
460,47,217898,1,10,0:0:0:0:
449,41,217975,2,0,P|420:41|395:56,1,58.4999973220826,8|0,0:0|0:0,0:0:0:0:
309,81,218129,2,0,P|280:80|255:65,1,58.4999973220826,2|0,1:2|1:2,0:0:0:0:
174,0,218282,5,14,0:0:0:0:
55,277,218436,1,0,1:2:0:0:
360,175,218590,1,2,1:2:0:0:
68,73,218744,5,14,0:0:0:0:
183,371,218898,1,0,1:2:0:0:
309,81,219052,1,2,1:2:0:0:
34,250,219205,6,0,P|91:257|148:272,1,116.999994644165,14|0,0:0|1:2,0:0:0:0:
467,319,219513,5,2,1:2:0:0:
481,284,219590,1,2,0:0:0:0:
462,241,219667,1,10,0:0:0:0:
414,218,219744,1,2,0:0:0:0:
340,208,219821,5,10,0:0:0:0:
290,146,219898,1,2,0:0:0:0:
298,61,219975,1,2,1:2:0:0:
371,12,220052,1,2,0:0:0:0:
453,47,220129,5,10,0:0:0:0:
386,100,220205,1,10,0:0:0:0:
318,79,220282,1,10,0:0:0:0:
291,49,220359,1,8,0:0:0:0:
292,42,220436,2,0,L|303:0,7,29.2499986610413,10|2|10|2|6|2|10|2,0:3|0:0|0:3|0:0|0:3|0:0|0:3|0:0,0:0:0:0:
381,20,220744,5,6,1:2:0:0:
160,130,220898,1,2,0:0:0:0:
384,0,221052,1,10,0:0:0:0:
222,216,221205,6,0,B|128:191|145:270|51:244,1,180,2|0,0:0|0:0,0:0:0:0:
177,384,221667,2,0,L|192:295,1,90,10|2,0:0|0:0,0:0:0:0:
312,94,221975,5,2,1:2:0:0:
81,161,222129,1,2,0:0:0:0:
280,284,222282,1,10,0:0:0:0:
204,41,222436,6,0,P|162:26|120:41,1,90,2|2,0:0|1:2,0:0:0:0:
222,216,222744,1,2,0:0:0:0:
384,21,222898,6,0,P|339:19|296:6,1,90,10|2,0:0|0:0,0:0:0:0:
373,258,223205,5,6,1:2:0:0:
496,50,223359,1,2,0:0:0:0:
244,139,223513,1,10,0:0:0:0:
496,339,223667,5,2,0:0:0:0:
389,128,223821,1,2,1:2:0:0:
276,337,223975,1,2,0:0:0:0:
492,220,224129,5,10,0:0:0:0:
389,150,224282,1,2,0:0:0:0:
181,295,224436,5,2,1:2:0:0:
95,351,224590,2,0,L|38:340,1,45,2|0,1:2|1:2,0:0:0:0:
234,146,224744,5,8,0:2:0:0:
258,184,224821,1,8,0:2:0:0:
244,225,224897,1,10,0:2:0:0:
49,95,225052,5,10,0:2:0:0:
204,17,225205,2,0,L|193:73,1,45,10|8,0:2|0:2,0:0:0:0:
75,233,225359,6,0,L|64:177,1,45,10|8,0:2|0:2,0:0:0:0:
32,6,225513,1,10,0:3:0:0:
168,196,225667,5,6,1:2:0:0:
297,0,225821,1,0,1:2:0:0:
49,95,225975,1,0,1:2:0:0:
313,122,226129,5,10,0:0:0:0:
87,232,226282,1,0,1:2:0:0:
204,17,226436,1,0,1:2:0:0:
331,237,226590,5,10,0:0:0:0:
136,79,226744,1,0,1:2:0:0:
296,327,226898,1,0,1:2:0:0:
437,56,227052,5,14,0:0:0:0:
180,229,227205,1,0,1:2:0:0:
482,361,227359,1,0,1:2:0:0:
313,122,227513,5,10,0:0:0:0:
176,384,227667,1,0,1:2:0:0:
459,197,227821,5,10,0:0:0:0:
156,98,227975,2,0,L|167:154,1,45,0|0,1:2|1:2,0:0:0:0:
352,259,228129,5,14,0:0:0:0:
266,244,228282,5,2,1:2:0:0:
180,229,228436,5,2,1:2:0:0:
327,46,228590,6,0,L|342:135,1,90,14|0,0:0|1:2,0:0:0:0:
96,292,228898,1,0,1:2:0:0:
150,57,229052,5,10,0:0:0:0:
165,143,229206,5,2,1:2:0:0:
180,229,229359,5,2,1:2:0:0:
0,113,229513,6,0,P|41:98|83:113,1,90,10|0,0:0|1:2,0:0:0:0:
246,327,229821,1,0,1:2:0:0:
40,220,229975,5,14,0:0:0:0:
304,133,230129,1,2,1:2:0:0:
150,57,230282,5,6,1:2:0:0:
319,281,230436,1,2,1:2:0:0:
369,29,230590,6,0,L|313:40,1,45,14|8,0:0|0:0,0:0:0:0:
104,131,230744,5,10,0:0:0:0:
134,137,230820,1,8,0:0:0:0:
165,143,230897,1,2,1:2:0:0:
196,149,230974,1,0,1:2:0:0:
227,155,231052,6,0,L|283:166,1,45,10|8,0:3|0:3,0:0:0:0:
512,167,231205,5,6,0:3:0:0:
498,133,231282,1,4,0:3:0:0:
470,112,231359,1,0,1:2:0:0:
435,107,231436,1,0,1:2:0:0:
402,120,231513,6,0,L|391:176,1,45,14|8,0:0|0:0,0:0:0:0:
331,340,231667,2,0,L|322:295,1,45,10|8,0:0|0:0,0:0:0:0:
252,76,231821,2,0,L|241:132,1,45,2|0,1:2|1:2,0:0:0:0:
191,371,231975,6,0,L|179:328,1,45,10|8,0:3|0:3,0:0:0:0:
102,44,232129,5,6,0:3:0:0:
53,47,232205,1,4,0:3:0:0:
16,78,232282,1,2,1:2:0:0:
5,125,232359,1,0,1:2:0:0:
22,170,232436,5,10,0:3:0:0:
72,188,232513,1,8,0:3:0:0:
124,178,232590,1,2,1:2:0:0:
165,143,232667,1,0,1:2:0:0:
182,93,232744,1,6,0:3:0:0:
222,57,232821,1,4,0:3:0:0:
275,48,232898,1,2,1:2:0:0:
325,66,232975,1,0,1:2:0:0:
355,110,233052,5,14,0:0:0:0:
181,367,233205,2,0,L|166:310,1,58.4999973220826,0|8,1:2|0:0,0:0:0:0:
126,151,233359,5,0,1:2:0:0:
272,372,233513,2,0,L|250:288,1,58.4999973220826,0|8,1:2|0:0,0:0:0:0:
197,77,233667,5,0,1:2:0:0:
366,381,233821,2,0,L|344:297,1,58.4999973220826,0|8,1:2|0:0,0:0:0:0:
269,18,233975,5,0,1:2:0:0:
465,241,234129,6,0,B|430:183|369:205|369:205|354:239|323:247,1,175.499991966248,6|0,1:2|0:0,0:0:0:0:
291,167,234436,1,10,0:0:0:0:
44,6,234590,1,2,1:2:0:0:
153,233,234744,1,2,1:2:0:0:
163,228,234821,1,8,0:0:0:0:
174,223,234898,5,10,0:0:0:0:
160,167,234974,1,8,0:0:0:0:
114,133,235051,1,10,0:3:0:0:
57,138,235128,1,10,0:3:0:0:
17,179,235205,5,10,0:3:0:0:
21,202,235282,1,10,0:3:0:0:
25,225,235359,1,6,0:3:0:0:
29,248,235436,1,6,0:3:0:0:
33,271,235513,5,6,1:2:0:0:
260,384,235821,1,10,0:0:0:0:
373,243,235975,2,0,L|284:258,1,90,2|0,1:2|1:2,0:0:0:0:
181,153,236282,1,2,1:2:0:0:
315,23,236436,2,0,P|278:74|198:59,1,135,10|0,0:0|0:0,0:0:0:0:
126,38,236744,6,0,P|65:59|52:123,1,135,2|0,1:2|0:0,0:0:0:0:
104,181,237052,1,10,0:0:0:0:
191,305,237205,2,0,P|146:307|103:320,1,90,2|0,1:2|1:2,0:0:0:0:
253,195,237513,1,2,1:2:0:0:
363,361,237667,1,10,0:0:0:0:
460,297,237821,5,0,1:2:0:0:
463,283,237898,1,0,1:2:0:0:
466,269,237975,6,0,P|412:232|352:258,1,135,2|0,1:2|0:0,0:0:0:0:
296,314,238282,1,10,0:0:0:0:
169,196,238436,2,0,P|210:210|252:195,1,90,2|0,1:2|1:2,0:0:0:0:
422,62,238744,1,2,1:2:0:0:
288,6,238898,2,0,B|252:47|252:47|287:119,1,135,10|0,0:0|0:0,0:0:0:0:
359,167,239205,6,0,P|402:154|446:152,1,90,0|0,1:2|1:2,0:0:0:0:
285,322,239513,2,0,P|241:309|197:307,1,90,10|0,0:0|1:2,0:0:0:0:
79,104,239821,2,0,L|86:148,3,45,10|8|0|0,0:3|0:3|1:2|1:2,0:0:0:0:
4,255,240129,1,10,0:0:0:0:
7,277,240205,1,8,0:3:0:0:
11,299,240282,1,4,0:3:0:0:
15,321,240359,1,4,0:3:0:0:
18,343,240436,6,0,B|93:331|73:378|147:366,1,135,6|0,1:2|0:0,0:0:0:0:
197,306,240744,1,10,0:0:0:0:
379,384,240898,2,0,L|394:295,1,90,2|0,1:2|1:2,0:0:0:0:
505,138,241205,1,2,1:2:0:0:
377,169,241359,5,10,0:0:0:0:
505,269,241513,1,0,1:2:0:0:
291,203,241667,6,0,L|276:114,1,90,2|0,1:2|1:2,0:0:0:0:
93,189,241975,1,10,0:0:0:0:
169,256,242129,2,0,L|184:167,1,90,2|0,1:2|1:2,0:0:0:0:
26,36,242436,5,2,1:2:0:0:
112,21,242589,5,10,0:0:0:0:
198,6,242743,5,0,1:2:0:0:
315,107,242898,5,6,1:2:0:0:
93,189,243052,1,0,1:2:0:0:
305,81,243205,1,10,0:0:0:0:
134,264,243359,2,0,P|92:279|50:264,1,90,2|0,1:2|1:2,0:0:0:0:
201,37,243667,1,10,0:0:0:0:
321,279,243821,1,0,1:2:0:0:
59,101,243975,6,0,B|153:76|136:155|230:129,1,180,14|0,0:0|1:2,0:0:0:0:
450,39,244436,1,8,0:0:0:0:
265,209,244590,1,0,1:2:0:0:
504,104,244744,5,8,0:3:0:0:
499,135,244820,1,8,0:3:0:0:
494,166,244897,1,8,0:3:0:0:
489,197,244974,1,8,0:3:0:0:
462,212,245052,5,6,0:3:0:0:
465,233,245128,1,4,0:3:0:0:
468,255,245205,1,6,0:3:0:0:
472,277,245282,1,4,0:3:0:0:
493,307,245359,6,0,B|378:284|378:284|366:333|318:341,1,198,6|0,1:2|0:0,0:0:0:0:
253,302,246282,2,0,P|244:276|250:249,1,54,2|0,0:0|0:0,0:0:0:0:
280,167,246590,6,0,B|215:184|234:148|174:164,2,108,2|2|2,0:0|0:0|0:0,0:0:0:0:
348,96,247667,1,2,0:0:0:0:
348,96,247744,1,2,0:0:0:0:
348,96,247821,6,0,P|299:26|217:48,1,180,2|0,0:0|0:0,0:0:0:0:
217,48,248744,1,2,0:0:0:0:
16,0,249052,6,0,L|46:178,1,180,2|2,0:0|0:0,0:0:0:0:
183,375,249975,2,0,P|220:322|193:264,1,135,8|0,0:3|0:0,0:0:0:0:
118,229,250282,5,14,0:0:0:0:
390,77,250436,1,0,1:2:0:0:
258,316,250590,1,0,1:2:0:0:
168,28,250744,5,12,0:0:0:0:
419,167,250898,1,0,1:2:0:0:
162,4,251052,1,0,1:2:0:0:
329,267,251205,5,12,0:0:0:0:
467,5,251359,1,0,1:2:0:0:
181,174,251513,1,0,1:2:0:0:
469,337,251667,5,12,0:0:0:0:
253,51,251821,1,0,1:2:0:0:
179,384,251975,1,0,1:2:0:0:
419,167,252129,5,14,0:0:0:0:
76,90,252282,1,0,1:2:0:0:
431,145,252436,1,8,0:0:0:0:
105,307,252590,2,0,L|113:263,1,45,2|0,1:2|1:2,0:0:0:0:
11,48,252744,5,12,0:0:0:0:
39,75,252820,1,8,0:0:0:0:
76,90,252897,1,8,0:0:0:0:
117,91,252974,1,8,0:0:0:0:
155,76,253051,1,0,1:2:0:0:
184,49,253128,1,8,0:3:0:0:
200,13,253205,5,8,0:3:0:0:
156,41,253281,1,8,0:3:0:0:
131,89,253358,1,8,0:3:0:0:
134,142,253435,1,8,0:3:0:0:
163,187,253512,1,8,0:3:0:0:
211,211,253589,1,8,0:3:0:0:
264,208,253666,1,8,0:3:0:0:
312,232,253744,1,8,0:3:0:0:
341,277,253821,1,0,1:2:0:0:
344,330,253898,1,0,1:2:0:0:
318,377,253975,5,8,0:0:0:0:
270,315,254051,1,8,0:3:0:0:
273,235,254128,1,4,0:3:0:0:
327,177,254205,1,0,1:2:0:0:
406,166,254282,5,14,1:2:0:0:
94,384,254436,1,14,1:2:0:0:
0,27,256283,6,0,B|79:16|79:16|129:56|129:56|209:44,1,225,6|2,1:2|0:0,0:0:0:0:
209,44,258283,1,2,0:0:0:0:
505,129,258898,6,0,P|424:148|430:230,1,180,0|2,1:2|0:0,0:0:0:0:
430,230,260129,6,0,L|454:227,1,22.5,8|8,0:3|0:3,0:0:0:0:
276,171,260590,6,0,L|262:153,1,22.5,4|0,0:3|0:0,0:0:0:0:
302,331,261052,6,0,L|291:351,1,22.5,0|0,1:2|0:0,0:0:0:0:
331,250,261360,6,0,B|237:225|254:304|160:278,1,180,6|2,1:2|0:0,0:0:0:0:
160,278,263206,1,2,0:0:0:0:
29,98,263821,6,0,B|82:64|82:64|62:179,1,180,0|2,1:2|0:0,0:0:0:0:
237,21,264898,1,0,1:2:0:0:
227,23,264975,1,0,1:2:0:0:
217,26,265052,2,0,L|228:82,3,45,10|2|10|2,0:0|0:0|0:0|0:0,0:0:0:0:
317,123,265360,1,2,0:0:0:0:
327,125,265437,1,2,0:0:0:0:
337,128,265513,2,0,L|326:184,1,45,10|2,0:3|0:0,0:0:0:0:
181,252,265667,5,2,0:0:0:0:
245,186,265821,1,10,0:3:0:0:
214,351,265975,5,6,0:3:0:0:
89,222,266129,1,2,0:0:0:0:
282,300,266283,6,0,P|325:289|370:286,1,90,6|0,1:2|0:0,0:0:0:0:
512,190,266590,2,0,P|467:187|423:176,1,90,0|0,1:2|0:0,0:0:0:0:
336,44,266898,2,0,P|351:86|336:128,1,90,2|0,1:2|0:0,0:0:0:0:
161,125,267206,2,0,P|189:90|233:82,1,90,0|2,1:2|0:0,0:0:0:0:
318,236,267513,2,0,P|274:228|245:194,1,90,0|0,1:2|0:0,0:0:0:0:
175,36,267821,6,0,L|160:125,1,90,2|0,1:2|0:0,0:0:0:0:
19,94,268129,2,0,L|34:183,1,90,2|0,1:2|0:0,0:0:0:0:
168,316,268437,1,2,1:2:0:0:
14,309,268590,1,10,0:0:0:0:
9,323,268667,1,8,0:0:0:0:
4,336,268744,6,0,P|33:369|76:376,1,90,4|0,1:2|0:0,0:0:0:0:
158,224,269052,2,0,P|114:232|86:266,1,90,0|0,1:2|0:0,0:0:0:0:
265,384,269360,2,0,L|250:295,1,90,2|0,1:2|0:0,0:0:0:0:
397,207,269667,2,0,L|412:118,1,90,0|0,1:2|0:0,0:0:0:0:
433,384,269975,6,0,L|448:295,1,90,2|0,1:2|0:0,0:0:0:0:
284,206,270283,2,0,L|269:117,1,90,0|0,1:2|0:0,0:0:0:0:
128,51,270590,2,0,P|45:48|11:123,1,175.499991966248,2|0,1:2|0:0,0:0:0:0:
33,212,270898,2,0,B|125:187|108:264|200:239,1,175.499991966248,10|0,1:2|0:0,0:0:0:0:
284,206,271206,5,6,1:2:0:0:
284,206,271513,5,8,1:2:0:0:
225,322,271667,1,2,1:2:0:0:
332,300,271821,5,8,1:2:0:0:
198,239,271975,1,0,1:2:0:0:
373,176,272129,5,10,1:2:0:0:
296,383,272283,1,0,1:2:0:0:
211,150,272437,5,10,1:2:0:0:
354,322,272590,1,8,1:2:0:0:
402,88,272744,5,8,1:2:0:0:
169,265,272898,1,10,1:2:0:0:
55,0,273052,6,0,L|66:55,1,45,10|2,1:2|0:0,0:0:0:0:
284,206,273206,2,0,L|275:250,1,45,10|2,1:2|0:0,0:0:0:0:
246,0,273360,6,0,L|237:44,1,45,10|2,1:2|0:0,0:0:0:0:
57,241,273513,2,0,L|65:285,1,45,10|2,1:2|0:0,0:0:0:0:
377,384,273667,5,14,1:2:0:0:
385,335,273743,1,8,0:0:0:0:
393,286,273820,1,8,0:0:0:0:
401,237,273897,1,8,0:0:0:0:
409,188,273974,1,0,1:2:0:0:
418,139,274051,1,0,1:2:0:0:
426,91,274128,5,10,0:3:0:0:
353,107,274205,1,8,0:3:0:0:
311,169,274282,1,8,0:3:0:0:
325,242,274359,1,8,0:3:0:0:
385,286,274436,1,0,1:2:0:0:
459,275,274513,1,0,1:2:0:0:
505,216,274590,5,6,0:3:0:0:
424,199,274666,1,4,0:3:0:0:
353,234,274743,1,4,0:3:0:0:
323,309,274820,1,4,0:3:0:0:
253,343,274899,1,0,1:2:0:0:
172,330,274976,1,0,1:2:0:0:
126,269,275052,5,12,0:0:0:0:
233,2,275206,1,2,1:2:0:0:
0,224,275360,1,0,1:2:0:0:
323,213,275513,5,10,0:0:0:0:
71,30,275667,1,14,0:0:0:0:
23,299,275975,6,0,B|126:279|126:279|139:317|173:330,1,175.499991966248,6|0,1:2|0:0,0:0:0:0:
210,249,276282,1,2,1:2:0:0:
67,58,276436,2,0,L|51:155,1,99.0000030212403,10|0,0:0|0:0,0:0:0:0:
311,321,276744,1,2,1:2:0:0:
170,137,276898,1,0,1:2:0:0:
81,384,277052,1,10,0:0:0:0:
292,167,277205,6,0,B|384:142|367:219|459:194,1,175.499991966248,2|0,1:2|0:0,0:0:0:0:
512,132,277513,1,0,1:2:0:0:
414,340,277667,2,0,P|367:356|321:340,1,99.0000030212403,10|0,0:0|0:0,0:0:0:0:
149,114,277975,1,2,1:2:0:0:
370,273,278129,1,2,1:2:0:0:
122,248,278282,1,8,0:0:0:0:
292,45,278436,6,0,B|340:8|340:8|315:142,1,198.000006042481,6|0,1:2|1:2,0:0:0:0:
512,316,278898,2,0,L|496:219,1,99.0000030212403,10|0,0:0|0:0,0:0:0:0:
289,247,279205,5,2,1:2:0:0:
489,138,279358,1,0,1:2:0:0:
414,340,279513,1,10,0:0:0:0:
242,177,279667,6,0,L|266:323,1,148.50000453186,6|0,1:2|0:0,0:0:0:0:
214,384,279975,1,0,1:2:0:0:
120,245,280129,5,8,0:0:0:0:
202,370,280282,1,0,1:2:0:0:
0,215,280436,5,10,0:0:0:0:
209,120,280590,1,6,0:3:0:0:
233,158,280667,1,0,1:2:0:0:
219,199,280743,5,8,0:0:0:0:
49,9,280898,6,0,P|134:30|221:38,1,175.499991966248,6|0,1:2|0:0,0:0:0:0:
302,40,281206,1,2,1:2:0:0:
136,246,281359,2,0,P|120:199|136:153,1,99.0000030212403,10|0,0:0|0:0,0:0:0:0:
406,92,281667,1,2,1:2:0:0:
266,265,281821,1,0,1:2:0:0:
221,38,281975,1,10,0:0:0:0:
504,201,282129,6,0,B|450:162|403:207|403:207|403:245|378:265,1,175.499991966248,2|0,1:2|0:0,0:0:0:0:
317,206,282436,1,0,0:0:0:0:
130,29,282590,2,0,L|146:125,1,99.0000030212403,10|0,0:0|0:0,0:0:0:0:
324,325,282898,1,2,1:2:0:0:
79,178,283052,1,2,1:2:0:0:
235,384,283205,1,8,0:0:0:0:
277,118,283359,6,0,B|311:79|311:79|356:114|357:171|317:205,1,198.000006042481,6|0,1:2|1:2,0:0:0:0:
82,307,283821,2,0,P|131:309|178:324,1,99.0000030212403,10|0,0:0|0:0,0:0:0:0:
379,116,284129,5,2,1:2:0:0:
234,240,284282,1,0,1:2:0:0:
455,160,284436,1,10,0:0:0:0:
248,31,284590,1,2,0:0:0:0:
333,292,284744,5,0,1:2:0:0:
426,48,284898,1,8,0:0:0:0:
120,156,285052,5,0,1:2:0:0:
106,115,285128,1,0,1:2:0:0:
130,77,285206,2,0,P|154:84|179:86,1,49.5000015106202,0|8,1:2|1:2,0:0:0:0:
401,235,285359,5,10,1:2:0:0:
251,262,285513,5,10,0:3:0:0:
100,288,285666,5,6,0:3:0:0:
274,370,285821,6,0,B|289:277|289:277|292:274|292:274|308:176,1,198.000006042481,6|0,1:2|1:2,0:0:0:0:
197,0,286282,5,8,0:0:0:0:
55,215,286436,1,0,1:2:0:0:
108,0,286590,5,10,0:0:0:0:
308,175,286744,1,0,1:2:0:0:
100,288,286898,5,10,0:0:0:0:
388,145,287052,1,2,1:2:0:0:
402,186,287128,1,0,1:2:0:0:
378,225,287205,5,8,0:0:0:0:
217,80,287359,1,0,1:2:0:0:
181,241,287513,5,8,0:0:0:0:
308,175,287667,1,2,1:2:0:0:
91,102,287821,5,10,0:0:0:0:
254,369,287975,1,2,1:2:0:0:
349,67,288129,1,10,0:0:0:0:
73,306,288282,6,0,B|129:311|172:328|172:328|224:278|167:231,1,198.000006042481,6|0,1:2|1:2,0:0:0:0:
13,62,288744,5,8,0:0:0:0:
279,183,288898,1,0,1:2:0:0:
85,216,289052,5,10,0:0:0:0:
280,0,289205,1,0,1:2:0:0:
91,102,289359,5,10,0:0:0:0:
353,236,289513,1,2,1:2:0:0:
377,198,289591,1,0,1:2:0:0:
363,157,289667,6,0,P|338:159|314:166,1,49.5000015106202,8|8,0:3|0:3,0:0:0:0:
104,329,289821,2,0,P|128:331|152:338,1,49.5000015106202,0|0,1:2|1:2,0:0:0:0:
396,329,289975,6,0,P|371:331|347:338,1,49.5000015106202,8|4,0:0|0:3,0:0:0:0:
113,194,290129,2,0,P|137:196|161:203,1,49.5000015106202,2|0,1:2|1:2,0:0:0:0:
264,384,290282,5,10,0:3:0:0:
254,308,290358,1,8,0:3:0:0:
244,232,290435,1,6,0:3:0:0:
234,156,290512,1,4,0:3:0:0:
223,80,290589,1,10,0:0:0:0:
388,309,290744,6,0,P|469:298|489:218,1,175.499991966248,6|0,1:2|0:0,0:0:0:0:
443,152,291052,1,0,1:2:0:0:
254,308,291205,2,0,B|162:283|179:360|87:335,1,175.499991966248,10|0,0:0|0:0,0:0:0:0:
7,306,291513,1,2,1:2:0:0:
242,115,291667,1,0,1:2:0:0:
225,384,291821,1,10,0:0:0:0:
122,89,291975,6,0,P|40:99|20:179,1,175.499991966248,6|0,1:2|0:0,0:0:0:0:
67,246,292283,1,0,1:2:0:0:
265,92,292436,2,0,B|357:117|340:40|432:65,1,175.499991966248,10|0,0:0|0:0,0:0:0:0:
512,116,292744,2,0,L|500:177,1,58.4999973220826,2|0,1:2|1:2,0:0:0:0:
318,253,292898,2,0,L|306:195,1,58.4999973220826,2|0,1:2|1:2,0:0:0:0:
512,258,293052,2,0,L|500:315,1,58.4999973220826,10|0,0:0|0:0,0:0:0:0:
217,344,293205,6,0,P|236:263|318:253,1,175.499991966248,6|0,1:2|0:0,0:0:0:0:
380,312,293513,1,2,1:2:0:0:
143,114,293667,5,10,0:0:0:0:
310,371,293821,1,2,1:2:0:0:
381,83,293975,5,10,0:0:0:0:
306,54,294051,1,2,0:0:0:0:
237,92,294128,1,10,0:3:0:0:
219,169,294205,1,2,0:0:0:0:
150,207,294283,1,10,0:0:0:0:
76,179,294359,1,2,0:0:0:0:
45,103,294436,6,0,B|10:69|26:9|87:2|87:2|50:42|76:92,1,215.999993408203,6|10,1:2|0:0,0:0:0:0:
345,215,294898,1,2,1:2:0:0:
168,0,295052,2,0,L|156:61,1,58.4999973220826,2|8,1:2|0:0,0:0:0:0:
113,295,295205,5,10,0:0:0:0:
248,34,295359,2,0,L|236:95,1,58.4999973220826,2|8,1:2|0:0,0:0:0:0:
200,284,295512,5,10,0:0:0:0:
446,156,295667,6,0,B|400:151|357:139|357:139|318:175|345:214,1,175.499991966248,6|0,1:2|0:0,0:0:0:0:
439,250,295975,1,0,1:2:0:0:
236,91,296129,5,8,0:0:0:0:
388,358,296282,1,0,1:2:0:0:
397,52,296436,5,10,0:0:0:0:
200,284,296590,1,2,1:2:0:0:
168,0,296744,5,10,0:0:0:0:
330,255,296898,1,2,1:2:0:0:
344,214,296974,1,0,1:2:0:0:
320,176,297052,5,8,0:0:0:0:
66,366,297205,1,0,1:2:0:0:
358,350,297359,5,8,0:0:0:0:
58,172,297513,1,0,1:2:0:0:
325,73,297667,5,10,0:0:0:0:
46,263,297821,1,2,1:2:0:0:
345,82,297975,1,8,0:0:0:0:
57,13,298129,6,0,B|1:68|1:68|59:173,1,198.000006042481,6|10,1:2|0:0,0:0:0:0:
127,235,298513,1,8,0:0:0:0:
139,243,298590,2,0,P|167:234|197:232,1,49.5000015106202,2|0,1:2|1:2,0:0:0:0:
402,376,298744,1,10,0:3:0:0:
387,379,298821,1,8,0:3:0:0:
372,383,298898,5,10,0:3:0:0:
305,341,298974,1,10,0:3:0:0:
285,267,299051,1,6,0:3:0:0:
319,197,299128,1,6,0:3:0:0:
391,170,299205,1,6,0:3:0:0:
426,99,299282,1,6,0:3:0:0:
404,25,299359,6,0,B|319:37|319:37|314:42|314:42|227:54,1,180,14|2,0:0|0:0,0:0:0:0:
313,222,300282,1,0,1:2:0:0:
316,209,300359,1,0,1:2:0:0:
319,197,300436,1,10,1:2:0:0:
40,65,300744,5,14,0:2:0:0:
147,285,300898,1,0,1:2:0:0:
227,53,301052,1,0,1:2:0:0:
3,214,301205,6,0,P|45:227|86:213,1,90,14|0,0:0|1:2,0:0:0:0:
290,116,301513,1,0,1:2:0:0:
234,314,301667,5,14,0:0:0:0:
219,228,301821,5,0,1:2:0:0:
203,142,301974,5,0,1:2:0:0:
370,360,302129,5,14,0:0:0:0:
147,285,302282,1,0,1:2:0:0:
371,198,302436,1,0,1:2:0:0:
242,358,302590,6,0,L|234:314,1,45,10|2,0:0|0:0,0:0:0:0:
383,127,302744,2,0,L|375:171,1,45,2|2,1:2|0:0,0:0:0:0:
126,296,302898,6,0,L|134:252,1,45,10|0,0:0|1:0,0:0:0:0:
0,76,303052,2,0,L|8:120,1,45,2|2,1:2|1:2,0:0:0:0:
251,274,303205,5,14,0:0:0:0:
104,87,303359,1,0,1:2:0:0:
31,308,303513,1,0,1:2:0:0:
195,124,303667,6,0,L|180:35,1,90,14|0,0:0|1:2,0:0:0:0:
31,203,303975,1,0,1:2:0:0:
251,274,304129,5,14,0:0:0:0:
266,189,304283,5,0,1:2:0:0:
281,103,304436,5,0,1:2:0:0:
124,209,304591,5,14,0:0:0:0:
233,363,304744,1,0,1:2:0:0:
385,255,304898,1,0,1:2:0:0:
150,132,305052,6,0,P|172:129|194:123,1,45,10|2,0:0|0:0,0:0:0:0:
404,147,305205,2,0,P|381:149|359:155,1,45,2|2,1:2|0:0,0:0:0:0:
134,229,305359,6,0,P|156:226|178:220,1,45,10|0,0:0|1:2,0:0:0:0:
405,55,305513,2,0,P|382:57|360:63,1,45,2|0,1:2|1:2,0:0:0:0:
87,51,305667,5,14,0:0:0:0:
251,274,305821,1,0,1:2:0:0:
295,13,305975,1,0,1:2:0:0:
121,242,306129,6,0,P|108:284|122:325,1,90,14|0,0:0|1:2,0:0:0:0:
272,152,306436,1,0,1:2:0:0:
404,333,306590,5,14,0:0:0:0:
318,348,306743,5,0,1:2:0:0:
233,363,306897,5,0,1:2:0:0:
335,97,307052,5,14,0:0:0:0:
486,318,307205,1,0,1:2:0:0:
251,274,307359,1,0,1:2:0:0:
485,95,307513,5,10,0:0:0:0:
404,333,307667,1,2,1:2:0:0:
343,52,307821,2,0,L|335:96,1,45,10|2,0:0|1:2,0:0:0:0:
486,318,307975,2,0,L|478:274,1,45,2|2,1:2|1:2,0:0:0:0:
239,74,308129,5,14,1:2:0:0:
501,179,308282,1,0,1:2:0:0:
251,274,308436,1,2,1:2:0:0:
343,52,308590,5,10,1:2:0:0:
367,91,308667,1,0,1:2:0:0:
353,132,308743,1,2,1:2:0:0:
109,36,308898,1,2,1:2:0:0:
255,302,309052,5,10,1:2:0:0:
335,19,309205,1,2,1:2:0:0:
62,196,309359,1,2,1:2:0:0:
239,74,309513,5,10,0:3:0:0:
363,335,309667,1,2,1:2:0:0:
171,147,309821,1,10,0:3:0:0:
63,355,309975,5,6,0:3:0:0:
72,361,310052,1,4,0:3:0:0:
82,368,310129,5,2,1:2:0:0:
138,314,310205,1,0,1:2:0:0:
131,237,310282,1,2,1:2:0:0:
62,196,310359,1,2,1:2:0:0:
55,119,310437,1,2,1:2:0:0:
110,60,310513,1,2,1:2:0:0:
218,37,310590,5,6,1:2:0:0:
279,51,310667,1,2,1:2:0:0:
342,67,310744,1,2,1:2:0:0:
404,84,310821,1,2,1:2:0:0:
445,17,310898,6,0,B|454:83|454:83|452:88|452:88|462:154,1,135,14|0,0:0|0:0,0:0:0:0:
470,236,311205,1,2,1:2:0:0:
351,162,311359,1,2,0:0:0:0:
272,317,311513,5,10,0:0:0:0:
355,275,311667,1,2,0:0:0:0:
196,143,311821,6,0,L|181:232,1,90,2|0,1:2|0:0,0:0:0:0:
28,345,312129,2,0,L|13:256,1,90,10|0,0:0|0:0,0:0:0:0:
66,55,312436,6,0,B|87:62|109:65,1,45,2|2,1:2|0:0,0:0:0:0:
196,143,312590,2,0,B|217:135|239:132,1,45,2|2,0:0|0:0,0:0:0:0:
374,86,312744,6,0,P|388:61|387:34,1,45,10|0,0:0|0:0,0:0:0:0:
274,0,312898,2,0,P|259:25|261:52,1,45,2|0,0:0|0:0,0:0:0:0:
368,202,313052,5,6,1:2:0:0:
431,151,313205,1,0,0:0:0:0:
239,131,313359,5,10,0:0:0:0:
346,288,313513,1,2,0:0:0:0:
127,290,313667,6,0,P|112:248|125:206,1,90,0|0,1:2|0:0,0:0:0:0:
239,131,313975,5,10,0:0:0:0:
266,249,314129,1,2,0:0:0:0:
77,94,314282,5,2,1:2:0:0:
104,12,314436,1,2,0:0:0:0:
256,145,314590,6,0,P|299:133|344:130,1,90,8|0,0:0|0:0,0:0:0:0:
512,18,314898,6,0,B|502:61,1,45,2|0,1:2|0:0,0:0:0:0:
421,153,315052,2,0,B|431:196,1,45,10|0,0:0|0:0,0:0:0:0:
332,279,315205,6,0,P|309:276|291:263,1,45,2|0,1:2|0:0,0:0:0:0:
440,226,315359,2,0,P|462:229|481:241,1,45,10|0,0:0|0:0,0:0:0:0:
369,384,315513,6,0,L|354:295,1,90,6|0,1:2|0:0,0:0:0:0:
125,205,315821,1,10,0:0:0:0:
80,285,315975,1,2,0:0:0:0:
221,256,316129,6,0,L|236:167,1,90,0|0,1:2|0:0,0:0:0:0:
116,35,316436,1,10,0:0:0:0:
201,66,316590,1,2,0:0:0:0:
321,169,316744,5,2,1:2:0:0:
437,139,316898,1,2,0:0:0:0:
354,9,317052,6,0,P|341:51|356:93,1,90,8|0,0:0|0:0,0:0:0:0:
512,188,317359,5,2,1:2:0:0:
429,48,317513,1,2,0:0:0:0:
327,207,317667,6,0,B|306:200|284:197,1,45,10|2,0:0|0:0,0:0:0:0:
148,131,317821,2,0,B|126:134|105:141,1,45,2|2,0:0|0:0,0:0:0:0:
23,253,317975,6,0,P|26:275|38:294,1,45,4|0,1:2|0:0,0:0:0:0:
162,384,318129,5,8,0:0:0:0:
166,357,318205,1,8,0:0:0:0:
170,330,318282,1,0,1:2:0:0:
175,304,318359,1,0,1:2:0:0:
179,277,318436,2,0,B|187:231,1,45,10|8,0:3|0:3,0:0:0:0:
42,106,318591,5,0,1:2:0:0:
86,111,318667,1,0,1:2:0:0:
126,93,318744,1,10,0:0:0:0:
152,57,318821,1,8,0:0:0:0:
155,12,318898,5,10,0:3:0:0:
122,41,318974,1,8,0:3:0:0:
112,85,319051,1,2,1:2:0:0:
130,125,319128,1,0,1:2:0:0:
168,147,319205,2,0,B|189:140|211:137,1,45,10|8,0:0|0:3,0:0:0:0:
336,4,319359,5,2,1:2:0:0:
389,3,319435,1,4,0:3:0:0:
432,33,319512,1,6,0:3:0:0:
450,84,319589,1,4,0:3:0:0:
435,135,319666,5,2,1:2:0:0:
393,167,319743,1,0,1:2:0:0:
378,218,319822,1,6,0:3:0:0:
395,268,319899,1,4,0:3:0:0:
439,299,319975,2,0,B|461:302|482:309,1,45,6|6,0:3|0:3,0:0:0:0:
305,162,320129,5,10,0:0:0:0:
229,169,320205,1,10,0:0:0:0:
153,175,320282,1,10,0:0:0:0:
77,184,320359,1,10,0:0:0:0:
0,192,320436,1,0,0:0:0:0:
122,32,321052,6,0,B|153:-8|212:-13|253:25|257:69|257:69|257:69|257:69|262:120|311:154|365:143|396:103|396:103|323:116|334:56|269:65|269:65|232:74|209:108|211:147|230:173|230:173|253:203|250:244|225:273|192:280|192:280|123:290|135:229|69:239|69:239|99:199|159:194|199:232|204:276|204:276|211:330|251:370|331:365|355:311|355:311|382:263|448:250|496:290|503:340|503:340|502:340|502:340|479:357|447:356|425:338|417:317,1,1584,6|2,0:0|0:0,0:0:0:0:
