osu file format v14

[General]
AudioFilename: audio.mp3
AudioLeadIn: 0
PreviewTime: 150845
Countdown: 0
SampleSet: Soft
StackLeniency: 0.7
Mode: 0
LetterboxInBreaks: 0
WidescreenStoryboard: 1

[Editor]
Bookmarks: 1230,1384,1537,1691,1845,1999,2153,2384,2537,2691,2845,3076,3230,3384,3537,3768,58614,58768,58999,59153,59307,59461,59614,59768,59922,60076,60230,60461,60614,60768,60922,61076,61307,61461,61614,61845,61999,62230,62384,62614,62768,191537,191691,191845,192076,192230,192384,192537,192691,192845,192999,193153,193307,193384,193461,193537,193614,193768,193922,194076,194153,194307,194461,194537,194691,194845,194999,195153,195307,195461,195614,195768,195922,196076,196230,245691,245922,246076,246230,246384,246537,246691,246845,246999,247076,247230,247384,247537,247691,247922,248076,248230,248307,248461,248614,248768,248922,249076,249230,249384,249537,249691,249845,249999,265230,273307
DistanceSpacing: 0.1
BeatDivisor: 4
GridSize: 8
TimelineZoom: 6.759995

[Metadata]
Title:Ringing Bloom
TitleUnicode:Ringing Bloom
Artist:Roselia
ArtistUnicode:Roselia
Creator:SkyFlame
Version:Forever One
Source:バンドリ! ガールズバンドパーティ!
Tags:BanG Dream! Girls Band Party! bandori garupa ガルパ ロゼリア minato yukina 湊友希那 aiba aina 相羽あいな hikawa sayo 氷川紗夜 kudou haruka 工藤晴香 imai lisa 今井リサ nakashima yuki 中島由貴 udagawa ako 宇田川あこ sakuragawa megu 櫻川めぐ shirokane rinko 白金燐子 akesaka satomi 明坂聡美 shizaki kanon 志崎樺音 anime video game japanese full version pop rock fire bird elements garden jpop female vocal
BeatmapID:2233275
BeatmapSetID:1066605

[Difficulty]
HPDrainRate:6
CircleSize:4
OverallDifficulty:9.4
ApproachRate:9.6
SliderMultiplier:1.9
SliderTickRate:1

[Events]
//Background and Video events
0,0,"bg.jpg",0,0
//Break Periods
2,622,3644
2,58507,62721
2,191430,195644
2,245584,249490
//Storyboard Layer 0 (Background)
//Storyboard Layer 1 (Fail)
//Storyboard Layer 2 (Pass)
//Storyboard Layer 3 (Foreground)
//Storyboard Layer 4 (Overlay)
//Storyboard Sound Samples

[TimingPoints]
422,307.692307692308,4,2,31,50,1,0
461,307.692307692308,4,2,31,50,1,0
4153,-100,4,2,30,50,0,0
6922,-100,4,2,30,70,0,0
8922,-100,4,2,1,5,0,0
9076,-125,4,2,10,45,0,0
9537,-125,4,2,11,45,0,0
9999,-125,4,2,10,45,0,0
10461,-125,4,2,11,45,0,0
10922,-125,4,2,10,45,0,0
11230,-125,4,2,12,45,0,0
11537,-125,4,2,10,45,0,0
11999,-125,4,2,11,45,0,0
12461,-125,4,2,10,45,0,0
12922,-125,4,2,11,45,0,0
13384,-125,4,2,10,45,0,0
13691,-125,4,2,11,45,0,0
14922,-125,4,2,13,45,0,0
16384,-125,4,2,13,60,0,0
16461,-125,4,2,11,45,0,0
16614,-125,4,2,11,60,0,0
16922,-125,4,2,30,45,0,0
17076,-125,4,2,30,60,0,0
17845,-125,4,2,1,70,0,0
18307,-100,4,2,1,70,0,0
18922,-100,4,2,1,80,0,0
20922,-83.3333333333333,4,2,1,80,0,0
28768,-117.647058823529,4,2,1,60,0,0
38614,-117.647058823529,4,2,1,67,0,0
39076,-100,4,2,1,67,0,0
48461,-100,4,2,1,64,0,0
48922,-111.111111111111,4,2,1,64,0,0
53384,-111.111111111111,4,2,1,66,0,0
58307,-111.111111111111,4,2,1,50,0,0
63230,-100,4,2,1,64,0,0
64461,-100,4,2,1,68,0,0
65691,-90.9090909090909,4,2,1,73,0,0
67230,-90.9090909090909,4,2,1,77,0,0
67691,-153.846153846153,4,2,1,77,0,0
67921,-153.846153846153,4,2,1,5,0,0
67999,-76.9230769230769,4,2,1,84,0,1
70461,-71.4285714285714,4,2,1,84,0,1
70922,-76.9230769230769,4,2,1,84,0,1
76768,-76.9230769230769,4,2,31,84,0,1
76845,-76.9230769230769,4,2,21,84,0,1
76922,-76.9230769230769,4,2,22,84,0,1
76999,-76.9230769230769,4,2,32,84,0,1
77076,-76.9230769230769,4,2,22,84,0,1
77153,-76.9230769230769,4,2,32,84,0,1
77230,-76.9230769230769,4,2,23,84,0,1
77307,-76.9230769230769,4,2,24,84,0,1
77384,-76.9230769230769,4,2,19,84,0,1
77537,-76.9230769230769,4,2,20,84,0,1
77691,-76.9230769230769,4,2,17,84,0,1
77845,-76.9230769230769,4,2,34,84,0,1
78075,-76.9230769230769,4,2,1,5,0,1
78153,-76.9230769230769,4,2,1,84,0,1
80537,-76.9230769230769,4,2,1,5,0,1
80614,-76.9230769230769,4,2,1,84,0,1
84768,-76.9230769230769,4,2,18,84,0,1
84845,-76.9230769230769,4,2,20,84,0,1
84922,-76.9230769230769,4,2,19,84,0,1
84999,-76.9230769230769,4,2,25,84,0,1
85076,-76.9230769230769,4,2,24,84,0,1
85152,-76.9230769230769,4,2,33,84,0,1
85230,-76.9230769230769,4,2,23,84,0,1
85384,-76.9230769230769,4,2,1,84,0,1
87614,-76.9230769230769,4,2,1,84,0,0
87691,-76.9230769230769,4,2,1,84,0,1
92844,-76.9230769230769,4,2,1,5,0,1
92922,-76.9230769230769,4,2,1,84,0,1
93845,-66.6666666666667,4,2,1,84,0,1
94075,-66.6666666666667,4,2,1,5,0,1
94153,-66.6666666666667,4,2,1,84,0,1
94307,-76.9230769230769,4,2,1,84,0,1
97767,-76.9230769230769,4,2,1,5,0,1
97845,-76.9230769230769,4,2,1,84,0,1
107076,-66.6666666666667,4,2,1,84,0,1
107537,-66.6666666666667,4,2,1,80,0,0
109537,-83.3333333333333,4,2,1,80,0,0
117384,-133.333333333333,4,2,1,50,0,0
122307,-133.333333333333,4,2,1,60,0,0
125999,-133.333333333333,4,2,1,62,0,0
126037,-133.333333333333,4,2,1,5,0,0
126768,-133.333333333333,4,2,1,60,0,0
126922,-153.846153846153,4,2,1,60,0,0
127152,-153.846153846153,4,2,1,5,0,0
127230,-153.846153846153,4,2,1,65,0,0
127691,-105.263157894737,4,2,1,65,0,0
137076,-100,4,2,1,71,0,0
145537,-83.3333333333333,4,2,1,71,0,0
145767,-83.3333333333333,4,2,1,5,0,0
145845,-83.3333333333333,4,2,1,71,0,0
146922,-83.3333333333333,4,2,1,74,0,0
149384,-83.3333333333333,4,2,1,77,0,0
150922,-83.3333333333333,4,2,1,80,0,0
151230,-66.6666666666667,4,2,1,80,0,0
151691,-76.9230769230769,4,2,1,84,0,1
160461,-76.9230769230769,4,2,31,84,0,1
160537,-76.9230769230769,4,2,21,84,0,1
160614,-76.9230769230769,4,2,22,84,0,1
160691,-76.9230769230769,4,2,32,84,0,1
160768,-76.9230769230769,4,2,22,84,0,1
160845,-76.9230769230769,4,2,32,84,0,1
160922,-76.9230769230769,4,2,23,84,0,1
160999,-76.9230769230769,4,2,24,84,0,1
161076,-76.9230769230769,4,2,19,84,0,1
161230,-76.9230769230769,4,2,20,84,0,1
161384,-76.9230769230769,4,2,17,84,0,1
161537,-76.9230769230769,4,2,34,84,0,1
161767,-76.9230769230769,4,2,1,5,0,1
161845,-76.9230769230769,4,2,1,84,0,1
168461,-76.9230769230769,4,2,18,84,0,1
168537,-76.9230769230769,4,2,20,84,0,1
168614,-76.9230769230769,4,2,19,84,0,1
168691,-76.9230769230769,4,2,25,84,0,1
168768,-76.9230769230769,4,2,24,84,0,1
168922,-76.9230769230769,4,2,23,84,0,1
169076,-76.9230769230769,4,2,1,84,0,1
171614,-76.9230769230769,4,2,1,5,0,1
171691,-76.9230769230769,4,2,1,84,0,1
181460,-76.9230769230769,4,2,1,5,0,1
181537,-76.9230769230769,4,2,1,84,0,1
191230,-76.9230769230769,4,2,1,40,0,0
197178,-133.333333333333,4,2,1,40,0,0
199999,-133.333333333333,4,2,1,70,0,0
200922,-100,4,2,1,70,0,0
201076,-111.111111111111,4,2,1,65,0,0
209384,-90.9090909090908,4,2,1,65,0,0
209691,-90.9090909090908,4,2,1,68,0,0
210922,-153.846153846154,4,2,14,71,0,0
211230,-153.846153846154,4,2,12,71,0,0
211332,-153.846153846154,4,2,11,71,0,0
211435,-153.846153846154,4,2,14,71,0,0
211537,-153.846153846154,4,2,15,71,0,0
211640,-153.846153846154,4,2,16,71,0,0
211743,-153.846153846154,4,2,17,71,0,0
211845,-153.846153846154,4,2,18,71,0,0
211948,-153.846153846154,4,2,19,71,0,0
212050,-153.846153846154,4,2,20,71,0,0
212153,-153.846153846154,4,2,21,71,0,0
212255,-153.846153846154,4,2,22,71,0,0
212358,-153.846153846154,4,2,23,71,0,0
212461,-153.846153846154,4,2,24,71,0,0
212563,-153.846153846154,4,2,25,71,0,0
212666,-153.846153846154,4,2,19,71,0,0
212768,-153.846153846154,4,2,20,71,0,0
212871,-153.846153846154,4,2,17,71,0,0
212973,-153.846153846154,4,2,26,71,0,0
213076,-153.846153846154,4,2,16,71,0,0
213178,-153.846153846154,4,2,26,71,0,0
213281,-153.846153846154,4,2,15,71,0,0
213384,-86.9565217391304,4,2,35,71,0,0
213691,-86.9565217391304,4,2,1,71,0,0
213845,-86.9565217391304,4,2,36,71,0,0
214152,-86.9565217391304,4,2,1,71,0,0
214307,-86.9565217391304,4,2,39,71,0,0
214614,-86.9565217391304,4,2,1,71,0,0
214768,-86.9565217391304,4,2,37,71,0,0
215230,-86.9565217391304,4,2,20,71,0,0
215332,-86.9565217391304,4,2,17,71,0,0
215435,-86.9565217391304,4,2,20,71,0,0
215537,-86.9565217391304,4,2,19,71,0,0
215640,-86.9565217391304,4,2,25,71,0,0
215743,-86.9565217391304,4,2,23,71,0,0
215845,-86.9565217391304,4,2,38,71,0,0
216152,-86.9565217391304,4,2,1,71,0,0
216307,-86.9565217391304,4,2,17,71,0,0
216614,-86.9565217391304,4,2,17,5,0,0
216691,-86.9565217391304,4,2,27,71,0,0
216844,-86.9565217391304,4,2,27,5,0,0
216922,-86.9565217391304,4,2,26,71,0,0
217229,-86.9565217391304,4,2,26,5,0,0
217307,-86.9565217391304,4,2,16,71,0,0
217460,-86.9565217391304,4,2,16,5,0,0
217537,-86.9565217391304,4,2,15,71,0,0
217922,-86.9565217391304,4,2,17,71,0,0
218153,-86.9565217391304,4,2,28,71,0,0
218307,-86.9565217391304,4,2,14,74,0,0
218614,-86.9565217391304,4,2,12,74,0,0
218768,-86.9565217391304,4,2,14,74,0,0
219076,-86.9565217391304,4,2,11,74,0,0
219230,-86.9565217391304,4,2,14,74,0,0
219537,-86.9565217391304,4,2,15,74,0,0
219614,-86.9565217391304,4,2,16,74,0,0
219691,-86.9565217391304,4,2,26,74,0,0
219768,-86.9565217391304,4,2,27,74,0,0
219845,-86.9565217391304,4,2,17,74,0,0
219922,-86.9565217391304,4,2,18,74,0,0
219999,-86.9565217391304,4,2,20,74,0,0
220076,-86.9565217391304,4,2,19,74,0,0
220153,-86.9565217391304,4,2,24,74,0,0
220230,-86.9565217391304,4,2,25,74,0,0
220307,-86.9565217391304,4,2,19,74,0,0
220384,-86.9565217391304,4,2,20,74,0,0
220461,-86.9565217391304,4,2,19,74,0,0
220499,-86.9565217391304,4,2,20,74,0,0
220537,-86.9565217391304,4,2,18,74,0,0
220576,-86.9565217391304,4,2,17,74,0,0
220614,-86.9565217391304,4,2,27,74,0,0
220653,-86.9565217391304,4,2,26,74,0,0
220691,-86.9565217391304,4,2,16,74,0,0
220730,-86.9565217391304,4,2,15,74,0,0
220768,-86.9565217391304,4,2,29,74,0,0
220922,-86.9565217391304,4,2,1,74,0,0
221230,-83.3333333333333,4,2,1,74,0,0
225691,-83.3333333333333,4,2,1,80,0,0
228614,-80,4,2,1,80,0,0
230614,-80,4,2,1,82,0,0
233076,-80,4,2,1,84,0,0
235537,-86.9565217391304,4,2,1,76,0,0
245384,-86.9565217391304,4,2,1,50,0,0
249999,-181.818181818181,4,2,1,50,0,0
250307,-181.818181818181,4,2,1,70,0,0
252614,-100,4,2,1,70,0,0
252768,-100,4,2,1,76,0,0
254307,-100,4,2,1,80,0,0
254768,-285.714285714284,4,2,1,80,0,0
256307,-222.222222222221,4,2,1,70,0,0
264922,-100,4,2,1,70,0,0
265076,-100,4,2,31,84,0,0
265153,-100,4,2,21,84,0,0
265230,-100,4,2,22,84,0,0
265307,-100,4,2,32,84,0,0
265384,-100,4,2,22,84,0,0
265461,-100,4,2,32,84,0,0
265537,-100,4,2,23,84,0,0
265614,-100,4,2,24,84,0,0
265691,-100,4,2,19,84,0,0
265845,-100,4,2,20,84,0,0
265999,-100,4,2,17,84,0,0
266153,-100,4,2,34,84,0,0
266307,-125,4,2,1,75,0,0
271230,-125,4,2,1,79,0,0
273076,-125,4,2,18,84,0,0
273153,-125,4,2,20,84,0,0
273230,-125,4,2,19,84,0,0
273307,-125,4,2,25,84,0,0
273384,-125,4,2,24,84,0,0
273461,-125,4,2,33,84,0,0
273537,-76.9230769230769,4,2,23,84,0,0
273691,-76.9230769230769,4,2,1,83,0,0
273999,-66.6666666666667,4,2,1,83,0,0
275230,-66.6666666666667,4,2,1,86,0,0
275999,-66.6666666666667,4,2,1,90,0,1
286075,-66.6666666666667,4,2,1,5,0,1
286153,-66.6666666666667,4,2,1,90,0,1
295921,-66.6666666666667,4,2,1,5,0,1
295999,-66.6666666666667,4,2,1,90,0,1
300768,-66.6666666666667,4,2,1,80,0,0
302768,-76.9230769230769,4,2,1,80,0,0
310614,-76.9230769230769,4,2,1,70,0,0
310922,-76.9230769230769,4,2,1,80,0,0
320461,-76.9230769230769,4,2,1,60,0,0
321076,-232.558139534884,4,2,1,70,0,0
322922,-232.558139534884,4,2,1,60,0,0
325384,-232.558139534884,4,2,1,40,0,0
327537,-232.558139534884,4,2,1,20,0,0
330306,-232.558139534884,4,2,1,5,0,0

[Colours]
Combo1 : 177,95,160
Combo2 : 223,94,139
Combo3 : 102,148,179
Combo4 : 247,226,157
SliderBorder : 173,147,181

[HitObjects]
257,132,422,5,4,2:0:0:0:
256,192,4153,5,4,2:0:0:0:
256,192,4230,12,2,8922,2:0:0:0:
286,70,9076,6,0,L|195:59,1,76,6|2,3:2|2:0,2:0:0:0:
36,113,9384,1,2,3:2:0:0:
119,196,9537,2,0,P|142:164|150:123,1,76,2|0,2:0|3:2,2:0:0:0:
94,32,9845,5,2,2:0:0:0:
254,152,9999,2,0,L|355:137,1,76,2|2,3:2|2:0,2:0:0:0:
465,69,10307,1,2,3:2:0:0:
471,323,10461,5,2,2:0:0:0:
386,303,10614,1,0,3:2:0:0:
301,281,10768,1,2,2:0:0:0:
153,181,10922,5,2,3:2:0:0:
355,124,11076,1,2,2:0:0:0:
182,95,11230,5,2,3:2:0:0:
55,34,11384,1,0,2:0:0:0:
145,269,11537,6,0,B|249:244,1,76,2|2,3:2|2:0,2:0:0:0:
427,160,11845,1,2,3:2:0:0:
108,77,11999,6,0,B|211:102,1,76,2|0,2:0|3:2,2:0:0:0:
365,201,12307,1,0,2:0:0:0:
210,334,12461,6,0,B|236:231,1,76,2|2,3:2|2:0,2:0:0:0:
322,56,12768,1,2,3:2:0:0:
155,192,12922,5,2,2:0:0:0:
370,231,13076,1,0,3:2:0:0:
210,334,13230,1,2,2:0:0:0:
257,107,13384,5,2,3:2:0:0:
296,277,13537,1,2,2:0:0:0:
118,30,13691,5,2,3:2:0:0:
80,200,13845,1,0,2:0:0:0:
257,32,13999,6,0,L|355:22,1,76,6|2,3:2|2:0,2:0:0:0:
505,118,14307,1,2,3:2:0:0:
342,312,14461,6,0,L|332:215,1,76,2|0,2:0|3:2,2:0:0:0:
428,65,14768,1,2,2:0:0:0:
218,211,14922,6,0,L|131:202,1,76,2|2,3:2|2:0,2:0:0:0:
12,73,15230,1,2,3:2:0:0:
55,327,15384,6,0,L|65:240,1,76,2|0,2:0|3:2,2:0:0:0:
194,121,15691,1,2,2:0:0:0:
27,35,15845,5,2,3:2:0:0:
214,121,15999,1,2,2:0:0:0:
17,187,16153,5,2,3:2:0:0:
238,41,16307,1,10,2:0:0:0:
252,32,16384,1,8,2:0:0:0:
267,24,16461,2,0,P|307:67|314:97,1,76,2|0,3:2|2:0,2:0:0:0:
362,236,16768,5,0,3:2:0:0:
203,112,16922,1,10,2:0:0:0:
431,39,17076,1,8,2:0:0:0:
287,283,17230,1,8,2:0:0:0:
132,59,17384,1,8,2:0:0:0:
439,192,17537,1,8,2:0:0:0:
165,354,17691,1,8,2:0:0:0:
312,83,17845,5,10,2:0:0:0:
362,87,17922,1,8,2:0:0:0:
395,124,17999,1,10,2:0:0:0:
402,173,18076,1,8,2:0:0:0:
372,212,18153,1,10,2:0:0:0:
326,228,18230,1,8,2:0:0:0:
279,211,18307,6,0,L|289:143,1,47.5,10|8,2:3|2:3,2:0:0:0:
466,101,18461,2,0,L|474:149,1,47.5,6|4,2:3|2:3,2:0:0:0:
251,230,18614,6,0,L|259:182,1,47.5,14|0,2:0|2:0,2:0:0:0:
494,77,18768,2,0,L|502:125,1,47.5,2|0,2:0|2:0,2:0:0:0:
347,341,18922,5,14,2:0:0:0:
351,86,19076,1,0,3:2:0:0:
138,212,19230,1,0,3:2:0:0:
414,245,19384,5,10,2:0:0:0:
256,48,19537,1,0,3:2:0:0:
193,285,19691,1,0,3:2:0:0:
49,32,19845,5,10,2:0:0:0:
285,138,19999,1,0,3:2:0:0:
59,275,20153,1,0,3:2:0:0:
312,368,20307,5,10,2:0:0:0:
173,146,20461,1,0,3:2:0:0:
55,384,20614,1,0,3:2:0:0:
343,249,20768,5,10,2:0:0:0:
65,154,20922,2,0,L|11:172,1,57,0|0,3:2|2:0,2:0:0:0:
269,11,21076,5,10,2:0:0:0:
204,273,21230,1,0,3:2:0:0:
204,272,21307,1,0,3:2:0:0:
204,272,21384,5,14,2:0:0:0:
68,15,21537,1,0,3:2:0:0:
364,84,21691,1,0,3:2:0:0:
189,295,21845,5,10,2:0:0:0:
477,145,21999,1,0,3:2:0:0:
184,92,22153,1,0,3:2:0:0:
424,285,22307,5,10,2:0:0:0:
112,384,22461,1,0,3:2:0:0:
263,147,22614,1,0,3:2:0:0:
285,364,22768,5,10,2:0:0:0:
53,155,22922,1,0,3:2:0:0:
355,63,23076,1,0,3:2:0:0:
165,269,23230,5,10,2:0:0:0:
355,63,23384,2,0,L|368:-6,1,57,0|0,3:2|2:0,2:0:0:0:
417,312,23537,5,10,2:0:0:0:
175,98,23691,1,0,3:2:0:0:
182,105,23768,1,0,3:2:0:0:
182,105,23845,5,14,2:0:0:0:
205,370,23999,1,0,3:2:0:0:
423,192,24153,1,0,3:2:0:0:
103,176,24307,5,10,2:0:0:0:
333,329,24461,1,0,3:2:0:0:
360,39,24614,1,0,3:2:0:0:
121,284,24768,5,10,2:0:0:0:
407,206,24922,1,0,3:2:0:0:
144,21,25076,1,0,3:2:0:0:
221,320,25230,5,10,2:0:0:0:
344,51,25384,1,0,3:2:0:0:
33,132,25537,1,0,3:2:0:0:
364,277,25691,5,10,2:0:0:0:
220,7,25845,1,0,3:2:0:0:
100,299,25999,1,10,2:0:0:0:
377,147,26153,5,2,3:2:0:0:
377,147,26230,1,2,2:0:0:0:
377,147,26307,1,10,2:0:0:0:
381,202,26384,1,4,2:3:0:0:
353,250,26461,1,4,2:3:0:0:
304,275,26537,1,4,2:3:0:0:
250,269,26614,1,2,3:0:0:0:
207,234,26691,1,0,3:0:0:0:
190,180,26768,5,10,2:0:0:0:
174,126,26845,1,4,2:3:0:0:
132,91,26922,1,4,2:3:0:0:
77,84,26999,1,4,2:3:0:0:
27,111,27076,1,2,3:0:0:0:
0,158,27153,1,0,3:0:0:0:
4,214,27230,5,10,2:0:0:0:
38,257,27307,1,4,2:3:0:0:
89,280,27384,1,4,2:3:0:0:
148,290,27461,1,4,2:3:0:0:
205,273,27537,1,2,3:0:0:0:
247,232,27614,1,0,3:0:0:0:
267,177,27691,5,10,2:0:0:0:
275,117,27768,1,4,2:3:0:0:
308,69,27845,1,4,2:3:0:0:
361,40,27922,1,4,2:3:0:0:
419,39,27999,1,2,3:0:0:0:
472,77,28076,1,0,3:0:0:0:
495,137,28153,5,6,2:3:0:0:
483,205,28230,1,4,2:3:0:0:
432,254,28307,1,2,3:0:0:0:
364,269,28384,1,0,3:0:0:0:
300,243,28461,1,10,2:0:0:0:
256,182,28537,1,8,2:0:0:0:
187,133,28614,1,10,2:0:0:0:
104,131,28691,1,8,2:0:0:0:
27,178,28768,6,0,P|18:227|13:303,1,121.125,6|0,3:2|2:0,2:0:0:0:
30,316,29076,2,0,P|68:305|108:300,1,80.7500000000003,8|0,2:0|2:0,2:0:0:0:
360,304,29384,1,0,3:2:0:0:
360,304,29537,2,0,L|280:312,1,80.7500000000003,0|2,3:2|2:0,2:0:0:0:
141,207,29845,6,0,P|190:251|170:366,1,161.500000000001,10|2,2:0|3:2,2:0:0:0:
320,165,30307,2,0,P|286:186|273:224,1,80.7500000000003,8|2,2:0|2:0,2:0:0:0:
198,116,30614,1,0,3:2:0:0:
320,53,30768,1,2,3:2:0:0:
399,152,30922,1,8,2:0:0:0:
511,14,31076,6,0,P|483:42|471:83,1,80.7500000000003,2|0,2:0|3:2,2:0:0:0:
471,79,31384,1,2,2:0:0:0:
320,165,31537,2,0,L|399:152,1,80.7500000000003,10|0,2:0|2:0,2:0:0:0:
243,108,31845,1,0,3:2:0:0:
243,108,31999,2,0,L|123:86,1,121.125,0|0,3:2|2:0,2:0:0:0:
93,104,32307,6,0,P|157:152|189:226,1,161.500000000001,8|0,2:0|3:2,2:0:0:0:
67,321,32768,2,0,L|86:217,1,80.7500000000003,10|2,2:0|2:0,2:0:0:0:
84,234,32999,1,0,2:0:0:0:
86,226,33076,1,2,3:2:0:0:
199,335,33230,1,2,3:2:0:0:
81,144,33384,2,0,P|42:153|11:179,1,80.7500000000003,8|2,2:0|2:0,2:0:0:0:
188,172,33691,6,0,L|168:11,1,161.500000000001,4|8,3:2|2:0,2:0:0:0:
276,114,34153,1,0,2:0:0:0:
384,53,34307,1,0,3:2:0:0:
384,53,34461,1,0,3:2:0:0:
404,198,34614,1,0,2:0:0:0:
511,89,34768,6,0,P|498:126|488:166,1,80.7500000000003,8|0,2:0|2:0,2:0:0:0:
385,295,35076,1,0,3:2:0:0:
499,326,35230,2,0,P|485:288|475:248,1,80.7500000000003,10|2,2:0|2:0,2:0:0:0:
372,120,35537,1,2,3:2:0:0:
281,269,35691,1,2,3:2:0:0:
191,115,35845,2,0,P|178:79|165:20,1,80.7500000000003,8|0,2:0|2:0,2:0:0:0:
275,123,36153,6,0,P|238:182|143:181,1,161.500000000001,4|8,3:2|2:0,2:0:0:0:
69,58,36614,1,0,2:0:0:0:
0,160,36768,1,0,3:2:0:0:
0,160,36922,2,0,P|45:147|92:138,1,80.7500000000003,0|2,3:2|2:0,2:0:0:0:
188,253,37230,1,8,2:0:0:0:
229,81,37384,5,2,2:0:0:0:
75,256,37537,1,2,3:2:0:0:
302,235,37691,1,8,2:0:0:0:
144,67,37845,2,0,P|152:107|165:145,1,80.7500000000003,2|0,3:2|3:2,2:0:0:0:
276,340,38153,5,10,2:0:0:0:
302,310,38230,1,8,2:0:0:0:
311,270,38307,1,10,2:0:0:0:
302,235,38384,1,8,2:0:0:0:
289,196,38461,1,8,2:0:0:0:
297,157,38537,1,8,2:0:0:0:
324,126,38614,5,4,3:2:0:0:
442,229,38768,1,0,2:0:0:0:
337,24,38922,1,8,2:0:0:0:
442,229,39076,2,0,P|441:278|431:344,1,95,0|0,2:0|3:2,2:0:0:0:
512,144,39384,1,0,2:0:0:0:
285,216,39537,5,10,2:0:0:0:
433,193,39691,1,2,2:0:0:0:
196,140,39845,1,2,3:2:0:0:
426,100,39999,2,0,P|464:69|511:22,1,95,2|8,2:0|2:0,2:0:0:0:
285,216,40307,6,0,P|246:246|199:293,1,95,2|0,2:0|3:2,2:0:0:0:
431,237,40614,1,2,2:0:0:0:
218,149,40768,1,8,2:0:0:0:
426,100,40922,1,2,2:0:0:0:
182,47,41076,6,0,P|144:77|110:110,1,95,0|2,3:2|2:0,2:0:0:0:
326,152,41384,1,10,2:0:0:0:
178,294,41537,2,0,P|142:262|125:217,1,95,0|0,2:0|3:2,2:0:0:0:
276,73,41845,1,0,2:0:0:0:
326,258,41999,1,8,2:0:0:0:
290,68,42153,1,0,2:0:0:0:
340,253,42307,5,0,3:2:0:0:
135,194,42461,1,0,2:0:0:0:
391,131,42614,1,10,2:0:0:0:
227,241,42768,1,2,2:0:0:0:
310,39,42922,5,2,3:2:0:0:
438,279,43076,1,10,2:0:0:0:
310,39,43230,1,0,3:2:0:0:
144,276,43384,6,0,P|75:278|13:176,1,190,14|0,2:0|2:0,2:0:0:0:
91,20,43845,1,8,2:0:0:0:
241,226,43999,2,0,P|234:174|228:130,1,95,0|0,2:0|3:2,2:0:0:0:
350,276,44307,1,0,2:0:0:0:
325,64,44461,1,10,2:0:0:0:
447,167,44614,1,2,2:0:0:0:
241,226,44768,6,0,P|190:215|137:190,1,95,2|0,3:2|2:0,2:0:0:0:
12,60,45076,1,10,2:0:0:0:
35,299,45230,2,0,P|20:254|14:207,1,95,2|0,2:0|3:2,2:0:0:0:
112,40,45537,1,2,2:0:0:0:
241,226,45691,1,8,2:0:0:0:
310,86,45845,6,0,P|217:77|146:135,1,190,2|0,2:0|2:0,2:0:0:0:
306,324,46307,1,8,2:0:0:0:
146,135,46461,1,0,2:0:0:0:
146,330,46614,5,2,3:2:0:0:
362,232,46768,1,0,2:0:0:0:
146,135,46922,1,8,2:0:0:0:
291,346,47076,1,0,2:0:0:0:
386,126,47230,5,10,2:0:0:0:
392,107,47307,1,0,3:2:0:0:
398,89,47384,1,0,3:2:0:0:
461,273,47537,1,0,3:2:0:0:
278,119,47691,1,8,2:3:0:0:
278,119,47768,1,8,2:3:0:0:
278,119,47845,5,10,2:3:0:0:
512,160,47999,1,0,3:2:0:0:
314,236,48153,1,4,2:3:0:0:
314,236,48230,1,4,2:3:0:0:
314,236,48307,1,4,2:3:0:0:
239,18,48461,5,6,3:2:0:0:
365,117,48614,1,0,3:2:0:0:
226,274,48768,1,10,2:0:0:0:
71,145,48922,2,0,P|119:137|254:101,1,171,2|0,3:2|3:2,2:0:0:0:
419,222,49384,2,0,P|356:205|292:193,1,128.25,10|0,2:0|2:0,2:0:0:0:
281,199,49691,5,10,2:0:0:0:
442,118,49845,2,0,L|457:26,1,85.5000000000001,8|2,2:0|2:0,2:0:0:0:
512,183,50153,1,2,3:2:0:0:
323,50,50307,1,8,2:0:0:0:
346,246,50461,1,0,3:2:0:0:
442,118,50614,1,10,2:3:0:0:
299,324,50768,1,4,2:3:0:0:
184,129,50922,5,10,2:0:0:0:
342,217,51076,1,0,3:2:0:0:
120,310,51230,1,10,2:0:0:0:
322,141,51384,2,0,P|396:157|418:247,1,171,10|2,2:0|3:2,2:0:0:0:
328,324,51845,1,10,2:0:0:0:
512,160,51999,1,0,3:2:0:0:
425,360,52153,5,8,2:0:0:0:
260,195,52307,1,8,2:0:0:0:
420,240,52461,1,2,3:2:0:0:
195,275,52614,1,0,3:2:0:0:
325,115,52768,1,10,2:0:0:0:
328,324,52922,1,0,3:2:0:0:
260,195,53076,1,10,2:3:0:0:
457,65,53384,6,0,P|372:80|299:32,1,171,6|2,3:2|2:0,2:0:0:0:
158,121,53845,1,2,3:2:0:0:
158,121,53999,2,0,L|276:106,1,85.5000000000001,8|2,2:0|2:0,2:0:0:0:
371,204,54307,1,2,3:2:0:0:
237,322,54461,1,8,2:0:0:0:
224,333,54537,1,8,2:0:0:0:
211,345,54614,5,2,3:2:0:0:
165,160,54768,1,8,2:0:0:0:
290,248,54922,1,2,2:0:0:0:
345,93,55076,1,2,3:2:0:0:
350,76,55153,1,0,3:2:0:0:
355,59,55230,5,8,2:0:0:0:
489,237,55384,1,2,3:2:0:0:
317,169,55537,1,2,3:2:0:0:
488,78,55691,1,0,3:2:0:0:
290,248,55845,6,0,P|232:240|155:151,1,171,14|2,2:0|2:0,2:0:0:0:
190,316,56307,1,2,3:2:0:0:
284,141,56461,1,8,2:0:0:0:
37,78,56614,1,2,3:2:0:0:
284,141,56768,1,8,2:0:0:0:
82,277,56922,6,0,P|28:241|2:183,1,128.25,6|0,3:2|2:0,2:0:0:0:
9,174,57230,1,0,3:2:0:0:
178,25,57384,1,8,2:0:0:0:
157,236,57537,1,8,2:3:0:0:
159,219,57614,1,8,2:3:0:0:
161,201,57691,1,8,2:3:0:0:
378,26,57845,37,8,2:3:0:0:
277,198,57999,1,6,2:3:0:0:
178,25,58153,1,6,2:3:0:0:
277,79,58307,5,6,3:2:0:0:
253,271,63230,6,0,P|179:265|128:163,1,190,6|0,3:2|3:2,2:0:0:0:
275,71,63691,1,0,3:2:0:0:
328,281,63845,1,0,3:2:0:0:
155,102,63999,1,0,3:2:0:0:
392,212,64153,1,0,3:2:0:0:
134,301,64307,1,0,3:2:0:0:
264,77,64461,5,8,3:2:0:0:
413,348,64614,1,8,3:2:0:0:
100,216,64768,1,10,3:2:0:0:
430,113,64922,1,8,3:2:0:0:
80,248,65076,1,10,3:2:0:0:
420,316,65230,1,8,3:2:0:0:
289,24,65384,1,8,3:2:0:0:
151,227,65537,1,10,3:2:0:0:
151,227,65614,1,0,2:0:0:0:
151,227,65691,6,0,P|124:218|97:215,3,52.25,6|0|8|8,3:2|3:2|2:0|2:0,2:0:0:0:
271,73,65999,2,0,P|289:17|289:-1,1,52.25,0|0,3:2|3:2,2:0:0:0:
385,251,66153,2,0,P|391:276|403:300,1,52.25,6|4,2:3|2:3,2:0:0:0:
467,95,66307,5,4,2:3:0:0:
435,61,66384,1,4,2:3:0:0:
391,46,66461,1,0,3:2:0:0:
346,53,66537,1,0,3:2:0:0:
309,81,66614,1,4,2:3:0:0:
272,108,66691,1,4,2:3:0:0:
226,115,66768,1,0,3:2:0:0:
183,100,66845,1,0,3:2:0:0:
151,67,66922,6,0,L|140:130,1,52.25,10|8,2:0|2:0,2:0:0:0:
53,330,67076,2,0,L|43:278,1,52.25,10|8,2:0|2:0,2:0:0:0:
243,21,67230,1,10,3:2:0:0:
358,303,67384,1,10,2:0:0:0:
141,223,67537,1,2,2:0:0:0:
141,223,67691,6,0,P|152:271|158:323,1,92.6250000000005,2|0,2:0|2:0,2:0:0:0:
232,353,67999,6,0,P|292:340|353:332,1,123.5,6|0,3:2|2:0,2:0:0:0:
449,168,68307,1,2,3:2:0:0:
487,367,68461,2,0,P|495:306|512:247,1,123.5,10|0,2:0|2:0,2:0:0:0:
358,67,68768,2,0,P|350:128|333:187,1,123.5,2|0,3:2|2:0,2:0:0:0:
198,56,69076,1,10,2:0:0:0:
62,242,69230,6,0,P|116:210|174:190,1,123.5,2|0,3:2|2:0,2:0:0:0:
385,295,69537,1,0,3:2:0:0:
208,384,69691,2,0,P|209:323|227:264,1,123.5,10|0,2:0|2:0,2:0:0:0:
358,67,69999,1,2,3:2:0:0:
387,319,70153,1,2,2:0:0:0:
358,67,70307,1,8,2:0:0:0:
144,221,70461,6,0,B|77:214|59:112|143:56|143:56|137:90|162:116,1,266,6|0,3:2|3:2,2:0:0:0:
308,247,70922,2,0,P|367:238|401:189,1,123.5,10|0,3:2|2:0,2:0:0:0:
474,2,71230,2,0,P|414:10|380:59,1,123.5,2|0,3:2|3:2,2:0:0:0:
486,247,71537,1,10,2:0:0:0:
284,368,71691,2,0,P|263:245|244:115,1,247,2|0,3:2|3:2,2:0:0:0:
57,210,72153,5,8,2:0:0:0:
261,35,72307,1,0,3:2:0:0:
12,33,72461,1,10,2:3:0:0:
245,124,72614,1,10,2:0:0:0:
245,124,72691,1,8,2:0:0:0:
245,124,72768,1,8,2:0:0:0:
33,293,72922,6,0,P|-22:194|68:128,1,247,6|2,3:2|3:2,2:0:0:0:
204,278,73384,1,10,2:0:0:0:
296,93,73537,1,0,2:0:0:0:
414,238,73691,2,0,P|434:291|393:348,1,123.5,2|0,3:2|3:0,2:0:0:0:
512,140,73999,1,10,2:0:0:0:
333,287,74153,2,0,P|309:231|337:178,1,123.5,2|0,2:0|3:2,2:0:0:0:
496,49,74461,1,2,2:0:0:0:
296,93,74614,2,0,P|229:81|161:69,1,123.5,10|0,2:0|2:0,2:0:0:0:
402,57,74922,5,2,3:2:0:0:
192,179,75076,1,2,2:0:0:0:
462,240,75230,1,8,2:0:0:0:
248,362,75384,6,0,B|120:376|155:288|15:302,1,247,6|0,3:2|3:2,2:0:0:0:
197,274,75845,2,0,P|235:214|197:176,1,123.5,10|0,2:0|2:0,2:0:0:0:
45,38,76153,2,0,P|39:96|123:100,1,123.5,2|0,3:2|2:0,2:0:0:0:
284,42,76461,1,10,2:0:0:0:
370,266,76614,1,2,2:0:0:0:
470,149,76768,5,2,3:2:0:0:
433,107,76845,1,2,3:2:0:0:
378,97,76922,1,10,2:0:0:0:
331,125,76999,1,10,2:0:0:0:
312,176,77076,1,10,2:0:0:0:
276,218,77153,1,10,3:2:0:0:
221,228,77230,1,10,3:2:0:0:
173,200,77307,1,10,2:0:0:0:
155,148,77384,2,0,P|141:117|130:84,1,61.75,10|0,2:0|3:2,2:0:0:0:
35,229,77537,2,0,P|24:260|10:291,1,61.75,2|0,3:2|3:2,2:0:0:0:
24,88,77691,2,0,P|13:56|0:25,1,61.75,2|0,2:0|3:2,2:0:0:0:
145,291,77845,6,0,P|230:325|306:261,1,185.25,6|0,3:2|2:0,2:0:0:0:
296,267,78153,1,0,2:0:0:0:
511,371,78307,2,0,P|472:333|398:332,1,123.5,8|0,2:0|2:0,2:0:0:0:
246,143,78614,2,0,P|288:176|361:169,1,123.5,2|0,3:2|2:0,2:0:0:0:
484,31,78922,1,8,2:0:0:0:
479,248,79076,6,0,P|491:187|505:113,1,123.5,2|0,2:0|3:2,2:0:0:0:
286,0,79384,1,0,2:0:0:0:
204,242,79537,2,0,P|141:237|117:188,1,123.5,10|0,2:0|2:0,2:0:0:0:
386,53,79845,2,0,P|368:118|353:178,1,123.5,2|0,3:2|2:0,2:0:0:0:
152,92,80153,1,10,2:0:0:0:
481,39,80307,2,0,P|449:157|421:265,1,185.25,6|0,3:2|2:0,2:0:0:0:
427,239,80614,1,0,3:2:0:0:
275,76,80768,1,8,2:0:0:0:
512,143,80922,1,0,2:0:0:0:
275,76,81076,6,0,P|218:82|152:92,1,123.5,2|0,3:2|2:0,2:0:0:0:
264,292,81384,1,8,2:0:0:0:
90,153,81537,1,0,2:0:0:0:
291,61,81691,6,0,L|410:93,1,123.5,2|0,3:2|2:0,2:0:0:0:
200,223,81999,1,8,2:0:0:0:
148,0,82153,1,0,2:0:0:0:
169,296,82307,5,2,3:2:0:0:
291,61,82461,1,8,2:0:0:0:
105,223,82614,1,10,2:3:0:0:
39,220,82691,1,8,2:3:0:0:
0,171,82768,1,4,2:3:0:0:
2,105,82845,1,4,2:3:0:0:
53,65,82922,6,0,L|175:82,1,123.5,6|0,3:2|2:0,2:0:0:0:
270,233,83230,1,8,2:0:0:0:
322,0,83384,2,0,P|351:53|358:114,1,123.5,2|0,3:2|2:0,2:0:0:0:
212,291,83691,1,0,3:2:0:0:
357,114,83845,1,10,2:0:0:0:
125,185,83999,1,0,3:2:0:0:
125,185,84076,1,0,3:2:0:0:
125,185,84153,6,0,P|85:139|91:79,1,123.5,8|0,2:0|2:0,2:0:0:0:
373,7,84461,1,8,2:0:0:0:
166,114,84614,1,0,3:2:0:0:
352,212,84768,5,2,2:0:0:0:
369,268,84845,1,2,2:0:0:0:
353,326,84922,1,2,3:2:0:0:
309,365,84999,1,2,2:0:0:0:
250,374,85076,2,0,L|175:350,1,61.75,10|2,2:0|2:0,2:0:0:0:
37,246,85230,2,0,L|119:226,1,61.75,2|0,3:2|3:2,2:0:0:0:
257,109,85384,5,14,2:0:0:0:
96,231,85537,1,0,3:2:0:0:
353,326,85691,1,0,3:2:0:0:
343,62,85845,5,10,2:0:0:0:
191,355,85999,1,0,3:2:0:0:
59,72,86153,1,0,3:2:0:0:
359,204,86307,5,10,2:0:0:0:
65,332,86461,1,0,3:2:0:0:
65,332,86537,1,0,3:2:0:0:
65,332,86614,1,8,2:0:0:0:
93,279,86691,1,8,2:0:0:0:
151,261,86768,1,0,3:2:0:0:
204,289,86845,1,0,3:2:0:0:
223,347,86922,1,10,2:0:0:0:
279,367,86999,1,8,2:0:0:0:
338,356,87076,1,0,3:2:0:0:
376,309,87153,1,0,3:2:0:0:
379,249,87230,6,0,P|382:218|374:189,1,61.75,10|8,2:3|2:3,2:0:0:0:
282,17,87384,2,0,P|271:46|272:77,1,61.75,6|4,2:3|2:3,2:0:0:0:
466,123,87537,1,8,2:0:0:0:
175,154,87691,6,0,L|195:32,1,123.5,6|0,3:2|2:0,2:0:0:0:
430,102,87999,1,2,3:2:0:0:
252,262,88153,2,0,P|191:249|130:239,1,123.5,10|0,2:0|2:0,2:0:0:0:
379,221,88461,1,2,3:2:0:0:
263,100,88614,1,0,3:2:0:0:
335,362,88768,1,10,2:0:0:0:
512,133,88922,6,0,P|468:30|355:60,1,247,2|0,3:2|3:2,2:0:0:0:
252,262,89384,2,0,P|310:248|337:195,1,123.5,10|0,2:0|2:0,2:0:0:0:
275,0,89691,1,2,3:2:0:0:
245,251,89845,1,2,3:2:0:0:
136,0,89999,1,8,2:0:0:0:
57,242,90153,6,0,P|38:130|12:-4,1,247,6|0,3:2|3:2,2:0:0:0:
226,128,90614,2,0,P|234:189|244:250,1,123.5,10|0,2:0|2:0,2:0:0:0:
56,384,90922,2,0,P|48:322|38:260,1,123.5,2|0,3:2|3:2,2:0:0:0:
242,372,91230,1,10,2:0:0:0:
333,120,91384,2,0,P|352:241|368:364,1,247,2|0,3:2|3:2,2:0:0:0:
212,265,91845,1,8,2:0:0:0:
434,226,91999,1,0,3:2:0:0:
116,262,92153,6,0,P|85:270|49:280,1,61.75,10|0,2:0|3:2,2:0:0:0:
184,161,92307,2,0,P|214:169|251:179,1,61.75,2|0,3:2|3:2,2:0:0:0:
308,289,92461,2,0,P|299:319|290:356,1,61.75,8|0,2:0|2:0,2:0:0:0:
434,226,92614,6,0,P|418:130|395:39,1,185.25,6|0,3:2|2:0,2:0:0:0:
377,26,92922,1,2,3:2:0:0:
242,89,93076,2,0,P|181:75|121:63,1,123.5,10|0,2:0|2:0,2:0:0:0:
14,231,93384,2,0,P|74:243|134:257,1,123.5,2|0,3:2|2:0,2:0:0:0:
309,333,93691,1,10,2:0:0:0:
459,160,93845,6,0,B|424:125|377:145|377:145|344:220|275:197,1,213.75,2|0,2:0|2:0,2:0:0:0:
274,186,94153,1,0,2:0:0:0:
93,363,94307,2,0,P|155:352|225:338,1,123.5,10|0,2:0|2:0,2:0:0:0:
18,201,94614,1,2,3:2:0:0:
270,281,94768,1,2,2:0:0:0:
122,66,94922,1,8,2:0:0:0:
161,259,95076,6,0,B|137:192|183:129|208:168|254:104|226:35,1,247,6|0,3:2|2:0,2:0:0:0:
270,281,95537,2,0,P|322:279|319:220,1,123.5,10|0,2:0|2:0,2:0:0:0:
122,66,95845,2,0,P|97:115|132:170,1,123.5,2|0,3:2|2:0,2:0:0:0:
350,98,96153,1,10,2:0:0:0:
161,259,96307,1,2,2:0:0:0:
417,288,96461,5,0,3:2:0:0:
231,123,96614,1,8,2:0:0:0:
207,384,96768,1,0,3:2:0:0:
411,181,96922,1,0,3:2:0:0:
420,174,96999,1,0,3:0:0:0:
430,167,97076,5,2,3:0:0:0:
164,195,97230,1,10,2:3:0:0:
355,369,97384,1,6,2:3:0:0:
116,265,97537,6,0,P|76:184|128:115,1,185.25,6|0,3:2|2:0,2:0:0:0:
140,116,97845,1,0,3:2:0:0:
319,257,97999,5,8,2:0:0:0:
239,34,98153,1,0,3:2:0:0:
248,325,98307,5,10,2:0:0:0:
317,83,98461,1,0,3:2:0:0:
342,361,98614,5,10,2:0:0:0:
161,82,98768,1,2,3:2:0:0:
152,67,98845,1,0,3:2:0:0:
142,52,98922,5,12,2:0:0:0:
398,186,99076,1,0,3:2:0:0:
127,266,99230,5,8,2:0:0:0:
417,96,99384,1,2,3:2:0:0:
19,177,99537,5,10,2:0:0:0:
320,253,99691,1,0,3:2:0:0:
124,36,99845,5,10,2:0:0:0:
276,318,99999,2,0,P|341:326|390:283,1,123.5,6|0,3:2|2:0,2:0:0:0:
311,44,100307,5,0,3:2:0:0:
190,339,100461,1,8,2:0:0:0:
131,44,100614,5,2,3:2:0:0:
362,363,100768,1,8,2:0:0:0:
395,22,100922,5,0,3:2:0:0:
170,361,101076,1,10,2:0:0:0:
55,93,101230,5,2,2:3:0:0:
87,59,101307,1,4,2:3:0:0:
131,44,101384,1,4,3:2:0:0:
176,51,101461,1,0,3:2:0:0:
213,79,101537,1,8,2:0:0:0:
250,106,101614,1,4,2:3:0:0:
296,113,101691,1,0,3:2:0:0:
339,98,101768,1,4,2:3:0:0:
371,65,101845,6,0,L|382:128,1,61.75,6|4,2:3|2:3,2:0:0:0:
449,264,101999,2,0,L|460:204,1,61.75,2|0,3:2|3:2,2:0:0:0:
512,51,102153,2,0,P|502:79|495:112,1,61.75,10|0,2:0|3:2,2:0:0:0:
512,341,102307,1,10,3:2:0:0:
325,220,102461,6,0,B|267:178|193:205|224:240|150:266|91:220,1,247,6|0,3:2|3:2,2:0:0:0:
263,7,102922,2,0,P|302:53|296:112,1,123.5,10|0,2:0|2:0,2:0:0:0:
68,215,103230,1,2,3:2:0:0:
289,317,103384,1,2,3:2:0:0:
221,75,103537,1,10,2:0:0:0:
111,292,103691,6,0,P|43:297|21:136,1,247,6|0,3:2|3:2,2:0:0:0:
158,7,104153,2,0,P|163:65|169:148,1,123.5,10|0,2:0|3:2,2:0:0:0:
191,337,104461,1,2,3:2:0:0:
191,343,104537,1,0,2:0:0:0:
191,349,104614,1,2,3:2:0:0:
399,206,104768,1,14,2:0:0:0:
286,97,104922,6,0,P|296:174|309:280,1,185.25,6|0,3:2|2:0,2:0:0:0:
334,305,105230,1,8,2:0:0:0:
334,305,105307,1,8,2:0:0:0:
334,305,105384,2,0,L|398:286,1,61.75,10|0,2:0|3:2,2:0:0:0:
212,191,105537,2,0,L|148:172,1,61.75,0|4,2:3|2:3,2:0:0:0:
384,63,105691,2,0,L|370:144,1,61.75,4|8,2:3|2:0,2:0:0:0:
512,243,105845,2,0,L|501:182,1,61.75,0|8,3:2|2:0,2:0:0:0:
485,17,105999,1,0,3:2:0:0:
479,47,106076,1,0,3:2:0:0:
474,77,106153,1,12,2:0:0:0:
256,192,106230,12,2,106922,2:0:0:0:
330,101,107076,6,0,P|283:102|257:127,1,71.25,0|0,3:2|3:2,2:0:0:0:
173,252,107230,1,10,2:0:0:0:
184,241,107537,5,14,2:0:0:0:
88,0,107691,1,2,3:2:0:0:
0,234,107845,1,2,3:2:0:0:
264,116,107999,5,10,2:0:0:0:
138,337,108153,1,0,3:2:0:0:
53,77,108307,1,0,3:2:0:0:
295,272,108461,5,10,2:0:0:0:
167,76,108614,1,0,3:2:0:0:
111,327,108768,1,0,3:2:0:0:
338,132,108922,5,10,2:0:0:0:
94,224,109076,1,0,3:2:0:0:
302,384,109230,1,0,3:2:0:0:
81,235,109384,5,10,2:0:0:0:
338,132,109537,2,0,L|398:150,1,57,0|0,3:2|2:0,2:0:0:0:
89,43,109691,5,10,2:0:0:0:
232,276,109845,1,0,3:2:0:0:
232,276,109922,1,0,3:2:0:0:
232,276,109999,5,14,2:0:0:0:
408,63,110153,1,0,3:2:0:0:
172,178,110307,1,0,3:2:0:0:
357,273,110461,5,10,2:0:0:0:
181,54,110614,1,0,3:2:0:0:
512,152,110768,1,0,3:2:0:0:
187,207,110922,5,10,2:0:0:0:
427,129,111076,1,0,3:2:0:0:
160,17,111230,1,0,3:2:0:0:
249,289,111384,5,10,2:0:0:0:
353,0,111537,1,0,3:2:0:0:
57,100,111691,1,0,3:2:0:0:
360,229,111845,5,10,2:0:0:0:
384,256,111922,1,0,3:2:0:0:
394,294,111999,1,0,3:2:0:0:
386,332,112076,1,0,3:2:0:0:
359,362,112153,1,10,2:0:0:0:
321,375,112230,1,0,3:2:0:0:
282,369,112307,1,0,3:2:0:0:
250,345,112384,1,0,3:2:0:0:
235,309,112461,5,14,2:0:0:0:
231,42,112614,1,0,3:2:0:0:
459,207,112768,1,0,3:2:0:0:
208,209,112922,5,10,2:0:0:0:
441,49,113076,1,0,3:2:0:0:
370,312,113230,1,0,3:2:0:0:
219,63,113384,5,10,2:0:0:0:
485,175,113537,1,0,3:2:0:0:
218,288,113691,1,0,3:2:0:0:
364,24,113845,5,10,2:0:0:0:
393,341,113999,1,0,3:2:0:0:
120,155,114153,1,0,3:2:0:0:
512,165,114307,5,10,2:0:0:0:
223,309,114461,2,0,L|243:238,1,57,0|0,3:2|2:0,2:0:0:0:
334,37,114614,2,0,L|350:109,1,57,10|0,2:0|2:0,2:0:0:0:
430,236,114768,5,2,3:2:0:0:
430,236,114845,1,2,2:0:0:0:
430,236,114922,1,14,2:0:0:0:
266,187,115076,1,0,3:2:0:0:
452,102,115230,1,0,3:2:0:0:
257,285,115384,5,8,2:0:0:0:
496,339,115537,1,0,3:2:0:0:
232,164,115691,1,0,3:2:0:0:
459,21,115845,5,8,2:0:0:0:
182,257,115999,1,0,3:2:0:0:
425,179,116153,1,0,3:2:0:0:
194,59,116307,5,10,2:0:0:0:
162,88,116384,1,4,2:3:0:0:
143,128,116461,1,4,2:3:0:0:
141,171,116537,1,4,2:3:0:0:
154,213,116614,1,2,3:0:0:0:
182,257,116691,1,0,3:0:0:0:
198,307,116768,1,6,2:3:0:0:
179,356,116845,1,4,2:3:0:0:
131,377,116922,6,0,L|63:355,1,57,0|0,3:2|3:2,2:0:0:0:
257,237,117076,2,0,L|324:215,1,57,8|8,2:0|2:0,2:0:0:0:
60,137,117230,2,0,L|-10:128,1,57,8|8,2:0|2:0,2:0:0:0:
273,77,117384,6,0,P|265:45|255:3,2,71.2500000000002,6|0|0,3:2|2:0|3:2,2:0:0:0:
356,123,117845,2,0,P|433:107|509:89,1,142.5,0|0,2:0|2:0,2:0:0:0:
445,225,118307,5,2,3:2:0:0:
445,225,118461,1,2,2:0:0:0:
343,141,118614,1,2,3:2:0:0:
260,247,118768,2,0,P|267:283|275:330,1,71.2500000000002,2|0,2:0|3:2,2:0:0:0:
156,202,119076,2,0,P|145:164|148:131,1,71.2500000000002,2|0,2:0|3:2,2:0:0:0:
316,67,119384,1,2,2:0:0:0:
123,20,119537,1,0,3:2:0:0:
228,150,119691,1,2,2:0:0:0:
398,39,119845,6,0,L|390:109,1,71.2500000000002,0|2,3:2|2:0,2:0:0:0:
306,177,120153,1,2,3:2:0:0:
498,231,120307,2,0,P|480:162|478:91,1,142.5,0|0,2:0|2:0,2:0:0:0:
392,213,120768,2,0,L|406:302,1,71.2500000000002,0|0,3:2|2:0,2:0:0:0:
480,376,121076,5,0,3:2:0:0:
288,287,121230,1,0,2:0:0:0:
392,297,121384,1,2,3:2:0:0:
200,352,121537,1,2,2:0:0:0:
294,270,121691,6,0,L|304:187,2,71.2500000000002,2|2|0,3:2|2:0|3:2,2:0:0:0:
229,123,122153,1,2,2:0:0:0:
401,85,122307,5,4,3:2:0:0:
224,32,122461,1,0,2:0:0:0:
406,176,122614,1,0,3:2:0:0:
332,37,122768,6,0,B|307:64|307:64|319:181,1,142.5,0|0,2:0|2:0,2:0:0:0:
339,323,123230,1,0,3:2:0:0:
246,254,123384,1,0,2:0:0:0:
411,258,123537,2,0,L|479:275,2,71.2500000000002,0|0|2,3:2|2:0|3:2,2:0:0:0:
240,232,123999,2,0,L|102:267,1,142.5,2|2,2:0|2:0,2:0:0:0:
205,340,124461,1,0,3:2:0:0:
119,183,124614,1,2,2:0:0:0:
73,276,124768,5,0,3:2:0:0:
240,232,124922,1,0,2:0:0:0:
119,183,125076,1,0,3:2:0:0:
209,140,125230,2,0,P|229:59|242:-14,1,142.5,0|0,2:0|2:0,2:0:0:0:
119,55,125691,1,2,3:2:0:0:
300,110,125845,1,0,2:0:0:0:
126,239,125999,6,0,L|123:222,1,17.8125,10|0,2:0|2:0,2:0:0:0:
123,222,126768,5,2,3:2:0:0:
114,175,126845,1,0,3:2:0:0:
104,128,126922,2,0,P|149:116|189:93,1,92.6250000000005,10|0,2:0|2:0,2:0:0:0:
187,77,127230,5,4,3:2:0:0:
0,49,127384,1,0,2:0:0:0:
196,179,127537,1,8,2:0:0:0:
6,281,127691,2,0,P|0:233|0:186,1,90.2499999999999,0|0,2:0|3:2,2:0:0:0:
95,45,127999,1,0,2:0:0:0:
117,220,128153,5,10,2:0:0:0:
3,30,128307,1,2,2:0:0:0:
189,92,128461,1,2,3:2:0:0:
0,160,128614,2,0,L|94:134,1,90.2499999999999,2|8,2:0|2:0,2:0:0:0:
306,201,128922,2,0,L|212:175,1,90.2499999999999,2|0,2:0|3:2,2:0:0:0:
57,278,129230,1,2,2:0:0:0:
206,160,129384,1,8,2:0:0:0:
68,296,129537,1,2,2:0:0:0:
158,88,129691,6,0,P|168:37|174:-3,1,90.2499999999999,0|2,3:2|2:0,2:0:0:0:
306,201,129999,1,10,2:0:0:0:
428,52,130153,2,0,P|383:54|341:71,1,90.2499999999999,0|0,2:0|3:2,2:0:0:0:
206,160,130461,1,0,2:0:0:0:
384,244,130614,1,8,2:0:0:0:
204,312,130768,1,0,2:0:0:0:
384,244,130922,6,0,L|481:221,1,90.2499999999999,0|0,3:2|2:0,2:0:0:0:
348,138,131230,1,10,2:0:0:0:
474,309,131384,1,2,2:0:0:0:
255,188,131537,5,2,3:2:0:0:
470,68,131691,1,10,2:0:0:0:
397,338,131845,1,0,3:2:0:0:
258,80,131999,6,0,P|172:60|94:100,1,180.5,14|0,2:0|2:0,2:0:0:0:
100,275,132461,1,8,2:0:0:0:
184,142,132614,2,0,P|192:186|198:231,1,90.2499999999999,0|0,2:0|3:2,2:0:0:0:
245,343,132922,1,0,2:0:0:0:
337,262,133076,1,10,2:0:0:0:
106,190,133230,1,2,2:0:0:0:
292,164,133384,6,0,P|347:138|374:108,1,90.2499999999999,2|0,3:2|2:0,2:0:0:0:
442,225,133691,1,10,2:0:0:0:
512,34,133845,2,0,P|499:77|486:120,1,90.2499999999999,2|0,2:0|3:2,2:0:0:0:
512,276,134153,1,2,2:0:0:0:
367,117,134307,1,8,2:0:0:0:
317,304,134461,6,0,P|251:360|163:331,1,180.5,2|0,2:0|2:0,2:0:0:0:
80,164,134922,1,8,2:0:0:0:
317,210,135076,1,0,2:0:0:0:
82,274,135230,1,2,3:2:0:0:
266,117,135384,1,0,2:0:0:0:
167,335,135537,1,8,2:0:0:0:
162,95,135691,1,0,2:0:0:0:
270,308,135845,5,2,3:2:0:0:
80,164,135999,1,8,2:0:0:0:
346,102,136153,1,8,2:0:0:0:
149,211,136307,5,0,3:2:0:0:
293,21,136461,1,2,3:2:0:0:
355,287,136614,1,8,2:0:0:0:
355,287,136691,1,8,2:0:0:0:
355,287,136768,1,8,2:0:0:0:
241,143,136922,1,0,3:2:0:0:
99,281,137076,6,0,L|111:377,1,95,14|0,3:2|3:2,2:0:0:0:
356,185,137384,1,0,3:2:0:0:
134,153,137537,6,0,L|122:249,1,95,10|2,2:0|3:2,2:0:0:0:
0,0,137845,1,0,3:2:0:0:
276,0,137999,5,10,2:0:0:0:
356,185,138153,2,0,P|309:198|261:189,1,95,2|0,3:2|3:2,2:0:0:0:
476,72,138461,5,10,2:0:0:0:
427,282,138614,2,0,P|473:276|513:249,1,95,2|0,3:2|3:2,2:0:0:0:
292,4,138922,5,8,2:0:0:0:
244,244,139076,1,2,3:2:0:0:
88,28,139230,5,10,2:0:0:0:
340,152,139384,2,0,L|292:176,1,47.5,2|0,3:2|3:2,2:0:0:0:
40,268,139537,5,14,2:0:0:0:
196,100,139691,1,0,3:2:0:0:
216,328,139845,1,0,3:2:0:0:
76,108,139999,5,10,2:0:0:0:
272,232,140153,1,2,3:2:0:0:
244,0,140307,1,0,3:2:0:0:
144,244,140461,5,10,2:0:0:0:
360,124,140614,2,0,L|340:24,1,95,2|0,3:2|3:2,2:0:0:0:
248,316,140922,5,10,2:0:0:0:
32,196,141076,2,0,L|52:96,1,95,2|0,3:2|3:2,2:0:0:0:
336,236,141384,5,10,2:0:0:0:
84,328,141537,1,0,3:2:0:0:
268,108,141691,5,10,2:3:0:0:
392,368,141845,1,0,3:2:0:0:
452,68,141999,5,14,2:0:0:0:
224,236,142153,2,0,L|240:330,1,95,0|0,3:2|3:2,2:0:0:0:
284,44,142461,5,10,2:0:0:0:
512,212,142614,2,0,L|496:307,1,95,2|0,3:2|3:2,2:0:0:0:
452,20,142922,5,10,2:0:0:0:
224,188,143076,2,0,L|243:295,1,95,2|0,3:2|3:2,2:0:0:0:
308,16,143384,5,10,2:0:0:0:
356,236,143537,1,2,3:2:0:0:
512,76,143691,1,0,3:2:0:0:
224,188,143845,5,8,2:0:0:0:
448,364,143999,1,2,3:2:0:0:
340,108,144153,5,10,2:0:0:0:
204,352,144307,2,0,L|188:288,1,47.5,2|0,3:2|3:2,2:0:0:0:
136,80,144461,5,14,2:0:0:0:
328,240,144614,1,0,3:2:0:0:
80,272,144768,1,2,3:2:0:0:
312,100,144922,5,10,2:0:0:0:
52,160,145076,1,0,3:2:0:0:
236,352,145230,1,2,3:2:0:0:
240,24,145384,5,8,2:0:0:0:
424,216,145537,2,0,P|435:127|449:40,1,171,2|0,3:2|2:0,2:0:0:0:
454,37,145845,1,8,2:0:0:0:
278,130,145999,1,0,3:2:0:0:
512,236,146153,1,0,3:2:0:0:
267,219,146307,5,8,2:0:0:0:
512,137,146461,1,2,3:2:0:0:
149,152,146614,5,10,2:0:0:0:
424,216,146768,1,0,3:2:0:0:
222,295,146922,5,10,3:2:0:0:
268,295,146999,1,0,3:2:0:0:
310,276,147076,1,0,3:2:0:0:
354,260,147153,1,0,3:2:0:0:
400,261,147230,1,0,3:2:0:0:
440,282,147307,1,0,3:2:0:0:
466,320,147384,5,2,3:2:0:0:
421,311,147461,1,0,3:2:0:0:
384,285,147537,1,0,3:2:0:0:
362,244,147614,1,0,3:2:0:0:
359,198,147691,1,0,3:2:0:0:
356,152,147768,1,0,3:2:0:0:
334,111,147845,5,2,3:2:0:0:
297,84,147922,1,0,3:2:0:0:
252,75,147999,1,0,3:2:0:0:
200,114,148076,1,0,3:2:0:0:
179,174,148153,1,0,3:2:0:0:
196,236,148230,1,0,3:2:0:0:
242,278,148307,5,2,3:2:0:0:
306,287,148384,1,0,3:2:0:0:
363,259,148461,1,0,3:2:0:0:
395,203,148537,1,0,3:2:0:0:
391,140,148614,1,0,3:2:0:0:
337,92,148691,1,0,3:2:0:0:
265,80,148768,5,10,3:2:0:0:
198,109,148845,1,8,3:2:0:0:
159,171,148922,1,8,3:2:0:0:
159,243,148999,1,8,3:2:0:0:
199,304,149076,1,10,3:2:0:0:
266,333,149153,1,8,3:2:0:0:
338,320,149230,1,8,3:2:0:0:
338,320,149307,1,8,3:2:0:0:
338,320,149384,6,0,L|313:258,1,57,6|0,3:2|3:2,2:0:0:0:
115,309,149537,2,0,L|130:363,1,57,8|8,2:3|2:0,2:0:0:0:
300,186,149691,2,0,P|360:188|382:196,1,57,2|0,3:2|3:2,2:0:0:0:
113,224,149845,2,0,P|88:237|60:243,1,57,6|4,2:3|2:3,2:0:0:0:
285,159,149999,2,0,P|343:157|367:169,1,57,12|4,2:3|2:3,2:0:0:0:
61,108,150153,5,2,3:2:0:0:
100,142,150230,1,0,3:2:0:0:
149,152,150307,1,4,2:3:0:0:
196,136,150384,1,4,2:3:0:0:
231,100,150461,1,2,3:2:0:0:
266,63,150537,1,0,3:2:0:0:
314,48,150614,1,8,2:0:0:0:
364,58,150691,1,4,2:3:0:0:
402,90,150768,1,4,2:3:0:0:
416,138,150845,1,4,2:3:0:0:
404,187,150922,5,10,2:0:0:0:
146,65,151076,1,8,2:0:0:0:
170,350,151230,6,0,P|189:338|233:304,1,71.25,2|0,2:0|2:0,2:0:0:0:
300,197,151384,2,0,P|300:219|308:274,1,71.25,2|0,2:0|2:0,2:0:0:0:
377,382,151537,2,0,P|357:371|305:350,1,71.25,2|0,2:0|2:0,2:0:0:0:
123,173,151691,6,0,P|183:159|242:141,1,123.5,6|0,3:2|2:0,2:0:0:0:
400,283,151999,1,2,3:2:0:0:
512,123,152153,2,0,P|505:32|499:-6,1,123.5,10|0,2:0|2:0,2:0:0:0:
260,137,152461,1,2,3:2:0:0:
439,196,152614,1,0,2:0:0:0:
258,30,152768,1,10,2:0:0:0:
413,267,152922,6,0,P|472:266|512:221,1,123.5,2|0,3:2|2:0,2:0:0:0:
329,80,153230,1,0,3:2:0:0:
253,288,153384,2,0,P|193:287|153:242,1,123.5,10|0,2:0|2:0,2:0:0:0:
333,54,153691,1,2,3:2:0:0:
250,311,153845,1,2,2:0:0:0:
126,44,153999,1,8,2:0:0:0:
276,197,154153,6,0,B|402:222|375:131|513:157,1,247,6|0,3:2|3:2,2:0:0:0:
390,351,154614,2,0,P|356:300|365:240,1,123.5,10|0,2:0|2:0,2:0:0:0:
424,0,154922,2,0,P|459:68|432:131,1,123.5,2|0,3:2|3:2,2:0:0:0:
275,194,155230,1,10,2:0:0:0:
492,301,155384,2,0,L|512:179,1,123.5,2|0,2:0|3:2,2:0:0:0:
288,360,155691,1,0,3:2:0:0:
448,110,155845,1,8,2:0:0:0:
445,381,155999,1,0,3:2:0:0:
275,194,156153,6,0,L|254:264,1,61.75,10|8,2:0|2:0,2:0:0:0:
134,368,156307,2,0,L|117:306,1,61.75,10|8,2:0|2:3,2:0:0:0:
161,119,156461,2,0,L|140:189,1,61.75,4|0,2:3|2:0,2:0:0:0:
31,281,156614,6,0,P|127:266|214:253,1,185.25,6|0,3:2|2:0,2:0:0:0:
257,253,156922,1,2,3:2:0:0:
83,111,157076,2,0,P|119:55|189:49,1,123.5,10|0,2:0|2:0,2:0:0:0:
257,253,157384,1,2,3:2:0:0:
161,119,157537,1,2,2:0:0:0:
343,224,157691,1,8,2:0:0:0:
172,354,157845,6,0,L|154:222,1,123.5,2|0,2:0|3:2,2:0:0:0:
364,79,158153,1,0,2:0:0:0:
457,301,158307,2,0,P|391:338|341:319,1,123.5,10|0,2:0|2:0,2:0:0:0:
256,121,158614,1,2,3:2:0:0:
392,264,158768,1,2,2:0:0:0:
469,56,158922,1,8,2:0:0:0:
304,215,159076,6,0,B|251:255|185:239|185:239|169:178|88:170,1,247,6|0,3:2|3:2,2:0:0:0:
269,10,159537,2,0,P|212:40|237:135,1,123.5,10|0,2:0|2:0,2:0:0:0:
30,256,159845,2,0,P|16:195|0:136,1,123.5,2|0,3:2|2:0,2:0:0:0:
304,215,160153,1,10,2:0:0:0:
87,371,160307,1,2,2:0:0:0:
372,272,160461,5,10,3:2:0:0:
388,213,160537,1,2,3:2:0:0:
364,158,160614,1,10,2:0:0:0:
309,133,160691,1,10,2:0:0:0:
251,149,160768,1,10,2:0:0:0:
195,173,160845,1,10,3:2:0:0:
137,157,160922,1,10,3:2:0:0:
102,107,160999,1,10,2:0:0:0:
107,47,161076,2,0,L|177:30,1,61.75,10|0,2:0|3:2,2:0:0:0:
61,212,161230,2,0,L|-8:194,1,61.75,2|0,3:2|3:2,2:0:0:0:
251,149,161384,2,0,L|266:89,1,61.75,2|0,2:0|3:2,2:0:0:0:
133,312,161537,6,0,P|272:288|325:275,1,185.25,6|0,3:2|2:0,2:0:0:0:
328,282,161845,1,0,3:2:0:0:
493,160,161999,2,0,P|447:127|381:134,1,123.5,8|0,2:0|2:0,2:0:0:0:
388,349,162307,2,0,P|455:359|513:371,1,123.5,2|0,3:2|2:0,2:0:0:0:
357,138,162614,1,8,2:0:0:0:
178,331,162768,6,0,B|109:332|63:276|63:276|46:338|-2:370,1,247,2|0,2:0|2:0,2:0:0:0:
139,202,163230,2,0,P|108:148|41:159,1,123.5,10|0,2:0|2:0,2:0:0:0:
253,260,163537,2,0,L|397:236,1,123.5,2|0,3:2|2:0,2:0:0:0:
135,315,163845,1,10,2:0:0:0:
258,73,163999,6,0,B|350:53|427:124|427:124|408:81|403:58,1,247,6|0,3:2|3:2,2:0:0:0:
467,247,164461,1,8,2:0:0:0:
512,33,164614,1,0,2:0:0:0:
381,198,164768,2,0,P|355:263|385:327,1,123.5,2|0,3:2|2:0,2:0:0:0:
180,163,165076,1,8,2:0:0:0:
98,370,165230,1,0,2:0:0:0:
255,228,165384,6,0,P|276:161|245:99,1,123.5,2|0,3:2|2:0,2:0:0:0:
89,267,165691,1,8,2:0:0:0:
162,45,165845,1,0,2:0:0:0:
0,214,165999,1,2,3:2:0:0:
220,335,166153,5,8,2:0:0:0:
253,324,166230,1,8,2:0:0:0:
287,313,166307,1,10,2:3:0:0:
357,105,166461,1,6,2:3:0:0:
324,94,166537,1,4,2:3:0:0:
290,83,166614,6,0,P|224:105|187:145,1,123.5,6|0,3:2|2:0,2:0:0:0:
100,282,166922,1,8,2:0:0:0:
1,55,167076,2,0,P|58:74|93:126,1,123.5,2|0,3:2|2:0,2:0:0:0:
110,366,167384,1,0,3:2:0:0:
296,229,167537,1,10,2:0:0:0:
173,65,167691,1,0,3:2:0:0:
173,65,167768,1,0,3:2:0:0:
173,65,167845,6,0,P|195:131|235:168,1,123.5,8|0,2:0|2:0,2:0:0:0:
477,222,168153,1,8,2:0:0:0:
383,14,168307,1,0,3:2:0:0:
303,251,168461,5,2,2:0:0:0:
293,308,168537,1,2,2:0:0:0:
325,360,168614,1,2,3:2:0:0:
382,382,168691,1,2,2:0:0:0:
439,365,168768,2,0,L|429:303,1,61.75,10|0,2:0|2:0,2:0:0:0:
171,232,168922,2,0,L|180:292,1,61.75,2|0,3:2|3:2,2:0:0:0:
371,135,169076,5,14,2:0:0:0:
268,371,169230,1,0,3:2:0:0:
180,87,169384,1,0,3:2:0:0:
485,295,169537,5,10,2:0:0:0:
159,370,169691,1,0,3:2:0:0:
369,155,169845,1,0,3:2:0:0:
100,95,169999,5,10,2:0:0:0:
299,377,170153,1,0,3:2:0:0:
380,74,170307,6,0,L|310:84,1,61.75,8|8,2:0|2:0,2:0:0:0:
147,165,170461,1,0,3:2:0:0:
131,206,170537,1,0,3:2:0:0:
136,251,170614,1,10,2:0:0:0:
160,288,170691,1,8,2:0:0:0:
197,313,170768,6,0,L|259:298,1,61.75,0|0,3:2|3:2,2:0:0:0:
439,153,170922,2,0,L|379:168,1,61.75,10|8,2:3|2:3,2:0:0:0:
162,137,171076,2,0,L|224:152,1,61.75,6|4,2:3|2:3,2:0:0:0:
447,302,171230,2,0,L|388:283,1,61.75,8|0,2:0|2:0,2:0:0:0:
312,42,171384,6,0,B|326:105|326:105|297:154|297:154|316:240,1,185.25,6|0,3:2|2:0,2:0:0:0:
314,238,171691,1,2,3:2:0:0:
194,69,171845,2,0,P|132:81|66:93,1,123.5,10|0,2:0|2:0,2:0:0:0:
55,336,172153,2,0,P|115:323|176:313,1,123.5,2|0,3:2|3:2,2:0:0:0:
378,118,172461,1,10,2:0:0:0:
412,341,172614,6,0,B|295:377|301:271|177:313,1,247,2|0,3:2|3:2,2:0:0:0:
382,232,173076,2,0,P|395:150|370:109,1,123.5,10|0,2:0|2:0,2:0:0:0:
166,196,173384,1,2,3:2:0:0:
367,93,173537,1,2,3:2:0:0:
121,37,173691,1,8,2:0:0:0:
263,308,173845,6,0,B|291:151|291:151|252:72,1,247,6|0,3:2|3:2,2:0:0:0:
44,215,174307,2,0,L|175:194,1,123.5,10|0,2:0|2:0,2:0:0:0:
402,312,174614,2,0,L|271:333,1,123.5,2|0,3:2|3:2,2:0:0:0:
184,107,174922,1,10,2:0:0:0:
117,314,175076,2,0,B|132:333|136:375|136:375|151:268|166:194,1,247,2|0,3:2|3:2,2:0:0:0:
84,80,175537,5,8,2:0:0:0:
363,164,175691,1,0,3:2:0:0:
215,28,175845,1,10,2:0:0:0:
241,275,175999,1,10,2:0:0:0:
243,295,176076,1,8,2:0:0:0:
246,315,176153,1,8,2:0:0:0:
469,232,176307,6,0,B|459:137|459:137|414:87|414:87|403:3,1,247,6|0,3:2|3:2,2:0:0:0:
254,181,176768,2,0,P|351:177|370:148,1,123.5,10|0,2:0|2:0,2:0:0:0:
188,12,177076,2,0,P|168:83|131:142,1,123.5,2|0,3:2|2:0,2:0:0:0:
0,10,177384,1,10,2:0:0:0:
20,305,177537,6,0,P|58:191|58:52,1,247,2|0,2:0|2:0,2:0:0:0:
166,252,177999,2,0,P|239:255|278:202,1,123.5,10|0,2:0|2:0,2:0:0:0:
387,48,178307,1,2,3:2:0:0:
418,278,178461,1,2,2:0:0:0:
244,83,178614,1,8,2:0:0:0:
438,297,178768,6,0,P|465:181|508:52,1,247,6|0,3:2|2:0,2:0:0:0:
278,202,179230,2,0,P|263:141|244:83,1,123.5,10|0,2:0|2:0,2:0:0:0:
66,251,179537,2,0,P|157:235|177:195,1,123.5,2|0,3:2|2:0,2:0:0:0:
153,25,179845,1,10,2:0:0:0:
354,114,179999,1,2,2:0:0:0:
101,179,180153,5,0,3:2:0:0:
352,29,180307,1,8,2:0:0:0:
111,154,180461,1,8,2:0:0:0:
353,256,180614,1,0,3:2:0:0:
353,256,180691,1,0,3:2:0:0:
353,256,180768,5,10,2:0:0:0:
252,42,180922,1,10,2:3:0:0:
173,282,181076,1,6,2:3:0:0:
432,255,181230,6,0,P|382:181|294:188,1,185.25,6|0,3:2|2:0,2:0:0:0:
272,168,181537,1,0,3:2:0:0:
198,349,181691,5,8,2:0:0:0:
158,85,181845,1,0,3:2:0:0:
46,285,181999,5,10,2:0:0:0:
305,141,182153,1,0,3:2:0:0:
34,187,182307,5,10,2:0:0:0:
337,235,182461,1,2,3:2:0:0:
337,235,182537,1,0,3:2:0:0:
337,235,182614,5,12,2:0:0:0:
126,54,182768,1,0,3:2:0:0:
277,293,182922,5,8,2:0:0:0:
340,29,183076,1,2,3:2:0:0:
71,267,183230,5,10,2:0:0:0:
389,171,183384,1,2,3:2:0:0:
97,24,183537,5,10,2:0:0:0:
337,235,183691,2,0,P|403:218|461:206,1,123.5,6|0,3:2|2:0,2:0:0:0:
277,366,183999,5,0,3:2:0:0:
245,42,184153,1,8,2:0:0:0:
424,356,184307,5,2,3:2:0:0:
125,96,184461,1,8,2:0:0:0:
490,220,184614,5,0,3:2:0:0:
124,243,184768,1,10,2:0:0:0:
436,105,184922,5,6,2:3:0:0:
136,348,185076,1,4,3:2:0:0:
87,335,185153,1,0,3:2:0:0:
50,301,185230,1,8,2:0:0:0:
34,253,185307,1,4,2:3:0:0:
42,203,185384,2,0,P|50:173|55:142,1,61.75,0|4,3:2|2:3,2:0:0:0:
153,21,185537,2,0,P|157:51|165:81,1,61.75,6|4,2:3|2:3,2:0:0:0:
234,230,185691,2,0,P|241:200|246:169,1,61.75,2|0,3:2|3:2,2:0:0:0:
344,47,185845,2,0,P|348:77|356:107,1,61.75,10|0,2:0|3:2,2:0:0:0:
457,186,185999,1,10,3:2:0:0:
269,317,186153,6,0,L|512:277,1,247,6|0,3:2|3:2,2:0:0:0:
356,107,186614,2,0,P|339:165|354:224,1,123.5,10|0,2:0|2:0,2:0:0:0:
471,372,186922,1,2,3:2:0:0:
512,120,187076,1,2,3:2:0:0:
446,361,187230,1,10,2:0:0:0:
356,107,187384,6,0,B|310:70|256:111|256:111|188:155|128:96,1,247,6|0,3:2|3:2,2:0:0:0:
307,176,187845,2,0,P|295:231|276:307,1,123.5,10|0,2:0|3:2,2:0:0:0:
106,241,188153,1,2,3:2:0:0:
78,206,188230,1,8,2:0:0:0:
74,162,188307,1,2,3:2:0:0:
92,122,188384,1,8,2:0:0:0:
130,98,188461,1,14,2:0:0:0:
174,98,188537,1,0,2:0:0:0:
211,121,188614,6,0,P|321:131|348:43,1,185.25,6|0,3:2|2:0,2:0:0:0:
349,39,188922,1,8,2:0:0:0:
349,39,188999,1,8,2:0:0:0:
349,39,189076,2,0,L|412:22,1,61.75,10|0,2:0|3:2,2:0:0:0:
512,178,189230,2,0,L|452:161,1,61.75,4|4,2:3|2:3,2:0:0:0:
212,91,189384,2,0,L|275:74,1,61.75,4|8,2:3|2:0,2:0:0:0:
375,230,189537,2,0,L|315:213,1,61.75,0|8,3:2|2:0,2:0:0:0:
121,197,189691,1,0,3:2:0:0:
150,188,189768,1,0,3:2:0:0:
180,180,189845,1,12,2:0:0:0:
256,192,189922,12,10,190922,2:0:0:0:
256,192,191230,5,14,2:0:0:0:
319,239,196153,5,4,3:2:0:0:
123,91,197178,6,0,L|141:28,2,47.5000000000001,8|8|8,2:3|2:3|2:3,2:0:0:0:
321,152,197845,1,4,2:3:0:0:
135,269,198307,1,4,2:3:0:0:
312,358,198614,6,0,P|351:299|328:228,1,142.5,4|0,3:2|2:0,2:0:0:0:
135,269,199076,2,0,B|207:296|207:296|271:287,1,142.5,8|0,2:0|2:0,2:0:0:0:
135,192,199537,2,0,P|77:214|62:244,1,71.2500000000002,8|4,2:3|2:3,2:0:0:0:
189,369,199845,1,4,3:2:0:0:
235,185,199999,5,10,2:3:0:0:
236,176,200076,1,8,2:3:0:0:
239,164,200153,21,10,2:3:0:0:
307,139,200307,1,10,2:3:0:0:
402,173,200461,1,6,2:3:0:0:
452,288,200614,1,4,2:3:0:0:
505,126,200768,5,2,3:2:0:0:
386,351,200922,2,0,L|325:317,1,47.5,2|2,3:2|2:0,2:0:0:0:
262,245,201076,6,0,P|240:184|240:138,1,85.5000000000001,6|0,3:2|2:0,2:0:0:0:
138,289,201384,1,2,3:2:0:0:
214,130,201537,2,0,P|236:69|236:23,1,85.5000000000001,2|0,2:0|3:2,2:0:0:0:
302,265,201845,1,2,2:0:0:0:
111,149,201999,2,0,P|45:119|-4:121,1,85.5000000000001,2|0,3:2|2:0,2:0:0:0:
303,147,202307,1,2,3:2:0:0:
112,263,202461,2,0,P|46:293|-3:291,1,85.5000000000001,2|0,2:0|3:2,2:0:0:0:
325,287,202768,1,2,2:0:0:0:
130,120,202922,1,2,3:2:0:0:
307,184,203076,1,2,2:0:0:0:
307,184,203153,1,2,2:0:0:0:
307,184,203230,2,0,P|353:175|393:152,1,85.5000000000001,2|8,3:2|2:0,2:0:0:0:
171,28,203537,5,2,3:2:0:0:
217,201,203691,1,0,2:0:0:0:
280,91,203845,1,2,3:2:0:0:
92,221,203999,5,2,2:0:0:0:
50,95,204153,1,0,3:2:0:0:
185,177,204307,1,2,2:0:0:0:
0,273,204461,5,2,3:2:0:0:
64,140,204614,1,0,2:0:0:0:
107,258,204768,1,2,3:2:0:0:
265,128,204922,5,10,2:3:0:0:
126,160,205076,1,0,3:2:0:0:
233,253,205230,1,10,2:3:0:0:
179,76,205384,5,2,3:2:0:0:
210,223,205537,1,4,2:3:0:0:
307,62,205691,1,2,3:2:0:0:
309,283,205845,1,0,2:0:0:0:
385,125,205999,6,0,P|324:145|284:147,1,85.5000000000001,6|0,3:2|2:0,2:0:0:0:
92,110,206307,1,2,3:2:0:0:
184,320,206461,2,0,P|245:340|285:342,1,85.5000000000001,2|0,2:0|3:2,2:0:0:0:
477,305,206768,1,2,2:0:0:0:
278,78,206922,2,0,P|261:147|238:188,1,85.5000000000001,2|0,3:2|2:0,2:0:0:0:
149,321,207230,1,2,3:2:0:0:
141,51,207384,2,0,P|158:120|181:161,1,85.5000000000001,2|0,2:0|3:2,2:0:0:0:
270,294,207691,1,2,2:0:0:0:
362,58,207845,5,2,3:2:0:0:
244,266,207999,1,0,3:2:0:0:
256,41,208153,1,10,2:0:0:0:
348,256,208307,5,0,3:2:0:0:
348,256,208384,1,0,2:0:0:0:
348,256,208461,2,0,P|358:306|360:317,3,42.75,10|0|0|0,2:0|2:0|3:2|2:0,2:0:0:0:
244,182,208768,2,0,P|257:115|257:106,1,42.75,0|0,3:2|2:0,2:0:0:0:
142,256,208922,2,0,P|138:279|133:302,3,42.75,10|0|0|0,2:0|2:0|3:2|2:0,2:0:0:0:
54,169,209230,2,0,P|41:102|41:93,1,42.75,10|0,3:2|2:0,2:0:0:0:
230,217,209384,6,0,P|251:231|277:237,3,52.2500000000001,10|0|0|0,3:2|2:0|3:2|3:2,2:0:0:0:
419,92,209691,2,0,P|444:83|470:80,1,52.2500000000001,2|8,3:2|2:3,2:0:0:0:
480,270,209845,2,0,P|473:296|458:317,3,52.2500000000001,6|4|0|0,2:3|2:3|3:2|3:2,2:0:0:0:
324,99,210153,2,0,P|298:100|273:110,1,52.2500000000001,10|8,2:0|2:3,2:0:0:0:
210,341,210307,5,6,2:3:0:0:
171,365,210384,1,4,2:3:0:0:
125,368,210461,1,0,3:2:0:0:
83,349,210537,1,0,3:2:0:0:
55,313,210614,1,8,2:0:0:0:
46,268,210691,1,8,2:0:0:0:
59,224,210768,1,8,2:0:0:0:
91,191,210845,1,8,2:0:0:0:
134,176,210922,6,0,P|149:155|126:84,1,82.3333333333332,6|0,3:2|2:0,2:0:0:0:
99,90,211230,5,10,2:0:0:0:
130,23,211332,1,2,2:0:0:0:
198,2,211435,1,2,2:0:0:0:
262,36,211537,5,2,3:2:0:0:
282,106,211640,1,2,2:0:0:0:
245,170,211743,1,2,2:0:0:0:
178,203,211845,5,10,2:0:0:0:
139,264,211948,1,2,2:0:0:0:
160,335,212050,1,2,2:0:0:0:
223,371,212153,5,2,3:2:0:0:
291,350,212255,1,2,2:0:0:0:
325,285,212358,1,2,2:0:0:0:
341,202,212461,5,10,2:0:0:0:
404,153,212563,1,2,2:0:0:0:
481,171,212666,1,2,2:0:0:0:
512,244,212768,5,2,3:2:0:0:
473,313,212871,1,2,2:0:0:0:
395,327,212973,1,2,2:0:0:0:
325,285,213076,5,10,2:0:0:0:
313,272,213178,1,2,2:0:0:0:
302,260,213281,1,2,2:0:0:0:
288,249,213384,6,0,B|252:132|358:138|316:14,1,218.5,6|8,3:2|2:0,2:0:0:0:
383,188,213845,2,0,P|464:186|481:56,1,218.5,6|0,2:0|3:0,2:0:0:0:
229,216,214307,2,0,P|148:214|131:84,1,218.5,14|0,2:0|3:2,2:0:0:0:
266,11,214768,6,0,B|301:109|195:103|231:220,1,218.5,2|0,2:0|3:2,2:0:0:0:
323,332,215230,5,2,3:2:0:0:
267,272,215332,1,2,2:0:0:0:
267,192,215435,1,2,2:0:0:0:
323,134,215537,5,10,2:0:0:0:
401,131,215640,1,2,2:0:0:0:
462,184,215743,1,2,2:0:0:0:
447,268,215845,6,0,P|506:182|467:60,1,218.5,6|8,3:2|2:0,2:0:0:0:
296,27,216307,1,2,2:0:0:0:
296,27,216384,1,2,2:0:0:0:
296,27,216461,6,0,L|266:137,1,109.25,2|0,3:2|2:0,2:0:0:0:
248,166,216691,2,0,P|190:137|132:121,1,109.25,2|0,2:0|2:0,2:0:0:0:
109,127,216922,1,2,2:0:0:0:
279,260,217076,6,0,L|389:230,1,109.25,2|0,3:2|2:0,2:0:0:0:
418,212,217307,2,0,P|389:154|373:96,1,109.25,2|0,2:0|2:0,2:0:0:0:
379,73,217537,1,2,2:0:0:0:
248,166,217691,1,2,3:2:0:0:
107,110,217845,1,0,3:2:0:0:
109,147,217922,1,10,2:0:0:0:
112,184,217999,1,8,2:0:0:0:
275,312,218153,1,2,3:2:0:0:
276,286,218230,1,0,3:2:0:0:
279,260,218307,5,2,2:0:0:0:
69,335,218461,1,0,3:2:0:0:
204,81,218614,1,2,3:2:0:0:
370,302,218768,5,2,2:0:0:0:
437,90,218922,1,0,3:2:0:0:
183,225,219076,1,2,3:2:0:0:
479,249,219230,6,0,P|520:190|510:96,1,163.875,8|0,2:0|2:0,2:0:0:0:
480,60,219537,5,2,3:2:0:0:
459,30,219614,1,2,2:0:0:0:
423,16,219691,1,10,2:0:0:0:
386,21,219768,1,2,2:0:0:0:
349,51,219845,1,2,3:2:0:0:
333,97,219922,1,2,2:0:0:0:
344,143,219999,1,2,3:2:0:0:
378,178,220076,1,2,2:0:0:0:
424,187,220153,1,10,2:0:0:0:
462,194,220230,1,10,2:0:0:0:
489,221,220307,1,10,2:0:0:0:
495,258,220384,1,2,2:0:0:0:
480,293,220461,6,0,L|494:331,7,27.3125,2|2|2|2|2|2|2|2,2:0|2:0|2:0|2:0|3:2|2:0|2:0|2:0,2:0:0:0:
401,321,220768,5,6,3:2:0:0:
236,204,220922,1,2,2:0:0:0:
418,101,221076,1,10,2:0:0:0:
288,302,221230,6,0,B|217:315|217:315|144:292|144:292|50:311,1,228,2|0,2:0|2:0,2:0:0:0:
0,81,221691,1,8,2:0:0:0:
101,172,221845,1,2,2:0:0:0:
194,68,221999,2,0,P|247:41|301:23,1,114,2|0,3:2|2:0,2:0:0:0:
217,257,222307,1,10,2:0:0:0:
115,44,222461,2,0,P|62:17|8:-1,1,114,2|0,2:0|3:2,2:0:0:0:
125,301,222768,2,0,L|137:242,1,57,2|0,2:0|2:0,2:0:0:0:
310,103,222922,2,0,L|284:228,1,114,10|0,2:0|2:0,2:0:0:0:
187,55,223230,5,6,3:2:0:0:
221,293,223384,1,0,2:0:0:0:
416,142,223537,1,10,2:0:0:0:
126,200,223691,5,2,2:0:0:0:
348,289,223845,1,2,3:2:0:0:
315,45,223999,1,0,2:0:0:0:
213,307,224153,5,10,2:0:0:0:
173,66,224307,1,0,2:0:0:0:
401,160,224461,5,2,3:2:0:0:
137,185,224614,1,8,2:3:0:0:
327,30,224768,1,2,3:2:0:0:
327,30,224845,1,0,3:2:0:0:
327,30,224922,1,2,3:2:0:0:
360,274,225076,5,8,2:3:0:0:
173,66,225230,1,2,3:2:0:0:
173,66,225307,1,8,2:0:0:0:
173,66,225384,1,10,2:0:0:0:
401,160,225537,1,10,2:0:0:0:
172,333,225691,5,12,2:0:0:0:
277,35,225845,1,0,3:2:0:0:
372,331,225999,1,0,3:2:0:0:
82,140,226153,5,10,2:0:0:0:
463,133,226307,1,0,3:2:0:0:
150,336,226461,1,0,3:2:0:0:
159,61,226614,5,10,2:0:0:0:
271,373,226768,1,0,3:2:0:0:
351,95,226922,1,0,3:2:0:0:
62,224,227076,5,14,2:0:0:0:
362,322,227230,1,0,3:2:0:0:
332,9,227384,1,0,3:2:0:0:
225,291,227537,5,10,2:0:0:0:
161,53,227691,1,0,3:2:0:0:
420,194,227845,5,10,2:0:0:0:
123,299,227999,1,0,3:2:0:0:
123,299,228076,1,0,3:2:0:0:
123,299,228153,5,10,2:0:0:0:
14,36,228307,1,0,3:2:0:0:
104,301,228461,1,0,3:2:0:0:
253,114,228614,2,0,P|269:47|288:-15,1,118.75,10|0,2:0|3:2,2:0:0:0:
136,183,228922,1,0,3:2:0:0:
335,192,229076,5,10,2:0:0:0:
30,103,229230,1,0,3:2:0:0:
337,173,229384,1,0,3:2:0:0:
134,354,229537,2,0,P|67:370|5:389,1,118.75,10|0,2:0|3:2,2:0:0:0:
155,201,229845,1,0,3:2:0:0:
283,321,229999,5,10,2:0:0:0:
359,88,230153,1,0,3:2:0:0:
272,345,230307,5,10,2:0:0:0:
180,86,230461,1,0,3:2:0:0:
349,178,230614,5,10,2:3:0:0:
397,191,230691,1,8,2:3:0:0:
447,178,230768,1,8,2:3:0:0:
483,140,230845,1,8,2:3:0:0:
495,90,230922,1,10,2:3:0:0:
480,41,230999,1,8,2:3:0:0:
442,8,231076,1,10,2:3:0:0:
403,47,231153,1,8,2:3:0:0:
398,104,231230,1,8,2:3:0:0:
430,149,231307,1,8,2:3:0:0:
469,191,231384,1,10,2:3:0:0:
474,246,231461,1,8,2:3:0:0:
446,298,231537,5,10,2:0:0:0:
390,327,231614,1,8,2:0:0:0:
327,325,231691,1,8,2:0:0:0:
274,287,231768,1,8,2:0:0:0:
249,229,231845,1,10,2:0:0:0:
260,164,231922,1,8,2:0:0:0:
300,116,231999,1,10,2:3:0:0:
331,154,232076,1,8,2:3:0:0:
337,201,232153,1,8,2:3:0:0:
317,245,232230,1,8,2:3:0:0:
275,271,232307,1,10,2:3:0:0:
227,270,232384,1,8,2:3:0:0:
187,245,232461,6,0,P|139:234|125:236,1,59.375,10|8,2:3|2:3,2:0:0:0:
242,360,232614,2,0,P|282:370|305:366,1,59.375,4|4,2:3|2:3,2:0:0:0:
394,186,232768,2,0,P|361:191|334:202,1,59.375,6|4,2:3|2:3,2:0:0:0:
455,370,232922,2,0,P|495:380|527:376,1,59.375,4|4,2:3|2:3,2:0:0:0:
511,192,233076,6,0,B|513:118|465:160|461:62,1,118.75,14|10,2:0|2:0,2:0:0:0:
445,58,233307,1,10,2:0:0:0:
445,58,233384,1,10,2:0:0:0:
173,227,233537,1,10,2:0:0:0:
173,227,233614,1,10,2:0:0:0:
173,227,233691,1,10,2:0:0:0:
353,23,233845,2,0,L|340:94,1,59.375,10|10,2:0|2:0,2:0:0:0:
314,229,233999,1,10,2:0:0:0:
68,154,234153,6,0,L|252:132,1,178.125,6|0,2:0|2:0,2:0:0:0:
276,130,234461,1,8,2:0:0:0:
200,257,234614,1,10,2:3:0:0:
47,0,234768,1,8,2:0:0:0:
47,0,234845,1,8,2:0:0:0:
47,0,234922,6,0,L|62:69,1,59.375,10|8,2:0|2:0,2:0:0:0:
166,301,235076,2,0,L|178:242,1,59.375,8|8,2:3|2:3,2:0:0:0:
295,87,235230,2,0,L|306:157,1,59.375,10|8,2:3|2:3,2:0:0:0:
377,270,235384,2,0,L|389:211,1,59.375,8|8,2:3|2:3,2:0:0:0:
339,18,235537,6,0,P|299:8|223:42,1,109.25,6|0,3:2|2:0,2:0:0:0:
136,256,235845,1,10,2:0:0:0:
99,81,235999,1,2,2:0:0:0:
99,81,236076,1,0,2:0:0:0:
99,81,236153,1,0,3:2:0:0:
298,123,236307,1,2,3:2:0:0:
88,179,236461,5,10,2:0:0:0:
298,123,236614,1,0,3:2:0:0:
199,337,236768,1,2,3:2:0:0:
193,155,236922,1,0,3:2:0:0:
315,201,237076,5,10,2:0:0:0:
113,252,237230,1,2,2:0:0:0:
113,252,237307,1,0,2:0:0:0:
113,252,237384,2,0,L|126:362,1,109.25,0|2,3:2|3:2,2:0:0:0:
315,201,237691,1,10,2:0:0:0:
126,134,237845,5,0,3:2:0:0:
126,134,237922,1,0,3:2:0:0:
126,134,237999,1,2,3:2:0:0:
315,201,238153,1,0,3:2:0:0:
185,262,238307,1,10,2:0:0:0:
247,67,238461,1,2,3:2:0:0:
247,67,238537,1,0,3:0:0:0:
247,67,238614,1,0,3:2:0:0:
395,158,238768,5,2,3:2:0:0:
185,262,238922,1,10,2:0:0:0:
217,86,239076,1,0,3:2:0:0:
335,210,239230,1,0,3:2:0:0:
174,251,239384,1,0,3:2:0:0:
322,108,239537,1,10,2:0:0:0:
322,108,239614,1,0,2:0:0:0:
322,108,239691,6,0,L|378:131,1,54.625,0|0,3:2|3:2,2:0:0:0:
124,177,239845,1,10,2:3:0:0:
124,177,239922,1,4,2:3:0:0:
124,177,239999,2,0,L|101:233,1,54.625,4|4,2:3|2:3,2:0:0:0:
282,310,240153,1,10,2:0:0:0:
282,310,240230,1,4,2:3:0:0:
282,310,240307,2,0,L|261:259,1,54.625,4|4,2:3|2:3,2:0:0:0:
202,97,240461,1,6,2:0:0:0:
35,196,240614,5,0,2:0:0:0:
286,141,240768,1,10,2:0:0:0:
66,293,240922,2,0,P|30:235|39:188,1,109.25,2|0,3:2|2:0,2:0:0:0:
286,141,241230,1,2,3:2:0:0:
103,229,241384,1,10,3:2:0:0:
344,78,241537,5,0,3:0:0:0:
344,78,241614,1,0,3:0:0:0:
344,78,241691,2,0,P|362:148|351:188,1,109.25,2|0,3:2|2:0,2:0:0:0:
124,224,241999,2,0,L|132:106,1,109.25,10|0,2:0|2:0,2:0:0:0:
344,78,242307,1,0,3:2:0:0:
241,221,242461,1,2,3:2:0:0:
218,61,242614,1,8,2:0:0:0:
400,162,242768,1,0,3:2:0:0:
234,330,242922,6,0,L|241:217,1,109.25,14|0,2:0|2:0,2:0:0:0:
475,138,243230,1,10,2:0:0:0:
240,78,243384,1,2,3:2:0:0:
240,78,243461,1,2,2:0:0:0:
240,78,243537,1,0,3:2:0:0:
459,36,243691,5,10,2:0:0:0:
154,89,243845,1,0,3:2:0:0:
365,172,243999,2,0,P|397:250|368:336,1,163.875,14|0,2:0|2:0,2:0:0:0:
352,352,244307,1,0,3:2:0:0:
126,305,244461,1,8,2:0:0:0:
290,211,244614,1,0,3:2:0:0:
125,84,244768,5,8,2:3:0:0:
106,124,244845,1,8,2:3:0:0:
106,167,244922,1,8,2:3:0:0:
125,206,244999,1,8,2:3:0:0:
160,232,245076,1,4,2:3:0:0:
188,245,245153,1,4,2:3:0:0:
208,268,245230,1,4,2:3:0:0:
215,297,245307,1,4,2:3:0:0:
209,326,245384,5,4,3:2:0:0:
113,217,249999,6,0,L|100:119,1,78.3750000000004,12|0,3:2|2:0,2:0:0:0:
113,111,250307,5,12,2:0:0:0:
248,296,250461,1,0,3:2:0:0:
247,304,250614,1,0,3:2:0:0:
357,84,250768,5,8,2:0:0:0:
246,313,250922,1,0,3:2:0:0:
245,322,251076,1,0,3:2:0:0:
179,59,251230,5,8,2:0:0:0:
245,331,251384,1,0,3:2:0:0:
244,340,251537,1,0,3:2:0:0:
393,9,251691,5,8,2:0:0:0:
243,349,251845,1,0,3:2:0:0:
242,358,251999,1,0,3:2:0:0:
167,13,252153,5,8,2:0:0:0:
241,367,252307,1,0,3:2:0:0:
393,9,252461,5,8,2:0:0:0:
240,376,252614,2,0,L|226:316,1,47.5,0|0,3:2|3:2,2:0:0:0:
211,165,252768,5,6,3:2:0:0:
278,176,252845,1,0,3:2:0:0:
310,238,252922,1,8,2:0:0:0:
292,304,252999,1,8,2:0:0:0:
229,329,253076,5,0,3:2:0:0:
185,311,253153,1,0,3:2:0:0:
167,266,253230,1,6,2:3:0:0:
184,222,253307,1,4,2:3:0:0:
222,191,253384,1,4,2:3:0:0:
240,147,253461,1,4,2:3:0:0:
221,102,253537,1,0,3:2:0:0:
178,84,253614,1,0,3:2:0:0:
132,104,253691,1,4,2:3:0:0:
114,148,253768,1,4,2:3:0:0:
133,193,253845,1,0,3:2:0:0:
177,211,253922,1,0,3:2:0:0:
225,203,253999,5,10,2:0:0:0:
0,49,254153,1,10,2:0:0:0:
236,295,254307,1,10,3:2:0:0:
330,0,254461,1,10,2:0:0:0:
42,270,254614,1,2,2:0:0:0:
42,270,254768,6,0,B|9:309|26:355|26:355|-31:294|-2:245|-2:245|23:202|-6:151,1,299.250000000002,2|0,2:0|2:0,2:0:0:0:
163,90,256307,6,0,B|86:117|75:213|134:259|134:259|213:270|234:339|234:339|188:246|257:169|329:170|368:195|392:226,1,641.250000000003,6|0,3:2|2:0,2:0:0:0:
512,95,258922,2,0,B|461:96|439:144|439:144|454:91|420:54|420:54|384:106|312:86,1,299.250000000002,2|0,3:2|2:0,2:0:0:0:
249,38,260153,5,10,2:3:0:0:
512,95,260614,5,6,2:3:0:0:
369,238,261076,5,2,3:2:0:0:
119,140,261384,70,0,B|93:108|60:96|60:96|139:117|208:43|208:43|165:101|178:179|261:214|329:212|379:123|348:63,1,598.500000000003,6|0,3:2|2:0,2:0:0:0:
273,99,263845,6,0,B|278:163|278:163|300:190|300:190|266:218|266:218|285:249|285:249|292:337,1,256.500000000001,2|0,3:2|2:0,2:0:0:0:
178,363,264922,6,0,L|173:307,1,47.5,0|0,3:2|3:2,2:0:0:0:
122,152,265076,5,10,3:2:0:0:
132,173,265153,1,2,2:0:0:0:
146,193,265230,1,10,2:0:0:0:
164,208,265307,1,2,2:0:0:0:
186,218,265384,1,2,2:0:0:0:
209,224,265461,1,2,2:0:0:0:
233,223,265537,1,2,3:2:0:0:
256,217,265614,1,2,2:0:0:0:
277,206,265691,5,2,2:0:0:0:
47,261,265845,1,2,3:2:0:0:
270,333,265999,1,2,3:2:0:0:
122,152,266153,1,2,3:2:0:0:
290,81,266307,6,0,L|276:169,1,76,6|0,3:2|2:0,2:0:0:0:
128,307,266614,2,0,L|143:218,1,76,0|0,3:2|2:0,2:0:0:0:
322,275,266922,2,0,L|234:260,1,76,2|0,3:2|2:0,2:0:0:0:
96,113,267230,2,0,L|185:127,1,76,0|2,3:2|2:0,2:0:0:0:
54,203,267537,6,0,L|143:217,1,76,0|0,3:2|2:0,2:0:0:0:
364,185,267845,2,0,L|276:170,1,76,2|0,3:2|2:0,2:0:0:0:
219,349,268153,2,0,L|234:260,1,76,2|0,3:2|2:0,2:0:0:0:
200,38,268461,1,2,3:2:0:0:
200,38,268614,2,0,L|193:75,1,38,10|8,2:0|2:0,2:0:0:0:
128,307,268768,5,0,3:2:0:0:
128,307,268922,1,0,2:0:0:0:
96,113,269076,5,0,3:2:0:0:
96,113,269230,1,0,2:0:0:0:
290,81,269384,5,2,3:2:0:0:
290,81,269537,1,0,2:0:0:0:
322,275,269691,5,0,3:2:0:0:
322,275,269845,1,0,2:0:0:0:
54,203,269999,5,2,3:2:0:0:
54,203,270153,1,0,2:0:0:0:
199,39,270307,5,0,3:2:0:0:
199,39,270461,1,0,2:0:0:0:
219,349,270614,5,2,3:2:0:0:
219,349,270768,1,0,2:0:0:0:
364,184,270922,5,2,3:2:0:0:
244,247,271076,1,0,2:0:0:0:
125,312,271230,1,14,2:0:0:0:
125,312,271537,5,0,3:2:0:0:
209,194,271691,1,2,3:2:0:0:
38,230,271845,1,0,3:2:0:0:
228,173,271999,1,0,3:2:0:0:
40,111,272153,1,2,3:2:0:0:
141,285,272307,1,0,3:2:0:0:
102,62,272461,1,8,2:0:0:0:
296,222,272614,1,8,2:0:0:0:
0,231,272768,1,8,2:0:0:0:
313,69,272922,1,8,2:0:0:0:
108,10,273076,5,2,3:2:0:0:
83,48,273153,1,2,3:2:0:0:
79,98,273230,1,2,3:2:0:0:
94,146,273307,1,2,3:2:0:0:
124,186,273384,1,10,3:2:0:0:
192,211,273461,1,2,3:2:0:0:
262,196,273537,2,0,P|294:184|318:163,1,61.75,2|0,3:2|3:2,2:0:0:0:
432,15,273691,5,14,2:0:0:0:
493,67,273768,1,8,2:0:0:0:
512,142,273845,1,8,2:0:0:0:
485,216,273922,1,8,2:0:0:0:
414,251,273999,2,0,P|351:247|320:223,1,71.25,4|4,2:3|2:3,2:0:0:0:
145,30,274153,5,10,2:3:0:0:
84,82,274230,1,8,2:3:0:0:
65,157,274307,1,8,2:3:0:0:
92,231,274384,1,8,2:3:0:0:
152,284,274461,2,0,P|202:305|269:283,1,71.25,4|4,2:3|2:3,2:0:0:0:
434,132,274614,5,10,2:3:0:0:
384,80,274691,1,8,2:3:0:0:
313,77,274768,1,8,2:3:0:0:
257,121,274845,1,8,2:3:0:0:
195,154,274922,1,4,2:3:0:0:
126,140,274999,1,4,2:3:0:0:
84,82,275076,1,4,2:0:0:0:
156,330,275230,5,6,3:2:0:0:
334,195,275384,1,0,3:2:0:0:
84,82,275537,1,10,2:0:0:0:
410,29,275691,1,2,3:2:0:0:
423,45,275999,6,0,L|405:194,1,142.5,6|0,3:2|2:0,2:0:0:0:
207,294,276307,1,2,3:2:0:0:
435,357,276461,2,0,L|417:215,1,142.5,10|0,2:0|2:0,2:0:0:0:
266,49,276768,2,0,P|283:119|292:205,1,142.5,2|0,3:2|3:2,2:0:0:0:
89,132,277076,1,10,2:0:0:0:
207,294,277230,6,0,L|346:264,1,142.5,2|0,3:2|2:0,2:0:0:0:
266,27,277537,1,0,3:2:0:0:
150,189,277691,2,0,P|74:214|16:177,1,142.5,10|0,2:0|2:0,2:0:0:0:
183,49,277999,1,2,3:2:0:0:
123,301,278153,1,2,3:2:0:0:
165,38,278307,1,8,2:0:0:0:
346,264,278461,6,0,B|429:231|440:89|440:89|487:162,1,285,6|0,3:2|3:2,2:0:0:0:
288,333,278922,2,0,P|262:259|296:194,1,142.5,10|0,2:0|2:0,2:0:0:0:
378,16,279230,2,0,P|341:85|270:104,1,142.5,2|0,3:2|3:2,2:0:0:0:
63,55,279537,1,10,2:0:0:0:
175,296,279691,2,0,L|207:157,1,142.5,2|0,3:2|2:0,2:0:0:0:
21,309,279999,1,0,3:2:0:0:
270,248,280153,1,8,2:0:0:0:
48,170,280307,1,0,3:2:0:0:
297,109,280461,1,10,2:0:0:0:
297,109,280537,1,0,3:2:0:0:
297,109,280614,2,0,P|273:86|228:63,1,71.25,2|0,3:2|3:2,2:0:0:0:
0,30,280768,1,8,2:0:0:0:
158,241,280922,6,0,P|228:220|365:189,1,213.75,6|0,3:2|2:0,2:0:0:0:
393,199,281230,1,2,3:2:0:0:
104,302,281384,2,0,L|131:123,1,142.5,10|0,2:0|2:0,2:0:0:0:
343,48,281691,2,0,L|364:188,1,142.5,2|0,3:2|2:0,2:0:0:0:
134,38,281999,1,10,2:0:0:0:
323,296,282153,6,0,P|423:286|433:104,1,285,2|0,2:0|2:0,2:0:0:0:
247,183,282614,2,0,P|237:252|222:335,1,142.5,10|0,2:0|2:0,2:0:0:0:
134,142,282922,1,2,3:2:0:0:
377,270,283076,1,2,2:0:0:0:
78,352,283230,1,8,2:0:0:0:
247,183,283384,6,0,P|242:93|74:42,1,285,6|0,3:2|2:0,2:0:0:0:
19,266,283845,2,0,P|108:229|157:215,1,142.5,10|0,2:0|2:0,2:0:0:0:
385,349,284153,2,0,P|296:312|247:298,1,142.5,2|0,3:2|2:0,2:0:0:0:
49,165,284461,1,10,2:0:0:0:
349,240,284614,1,2,2:0:0:0:
141,307,284768,5,0,3:2:0:0:
329,158,284922,1,8,2:0:0:0:
62,79,285076,1,8,3:2:0:0:
350,21,285230,5,0,3:2:0:0:
389,38,285307,1,8,2:0:0:0:
419,69,285384,1,10,2:0:0:0:
438,109,285461,1,8,2:3:0:0:
442,152,285537,1,10,2:3:0:0:
435,196,285614,1,8,2:0:0:0:
411,232,285691,1,6,2:3:0:0:
377,260,285768,1,4,2:3:0:0:
336,279,285845,2,0,P|245:261|103:239,1,213.75,6|0,3:2|2:0,2:0:0:0:
101,262,286153,5,0,3:2:0:0:
384,356,286307,1,8,2:0:0:0:
2,314,286461,5,0,3:2:0:0:
289,199,286614,1,10,2:0:0:0:
91,143,286768,5,0,3:2:0:0:
242,352,286922,1,10,2:0:0:0:
18,190,287076,1,2,3:2:0:0:
4,159,287153,1,0,3:2:0:0:
3,125,287230,5,12,2:0:0:0:
289,199,287384,1,0,3:2:0:0:
91,143,287537,5,8,2:0:0:0:
386,76,287691,1,2,3:2:0:0:
120,57,287845,5,10,2:0:0:0:
428,164,287999,1,0,3:2:0:0:
120,152,288153,5,10,2:0:0:0:
484,78,288307,2,0,P|515:151|511:215,1,142.5,6|0,3:2|2:0,2:0:0:0:
316,323,288614,5,0,3:2:0:0:
208,44,288768,1,8,2:0:0:0:
155,338,288922,5,2,3:2:0:0:
377,31,289076,1,8,2:0:0:0:
413,361,289230,5,0,3:2:0:0:
188,22,289384,1,10,2:0:0:0:
35,369,289537,5,6,2:3:0:0:
297,166,289691,1,4,3:2:0:0:
332,203,289768,1,0,3:2:0:0:
351,248,289845,1,8,2:0:0:0:
344,299,289922,1,4,2:3:0:0:
314,338,289999,1,0,3:2:0:0:
304,288,290076,1,4,2:3:0:0:
319,240,290153,1,6,2:3:0:0:
356,205,290230,1,4,2:3:0:0:
405,192,290307,102,0,P|458:206|484:229,1,71.25,2|0,3:2|3:2,2:0:0:0:
243,223,290461,2,0,P|211:189|186:150,1,71.25,10|0,2:0|3:2,2:0:0:0:
374,102,290614,2,0,P|410:91|443:94,1,71.25,10|0,3:2|2:0,2:0:0:0:
402,294,290768,6,0,P|361:353|195:245,1,285,6|0,3:2|3:2,2:0:0:0:
337,29,291230,2,0,L|308:191,1,142.5,10|0,2:0|2:0,2:0:0:0:
146,64,291537,1,2,3:2:0:0:
304,288,291691,1,2,3:2:0:0:
443,94,291845,1,10,2:0:0:0:
373,358,291999,6,0,B|222:408|230:280|88:324,1,285,6|0,3:2|3:2,2:0:0:0:
311,169,292461,2,0,P|318:99|289:35,1,142.5,10|0,2:0|3:2,2:0:0:0:
43,170,292768,2,0,L|126:155,1,71.25,2|0,3:2|2:0,2:0:0:0:
254,262,292922,2,0,L|324:274,1,71.25,2|0,3:2|2:0,2:0:0:0:
477,174,293076,1,14,2:0:0:0:
233,116,293230,6,0,L|188:348,1,213.75,6|0,3:2|2:0,2:0:0:0:
187,356,293537,1,8,2:0:0:0:
0,220,293691,1,10,2:0:0:0:
311,169,293845,1,0,2:3:0:0:
0,192,293999,1,4,2:3:0:0:
315,353,294153,1,0,3:2:0:0:
319,313,294230,1,8,2:0:0:0:
324,274,294307,1,0,3:2:0:0:
215,98,294461,6,0,B|156:153|156:153|190:376,1,285,12|0,2:0|3:2,2:0:0:0:
311,169,294922,1,0,3:2:0:0:
89,286,295076,1,10,2:0:0:0:
89,286,295153,1,8,2:0:0:0:
89,286,295230,1,10,2:0:0:0:
106,58,295384,1,10,2:0:0:0:
106,58,295461,1,8,2:0:0:0:
106,58,295537,1,10,2:0:0:0:
261,253,295691,6,0,P|368:245|397:120,1,213.75,6|0,3:2|2:0,2:0:0:0:
399,120,295999,1,0,3:2:0:0:
171,300,296153,5,10,2:0:0:0:
92,45,296307,1,0,3:2:0:0:
65,354,296461,5,10,2:0:0:0:
389,192,296614,1,2,3:2:0:0:
33,148,296768,5,10,2:0:0:0:
321,272,296922,1,2,3:2:0:0:
340,278,296999,1,0,3:2:0:0:
358,283,297076,5,12,2:0:0:0:
31,368,297230,1,0,3:2:0:0:
377,289,297384,5,10,2:0:0:0:
33,165,297537,1,0,3:2:0:0:
448,44,297691,5,10,2:0:0:0:
48,265,297845,1,2,3:2:0:0:
397,165,297999,5,8,2:0:0:0:
4,25,298153,2,0,L|36:181,1,142.5,6|0,3:2|2:0,2:0:0:0:
313,135,298461,5,8,2:0:0:0:
313,135,298537,1,8,2:0:0:0:
313,135,298614,2,0,P|268:127|227:136,1,71.25,8|0,2:0|3:2,2:0:0:0:
180,347,298768,2,0,P|222:340|259:320,1,71.25,4|4,2:3|2:3,2:0:0:0:
306,121,298922,2,0,P|261:113|220:122,1,71.25,4|8,2:3|2:0,2:0:0:0:
191,361,299076,2,0,P|231:354|270:334,1,71.25,0|8,3:2|2:0,2:0:0:0:
437,123,299230,1,0,3:2:0:0:
431,153,299307,1,0,3:2:0:0:
426,183,299384,1,12,2:0:0:0:
256,192,299461,12,2,300153,2:0:0:0:
313,245,300307,6,0,P|278:246|243:229,1,71.25,0|0,3:2|3:2,2:0:0:0:
126,71,300461,1,10,2:0:0:0:
96,77,300768,5,14,2:0:0:0:
310,168,300922,1,2,3:2:0:0:
85,302,301076,1,2,3:2:0:0:
228,56,301230,5,10,2:0:0:0:
216,324,301384,1,0,3:2:0:0:
1,135,301537,1,0,3:2:0:0:
333,191,301691,5,10,2:0:0:0:
86,322,301845,1,0,3:2:0:0:
130,30,301999,1,0,3:2:0:0:
274,314,302153,5,10,2:0:0:0:
13,114,302307,1,0,3:2:0:0:
310,30,302461,1,0,3:2:0:0:
146,357,302614,5,10,2:0:0:0:
379,161,302768,2,0,L|449:162,1,61.75,0|0,3:2|2:0,2:0:0:0:
140,42,302922,1,10,2:0:0:0:
356,268,303076,1,0,3:2:0:0:
362,276,303153,1,0,3:2:0:0:
369,284,303230,5,14,2:0:0:0:
96,231,303384,1,0,3:2:0:0:
366,45,303537,1,0,3:2:0:0:
162,333,303691,5,10,2:0:0:0:
379,161,303845,1,0,3:2:0:0:
106,38,303999,1,0,3:2:0:0:
335,294,304153,5,10,2:0:0:0:
275,0,304307,1,0,3:2:0:0:
99,261,304461,1,0,3:2:0:0:
457,244,304614,5,10,2:0:0:0:
184,45,304768,1,0,3:2:0:0:
178,368,304922,1,0,3:2:0:0:
367,187,305076,5,10,2:0:0:0:
331,144,305153,1,0,3:2:0:0:
279,129,305230,1,0,3:2:0:0:
226,144,305307,1,0,3:2:0:0:
189,187,305384,1,10,2:0:0:0:
153,231,305461,1,0,3:2:0:0:
101,247,305537,1,0,3:2:0:0:
48,231,305614,1,0,3:2:0:0:
12,187,305691,5,14,2:0:0:0:
342,50,305845,1,0,3:2:0:0:
25,160,305999,1,0,3:2:0:0:
308,329,306153,5,10,2:0:0:0:
224,22,306307,1,0,3:2:0:0:
329,312,306461,1,0,3:2:0:0:
86,245,306614,5,10,2:0:0:0:
461,136,306768,1,0,3:2:0:0:
95,259,306922,1,0,3:2:0:0:
410,238,307076,5,10,2:0:0:0:
103,111,307230,1,0,3:2:0:0:
436,240,307384,1,0,3:2:0:0:
208,373,307537,5,10,2:0:0:0:
184,45,307691,1,0,3:2:0:0:
488,170,307845,1,10,2:0:0:0:
115,338,307999,1,2,3:2:0:0:
115,338,308076,1,2,2:0:0:0:
115,338,308153,5,14,2:0:0:0:
357,163,308307,1,4,2:3:0:0:
75,105,308461,1,2,3:0:0:0:
319,305,308614,5,10,2:0:0:0:
178,64,308768,1,4,2:3:0:0:
99,336,308922,1,2,3:0:0:0:
314,89,309076,5,10,2:0:0:0:
45,239,309230,1,4,2:3:0:0:
334,304,309384,1,2,3:0:0:0:
186,4,309537,5,10,2:0:0:0:
218,288,309691,1,4,2:3:0:0:
385,35,309845,1,2,3:0:0:0:
59,104,309999,5,6,2:3:0:0:
92,133,310076,1,4,2:3:0:0:
133,145,310153,1,0,3:0:0:0:
176,137,310230,1,0,3:0:0:0:
210,111,310307,1,8,2:0:0:0:
231,87,310384,1,8,2:0:0:0:
258,74,310461,1,8,2:0:0:0:
288,76,310537,1,8,2:0:0:0:
314,89,310614,5,2,3:2:0:0:
343,160,310691,5,2,3:2:0:0:
324,234,310768,5,2,3:2:0:0:
350,304,310845,5,2,3:2:0:0:
305,365,310922,6,0,L|183:343,1,123.5,14|0,3:2|2:0,2:0:0:0:
31,279,311230,2,0,P|114:255|142:197,1,123.5,0|0,3:2|2:0,2:0:0:0:
314,89,311537,2,0,P|231:113|203:171,1,123.5,8|0,2:0|2:0,2:0:0:0:
366,296,311845,1,0,3:2:0:0:
435,107,311999,1,0,2:0:0:0:
253,246,312153,1,8,2:0:0:0:
113,92,312307,1,0,2:0:0:0:
355,30,312461,5,0,3:2:0:0:
134,243,312614,2,0,L|118:165,1,61.75,0|0,2:0|2:0,2:0:0:0:
93,11,312768,2,0,P|159:19|195:70,1,123.5,8|0,2:0|2:0,2:0:0:0:
253,246,313076,6,0,P|325:232|399:217,1,123.5,4|0,3:2|2:0,2:0:0:0:
474,96,313384,1,8,2:0:0:0:
273,42,313537,1,0,2:0:0:0:
453,179,313691,2,0,P|462:239|421:289,1,123.5,0|0,3:2|2:0,2:0:0:0:
203,148,313999,1,8,2:0:0:0:
406,34,314153,1,0,2:0:0:0:
192,126,314307,1,0,3:2:0:0:
374,222,314461,1,0,2:0:0:0:
183,349,314614,2,0,P|174:280|162:218,1,123.5,8|0,2:0|2:0,2:0:0:0:
88,61,314922,5,0,3:2:0:0:
297,174,315076,1,8,2:0:0:0:
57,282,315230,5,0,3:2:0:0:
297,152,315384,1,8,2:0:0:0:
133,151,315537,6,0,P|64:142|2:130,1,123.5,4|0,3:2|2:0,2:0:0:0:
240,73,315845,1,8,2:0:0:0:
173,238,315999,2,0,P|114:275|59:306,1,123.5,0|0,2:0|3:2,2:0:0:0:
221,55,316307,1,0,2:0:0:0:
274,248,316461,2,0,P|253:314|230:373,1,123.5,8|0,2:0|2:0,2:0:0:0:
199,38,316768,1,0,3:2:0:0:
357,190,316922,2,0,P|383:254|404:313,1,123.5,0|8,2:0|2:0,2:0:0:0:
168,22,317230,1,0,2:0:0:0:
388,98,317384,5,0,3:2:0:0:
124,232,317537,1,0,2:0:0:0:
476,304,317691,6,0,L|467:242,1,61.75,8|0,2:0|2:0,2:0:0:0:
383,24,317845,2,0,L|374:85,1,61.75,2|2,3:2|2:0,2:0:0:0:
238,244,317999,5,10,2:0:0:0:
238,244,318076,1,4,2:3:0:0:
238,244,318153,1,4,2:3:0:0:
207,193,318230,1,0,2:0:0:0:
207,135,318307,1,0,2:0:0:0:
232,82,318384,1,0,3:0:0:0:
276,47,318461,5,10,2:0:0:0:
294,110,318537,1,4,2:3:0:0:
275,175,318614,1,4,2:3:0:0:
221,216,318691,1,4,2:3:0:0:
154,221,318768,1,2,3:0:0:0:
96,185,318845,1,0,3:0:0:0:
69,123,318922,5,10,2:0:0:0:
138,98,318999,1,4,2:3:0:0:
209,118,319076,1,4,2:3:0:0:
257,175,319153,1,4,2:3:0:0:
264,249,319230,1,2,3:0:0:0:
227,313,319307,1,0,3:0:0:0:
161,346,319384,5,10,2:0:0:0:
159,266,319461,1,4,2:3:0:0:
197,197,319537,1,4,2:3:0:0:
265,154,319614,1,4,2:3:0:0:
344,149,319691,2,0,P|401:172|426:168,1,61.75,2|0,3:0|3:0,2:0:0:0:
428,4,319845,5,6,2:3:0:0:
347,12,319922,1,4,2:3:0:0:
286,67,319999,1,0,3:0:0:0:
226,123,320076,1,0,3:0:0:0:
145,130,320153,6,0,L|71:115,1,61.75,8|8,2:0|2:0,2:0:0:0:
241,371,320307,2,0,L|256:283,1,61.75,8|8,2:0|2:0,2:0:0:0:
405,90,320461,1,0,3:2:0:0:
190,96,321076,6,0,B|249:-19|442:-19|540:94|508:281|508:281|437:260|383:309|383:309|277:252|273:145|273:145|366:186|351:313|351:313|202:314|185:228|185:228|203:314|72:372|72:372|27:248|136:165|136:165|156:183|197:170|197:170|160:140|136:146|136:146|158:136|164:101|164:101|128:108|125:143|125:143|123:108|85:101|85:101|91:141|112:155|112:155|44:150|-6:67|2:11|2:11|68:-6|124:18|149:59,1,2451,6|0,3:2|2:0,2:0:0:0:
