osu file format v14

[General]
AudioFilename: audio.mp3
AudioLeadIn: 0
PreviewTime: 57621
Countdown: 0
SampleSet: Soft
StackLeniency: 0.4
Mode: 0
LetterboxInBreaks: 0
WidescreenStoryboard: 0

[Editor]
DistanceSpacing: 1.1
BeatDivisor: 4
GridSize: 4
TimelineZoom: 2.4

[Metadata]
Title:Ringing Bloom
TitleUnicode:Ringing Bloom
Artist:Roselia
ArtistUnicode:Roselia
Creator:Doormat
Version:Special
Source:バンドリ! ガールズバンドパーティ!
Tags:BanG Dream! Girls Band Party bandori garupa ガルパ ロゼリア minato yukina 湊友希那 aiba aina 相羽あいな hikawa sayo 氷川紗夜 kudou haruka 工藤晴香 imai lisa 今井リサ nakashima yuki 中島由貴 udagawa ako 宇田川あこ sakuragawa megu 櫻川めぐ shirokane rinko 白金燐子 akesaka satomi 明坂聡美 shizaki kanon 志崎樺音 anime video game japanese
BeatmapID:1939393
BeatmapSetID:928504

[Difficulty]
HPDrainRate:5
CircleSize:4
OverallDifficulty:8
ApproachRate:9.5
SliderMultiplier:1.7
SliderTickRate:1

[Events]
//Background and Video events
0,0,"baby rinko.jpg",0,0
//Break Periods
//Storyboard Layer 0 (Background)
//Storyboard Layer 1 (Fail)
//Storyboard Layer 2 (Pass)
//Storyboard Layer 3 (Foreground)
//Storyboard Sound Samples

[TimingPoints]
150,307.692307692308,4,2,1,60,1,0
150,-166.666666666667,4,2,1,60,0,0
3872,307.692307692308,4,2,1,60,1,0
3872,-100,4,2,1,60,0,0
8641,-100,4,2,1,5,0,0
8795,-100,4,2,1,60,0,0
18641,-100,4,2,1,60,0,0
26487,-90.9090909090909,4,2,1,60,0,0
26948,-83.3333333333333,4,2,1,60,0,0
27410,-76.9230769230769,4,2,1,60,0,0
27872,-71.4285714285714,4,2,1,60,0,0
28487,-117.647058823529,4,2,1,60,0,0
38333,-100,4,2,1,60,0,0
48180,-117.647058823529,4,2,1,60,0,0
53103,-133.333333333333,4,2,1,60,0,0
58026,-166.666666666667,4,2,1,60,0,0
62949,-100,4,2,1,60,0,0
67718,-100,4,2,1,60,0,1
87333,-100,4,2,1,60,0,0
87410,-100,4,2,1,60,0,1
105872,-100,4,2,1,60,0,1
106949,-100,4,2,1,60,0,0
107256,-100,4,2,1,60,0,0

[HitObjects]
144,92,150,5,0,0:0:0:0:
256,192,3872,5,0,0:0:0:0:
256,192,3949,12,0,8641,0:0:0:0:
164,116,8795,5,4,1:2:0:0:
231,65,8949,1,0,0:0:0:0:
314,77,9103,1,0,1:0:0:0:
176,204,9256,5,0,0:0:0:0:
99,171,9410,1,0,1:0:0:0:
67,93,9564,1,0,0:0:0:0:
245,149,9718,5,0,1:0:0:0:
255,232,9872,1,0,0:0:0:0:
204,298,10026,1,0,1:0:0:0:
372,380,10180,5,0,0:0:0:0:
362,297,10333,1,0,1:0:0:0:
413,231,10487,1,0,0:0:0:0:
204,298,10641,5,0,1:0:0:0:
245,149,10795,1,0,0:0:0:0:
372,380,10949,5,0,1:0:0:0:
413,231,11103,1,2,0:3:0:0:
160,224,11256,5,4,1:2:0:0:
204,298,11410,1,0,0:0:0:0:
287,319,11564,1,0,1:0:0:0:
388,128,11718,5,0,0:0:0:0:
344,202,11872,1,0,1:0:0:0:
261,223,12026,1,0,0:0:0:0:
160,32,12180,5,0,1:0:0:0:
204,106,12333,1,0,0:0:0:0:
287,127,12487,1,0,1:0:0:0:
136,280,12641,5,0,0:0:0:0:
92,206,12795,1,0,1:0:0:0:
9,185,12949,1,0,0:0:0:0:
287,127,13103,5,0,1:0:0:0:
252,204,13256,1,0,3:0:0:0:
256,213,13333,1,0,3:0:0:0:
261,223,13410,1,0,1:0:0:0:
226,300,13564,1,0,3:0:0:0:
160,32,13718,5,4,1:2:0:0:
240,4,13872,1,0,0:0:0:0:
316,40,14026,1,0,1:0:0:0:
164,168,14180,5,0,0:0:0:0:
88,132,14333,1,0,1:0:0:0:
8,160,14487,1,0,0:0:0:0:
160,288,14641,5,0,1:0:0:0:
272,256,14795,1,0,0:0:0:0:
244,368,14949,1,0,1:0:0:0:
396,88,15103,5,0,0:0:0:0:
264,144,15256,1,0,1:0:0:0:
384,228,15410,1,0,0:0:0:0:
104,356,15564,5,0,1:0:0:0:
272,256,15718,1,0,0:0:0:0:
104,156,15872,1,0,1:0:0:0:
384,228,16026,5,8,0:0:0:0:
384,228,16103,1,8,0:0:0:0:
384,228,16179,2,0,L|472:212,1,85,4|0,1:2|0:0,0:0:0:0:
320,116,16487,1,8,0:0:0:0:
256,344,16641,1,8,0:0:0:0:
176,88,16795,1,8,0:0:0:0:
467,212,16948,1,8,0:0:0:0:
120,328,17102,1,8,0:0:0:0:
308,4,17256,1,8,0:0:0:0:
408,380,17410,1,8,0:0:0:0:
28,146,17564,5,0,3:0:0:0:
56,114,17640,1,0,3:0:0:0:
93,93,17717,1,0,3:0:0:0:
134,84,17794,1,0,3:0:0:0:
176,88,17871,1,0,3:0:0:0:
214,106,17948,1,0,3:0:0:0:
252,122,18025,1,0,3:0:0:0:
294,127,18102,1,0,3:0:0:0:
336,118,18179,1,0,3:0:0:0:
372,97,18256,1,0,3:0:0:0:
401,65,18332,1,0,0:0:0:0:
484,372,18487,5,0,0:0:0:0:
484,372,18564,1,0,0:0:0:0:
484,372,18641,2,0,L|376:352,1,85,12|0,1:2|1:0,0:0:0:0:
468,212,18948,1,0,1:0:0:0:
198,266,19102,6,0,L|306:246,1,85,12|0,1:2|1:0,0:0:0:0:
214,106,19410,1,0,1:0:0:0:
72,336,19564,5,12,1:2:0:0:
20,124,19718,1,0,1:0:0:0:
84,324,19872,1,0,1:0:0:0:
312,108,20025,5,12,1:2:0:0:
120,212,20179,1,0,1:0:0:0:
300,96,20333,1,0,1:0:0:0:
340,360,20487,5,12,1:2:0:0:
176,104,20641,1,0,1:0:0:0:
176,104,20718,1,0,1:0:0:0:
176,104,20795,1,12,1:2:0:0:
386,150,20948,1,0,1:0:0:0:
130,314,21102,6,0,P|87:312|45:305,1,85,12|0,1:2|1:0,0:0:0:0:
100,152,21410,1,0,1:0:0:0:
324,192,21564,6,0,P|366:190|408:183,1,85,12|0,1:2|1:0,0:0:0:0:
354,29,21872,1,0,1:0:0:0:
192,244,22025,5,12,1:2:0:0:
404,300,22179,1,0,1:0:0:0:
204,232,22333,1,0,1:0:0:0:
476,168,22487,5,12,1:2:0:0:
436,384,22641,1,0,1:0:0:0:
488,180,22795,1,0,1:0:0:0:
188,368,22948,5,12,1:2:0:0:
252,84,23102,1,0,1:0:0:0:
252,84,23179,1,0,1:0:0:0:
252,84,23256,1,12,1:2:0:0:
362,258,23410,1,0,1:0:0:0:
77,193,23564,5,12,1:2:0:0:
368,112,23718,1,0,1:0:0:0:
368,112,23872,1,0,1:0:0:0:
152,328,24025,5,12,1:2:0:0:
100,32,24179,1,0,1:0:0:0:
100,32,24333,1,0,1:0:0:0:
432,216,24487,5,12,1:2:0:0:
132,176,24641,1,0,1:0:0:0:
420,200,24795,1,0,1:0:0:0:
188,52,24948,5,12,1:2:0:0:
140,356,25102,1,0,1:0:0:0:
176,68,25256,1,0,1:0:0:0:
468,356,25410,5,12,1:2:0:0:
428,64,25564,1,0,1:0:0:0:
428,64,25641,1,0,1:0:0:0:
428,64,25718,1,12,1:2:0:0:
200,212,25872,5,0,1:0:0:0:
200,212,25948,1,0,1:0:0:0:
200,212,26025,2,0,L|252:224,1,42.5,12|0,1:2|3:0,0:0:0:0:
305,29,26179,5,0,3:0:0:0:
283,65,26255,1,0,3:0:0:0:
247,86,26332,1,0,3:0:0:0:
205,87,26409,1,0,3:0:0:0:
168,68,26487,2,0,P|146:59|123:54,1,46.7500014266968,12|0,1:2|3:0,0:0:0:0:
8,260,26641,5,0,3:0:0:0:
35,297,26717,1,0,3:0:0:0:
75,320,26794,1,0,3:0:0:0:
122,323,26871,1,0,3:0:0:0:
165,307,26948,2,0,P|187:295|211:287,1,50.9999984436036,12|0,1:2|3:0,0:0:0:0:
456,200,27102,5,0,3:0:0:0:
407,213,27178,1,0,3:0:0:0:
358,200,27255,1,0,3:0:0:0:
320,164,27332,1,0,3:0:0:0:
310,116,27410,2,0,P|316:84|320:24,1,55.2499974708558,12|0,1:2|3:0,0:0:0:0:
80,12,27564,5,0,3:0:0:0:
31,35,27640,1,0,3:0:0:0:
2,82,27717,1,0,3:0:0:0:
4,136,27794,1,0,3:0:0:0:
35,181,27872,2,0,P|39:210|41:240,1,59.4999981842042,12|0,1:2|3:0,0:0:0:0:
211,287,28025,2,0,P|213:257|217:227,1,59.4999981842042,0|0,3:0|3:0,0:0:0:0:
404,0,28179,5,8,3:0:0:0:
472,26,28255,1,8,3:0:0:0:
510,88,28332,1,8,3:0:0:0:
502,160,28409,1,8,3:0:0:0:
451,213,28487,6,0,P|407:205|340:200,1,108.375002067089,4|0,1:0|0:0,0:0:0:0:
332,212,28795,2,0,L|339:283,1,72.2500013780594,8|0,0:0|0:0,0:0:0:0:
208,204,29102,1,0,1:0:0:0:
208,204,29256,2,0,L|200:132,1,72.2500013780594,0|0,1:0|0:0,0:0:0:0:
56,224,29564,6,0,P|100:279|99:350,1,144.500002756119,8|0,0:0|1:0,0:0:0:0:
236,384,30025,2,0,P|248:340|268:300,1,72.2500013780594,8|0,0:0|0:0,0:0:0:0:
343,177,30333,1,0,1:0:0:0:
232,204,30487,1,0,1:0:0:0:
369,288,30641,2,0,L|460:272,1,72.2500013780594,8|0,0:0|0:0,0:0:0:0:
232,204,30948,6,0,L|141:188,1,72.2500013780594,0|0,1:0|0:0,0:0:0:0:
108,320,31256,2,0,L|260:344,1,144.500002756119,8|0,0:0|1:0,0:0:0:0:
369,288,31718,1,0,1:0:0:0:
369,288,32025,6,0,P|357:216|364:145,1,144.500002756119,8|0,0:0|1:0,0:0:0:0:
228,76,32487,2,0,P|224:111|214:146,1,72.2500013780594,8|0,0:0|0:0,0:0:0:0:
101,260,32795,1,0,1:0:0:0:
101,146,32948,1,0,1:0:0:0:
214,260,33102,2,0,P|224:294|228:330,1,72.2500013780594,8|0,0:0|0:0,0:0:0:0:
409,364,33410,6,0,L|425:196,1,144.500002756119,4|8,1:2|0:0,0:0:0:0:
398,112,33872,1,0,0:0:0:0:
244,202,34025,1,0,1:0:0:0:
244,202,34179,1,0,1:0:0:0:
287,102,34333,1,0,0:0:0:0:
326,273,34487,6,0,L|313:368,1,72.2500013780594,8|0,0:0|0:0,0:0:0:0:
437,264,34795,1,0,1:0:0:0:
398,112,34948,2,0,L|303:99,1,72.2500013780594,8|0,0:0|0:0,0:0:0:0:
156,154,35256,1,0,1:0:0:0:
215,44,35410,1,0,1:0:0:0:
267,211,35564,2,0,P|273:264|269:304,1,72.2500013780594,8|0,0:0|0:0,0:0:0:0:
89,200,35872,6,0,P|72:149|92:99,1,108.375002067089,4|0,1:2|0:0,0:0:0:0:
97,84,36179,2,0,L|21:72,1,72.2500013780594,8|0,0:0|0:0,0:0:0:0:
176,12,36487,1,0,1:0:0:0:
176,12,36641,1,0,1:0:0:0:
268,64,36795,1,0,0:0:0:0:
139,179,36949,1,8,0:0:0:0:
97,84,37102,5,0,0:0:0:0:
246,168,37256,1,0,1:0:0:0:
13,233,37410,1,12,0:0:0:0:
162,317,37564,2,0,P|208:304|236:300,1,72.2500013780594,0|0,0:0|1:0,0:0:0:0:
272,52,37872,5,0,3:0:0:0:
254,56,37948,1,0,3:0:0:0:
236,56,38025,1,0,3:0:0:0:
218,53,38102,1,0,3:0:0:0:
202,45,38179,1,0,3:0:0:0:
188,34,38256,1,0,3:0:0:0:
176,20,38333,6,0,L|268:8,1,85,4|0,1:2|0:0,0:0:0:0:
392,64,38641,1,8,0:0:0:0:
324,216,38795,2,0,P|280:196|236:204,1,85,0|0,0:0|1:0,0:0:0:0:
