osu file format v14

[General]
AudioFilename: audio.mp3
AudioLeadIn: 0
PreviewTime: 66908
Countdown: 0
SampleSet: Normal
StackLeniency: 0.7
Mode: 1
LetterboxInBreaks: 0
WidescreenStoryboard: 0

[Editor]
DistanceSpacing: 0.8
BeatDivisor: 2
GridSize: 32
TimelineZoom: 2

[Metadata]
Title:Ringing Bloom
TitleUnicode:Ringing Bloom
Artist:Roselia
ArtistUnicode:Roselia
Creator:Dellvangel
Version:Kantan
Source:バンドリ! ガールズバンドパーティ!
Tags:BanG Dream! Bandori Girls Band Party! Japanese Video Game 湊友希那 Minato Yukina 相羽あいな Aiba Aina 宇田川あこ Udagawa Ako 櫻川めぐ Sakuragawa Megu 白金燐子 Shirokane Rinko 明坂聡美 Akesaka Satomi 氷川紗夜 Hikawa Sayo 工藤晴香 Kudou Haruka 今井リサ Imai Risa 遠藤ゆりか Endou Yurika Lisa Rozeria Prelude's Replay Oda Asuka 織田あすか Fujinaga Ryutaro 藤永龍太郎 Shizaki Kanon 志崎樺音 Nakashima Yaki 中島由貴
BeatmapID:1954789
BeatmapSetID:934410

[Difficulty]
HPDrainRate:8
CircleSize:5
OverallDifficulty:3
ApproachRate:5
SliderMultiplier:1.4
SliderTickRate:1

[Events]
//Background and Video events
0,0,"BG.jpg",0,30
//Break Periods
//Storyboard Layer 0 (Background)
//Storyboard Layer 1 (Fail)
//Storyboard Layer 2 (Pass)
//Storyboard Layer 3 (Foreground)
//Storyboard Sound Samples

[TimingPoints]
178,307.692307692308,4,1,0,45,1,0
3870,-100,4,1,0,50,0,0
5101,-100,4,1,0,55,0,0
6331,-100,4,1,0,60,0,0
7562,-100,4,1,0,65,0,0
7870,-100,4,1,0,67,0,0
8178,-100,4,1,0,68,0,0
8485,-100,4,1,0,69,0,0
8793,-100,4,1,0,70,0,0
18639,-100,4,1,0,80,0,0
28485,-100,4,1,0,70,0,0
38331,-100,4,1,0,80,0,0
48178,-100,4,1,0,70,0,0
58024,-100,4,1,0,45,0,0
62947,-100,4,1,0,70,0,0
65408,-100,4,1,0,80,0,0
67716,-100,4,1,0,90,0,1
107254,-100,4,1,0,80,0,0

[HitObjects]
256,192,178,12,0,3562,0:0:0:0:
256,192,3870,12,0,8485,0:0:0:0:
256,192,8793,5,4,0:0:0:0:
256,192,10639,1,0,0:0:0:0:
256,192,11254,1,0,0:0:0:0:
256,192,13101,1,0,0:0:0:0:
256,192,13716,1,4,0:0:0:0:
256,192,15562,1,8,0:0:0:0:
256,192,16178,1,4,0:0:0:0:
256,192,17408,1,0,0:0:0:0:
256,192,18024,1,0,0:0:0:0:
256,192,18331,1,8,0:0:0:0:
256,192,18639,1,12,0:0:0:0:
256,192,19562,1,0,0:0:0:0:
256,192,20485,1,8,0:0:0:0:
256,192,21101,1,12,0:0:0:0:
256,192,22024,1,0,0:0:0:0:
256,192,22947,1,0,0:0:0:0:
256,192,23562,1,12,0:0:0:0:
256,192,24485,1,8,0:0:0:0:
256,192,25408,1,8,0:0:0:0:
256,192,25716,1,8,0:0:0:0:
256,192,26024,1,0,0:0:0:0:
256,192,26947,1,8,0:0:0:0:
256,192,27408,1,0,0:0:0:0:
256,192,27870,1,8,0:0:0:0:
256,192,28178,1,8,0:0:0:0:
256,192,28485,1,4,0:0:0:0:
256,192,30024,1,8,0:0:0:0:
256,192,30947,1,0,0:0:0:0:
256,192,31254,1,8,0:0:0:0:
256,192,32485,1,8,0:0:0:0:
256,192,33408,1,0,0:0:0:0:
256,192,33716,1,8,0:0:0:0:
256,192,34947,1,8,0:0:0:0:
256,192,35870,1,0,0:0:0:0:
256,192,36178,1,8,0:0:0:0:
256,192,36793,1,8,0:0:0:0:
256,192,37716,1,8,0:0:0:0:
256,192,38024,1,8,0:0:0:0:
256,192,38331,1,0,0:0:0:0:
256,192,39254,1,8,0:0:0:0:
256,192,40178,1,0,0:0:0:0:
256,192,40793,1,0,0:0:0:0:
256,192,41101,1,8,0:0:0:0:
256,192,42331,1,8,0:0:0:0:
256,192,42793,1,8,0:0:0:0:
256,192,43254,1,0,0:0:0:0:
256,192,44178,1,8,0:0:0:0:
256,192,45101,1,0,0:0:0:0:
256,192,45408,1,8,0:0:0:0:
256,192,45716,1,0,0:0:0:0:
256,192,46331,1,0,0:0:0:0:
256,192,46947,1,8,0:0:0:0:
256,192,47562,1,8,0:0:0:0:
256,192,47870,1,0,0:0:0:0:
256,192,48178,1,8,0:0:0:0:
256,192,49408,1,8,0:0:0:0:
256,192,50024,1,8,0:0:0:0:
256,192,50331,1,0,0:0:0:0:
256,192,50639,1,8,0:0:0:0:
256,192,51870,1,8,0:0:0:0:
256,192,52485,1,8,0:0:0:0:
256,192,52793,1,8,0:0:0:0:
256,192,53101,1,12,0:0:0:0:
256,192,54024,1,0,0:0:0:0:
256,192,54331,1,8,0:0:0:0:
256,192,54947,1,8,0:0:0:0:
256,192,55254,1,0,0:0:0:0:
256,192,55562,1,12,0:0:0:0:
256,192,56178,1,8,0:0:0:0:
256,192,56639,1,12,0:0:0:0:
256,192,57408,1,8,0:0:0:0:
256,192,57716,1,8,0:0:0:0:
256,192,58024,1,4,0:0:0:0:
256,192,59254,1,0,0:0:0:0:
256,192,60485,1,8,0:0:0:0:
256,192,61716,1,0,0:0:0:0:
256,192,62947,1,4,0:0:0:0:
256,192,63562,1,0,0:0:0:0:
256,192,64178,1,8,0:0:0:0:
256,192,64793,1,8,0:0:0:0:
256,192,65408,1,0,0:0:0:0:
256,192,65716,1,0,0:0:0:0:
256,192,66024,1,0,0:0:0:0:
256,192,66639,1,8,0:0:0:0:
256,192,66947,1,8,0:0:0:0:
256,192,67716,1,12,0:0:0:0:
256,192,68485,1,0,0:0:0:0:
256,192,68793,1,8,0:0:0:0:
256,192,69408,1,8,0:0:0:0:
256,192,69716,1,8,0:0:0:0:
256,192,70178,1,4,0:0:0:0:
256,192,70947,1,8,0:0:0:0:
256,192,71408,1,0,0:0:0:0:
256,192,72639,1,4,0:0:0:0:
256,192,73408,1,0,0:0:0:0:
256,192,73716,1,8,0:0:0:0:
256,192,74331,1,8,0:0:0:0:
256,192,74639,1,0,0:0:0:0:
256,192,75101,1,4,0:0:0:0:
256,192,75870,1,8,0:0:0:0:
256,192,76331,1,0,0:0:0:0:
256,192,77562,1,12,0:0:0:0:
256,192,78331,1,8,0:0:0:0:
256,192,78947,1,8,0:0:0:0:
256,192,79254,1,8,0:0:0:0:
256,192,79562,1,0,0:0:0:0:
256,192,80024,1,12,0:0:0:0:
256,192,81408,1,0,0:0:0:0:
256,192,82024,1,8,0:0:0:0:
256,192,82331,1,8,0:0:0:0:
256,192,82639,1,4,0:0:0:0:
256,192,83562,1,12,0:0:0:0:
256,192,84485,1,0,0:0:0:0:
256,192,84793,1,0,0:0:0:0:
256,192,85101,1,12,0:0:0:0:
256,192,86024,1,12,0:0:0:0:
256,192,86639,1,0,0:0:0:0:
256,192,86947,1,8,0:0:0:0:
256,192,87408,1,12,0:0:0:0:
256,192,88177,1,0,0:0:0:0:
256,192,88485,1,8,0:0:0:0:
256,192,89100,1,8,0:0:0:0:
256,192,89408,1,8,0:0:0:0:
256,192,89870,1,4,0:0:0:0:
256,192,90639,1,8,0:0:0:0:
256,192,91101,1,0,0:0:0:0:
256,192,92331,1,4,0:0:0:0:
256,192,93100,1,0,0:0:0:0:
256,192,93408,1,8,0:0:0:0:
256,192,94023,1,8,0:0:0:0:
256,192,94331,1,0,0:0:0:0:
256,192,94793,1,4,0:0:0:0:
256,192,95562,1,8,0:0:0:0:
256,192,96024,1,0,0:0:0:0:
256,192,97254,1,4,0:0:0:0:
256,192,98024,1,0,0:0:0:0:
256,192,98639,1,8,0:0:0:0:
256,192,99254,1,8,0:0:0:0:
256,192,99716,1,12,0:0:0:0:
256,192,100485,1,0,0:0:0:0:
256,192,101101,1,8,0:0:0:0:
256,192,101716,1,8,0:0:0:0:
256,192,102178,1,4,0:0:0:0:
256,192,103408,1,4,0:0:0:0:
256,192,104639,1,4,0:0:0:0:
256,192,105408,1,0,0:0:0:0:
256,192,105870,1,8,0:0:0:0:
256,192,107254,1,12,0:0:0:0:
256,192,108178,1,0,0:0:0:0:
256,192,109100,1,8,0:0:0:0:
256,192,109716,1,12,0:0:0:0:
256,192,110639,1,0,0:0:0:0:
256,192,111562,1,0,0:0:0:0:
256,192,112177,1,12,0:0:0:0:
256,192,113101,1,8,0:0:0:0:
256,192,114023,1,8,0:0:0:0:
256,192,114331,1,8,0:0:0:0:
256,192,114639,1,0,0:0:0:0:
256,192,115562,1,8,0:0:0:0:
256,192,116024,1,0,0:0:0:0:
256,192,116485,1,8,0:0:0:0:
256,192,116793,1,8,0:0:0:0:
