osu file format v14

[General]
AudioFilename: audio.mp3
AudioLeadIn: 0
PreviewTime: 66908
Countdown: 0
SampleSet: Normal
StackLeniency: 0.7
Mode: 1
LetterboxInBreaks: 0
WidescreenStoryboard: 0

[Editor]
DistanceSpacing: 0.8
BeatDivisor: 4
GridSize: 32
TimelineZoom: 2

[Metadata]
Title:Ringing Bloom
TitleUnicode:Ringing Bloom
Artist:Roselia
ArtistUnicode:Roselia
Creator:Dellvangel
Version:Futsuu
Source:バンドリ! ガールズバンドパーティ!
Tags:BanG Dream! Bandori Girls Band Party! Japanese Video Game 湊友希那 Minato Yukina 相羽あいな Aiba Aina 宇田川あこ Udagawa Ako 櫻川めぐ Sakuragawa Megu 白金燐子 Shirokane Rinko 明坂聡美 Akesaka Satomi 氷川紗夜 Hikawa Sayo 工藤晴香 Kudou Haruka 今井リサ Imai Risa 遠藤ゆりか Endou Yurika Lisa Rozeria Prelude's Replay Oda Asuka 織田あすか Fujinaga Ryutaro 藤永龍太郎 Shizaki Kanon 志崎樺音 Nakashima Yaki 中島由貴
BeatmapID:1953936
BeatmapSetID:934410

[Difficulty]
HPDrainRate:7.5
CircleSize:5
OverallDifficulty:4
ApproachRate:5
SliderMultiplier:1.4
SliderTickRate:1

[Events]
//Background and Video events
0,0,"BG.jpg",0,30
//Break Periods
//Storyboard Layer 0 (Background)
//Storyboard Layer 1 (Fail)
//Storyboard Layer 2 (Pass)
//Storyboard Layer 3 (Foreground)
//Storyboard Sound Samples

[TimingPoints]
178,307.692307692308,4,1,0,45,1,0
3870,-100,4,1,0,50,0,0
5101,-100,4,1,0,55,0,0
6331,-100,4,1,0,60,0,0
7562,-100,4,1,0,65,0,0
7870,-100,4,1,0,67,0,0
8178,-100,4,1,0,68,0,0
8485,-100,4,1,0,69,0,0
8793,-100,4,1,0,70,0,0
18639,-100,4,1,0,80,0,0
28485,-100,4,1,0,70,0,0
38331,-100,4,1,0,80,0,0
48178,-100,4,1,0,70,0,0
58024,-100,4,1,0,45,0,0
62947,-100,4,1,0,70,0,0
65408,-100,4,1,0,80,0,0
67716,-100,4,1,0,90,0,1
107254,-100,4,1,0,80,0,0

[HitObjects]
256,192,178,12,0,3562,0:0:0:0:
256,192,3870,12,0,8485,0:0:0:0:
256,192,8793,5,4,0:0:0:0:
256,192,9716,1,0,0:0:0:0:
256,192,10639,1,0,0:0:0:0:
256,192,10947,1,8,0:0:0:0:
256,192,11254,1,0,0:0:0:0:
256,192,12178,1,0,0:0:0:0:
256,192,13101,1,0,0:0:0:0:
256,192,13408,1,8,0:0:0:0:
256,192,13716,1,4,0:0:0:0:
256,192,14639,1,8,0:0:0:0:
256,192,15562,1,8,0:0:0:0:
256,192,15870,1,8,0:0:0:0:
256,192,16178,1,4,0:0:0:0:
256,192,16793,1,0,0:0:0:0:
256,192,17101,1,8,0:0:0:0:
256,192,17408,1,0,0:0:0:0:
256,192,17716,1,8,0:0:0:0:
256,192,18024,1,0,0:0:0:0:
256,192,18178,1,0,0:0:0:0:
256,192,18331,1,8,0:0:0:0:
256,192,18639,1,12,0:0:0:0:
256,192,19101,1,8,0:0:0:0:
256,192,19562,1,0,0:0:0:0:
256,192,20024,1,8,0:0:0:0:
256,192,20485,1,8,0:0:0:0:
256,192,21101,1,12,0:0:0:0:
256,192,21562,1,8,0:0:0:0:
256,192,22024,1,0,0:0:0:0:
256,192,22485,1,8,0:0:0:0:
256,192,22947,1,0,0:0:0:0:
256,192,23562,1,12,0:0:0:0:
256,192,24024,1,8,0:0:0:0:
256,192,24485,1,8,0:0:0:0:
256,192,24947,1,8,0:0:0:0:
256,192,25408,1,8,0:0:0:0:
256,192,25716,1,8,0:0:0:0:
256,192,25870,1,8,0:0:0:0:
256,192,26024,1,0,0:0:0:0:
256,192,26485,1,8,0:0:0:0:
256,192,26947,1,8,0:0:0:0:
256,192,27254,1,0,0:0:0:0:
256,192,27408,1,8,0:0:0:0:
256,192,27562,1,0,0:0:0:0:
256,192,27870,1,8,0:0:0:0:
256,192,28178,1,8,0:0:0:0:
256,192,28331,1,8,0:0:0:0:
256,192,28485,1,4,0:0:0:0:
256,192,29408,1,8,0:0:0:0:
256,192,30024,1,8,0:0:0:0:
256,192,30639,1,8,0:0:0:0:
256,192,30947,1,0,0:0:0:0:
256,192,31254,1,8,0:0:0:0:
256,192,32485,1,8,0:0:0:0:
256,192,33101,1,8,0:0:0:0:
256,192,33408,1,0,0:0:0:0:
256,192,33716,1,8,0:0:0:0:
256,192,34947,1,8,0:0:0:0:
256,192,35562,1,8,0:0:0:0:
256,192,35870,1,0,0:0:0:0:
256,192,36178,1,8,0:0:0:0:
256,192,36793,1,8,0:0:0:0:
256,192,37716,1,8,0:0:0:0:
256,192,38024,1,8,0:0:0:0:
256,192,38178,1,8,0:0:0:0:
256,192,38331,1,0,0:0:0:0:
256,192,38639,1,8,0:0:0:0:
256,192,39254,1,8,0:0:0:0:
256,192,39870,1,8,0:0:0:0:
256,192,40178,1,0,0:0:0:0:
256,192,40331,1,0,0:0:0:0:
256,192,40485,1,8,0:0:0:0:
256,192,40793,1,0,0:0:0:0:
256,192,41101,1,8,0:0:0:0:
256,192,41716,1,8,0:0:0:0:
256,192,42331,1,8,0:0:0:0:
256,192,42639,1,0,0:0:0:0:
256,192,42793,1,8,0:0:0:0:
256,192,43101,1,8,0:0:0:0:
256,192,43254,1,0,0:0:0:0:
256,192,43562,1,8,0:0:0:0:
256,192,44178,1,8,0:0:0:0:
256,192,44793,1,8,0:0:0:0:
256,192,45101,1,0,0:0:0:0:
256,192,45254,1,0,0:0:0:0:
256,192,45408,1,8,0:0:0:0:
256,192,45716,1,0,0:0:0:0:
256,192,46024,1,8,0:0:0:0:
256,192,46639,1,8,0:0:0:0:
256,192,46947,1,0,0:0:0:0:
256,192,47254,1,8,0:0:0:0:
256,192,47562,1,0,0:0:0:0:
256,192,47716,1,0,0:0:0:0:
256,192,47870,1,0,0:0:0:0:
256,192,48178,1,8,0:0:0:0:
256,192,48485,1,8,0:0:0:0:
256,192,48639,1,8,0:0:0:0:
256,192,49408,1,0,0:0:0:0:
256,192,49562,1,0,0:0:0:0:
256,192,50024,1,8,0:0:0:0:
256,192,50331,1,0,0:0:0:0:
256,192,50639,1,8,0:0:0:0:
256,192,50947,1,8,0:0:0:0:
256,192,51101,1,8,0:0:0:0:
256,192,51870,1,0,0:0:0:0:
256,192,52024,1,0,0:0:0:0:
256,192,52485,1,0,0:0:0:0:
256,192,52793,1,8,0:0:0:0:
256,192,53101,1,12,0:0:0:0:
256,192,53716,1,8,0:0:0:0:
256,192,54024,1,0,0:0:0:0:
256,192,54331,1,8,0:0:0:0:
256,192,54485,1,8,0:0:0:0:
256,192,54947,1,8,0:0:0:0:
256,192,55254,1,0,0:0:0:0:
256,192,55562,1,12,0:0:0:0:
256,192,56024,1,8,0:0:0:0:
256,192,56331,1,8,0:0:0:0:
256,192,56639,1,12,0:0:0:0:
256,192,57101,1,8,0:0:0:0:
256,192,57408,1,0,0:0:0:0:
256,192,57562,1,0,0:0:0:0:
256,192,57716,1,8,0:0:0:0:
256,192,58024,1,4,0:0:0:0:
256,192,59254,1,0,0:0:0:0:
256,192,60485,1,8,0:0:0:0:
256,192,61716,1,0,0:0:0:0:
256,192,62947,1,4,0:0:0:0:
256,192,63562,1,0,0:0:0:0:
256,192,63870,1,0,0:0:0:0:
256,192,64178,1,8,0:0:0:0:
256,192,64793,1,8,0:0:0:0:
256,192,65101,1,8,0:0:0:0:
256,192,65408,1,0,0:0:0:0:
256,192,65716,1,0,0:0:0:0:
256,192,65870,1,0,0:0:0:0:
256,192,66024,1,0,0:0:0:0:
256,192,66331,1,0,0:0:0:0:
256,192,66639,1,8,0:0:0:0:
256,192,66793,1,8,0:0:0:0:
256,192,66947,1,8,0:0:0:0:
256,192,67101,1,8,0:0:0:0:
256,192,67716,1,12,0:0:0:0:
256,192,68178,1,8,0:0:0:0:
256,192,68485,1,0,0:0:0:0:
256,192,68793,1,8,0:0:0:0:
256,192,68947,1,8,0:0:0:0:
256,192,69101,1,0,0:0:0:0:
256,192,69408,1,8,0:0:0:0:
256,192,69716,1,0,0:0:0:0:
256,192,69870,1,8,0:0:0:0:
256,192,70178,1,4,0:0:0:0:
256,192,70947,1,0,0:0:0:0:
256,192,71254,1,0,0:0:0:0:
256,192,71408,1,8,0:0:0:0:
256,192,71562,1,0,0:0:0:0:
256,192,71870,1,8,0:0:0:0:
256,192,72178,1,0,0:0:0:0:
256,192,72331,1,8,0:0:0:0:
256,192,72639,1,4,0:0:0:0:
256,192,73101,1,8,0:0:0:0:
256,192,73408,1,0,0:0:0:0:
256,192,73716,1,8,0:0:0:0:
256,192,73870,1,8,0:0:0:0:
256,192,74024,1,0,0:0:0:0:
256,192,74331,1,8,0:0:0:0:
256,192,74639,1,8,0:0:0:0:
256,192,74793,1,8,0:0:0:0:
256,192,75101,1,4,0:0:0:0:
256,192,75870,1,0,0:0:0:0:
256,192,76177,1,8,0:0:0:0:
256,192,76331,1,8,0:0:0:0:
256,192,76485,1,0,0:0:0:0:
256,192,76793,1,8,0:0:0:0:
256,192,77101,1,8,0:0:0:0:
256,192,77254,1,8,0:0:0:0:
256,192,77562,1,12,0:0:0:0:
256,192,78024,1,8,0:0:0:0:
256,192,78331,1,0,0:0:0:0:
256,192,78485,1,0,0:0:0:0:
256,192,78639,1,8,0:0:0:0:
256,192,78947,1,0,0:0:0:0:
256,192,79254,1,8,0:0:0:0:
256,192,79562,1,0,0:0:0:0:
256,192,79870,1,0,0:0:0:0:
256,192,80024,1,12,0:0:0:0:
256,192,80793,1,0,0:0:0:0:
256,192,81101,1,8,0:0:0:0:
256,192,81408,1,0,0:0:0:0:
256,192,81716,1,8,0:0:0:0:
256,192,82024,1,8,0:0:0:0:
256,192,82178,1,0,0:0:0:0:
256,192,82331,1,8,0:0:0:0:
256,192,82639,1,4,0:0:0:0:
256,192,83101,1,12,0:0:0:0:
256,192,83562,1,4,0:0:0:0:
256,192,84178,1,8,0:0:0:0:
256,192,84485,1,0,0:0:0:0:
256,192,84639,1,0,0:0:0:0:
256,192,84793,1,8,0:0:0:0:
256,192,85101,1,12,0:0:0:0:
256,192,85562,1,12,0:0:0:0:
256,192,86024,1,12,0:0:0:0:
256,192,86639,1,8,0:0:0:0:
256,192,86947,1,0,0:0:0:0:
256,192,87101,1,8,0:0:0:0:
256,192,87408,1,12,0:0:0:0:
256,192,87870,1,8,0:0:0:0:
256,192,88177,1,8,0:0:0:0:
256,192,88485,1,8,0:0:0:0:
256,192,88639,1,8,0:0:0:0:
256,192,88793,1,0,0:0:0:0:
256,192,89100,1,8,0:0:0:0:
256,192,89408,1,0,0:0:0:0:
256,192,89562,1,8,0:0:0:0:
256,192,89870,1,4,0:0:0:0:
256,192,90639,1,8,0:0:0:0:
256,192,90946,1,0,0:0:0:0:
256,192,91100,1,8,0:0:0:0:
256,192,91254,1,0,0:0:0:0:
256,192,91562,1,8,0:0:0:0:
256,192,91870,1,0,0:0:0:0:
256,192,92024,1,8,0:0:0:0:
256,192,92331,1,4,0:0:0:0:
256,192,92793,1,8,0:0:0:0:
256,192,93100,1,8,0:0:0:0:
256,192,93408,1,8,0:0:0:0:
256,192,93562,1,8,0:0:0:0:
256,192,93716,1,0,0:0:0:0:
256,192,94023,1,8,0:0:0:0:
256,192,94331,1,0,0:0:0:0:
256,192,94485,1,0,0:0:0:0:
256,192,94793,1,4,0:0:0:0:
256,192,95562,1,0,0:0:0:0:
256,192,95870,1,8,0:0:0:0:
256,192,96023,1,8,0:0:0:0:
256,192,96177,1,0,0:0:0:0:
256,192,96485,1,8,0:0:0:0:
256,192,96793,1,8,0:0:0:0:
256,192,96947,1,8,0:0:0:0:
256,192,97254,1,4,0:0:0:0:
256,192,98024,1,8,0:0:0:0:
256,192,98331,1,8,0:0:0:0:
256,192,98485,1,8,0:0:0:0:
256,192,98639,1,0,0:0:0:0:
256,192,98947,1,8,0:0:0:0:
256,192,99254,1,8,0:0:0:0:
256,192,99562,1,0,0:0:0:0:
256,192,99716,1,12,0:0:0:0:
256,192,100178,1,8,0:0:0:0:
256,192,100485,1,8,0:0:0:0:
256,192,100793,1,8,0:0:0:0:
256,192,100947,1,0,0:0:0:0:
256,192,101101,1,0,0:0:0:0:
256,192,101408,1,8,0:0:0:0:
256,192,101716,1,0,0:0:0:0:
256,192,101870,1,8,0:0:0:0:
256,192,102178,1,4,0:0:0:0:
256,192,102639,1,12,0:0:0:0:
256,192,103408,1,4,0:0:0:0:
256,192,103870,1,12,0:0:0:0:
256,192,104639,1,4,0:0:0:0:
256,192,105101,1,8,0:0:0:0:
256,192,105408,1,0,0:0:0:0:
256,192,105562,1,0,0:0:0:0:
256,192,105870,1,8,0:0:0:0:
256,192,107254,1,12,0:0:0:0:
256,192,107716,1,8,0:0:0:0:
256,192,108177,1,0,0:0:0:0:
256,192,108639,1,8,0:0:0:0:
256,192,109100,1,8,0:0:0:0:
256,192,109716,1,12,0:0:0:0:
256,192,110178,1,8,0:0:0:0:
256,192,110639,1,0,0:0:0:0:
256,192,111101,1,8,0:0:0:0:
256,192,111562,1,0,0:0:0:0:
256,192,112177,1,12,0:0:0:0:
256,192,112639,1,8,0:0:0:0:
256,192,113100,1,8,0:0:0:0:
256,192,113562,1,8,0:0:0:0:
256,192,114023,1,8,0:0:0:0:
256,192,114331,1,8,0:0:0:0:
256,192,114485,1,8,0:0:0:0:
256,192,114639,1,0,0:0:0:0:
256,192,115101,1,8,0:0:0:0:
256,192,115562,1,8,0:0:0:0:
256,192,115869,1,0,0:0:0:0:
256,192,116023,1,8,0:0:0:0:
256,192,116177,1,0,0:0:0:0:
256,192,116485,1,8,0:0:0:0:
256,192,116793,1,8,0:0:0:0:
256,192,116947,1,8,0:0:0:0:
