osu file format v14

[General]
AudioFilename: audio.mp3
AudioLeadIn: 0
PreviewTime: 57949
Countdown: 0
SampleSet: Soft
StackLeniency: 0.7
Mode: 3
LetterboxInBreaks: 0
SpecialStyle: 0
WidescreenStoryboard: 0

[Editor]
Bookmarks: 235793
DistanceSpacing: 1.1
BeatDivisor: 4
GridSize: 8
TimelineZoom: 2.799998

[Metadata]
Title:Ringing Bloom
TitleUnicode:Ringing Bloom
Artist:Roselia
ArtistUnicode:Roselia
Creator:[KonG-69]
Version:Sakura
Source:バンドリ! ガールズバンドパーティ!
Tags:バンドリ! ガールズバンドパーティ! Bang Dream! Girls Band Party Roselia FIRE BIRD 10K Yushacchi
BeatmapID:2242634
BeatmapSetID:1071413

[Difficulty]
HPDrainRate:7
CircleSize:10
OverallDifficulty:3
ApproachRate:5
SliderMultiplier:1.4
SliderTickRate:1

[Events]
//Background and Video events
0,0,"Bouquet_for_Friends_T.png",0,0
//Break Periods
//Storyboard Layer 0 (Background)
//Storyboard Layer 1 (Fail)
//Storyboard Layer 2 (Pass)
//Storyboard Layer 3 (Foreground)
//Storyboard Layer 4 (Overlay)
//Storyboard Sound Samples
Sample,219641,0,"Crash 2.wav",50
Sample,219795,0,"Crash 2.wav",50

[TimingPoints]
370,377.358490566038,4,2,1,55,1,0
370,-81.3008130081301,4,2,1,55,0,0
1124,413.793103448276,4,2,1,55,1,0
1124,-74.6268656716418,4,2,1,55,0,0
1537,342.857142857143,4,2,1,55,1,0
1537,-90.0900900900901,4,2,1,55,0,0
1879,300,4,2,1,55,1,0
1879,-102.040816326531,4,2,1,55,0,0
2179,279.06976744186,4,2,1,55,1,0
2179,-109.89010989011,4,2,1,55,0,0
3016,315.789473684211,4,2,1,55,1,0
3016,-97.0873786407767,4,2,1,55,0,0
3331,375,4,2,1,55,1,0
3331,-81.9672131147541,4,2,1,55,0,0
3706,389.61038961039,4,2,1,55,1,0
3706,-78.740157480315,4,2,1,55,0,0
4095,983.606557377049,4,2,1,55,1,0
4095,-31.25,4,2,1,55,0,0
9026,307.692307692308,4,2,1,55,1,0
16872,-100,4,2,1,35,0,0
17026,-100,4,2,1,40,0,0
17179,-100,4,2,1,45,0,0
17333,-100,4,2,1,50,0,0
17487,-100,4,2,1,55,0,0
63487,-100,4,2,1,25,0,0
63795,-100,4,2,1,35,0,0
64102,-100,4,2,1,45,0,0
64410,-100,4,2,1,55,0,0
67949,-100,4,2,1,55,0,1
72781,-100,4,2,1,35,0,1
72858,-100,4,2,1,45,0,1
72935,-100,4,2,1,55,0,1
76872,-100,4,2,1,35,0,1
76949,-100,4,2,1,45,0,1
77026,-100,4,2,1,55,0,1
77179,-100,4,2,1,20,0,1
77256,-100,4,2,1,55,0,1
96872,-100,4,2,1,25,0,1
96949,-100,4,2,1,45,0,1
97026,-100,4,2,1,55,0,1
106102,-100,4,2,1,55,0,0
107487,-100,4,2,1,55,0,1
114872,-100,4,2,1,35,0,1
115179,-100,4,2,1,45,0,1
115487,-100,4,2,1,55,0,1
117333,-100,4,2,1,55,0,0
137026,-100,4,2,1,55,0,1
146872,-100,4,2,1,20,0,0
147179,-100,4,2,1,30,0,0
147487,-100,4,2,1,40,0,0
147795,-100,4,2,1,50,0,0
148102,-100,4,2,1,55,0,0
151641,-100,4,2,1,55,0,1
160564,-100,4,2,1,35,0,1
160641,-100,4,2,1,45,0,1
160718,-100,4,2,1,55,0,1
160872,-100,4,2,1,35,0,1
160949,-100,4,2,1,45,0,1
161026,-100,4,2,1,55,0,1
166102,-100,4,2,1,35,0,1
166179,-100,4,2,1,45,0,1
166256,-100,4,2,1,55,0,1
175949,-100,4,2,1,35,0,1
176026,-100,4,2,1,45,0,1
176102,-100,4,2,1,55,0,1
180564,-100,4,2,1,20,0,1
180641,-100,4,2,1,45,0,1
180718,-100,4,2,1,55,0,1
189795,-100,4,2,1,55,0,0
191179,-100,4,2,1,55,0,1
191256,-100,4,2,1,55,0,0
208718,-100,4,2,1,35,0,0
208872,-100,4,2,1,45,0,0
209026,-100,4,2,1,55,0,0
210872,-100,4,2,1,55,0,1
220718,-100,4,2,1,55,0,0
224718,-100,4,2,1,20,0,0
224795,-100,4,2,1,45,0,0
224872,-100,4,2,1,55,0,0
225179,-100,4,2,1,20,0,0
225256,-100,4,2,1,45,0,0
225333,-100,4,2,1,55,0,0
235795,-100,4,2,1,55,0,1
245333,-100,4,2,1,55,0,0
256256,-100,4,2,1,55,0,1
256333,-100,4,2,1,55,0,0
271487,-100,4,2,1,25,0,0
271795,-100,4,2,1,35,0,0
272102,-100,4,2,1,45,0,0
272410,-100,4,2,1,55,0,0
275949,-100,4,2,1,55,0,1
285179,-100,4,2,1,20,0,1
285256,-100,4,2,1,45,0,1
285333,-100,4,2,1,55,0,1
299333,-100,4,2,1,55,0,0
300718,-100,4,2,1,55,0,1
310564,-100,4,2,1,55,0,0
317718,-100,4,2,1,20,0,0
317949,-100,4,2,1,55,0,0
321035,429.682464658617,4,2,1,55,1,0
321035,-71.4285714285714,4,2,1,55,0,1
321142,-71.4285714285714,4,2,1,55,0,0
321894,433.946161746199,4,2,1,55,1,0
321894,-70.9219858156028,4,2,1,55,0,0
322327,348.140927447431,4,2,1,55,1,0
322327,-88.495575221239,4,2,1,55,0,0
322501,-88.495575221239,4,2,1,20,0,0
322588,-88.495575221239,4,2,1,45,0,0
322675,521.748204316597,4,2,1,55,1,0
322675,-58.8235294117647,4,2,1,55,0,0
323196,284.308987007079,4,2,1,55,1,0
323196,-108.695652173913,4,2,1,55,0,0
323480,310.906603656262,4,2,1,55,1,0
323480,-99.009900990099,4,2,1,55,0,0
323790,305.237882056082,4,2,1,55,1,0
323790,-101.010101010101,4,2,1,55,0,0
324400,267.936686560966,4,2,1,55,1,0
324400,-114.942528735632,4,2,1,55,0,0
324533,344.67109760511,4,2,1,55,1,0
324533,-89.2857142857143,4,2,1,55,0,0
324705,386.712556556711,4,2,1,55,1,0
324705,-79.3650793650794,4,2,1,55,0,0
324898,434.285383401613,4,2,1,55,1,0
324898,-70.9219858156028,4,2,1,55,0,0
325332,382.584742520468,4,2,1,55,1,0
325332,-80.6451612903226,4,2,1,55,0,0
325714,391.905838090635,4,2,1,55,1,0
325714,-78.740157480315,4,2,1,55,0,0
326105,472.608404552794,4,2,1,55,1,0
326105,-64.9350649350649,4,2,1,55,0,0
326577,547.120776911503,4,2,1,55,1,0
326577,-56.1797752808989,4,2,1,55,0,0
327124,669.912018221607,4,2,1,55,1,0
327124,-45.8715596330275,4,2,1,55,0,0
327776,600,4,2,1,55,1,0
327776,-51.2820512820513,4,2,1,55,0,0

[HitObjects]
76,192,370,5,0,0:0:0:0:
179,192,370,1,0,0:0:0:0:
230,192,370,128,0,1124:0:0:0:0:
332,192,370,1,0,0:0:0:0:
435,192,370,1,0,0:0:0:0:
486,192,370,128,0,1124:0:0:0:0:
179,192,1124,128,0,1434:0:0:0:0:
435,192,1124,128,0,1434:0:0:0:0:
128,192,1330,128,0,1537:0:0:0:0:
384,192,1330,128,0,1537:0:0:0:0:
76,192,1434,128,0,1537:0:0:0:0:
332,192,1434,128,0,1537:0:0:0:0:
25,192,1537,128,0,1751:0:0:0:0:
281,192,1537,128,0,1751:0:0:0:0:
76,192,1665,128,0,1837:0:0:0:0:
332,192,1665,128,0,1837:0:0:0:0:
179,192,1794,128,0,1954:0:0:0:0:
435,192,1794,128,0,1954:0:0:0:0:
230,192,1879,128,0,2029:0:0:0:0:
486,192,1879,128,0,2029:0:0:0:0:
76,192,1991,128,0,2179:0:0:0:0:
332,192,1991,128,0,2179:0:0:0:0:
25,192,2104,128,0,2179:0:0:0:0:
281,192,2104,128,0,2179:0:0:0:0:
128,192,2179,128,0,2318:0:0:0:0:
384,192,2179,128,0,2318:0:0:0:0:
179,192,2248,128,0,2388:0:0:0:0:
435,192,2248,128,0,2388:0:0:0:0:
76,192,2318,128,0,2458:0:0:0:0:
230,192,2318,128,0,2527:0:0:0:0:
332,192,2318,128,0,2458:0:0:0:0:
486,192,2318,128,0,2527:0:0:0:0:
128,192,2458,128,0,2876:0:0:0:0:
384,192,2458,128,0,2876:0:0:0:0:
76,192,2562,128,0,2876:0:0:0:0:
332,192,2562,128,0,2876:0:0:0:0:
25,192,2667,128,0,2876:0:0:0:0:
281,192,2667,128,0,2876:0:0:0:0:
230,192,2876,128,0,3016:0:0:0:0:
486,192,2876,128,0,3016:0:0:0:0:
179,192,2946,128,0,3016:0:0:0:0:
435,192,2946,128,0,3016:0:0:0:0:
76,192,3016,128,0,3252:0:0:0:0:
332,192,3016,128,0,3252:0:0:0:0:
128,192,3173,128,0,3331:0:0:0:0:
384,192,3173,128,0,3331:0:0:0:0:
179,192,3252,128,0,3331:0:0:0:0:
435,192,3252,128,0,3331:0:0:0:0:
230,192,3331,128,0,3471:0:0:0:0:
486,192,3331,128,0,3471:0:0:0:0:
76,192,3471,128,0,3659:0:0:0:0:
332,192,3471,128,0,3565:0:0:0:0:
128,192,3565,128,0,3803:0:0:0:0:
384,192,3565,128,0,3803:0:0:0:0:
179,192,3659,128,0,3803:0:0:0:0:
435,192,3659,128,0,3803:0:0:0:0:
230,192,3803,128,0,4095:0:0:0:0:
486,192,3803,128,0,4095:0:0:0:0:
179,192,3900,128,0,4095:0:0:0:0:
435,192,3900,128,0,4095:0:0:0:0:
128,192,3998,128,0,4095:0:0:0:0:
384,192,3998,128,0,4095:0:0:0:0:
25,192,4095,128,0,9026:0:0:0:0:
76,192,4095,128,0,9026:0:0:0:0:
281,192,4095,128,0,9026:0:0:0:0:
332,192,4095,128,0,9026:0:0:0:0:
128,192,8029,128,0,9026:0:0:0:0:
486,192,8029,128,0,9026:0:0:0:0:
179,192,9026,128,2,9333:0:0:0:0:
384,192,9026,128,0,9333:0:0:0:0:
230,192,9179,128,0,9410:0:0:0:0:
435,192,9179,128,0,9410:0:0:0:0:
76,192,9333,1,2,0:0:0:0:
281,192,9333,128,0,9949:0:0:0:0:
486,192,9333,128,0,9949:0:0:0:0:
230,192,9487,128,0,9949:0:0:0:0:
435,192,9487,128,0,9949:0:0:0:0:
179,192,9641,1,2,0:0:0:0:
25,192,9718,1,0,0:0:0:0:
179,192,9795,1,0,0:0:0:0:
25,192,9872,1,0,0:0:0:0:
179,192,9949,128,2,10410:0:0:0:0:
384,192,9949,128,0,10410:0:0:0:0:
128,192,10102,1,0,0:0:0:0:
230,192,10102,128,0,10333:0:0:0:0:
435,192,10102,128,0,10333:0:0:0:0:
25,192,10179,1,0,0:0:0:0:
281,192,10256,128,2,10641:0:0:0:0:
486,192,10256,128,0,10641:0:0:0:0:
128,192,10333,1,0,0:0:0:0:
25,192,10410,1,0,0:0:0:0:
230,192,10410,128,0,10718:0:0:0:0:
435,192,10410,128,0,10718:0:0:0:0:
76,192,10564,1,2,0:0:0:0:
25,192,10718,128,0,11179:0:0:0:70:Hat open.wav
281,192,10718,128,0,11179:0:0:0:0:
128,192,10872,128,2,11256:0:0:0:0:
384,192,10872,128,0,11256:0:0:0:0:
179,192,11026,128,0,11410:0:0:0:0:
435,192,11026,128,0,11410:0:0:0:0:
230,192,11179,128,2,11564:0:0:0:0:
486,192,11179,128,0,11564:0:0:0:0:
25,192,11333,1,0,0:0:0:70:Hat open.wav
128,192,11333,128,0,11641:0:0:0:0:
332,192,11333,128,0,11641:0:0:0:0:
76,192,11487,1,2,0:0:0:0:
179,192,11487,128,4,11949:0:0:0:0:
384,192,11487,128,0,11949:0:0:0:0:
230,192,11641,128,0,11872:0:0:0:0:
435,192,11641,128,0,11795:0:0:0:0:
281,192,11795,128,2,12333:0:0:0:0:
486,192,11795,128,0,12333:0:0:0:0:
230,192,11949,128,0,12410:0:0:0:0:
435,192,11949,128,0,12410:0:0:0:0:
76,192,12102,1,2,0:0:0:0:
25,192,12256,1,0,0:0:0:0:
128,192,12333,1,0,0:0:0:0:
25,192,12410,128,2,12718:0:0:0:0:
281,192,12410,128,0,12718:0:0:0:40:Crash 2.wav
128,192,12564,128,0,13026:0:0:0:0:
384,192,12564,128,0,13026:0:0:0:0:
179,192,12718,128,2,13102:0:0:0:0:
435,192,12718,128,0,13102:0:0:0:0:
25,192,12872,1,0,0:0:0:0:
230,192,12872,128,0,13179:0:0:0:0:
486,192,12872,128,0,13179:0:0:0:0:
76,192,13026,1,2,0:0:0:0:
179,192,13179,128,0,13795:0:0:0:0:
384,192,13179,128,0,13795:0:0:0:0:
25,192,13333,1,2,0:0:0:0:
230,192,13333,128,0,13564:0:0:0:70:Rim.wav
435,192,13333,128,0,13564:0:0:0:0:
128,192,13487,1,0,0:0:0:0:
281,192,13487,128,0,13795:0:0:0:0:
486,192,13487,128,0,13795:0:0:0:0:
25,192,13564,1,0,0:0:0:70:Rim.wav
128,192,13641,1,2,0:0:0:0:
230,192,13641,128,0,13872:0:0:0:0:
435,192,13641,128,0,13872:0:0:0:0:
76,192,13795,128,0,14026:0:0:0:70:Rim.wav
332,192,13795,128,0,14026:0:0:0:0:
25,192,13949,128,2,14410:0:0:0:0:
128,192,13949,128,4,14333:0:0:0:0:
281,192,13949,128,0,14410:0:0:0:0:
384,192,13949,128,0,14333:0:0:0:0:
76,192,14102,128,0,14410:0:0:0:0:
179,192,14102,128,0,14333:0:0:0:0:
332,192,14102,128,0,14410:0:0:0:0:
435,192,14102,128,0,14333:0:0:0:0:
230,192,14256,1,2,0:0:0:0:
486,192,14256,1,0,0:0:0:0:
128,192,14410,1,0,0:0:0:0:
179,192,14410,1,0,0:0:0:0:
230,192,14410,1,0,0:0:0:0:
384,192,14410,1,0,0:0:0:0:
435,192,14410,1,0,0:0:0:0:
486,192,14410,1,0,0:0:0:0:
128,192,14564,1,2,0:0:0:0:
384,192,14564,1,0,0:0:0:0:
25,192,14641,1,0,0:0:0:0:
128,192,14795,1,0,0:0:0:0:
25,192,14872,1,2,0:0:0:0:
435,192,14872,128,0,15256:0:0:0:0:
486,192,14872,128,0,15102:0:0:0:0:
128,192,14949,1,0,0:0:0:0:
25,192,15026,1,0,0:0:0:70:Hat open.wav
332,192,15026,128,0,15410:0:0:0:0:
384,192,15026,128,0,15256:0:0:0:0:
128,192,15102,1,0,0:0:0:0:
25,192,15179,1,2,0:0:0:0:
281,192,15179,128,0,15410:0:0:0:0:
486,192,15179,128,0,15564:0:0:0:0:
384,192,15333,128,0,15718:0:0:0:0:
435,192,15333,128,0,15564:0:0:0:0:
76,192,15487,1,2,0:0:0:0:
281,192,15487,128,0,15872:0:0:0:0:
332,192,15487,128,0,15718:0:0:0:0:
435,192,15641,128,0,16026:0:0:0:0:
486,192,15641,128,0,15872:0:0:0:0:
128,192,15795,1,2,0:0:0:0:
332,192,15795,128,0,16256:0:0:0:0:
384,192,15795,128,0,16026:0:0:0:0:
281,192,15949,128,0,16256:0:0:0:0:
486,192,15949,128,0,16256:0:0:0:0:
179,192,16102,1,2,0:0:0:0:
384,192,16102,128,0,16256:0:0:0:0:
435,192,16102,128,0,16256:0:0:0:0:
25,192,16256,1,8,0:0:0:0:
76,192,16256,1,0,0:0:0:0:
128,192,16256,1,0,0:0:0:0:
281,192,16333,1,8,0:0:0:0:
332,192,16333,1,0,0:0:0:0:
384,192,16333,1,0,0:0:0:0:
25,192,16410,128,2,16641:0:0:0:0:
76,192,16410,128,4,16795:0:0:0:0:
230,192,16410,128,0,16641:0:0:0:0:
128,192,16564,128,0,16795:0:0:0:0:
179,192,16564,128,0,16795:0:0:0:0:
25,192,16718,128,2,16795:0:0:0:0:
230,192,16718,128,0,16795:0:0:0:0:
435,192,16718,1,0,0:0:0:0:
486,192,16718,1,0,0:0:0:0:
128,192,16872,128,8,17256:0:0:0:0:
179,192,16872,128,0,17102:0:0:0:50:Tom3.wav
332,192,16872,1,0,0:0:0:0:
384,192,16872,1,0,0:0:0:0:
486,192,16872,1,0,0:0:0:0:
25,192,17026,128,8,17410:0:0:0:0:
76,192,17026,128,0,17256:0:0:0:50:Tom3.wav
281,192,17026,1,0,0:0:0:0:
435,192,17026,1,0,0:0:0:0:
486,192,17026,1,0,0:0:0:0:
179,192,17179,128,8,17564:0:0:0:0:
230,192,17179,128,0,17410:0:0:0:50:Tom3.wav
332,192,17179,1,0,0:0:0:0:
384,192,17179,1,0,0:0:0:0:
435,192,17179,1,0,0:0:0:0:
76,192,17333,128,8,17564:0:0:0:0:
128,192,17333,128,0,17564:0:0:0:50:Tom3.wav
281,192,17333,1,0,0:0:0:0:
384,192,17333,1,0,0:0:0:0:
486,192,17333,1,0,0:0:0:0:
25,192,17487,128,8,17564:0:0:0:0:
230,192,17487,128,0,17564:0:0:0:50:Tom3.wav
281,192,17487,1,0,0:0:0:0:
332,192,17487,1,0,0:0:0:0:
435,192,17487,1,0,0:0:0:0:
76,192,17641,1,2,0:0:0:0:
128,192,17641,1,0,0:0:0:50:Crash 2.wav
179,192,17641,1,0,0:0:0:0:
384,192,17641,1,0,0:0:0:0:
435,192,17641,1,0,0:0:0:0:
486,192,17641,1,0,0:0:0:0:
25,192,17795,128,8,17949:0:0:0:0:
281,192,17795,128,0,17949:0:0:0:0:
76,192,17872,1,8,0:0:0:0:
128,192,17872,1,0,0:0:0:0:
332,192,17872,1,0,0:0:0:0:
384,192,17872,1,0,0:0:0:0:
179,192,17949,128,8,18102:0:0:0:0:
435,192,17949,128,0,18102:0:0:0:0:
128,192,18026,1,8,0:0:0:0:
230,192,18026,1,0,0:0:0:0:
384,192,18026,1,0,0:0:0:0:
486,192,18026,1,0,0:0:0:0:
76,192,18102,128,2,18256:0:0:0:0:
332,192,18102,128,0,18256:0:0:0:0:
128,192,18179,1,2,0:0:0:0:
179,192,18179,1,0,0:0:0:0:
384,192,18179,1,0,0:0:0:0:
435,192,18179,1,0,0:0:0:0:
25,192,18256,128,0,18410:0:0:0:50:Tom2.wav
281,192,18256,128,0,18410:0:0:0:0:
76,192,18333,1,0,0:0:0:50:Tom2.wav
128,192,18333,1,0,0:0:0:0:
332,192,18333,1,0,0:0:0:0:
384,192,18333,1,0,0:0:0:0:
179,192,18410,128,2,18564:0:0:0:0:
435,192,18410,128,0,18564:0:0:0:0:
25,192,18487,1,2,0:0:0:0:
76,192,18487,1,0,0:0:0:0:
281,192,18487,1,0,0:0:0:0:
332,192,18487,1,0,0:0:0:0:
76,192,18564,1,8,0:0:0:0:
128,192,18564,1,0,0:0:0:0:
230,192,18564,128,0,18872:0:0:0:0:
332,192,18564,1,0,0:0:0:0:
384,192,18564,1,0,0:0:0:0:
486,192,18564,128,0,18872:0:0:0:0:
25,192,18872,1,8,0:0:0:0:
76,192,18872,1,0,0:0:0:50:Crash 2.wav
332,192,18872,128,0,19179:0:0:0:0:
435,192,18872,128,0,19179:0:0:0:0:
128,192,19026,1,2,0:0:0:0:
179,192,19026,1,0,0:0:0:0:
25,192,19179,1,2,0:0:0:0:
76,192,19179,1,0,0:0:0:0:
76,192,19333,128,8,19641:0:0:0:0:
179,192,19333,128,4,19641:0:0:0:0:
332,192,19333,1,0,0:0:0:0:
384,192,19333,1,0,0:0:0:0:
435,192,19487,1,2,0:0:0:0:
486,192,19487,1,0,0:0:0:0:
281,192,19641,1,2,0:0:0:0:
332,192,19641,1,0,0:0:0:0:
76,192,19795,1,8,0:0:0:0:
128,192,19795,1,0,0:0:0:50:Crash 2.wav
384,192,19795,128,0,20102:0:0:0:0:
486,192,19795,128,0,20102:0:0:0:0:
25,192,19949,1,2,0:0:0:0:
179,192,19949,1,0,0:0:0:0:
76,192,20102,1,2,0:0:0:0:
128,192,20102,1,0,0:0:0:0:
25,192,20256,128,8,20564:0:0:0:0:
128,192,20256,128,4,20564:0:0:0:0:
281,192,20256,1,0,0:0:0:0:
486,192,20256,1,0,0:0:0:0:
332,192,20410,1,2,0:0:0:0:
384,192,20410,1,0,0:0:0:0:
435,192,20564,1,2,0:0:0:0:
486,192,20564,1,0,0:0:0:0:
179,192,20718,128,8,21026:0:0:0:0:
230,192,20718,1,0,0:0:0:50:Crash 2.wav
281,192,20718,1,0,0:0:0:0:
332,192,20718,128,0,21026:0:0:0:0:
128,192,20795,1,0,0:0:0:0:
384,192,20872,1,2,0:0:0:0:
435,192,20872,1,0,0:0:0:0:
128,192,20949,1,0,0:0:0:0:
25,192,21026,128,8,21333:0:0:0:0:
230,192,21026,1,0,0:0:0:50:Crash 2.wav
281,192,21026,1,0,0:0:0:0:
486,192,21026,128,0,21333:0:0:0:0:
128,192,21179,1,2,0:0:0:0:
384,192,21179,1,0,0:0:0:0:
230,192,21256,1,2,0:0:0:0:
281,192,21256,1,0,0:0:0:0:
76,192,21333,128,8,21641:0:0:0:0:
179,192,21333,128,0,21641:0:0:0:50:Crash 2.wav
332,192,21333,1,0,0:0:0:0:
435,192,21333,1,0,0:0:0:0:
281,192,21487,1,2,0:0:0:0:
384,192,21487,1,0,0:0:0:0:
435,192,21641,1,2,0:0:0:0:
486,192,21641,1,0,0:0:0:0:
128,192,21795,1,8,0:0:0:0:
179,192,21795,1,4,0:0:0:0:
332,192,21795,128,0,22102:0:0:0:0:
435,192,21795,128,0,22102:0:0:0:0:
25,192,21949,1,2,0:0:0:0:
76,192,21949,1,0,0:0:0:0:
179,192,22102,1,2,0:0:0:0:
230,192,22102,1,0,0:0:0:0:
25,192,22256,128,8,22564:0:0:0:0:
128,192,22256,128,0,22564:0:0:0:50:Crash 2.wav
384,192,22256,1,0,0:0:0:0:
435,192,22256,1,0,0:0:0:0:
332,192,22410,1,2,0:0:0:0:
486,192,22410,1,0,0:0:0:0:
384,192,22564,1,2,0:0:0:0:
435,192,22564,1,0,0:0:0:0:
25,192,22718,1,8,0:0:0:0:
230,192,22718,1,4,0:0:0:0:
384,192,22718,128,0,23026:0:0:0:0:
486,192,22718,128,0,23026:0:0:0:0:
128,192,22872,1,2,0:0:0:0:
179,192,22872,1,0,0:0:0:0:
25,192,23026,1,2,0:0:0:0:
76,192,23026,1,0,0:0:0:0:
179,192,23179,128,8,23487:0:0:0:0:
230,192,23179,1,0,0:0:0:50:Crash 2.wav
281,192,23179,1,0,0:0:0:0:
332,192,23179,128,0,23487:0:0:0:0:
384,192,23256,1,0,0:0:0:0:
76,192,23333,1,2,0:0:0:0:
128,192,23333,1,0,0:0:0:0:
384,192,23410,1,0,0:0:0:0:
25,192,23487,128,8,23795:0:0:0:0:
230,192,23487,1,0,0:0:0:50:Tom3.wav
281,192,23487,1,0,0:0:0:0:
486,192,23487,128,0,23795:0:0:0:0:
128,192,23641,1,2,0:0:0:0:
384,192,23641,1,0,0:0:0:0:
179,192,23718,1,2,0:0:0:0:
332,192,23718,1,0,0:0:0:0:
76,192,23795,128,8,24102:0:0:0:0:
230,192,23795,1,0,0:0:0:50:Crash 2.wav
281,192,23795,1,0,0:0:0:0:
435,192,23795,128,0,24102:0:0:0:0:
128,192,23949,1,2,0:0:0:0:
384,192,23949,1,0,0:0:0:0:
230,192,24102,1,2,0:0:0:0:
281,192,24102,1,0,0:0:0:0:
25,192,24256,1,8,0:0:0:0:
76,192,24256,1,4,0:0:0:0:
179,192,24256,128,0,24564:0:0:0:0:
332,192,24256,128,0,24564:0:0:0:0:
435,192,24256,1,0,0:0:0:0:
486,192,24256,1,0,0:0:0:0:
128,192,24410,1,2,0:0:0:0:
384,192,24410,1,0,0:0:0:0:
230,192,24564,1,2,0:0:0:0:
281,192,24564,1,0,0:0:0:0:
25,192,24718,128,8,25026:0:0:0:0:
128,192,24718,1,0,0:0:0:50:Crash 2.wav
179,192,24718,1,0,0:0:0:0:
332,192,24718,1,0,0:0:0:0:
384,192,24718,1,0,0:0:0:0:
486,192,24718,128,0,25026:0:0:0:0:
230,192,24872,1,2,0:0:0:0:
281,192,24872,1,0,0:0:0:0:
76,192,25026,1,2,0:0:0:0:
435,192,25026,1,0,0:0:0:0:
25,192,25179,1,8,0:0:0:0:
128,192,25179,128,4,25487:0:0:0:0:
230,192,25179,1,0,0:0:0:0:
281,192,25179,1,0,0:0:0:0:
384,192,25179,128,0,25487:0:0:0:0:
486,192,25179,1,0,0:0:0:0:
179,192,25333,1,2,0:0:0:0:
332,192,25333,1,0,0:0:0:0:
76,192,25487,1,2,0:0:0:0:
435,192,25487,1,0,0:0:0:0:
25,192,25641,128,8,25949:0:0:0:0:
179,192,25641,1,0,0:0:0:50:Crash 2.wav
230,192,25641,1,0,0:0:0:0:
281,192,25641,1,0,0:0:0:0:
332,192,25641,1,0,0:0:0:0:
486,192,25641,128,0,25949:0:0:0:0:
76,192,25795,1,2,0:0:0:0:
435,192,25795,1,0,0:0:0:0:
128,192,25872,1,0,0:0:0:0:
384,192,25872,1,0,0:0:0:0:
179,192,25949,1,8,0:0:0:0:
230,192,25949,128,0,26256:0:0:0:50:Crash 2.wav
281,192,25949,128,0,26256:0:0:0:0:
332,192,25949,1,0,0:0:0:0:
76,192,26026,1,0,0:0:0:0:
435,192,26026,1,0,0:0:0:0:
179,192,26102,1,2,0:0:0:0:
332,192,26102,1,0,0:0:0:0:
128,192,26179,1,0,0:0:0:0:
384,192,26179,1,0,0:0:0:0:
25,192,26256,1,8,0:0:0:0:
76,192,26256,1,0,0:0:0:0:
435,192,26256,128,0,26564:0:0:0:0:
486,192,26256,128,0,26564:0:0:0:0:
25,192,26410,1,0,0:0:0:50:Tom3.wav
179,192,26410,1,0,0:0:0:0:
76,192,26487,1,0,0:0:0:50:Tom2.wav
230,192,26487,1,0,0:0:0:0:
332,192,26564,1,2,0:0:0:0:
384,192,26564,1,0,0:0:0:0:
230,192,26641,1,2,0:0:0:0:
281,192,26641,1,0,0:0:0:0:
25,192,26718,128,8,27179:0:0:0:0:
76,192,26718,128,0,27026:0:0:0:0:
384,192,26718,1,0,0:0:0:0:
486,192,26718,1,0,0:0:0:0:
332,192,26872,1,0,0:0:0:50:Tom3.wav
435,192,26872,1,0,0:0:0:0:
281,192,26949,1,0,0:0:0:50:Tom2.wav
384,192,26949,1,0,0:0:0:0:
128,192,27026,128,2,27179:0:0:0:0:
179,192,27026,1,0,0:0:0:0:
230,192,27102,1,2,0:0:0:0:
281,192,27102,1,0,0:0:0:0:
76,192,27179,1,8,0:0:0:0:
179,192,27179,1,0,0:0:0:0:
435,192,27179,128,0,27487:0:0:0:0:
486,192,27179,128,0,27641:0:0:0:0:
332,192,27256,1,8,0:0:0:0:
384,192,27256,1,0,0:0:0:0:
76,192,27333,1,0,0:0:0:50:Tom1.wav
179,192,27333,1,0,0:0:0:0:
332,192,27410,1,0,0:0:0:50:Tom1.wav
384,192,27410,1,0,0:0:0:0:
76,192,27487,128,2,27949:0:0:0:0:
179,192,27487,1,0,0:0:0:0:
230,192,27564,1,2,0:0:0:0:
281,192,27564,1,0,0:0:0:0:
25,192,27641,128,0,27949:0:0:0:50:Tom1.wav
332,192,27641,1,0,0:0:0:0:
384,192,27641,1,0,0:0:0:0:
128,192,27718,1,0,0:0:0:50:Tom1.wav
230,192,27718,1,0,0:0:0:0:
332,192,27795,1,0,0:0:0:50:Tom2.wav
435,192,27795,128,0,28256:0:0:0:0:
230,192,27872,1,0,0:0:0:50:Tom2.wav
281,192,27872,1,0,0:0:0:0:
128,192,27949,1,2,0:0:0:0:
179,192,27949,1,0,0:0:0:0:
486,192,27949,128,0,28256:0:0:0:0:
332,192,28026,1,2,0:0:0:0:
384,192,28026,1,0,0:0:0:0:
25,192,28102,128,0,28641:0:0:0:50:Tom2.wav
128,192,28102,1,0,0:0:0:0:
230,192,28102,1,0,0:0:0:0:
332,192,28179,1,0,0:0:0:50:Tom2.wav
384,192,28179,1,0,0:0:0:0:
76,192,28256,128,0,28641:0:0:0:50:Tom3.wav
230,192,28256,1,0,0:0:0:0:
281,192,28256,1,0,0:0:0:0:
128,192,28333,1,0,0:0:0:50:Tom3.wav
179,192,28333,1,0,0:0:0:0:
332,192,28410,1,8,0:0:0:0:
435,192,28410,1,0,0:0:0:0:
486,192,28410,1,0,0:0:0:0:
128,192,28487,1,8,0:0:0:0:
179,192,28487,1,0,0:0:0:0:
281,192,28487,1,0,0:0:0:0:
332,192,28564,1,8,0:0:0:0:
384,192,28564,1,0,0:0:0:0:
486,192,28564,1,0,0:0:0:0:
128,192,28641,1,8,0:0:0:0:
230,192,28641,1,0,0:0:0:0:
281,192,28641,1,0,0:0:0:0:
25,192,28718,1,2,0:0:0:0:
76,192,28718,1,0,0:0:0:50:Crash 2.wav
435,192,28718,128,0,29333:0:0:0:0:
486,192,28718,128,0,29179:0:0:0:0:
128,192,29026,1,8,0:0:0:0:
179,192,29026,1,0,0:0:0:0:
230,192,29026,1,0,0:0:0:0:
332,192,29026,1,0,0:0:0:0:
25,192,29179,1,0,0:0:0:0:
76,192,29333,1,2,0:0:0:0:
230,192,29333,1,0,0:0:0:0:
384,192,29333,1,0,0:0:0:0:
25,192,29487,1,2,0:0:0:0:
179,192,29487,1,0,0:0:0:0:
332,192,29487,1,0,0:0:0:0:
435,192,29564,1,0,0:0:0:0:
486,192,29641,1,0,0:0:0:0:
179,192,29795,1,8,0:0:0:0:
230,192,29795,1,0,0:0:0:0:
332,192,29795,1,0,0:0:0:0:
384,192,29795,1,0,0:0:0:0:
76,192,29949,1,0,0:0:0:0:
128,192,30102,1,2,0:0:0:0:
230,192,30102,1,0,0:0:0:0:
384,192,30102,1,0,0:0:0:0:
25,192,30256,1,8,0:0:0:0:
76,192,30256,1,0,0:0:0:0:
281,192,30256,1,0,0:0:0:0:
332,192,30256,1,0,0:0:0:0:
384,192,30487,1,0,0:0:0:0:
25,192,30564,1,2,0:0:0:0:
179,192,30564,1,0,0:0:0:0:
332,192,30564,1,0,0:0:0:0:
76,192,30718,1,2,0:0:0:0:
230,192,30718,1,0,0:0:0:0:
281,192,30718,1,0,0:0:0:0:
128,192,30872,1,8,0:0:0:0:
230,192,30872,1,0,0:0:0:0:
435,192,30872,1,0,0:0:0:0:
486,192,30872,1,0,0:0:0:0:
76,192,31026,128,0,31487:0:0:0:0:
281,192,31026,1,0,0:0:0:0:
25,192,31179,128,2,31487:0:0:0:0:
179,192,31179,1,4,0:0:0:0:
332,192,31179,1,0,0:0:0:0:
435,192,31179,1,0,0:0:0:0:
230,192,31487,1,8,0:0:0:0:
281,192,31487,1,0,0:0:0:0:
435,192,31487,1,0,0:0:0:0:
486,192,31487,1,0,0:0:0:0:
76,192,31718,1,0,0:0:0:0:
128,192,31795,1,2,0:0:0:0:
230,192,31795,1,0,0:0:0:0:
281,192,31795,1,0,0:0:0:0:
179,192,31949,1,2,0:0:0:0:
384,192,31949,1,0,0:0:0:0:
435,192,31949,1,0,0:0:0:0:
332,192,32102,1,0,0:0:0:0:
76,192,32256,1,8,0:0:0:0:
128,192,32256,1,0,0:0:0:0:
230,192,32256,1,0,0:0:0:0:
281,192,32256,1,0,0:0:0:0:
486,192,32410,1,0,0:0:0:0:
128,192,32564,1,2,0:0:0:0:
281,192,32564,1,0,0:0:0:0:
435,192,32564,1,0,0:0:0:0:
25,192,32718,1,8,0:0:0:0:
76,192,32718,1,0,0:0:0:0:
332,192,32718,1,0,0:0:0:0:
384,192,32718,1,0,0:0:0:0:
230,192,32949,1,0,0:0:0:0:
76,192,33026,1,2,0:0:0:0:
332,192,33026,1,0,0:0:0:0:
486,192,33026,1,0,0:0:0:0:
128,192,33179,1,2,0:0:0:0:
230,192,33179,1,0,0:0:0:0:
384,192,33179,1,0,0:0:0:0:
25,192,33333,1,8,0:0:0:0:
76,192,33333,1,0,0:0:0:0:
281,192,33333,1,0,0:0:0:0:
332,192,33333,1,0,0:0:0:0:
230,192,33641,128,2,34102:0:0:0:0:
384,192,33641,128,0,33949:0:0:0:70:Hat open.wav
435,192,33641,128,0,34410:0:0:0:0:
25,192,33949,1,8,0:0:0:0:
76,192,33949,1,0,0:0:0:0:
281,192,33949,1,0,0:0:0:0:
332,192,33949,1,0,0:0:0:0:
128,192,34102,128,0,34564:0:0:0:0:
281,192,34102,128,0,34410:0:0:0:0:
76,192,34256,1,2,0:0:0:0:
230,192,34256,1,0,0:0:0:0:
384,192,34256,1,0,0:0:0:0:
179,192,34410,1,2,0:0:0:0:
332,192,34410,1,0,0:0:0:0:
486,192,34410,1,0,0:0:0:0:
384,192,34487,1,0,0:0:0:0:
76,192,34564,128,0,35026:0:0:0:0:
230,192,34564,128,0,34872:0:0:0:0:
281,192,34718,1,8,0:0:0:0:
332,192,34718,1,0,0:0:0:0:
435,192,34718,1,0,0:0:0:0:
486,192,34718,1,0,0:0:0:0:
179,192,34872,1,0,0:0:0:0:
25,192,35026,128,2,35333:0:0:0:0:
128,192,35026,128,0,35333:0:0:0:0:
435,192,35026,1,0,0:0:0:0:
179,192,35179,1,8,0:0:0:0:
230,192,35179,1,0,0:0:0:0:
281,192,35179,1,0,0:0:0:0:
332,192,35179,1,0,0:0:0:0:
384,192,35333,128,0,35641:0:0:0:0:
486,192,35333,128,0,35641:0:0:0:0:
25,192,35487,1,2,0:0:0:0:
76,192,35487,1,0,0:0:0:0:
230,192,35487,1,0,0:0:0:0:
435,192,35487,128,0,35641:0:0:0:0:
128,192,35641,1,2,0:0:0:0:
179,192,35641,1,0,0:0:0:0:
332,192,35641,1,0,0:0:0:0:
25,192,35795,1,8,0:0:0:0:
76,192,35795,1,0,0:0:0:0:
281,192,35795,128,0,36102:0:0:0:0:
435,192,35795,128,0,36102:0:0:0:0:
384,192,35949,1,0,0:0:0:0:
332,192,36026,1,0,0:0:0:0:
25,192,36102,128,2,36872:0:0:0:0:
128,192,36102,128,0,36410:0:0:0:50:Crash 2.wav
179,192,36102,128,0,36410:0:0:0:0:
76,192,36410,1,8,0:0:0:0:
332,192,36410,1,0,0:0:0:0:
435,192,36410,1,0,0:0:0:0:
486,192,36410,1,0,0:0:0:0:
230,192,36564,128,0,36872:0:0:0:0:
281,192,36564,128,0,36872:0:0:0:0:
332,192,36641,1,0,0:0:0:0:
384,192,36718,1,2,0:0:0:0:
435,192,36718,1,0,0:0:0:0:
486,192,36718,1,0,0:0:0:0:
76,192,36872,1,2,0:0:0:0:
128,192,36872,1,0,0:0:0:0:
179,192,36872,1,0,0:0:0:0:
435,192,37026,128,0,37333:0:0:0:0:
486,192,37026,128,0,37333:0:0:0:0:
25,192,37179,1,8,0:0:0:0:
128,192,37179,1,0,0:0:0:0:
230,192,37179,1,0,0:0:0:0:
332,192,37179,1,0,0:0:0:0:
179,192,37333,1,0,0:0:0:0:
384,192,37333,128,0,37795:0:0:0:0:
25,192,37487,1,2,0:0:0:0:
128,192,37487,1,0,0:0:0:0:
332,192,37487,128,0,37795:0:0:0:0:
76,192,37641,1,8,0:0:0:0:
230,192,37641,1,4,0:0:0:0:
281,192,37641,1,0,0:0:0:0:
435,192,37641,1,0,0:0:0:0:
128,192,37795,1,2,0:0:0:0:
179,192,37795,1,0,0:0:0:0:
486,192,37795,1,0,0:0:0:0:
435,192,37872,1,0,0:0:0:0:
230,192,37949,1,2,0:0:0:0:
281,192,37949,1,0,0:0:0:50:Tom2.wav
384,192,37949,1,0,0:0:0:0:
25,192,38102,1,8,0:0:0:0:
76,192,38102,1,0,0:0:0:0:
128,192,38102,1,0,0:0:0:0:
179,192,38102,1,0,0:0:0:0:
332,192,38179,1,8,0:0:0:0:
384,192,38179,1,0,0:0:0:0:
435,192,38179,1,0,0:0:0:0:
486,192,38179,1,0,0:0:0:0:
25,192,38256,1,8,0:0:0:0:
76,192,38256,1,0,0:0:0:0:
128,192,38256,1,0,0:0:0:0:
179,192,38256,1,0,0:0:0:0:
332,192,38333,1,8,0:0:0:0:
384,192,38333,1,0,0:0:0:0:
435,192,38333,1,0,0:0:0:0:
486,192,38333,1,0,0:0:0:0:
25,192,38410,1,8,0:0:0:0:
76,192,38410,1,0,0:0:0:0:
128,192,38410,1,0,0:0:0:0:
179,192,38410,1,0,0:0:0:0:
332,192,38487,1,8,0:0:0:0:
384,192,38487,1,0,0:0:0:0:
435,192,38487,1,0,0:0:0:0:
486,192,38487,1,0,0:0:0:0:
25,192,38564,1,2,0:0:0:0:
76,192,38564,1,0,0:0:0:50:Crash 2.wav
128,192,38564,1,0,0:0:0:0:
179,192,38564,128,0,38872:0:0:0:0:
230,192,38564,1,0,0:0:0:0:
76,192,38718,128,0,38872:0:0:0:0:
128,192,38718,128,0,38872:0:0:0:0:
25,192,38872,128,2,39102:0:0:0:0:
332,192,38872,1,8,0:0:0:0:
435,192,38872,1,0,0:0:0:70:Hat open.wav
486,192,38872,1,0,0:0:0:0:
128,192,39026,128,0,39179:0:0:0:0:
179,192,39026,128,0,39333:0:0:0:0:
25,192,39179,1,2,0:0:0:0:
281,192,39179,1,0,0:0:0:70:Hat open.wav
332,192,39179,1,0,0:0:0:0:
76,192,39256,1,0,0:0:0:0:
128,192,39333,1,0,0:0:0:0:
486,192,39333,128,0,39641:0:0:0:0:
25,192,39487,1,2,0:0:0:0:
76,192,39487,1,8,0:0:0:0:
179,192,39487,1,0,0:0:0:70:Hat open.wav
384,192,39487,128,0,39641:0:0:0:0:
435,192,39487,128,0,39641:0:0:0:0:
281,192,39641,128,0,39949:0:0:0:0:
25,192,39795,1,2,0:0:0:0:
128,192,39795,1,0,0:0:0:70:Hat open.wav
384,192,39795,128,0,39949:0:0:0:0:
486,192,39795,128,0,39949:0:0:0:0:
435,192,39949,128,0,40256:0:0:0:0:
25,192,40102,1,2,0:0:0:0:
76,192,40102,1,8,0:0:0:0:
179,192,40102,1,0,0:0:0:70:Hat open.wav
332,192,40102,128,0,40564:0:0:0:0:
384,192,40102,128,0,40256:0:0:0:0:
281,192,40256,128,0,40564:0:0:0:0:
486,192,40333,1,0,0:0:0:0:
128,192,40410,1,2,0:0:0:0:
179,192,40410,1,0,0:0:0:70:Hat open.wav
384,192,40410,1,0,0:0:0:0:
486,192,40487,1,0,0:0:0:0:
384,192,40564,1,0,0:0:0:0:
486,192,40641,1,0,0:0:0:0:
25,192,40718,1,2,0:0:0:0:
128,192,40718,128,8,41026:0:0:0:0:
281,192,40718,1,0,0:0:0:70:Hat open.wav
332,192,40718,1,0,0:0:0:0:
76,192,40872,128,0,41026:0:0:0:0:
230,192,41026,128,2,41333:0:0:0:0:
435,192,41026,1,0,0:0:0:70:Hat open.wav
486,192,41026,1,0,0:0:0:0:
76,192,41179,128,0,41333:0:0:0:0:
179,192,41179,128,0,41333:0:0:0:0:
25,192,41333,128,2,41795:0:0:0:0:
332,192,41333,1,8,0:0:0:0:
384,192,41333,1,0,0:0:0:70:Hat open.wav
486,192,41333,1,0,0:0:0:0:
76,192,41487,128,0,41641:0:0:0:0:
179,192,41487,128,0,41564:0:0:0:0:
179,192,41641,1,2,0:0:0:0:
281,192,41641,1,0,0:0:0:70:Hat open.wav
332,192,41641,1,0,0:0:0:0:
128,192,41718,1,0,0:0:0:0:
76,192,41795,1,0,0:0:0:0:
384,192,41795,128,0,42102:0:0:0:0:
25,192,41949,1,2,0:0:0:0:
179,192,41949,1,8,0:0:0:0:
230,192,41949,1,0,0:0:0:70:Hat open.wav
435,192,41949,128,0,42256:0:0:0:0:
128,192,42102,128,0,42410:0:0:0:0:
25,192,42256,128,2,42564:0:0:0:0:
76,192,42256,128,0,42410:0:0:0:70:Hat open.wav
230,192,42256,1,0,0:0:0:0:
281,192,42256,1,0,0:0:0:0:
384,192,42410,128,0,42718:0:0:0:0:
435,192,42410,128,0,42564:0:0:0:0:
76,192,42564,1,2,0:0:0:0:
128,192,42564,1,8,0:0:0:0:
230,192,42564,1,0,0:0:0:70:Hat open.wav
332,192,42564,128,0,42872:0:0:0:0:
486,192,42564,128,0,42872:0:0:0:0:
435,192,42718,128,0,42872:0:0:0:0:
25,192,42872,128,2,43179:0:0:0:0:
76,192,42872,128,0,43179:0:0:0:0:
128,192,42872,1,0,0:0:0:0:
179,192,42872,1,0,0:0:0:0:
230,192,43026,1,8,0:0:0:0:
281,192,43026,1,0,0:0:0:70:Hat open.wav
384,192,43026,1,0,0:0:0:0:
435,192,43026,128,0,43179:0:0:0:0:
486,192,43026,128,0,43179:0:0:0:0:
128,192,43179,1,2,0:0:0:0:
179,192,43179,1,0,0:0:0:0:
230,192,43333,128,8,43487:0:0:0:0:
281,192,43333,128,0,43487:0:0:0:70:Hat open.wav
384,192,43333,1,0,0:0:0:0:
435,192,43333,1,0,0:0:0:0:
486,192,43333,1,0,0:0:0:0:
25,192,43487,1,2,0:0:0:0:
76,192,43487,1,0,0:0:0:50:Crash 2.wav
332,192,43487,128,0,43795:0:0:0:0:
384,192,43641,128,0,43795:0:0:0:0:
435,192,43641,128,0,43795:0:0:0:0:
76,192,43795,1,2,0:0:0:0:
128,192,43795,1,8,0:0:0:0:
230,192,43795,1,0,0:0:0:70:Hat open.wav
486,192,43795,128,0,44256:0:0:0:0:
332,192,43949,128,0,44026:0:0:0:0:
435,192,43949,128,0,44102:0:0:0:0:
128,192,44102,1,2,0:0:0:0:
179,192,44102,1,0,0:0:0:70:Hat open.wav
281,192,44102,1,0,0:0:0:0:
332,192,44179,1,0,0:0:0:0:
25,192,44256,128,0,44564:0:0:0:0:
384,192,44256,1,0,0:0:0:0:
76,192,44410,128,2,44564:0:0:0:0:
128,192,44410,128,8,44564:0:0:0:0:
332,192,44410,1,0,0:0:0:70:Hat open.wav
384,192,44410,1,0,0:0:0:0:
486,192,44410,1,0,0:0:0:0:
230,192,44564,128,0,44872:0:0:0:0:
25,192,44718,128,2,44872:0:0:0:0:
128,192,44718,128,0,44872:0:0:0:70:Hat open.wav
435,192,44718,1,0,0:0:0:0:
486,192,44718,1,0,0:0:0:0:
76,192,44872,128,0,45179:0:0:0:0:
128,192,45026,128,2,45179:0:0:0:0:
179,192,45026,128,8,45487:0:0:0:0:
332,192,45026,1,0,0:0:0:70:Hat open.wav
384,192,45026,1,0,0:0:0:0:
486,192,45026,1,0,0:0:0:0:
230,192,45179,128,0,45487:0:0:0:0:
25,192,45256,1,0,0:0:0:0:
128,192,45333,1,2,0:0:0:0:
435,192,45333,1,0,0:0:0:70:Hat open.wav
486,192,45333,1,0,0:0:0:0:
25,192,45410,1,0,0:0:0:0:
128,192,45487,1,0,0:0:0:0:
25,192,45564,1,0,0:0:0:0:
128,192,45641,1,2,0:0:0:0:
281,192,45641,1,8,0:0:0:0:
332,192,45641,1,0,0:0:0:70:Hat open.wav
384,192,45641,128,0,45949:0:0:0:0:
486,192,45641,1,0,0:0:0:0:
435,192,45795,128,0,45949:0:0:0:0:
25,192,45949,1,2,0:0:0:0:
179,192,45949,1,0,0:0:0:70:Hat open.wav
281,192,45949,128,0,46256:0:0:0:0:
332,192,46102,128,0,46256:0:0:0:0:
435,192,46102,128,0,46256:0:0:0:0:
25,192,46256,1,2,0:0:0:0:
128,192,46256,1,8,0:0:0:0:
230,192,46256,1,0,0:0:0:70:Hat open.wav
486,192,46256,128,0,46718:0:0:0:0:
332,192,46410,128,0,46487:0:0:0:0:
435,192,46410,128,0,46564:0:0:0:0:
179,192,46564,1,2,0:0:0:0:
230,192,46564,1,0,0:0:0:70:Hat open.wav
332,192,46564,1,0,0:0:0:0:
384,192,46641,1,0,0:0:0:0:
128,192,46718,128,0,47026:0:0:0:0:
435,192,46718,1,0,0:0:0:0:
25,192,46872,1,2,0:0:0:0:
76,192,46872,128,8,47179:0:0:0:0:
230,192,46872,1,4,0:0:0:0:
281,192,46872,1,0,0:0:0:0:
384,192,47026,128,0,47333:0:0:0:0:
179,192,47179,1,8,0:0:0:0:
230,192,47179,1,0,0:0:0:0:
435,192,47179,128,0,47333:0:0:0:0:
486,192,47179,128,0,47487:0:0:0:0:
281,192,47256,1,8,0:0:0:0:
332,192,47256,1,0,0:0:0:0:
76,192,47333,128,2,47487:0:0:0:0:
128,192,47333,128,0,47641:0:0:0:0:
25,192,47487,128,2,47795:0:0:0:0:
179,192,47487,128,0,47795:0:0:0:0:
230,192,47487,1,0,0:0:0:0:
76,192,47641,128,0,47795:0:0:0:50:Tom1.wav
332,192,47641,1,0,0:0:0:0:
384,192,47641,1,0,0:0:0:0:
230,192,47718,1,0,0:0:0:50:Tom2.wav
281,192,47718,1,0,0:0:0:0:
435,192,47795,128,2,47949:0:0:0:0:
486,192,47795,128,0,48102:0:0:0:0:
281,192,47949,1,2,0:0:0:0:
332,192,47949,1,0,0:0:0:0:
384,192,47949,128,0,48102:0:0:0:0:
25,192,48102,128,0,48410:0:0:0:50:Tom2.wav
76,192,48102,128,0,48256:0:0:0:0:
179,192,48102,1,0,0:0:0:0:
230,192,48102,1,0,0:0:0:0:
332,192,48179,1,0,0:0:0:50:Tom3.wav
384,192,48179,1,0,0:0:0:0:
128,192,48256,128,2,48410:0:0:0:0:
179,192,48256,1,0,0:0:0:0:
230,192,48256,1,0,0:0:0:0:
76,192,48410,1,8,0:0:0:0:
179,192,48410,1,0,0:0:0:50:Tom3.wav
281,192,48410,128,0,48487:0:0:0:0:
486,192,48410,128,0,48487:0:0:0:0:
25,192,48564,1,2,0:0:0:0:
332,192,48564,128,0,48641:0:0:0:0:
486,192,48564,128,0,48641:0:0:0:0:
76,192,48718,1,8,0:0:0:0:
128,192,48718,1,0,0:0:0:50:Tom3.wav
230,192,48718,128,0,48795:0:0:0:0:
486,192,48718,128,0,48795:0:0:0:0:
179,192,48872,1,8,0:0:0:0:
384,192,48872,128,0,49333:0:0:0:50:Tom3.wav
435,192,48872,128,0,49333:0:0:0:0:
76,192,49179,1,2,0:0:0:0:
128,192,49179,1,0,0:0:0:0:
230,192,49179,1,0,0:0:0:0:
25,192,49333,128,8,49410:0:0:0:0:
179,192,49333,128,0,49410:0:0:0:70:Hat open.wav
332,192,49333,1,0,0:0:0:0:
486,192,49333,1,0,0:0:0:0:
25,192,49487,128,2,49564:0:0:0:0:
281,192,49487,128,0,49564:0:0:0:0:
384,192,49487,1,0,0:0:0:0:
25,192,49641,128,8,49718:0:0:0:0:
230,192,49641,128,0,49718:0:0:0:50:Tom3.wav
435,192,49641,1,0,0:0:0:0:
486,192,49641,1,0,0:0:0:0:
76,192,49795,128,8,50256:0:0:0:0:
128,192,49795,128,0,50256:0:0:0:50:Tom3.wav
332,192,49795,1,0,0:0:0:0:
384,192,50102,1,2,0:0:0:0:
435,192,50102,1,0,0:0:0:0:
25,192,50256,1,8,0:0:0:0:
179,192,50256,1,0,0:0:0:0:
332,192,50256,128,0,50333:0:0:0:0:
486,192,50256,128,0,50333:0:0:0:0:
76,192,50410,1,2,0:0:0:0:
332,192,50410,128,0,50487:0:0:0:0:
435,192,50410,128,0,50487:0:0:0:0:
128,192,50564,1,0,0:0:0:50:Tom1.wav
179,192,50564,1,0,0:0:0:0:
332,192,50564,128,0,50872:0:0:0:0:
486,192,50564,128,0,50872:0:0:0:0:
25,192,50641,1,0,0:0:0:0:
230,192,50718,1,2,0:0:0:0:
281,192,50718,1,0,0:0:0:0:
25,192,50872,128,8,50949:0:0:0:0:
179,192,50872,128,0,50949:0:0:0:50:Tom3.wav
384,192,50872,1,0,0:0:0:0:
435,192,50872,1,0,0:0:0:0:
76,192,51026,128,2,51102:0:0:0:0:
230,192,51026,128,0,51102:0:0:0:0:
486,192,51026,1,0,0:0:0:0:
25,192,51179,128,8,51256:0:0:0:0:
179,192,51179,128,0,51256:0:0:0:50:Tom3.wav
384,192,51179,1,0,0:0:0:0:
435,192,51179,1,0,0:0:0:0:
76,192,51333,128,8,51795:0:0:0:0:
128,192,51333,128,0,51795:0:0:0:50:Tom3.wav
281,192,51333,1,0,0:0:0:0:
332,192,51333,1,0,0:0:0:0:
384,192,51641,1,2,0:0:0:0:
435,192,51641,1,0,0:0:0:0:
25,192,51795,1,8,0:0:0:0:
179,192,51795,1,0,0:0:0:70:Hat open.wav
332,192,51795,128,0,51872:0:0:0:0:
486,192,51795,128,0,51872:0:0:0:0:
76,192,51949,1,2,0:0:0:0:
281,192,51949,128,0,52026:0:0:0:0:
435,192,51949,128,0,52026:0:0:0:0:
128,192,52102,1,8,0:0:0:0:
179,192,52102,1,0,0:0:0:50:Tom3.wav
332,192,52102,128,0,52179:0:0:0:0:
486,192,52102,128,0,52179:0:0:0:0:
25,192,52256,1,8,0:0:0:0:
384,192,52256,128,0,52718:0:0:0:50:Tom3.wav
435,192,52256,128,0,52718:0:0:0:0:
76,192,52564,1,2,0:0:0:0:
128,192,52564,1,0,0:0:0:0:
25,192,52718,128,8,52795:0:0:0:0:
179,192,52718,128,0,52795:0:0:0:70:Hat open.wav
332,192,52718,1,0,0:0:0:0:
486,192,52718,1,0,0:0:0:0:
76,192,52872,128,2,52949:0:0:0:0:
179,192,52872,128,0,52949:0:0:0:0:
435,192,52872,1,0,0:0:0:0:
25,192,53026,128,0,53333:0:0:0:50:Tom2.wav
179,192,53026,128,0,53333:0:0:0:0:
332,192,53026,1,0,0:0:0:0:
384,192,53026,1,0,0:0:0:0:
76,192,53333,1,2,0:0:0:0:
128,192,53333,1,4,0:0:0:0:
435,192,53333,128,0,53949:0:0:0:0:
486,192,53333,128,0,54564:0:0:0:0:
128,192,53795,1,2,0:0:0:0:
281,192,53795,1,0,0:0:0:0:
332,192,53795,1,0,0:0:0:0:
25,192,53949,128,8,54564:0:0:0:0:
76,192,53949,1,0,0:0:0:70:Hat open.wav
179,192,53949,1,0,0:0:0:0:
384,192,53949,1,0,0:0:0:0:
128,192,54256,1,2,0:0:0:0:
230,192,54256,1,0,0:0:0:70:Hat open.wav
281,192,54256,1,0,0:0:0:0:
179,192,54410,1,8,0:0:0:0:
332,192,54410,1,0,0:0:0:0:
384,192,54410,1,0,0:0:0:0:
128,192,54564,128,2,55179:0:0:0:0:
281,192,54564,1,0,0:0:0:70:Hat open.wav
435,192,54564,128,0,55795:0:0:0:0:
25,192,54718,1,8,0:0:0:0:
76,192,54718,1,0,0:0:0:0:
332,192,54718,1,0,0:0:0:0:
384,192,54718,1,0,0:0:0:0:
230,192,55026,1,2,0:0:0:0:
332,192,55026,1,0,0:0:0:0:
384,192,55026,1,0,0:0:0:0:
281,192,55102,1,2,0:0:0:0:
25,192,55179,1,8,0:0:0:0:
76,192,55179,128,0,55795:0:0:0:70:Hat open.wav
179,192,55179,1,0,0:0:0:0:
230,192,55179,1,0,0:0:0:0:
281,192,55333,1,2,0:0:0:0:
332,192,55333,1,0,0:0:0:0:
486,192,55333,1,0,0:0:0:0:
230,192,55487,1,0,0:0:0:70:Hat open.wav
25,192,55641,1,2,0:0:0:0:
179,192,55641,1,0,0:0:0:0:
281,192,55641,1,0,0:0:0:0:
128,192,55795,128,2,55872:0:0:0:0:
230,192,55795,1,4,0:0:0:0:
332,192,55795,128,0,55872:0:0:0:0:
486,192,55795,1,0,0:0:0:0:
179,192,55949,128,0,56026:0:0:0:0:
384,192,55949,128,0,56026:0:0:0:0:
76,192,56102,128,0,56179:0:0:0:70:Hat open.wav
332,192,56102,128,0,56179:0:0:0:0:
25,192,56256,128,2,56718:0:0:0:0:
281,192,56256,128,0,56487:0:0:0:0:
435,192,56256,1,0,0:0:0:0:
486,192,56256,1,0,0:0:0:0:
76,192,56410,1,8,0:0:0:0:
230,192,56410,128,0,56641:0:0:0:70:Hat open.wav
332,192,56410,1,0,0:0:0:0:
384,192,56410,1,0,0:0:0:0:
179,192,56564,128,2,56718:0:0:0:0:
435,192,56564,1,0,0:0:0:0:
486,192,56564,1,0,0:0:0:0:
76,192,56718,1,8,0:0:0:0:
128,192,56718,1,0,0:0:0:50:Crash 2.wav
332,192,56718,1,0,0:0:0:0:
384,192,56718,1,0,0:0:0:0:
25,192,56872,1,2,0:0:0:0:
230,192,56872,1,4,0:0:0:0:
281,192,56872,1,0,0:0:0:0:
486,192,56872,1,0,0:0:0:0:
76,192,57179,1,2,0:0:0:0:
128,192,57179,1,0,0:0:0:0:
230,192,57179,1,0,0:0:0:0:
281,192,57333,1,8,0:0:0:0:
332,192,57333,1,0,0:0:0:50:Crash 2.wav
384,192,57333,1,0,0:0:0:0:
486,192,57333,1,0,0:0:0:0:
25,192,57487,1,0,0:0:0:50:Tom1.wav
76,192,57487,1,0,0:0:0:0:
179,192,57487,1,0,0:0:0:0:
384,192,57564,1,0,0:0:0:50:Tom1.wav
435,192,57564,1,0,0:0:0:0:
486,192,57564,1,0,0:0:0:0:
25,192,57641,1,0,0:0:0:50:Tom1.wav
76,192,57641,1,0,0:0:0:0:
179,192,57641,1,0,0:0:0:0:
384,192,57718,1,0,0:0:0:0:
435,192,57718,1,0,0:0:0:0:
486,192,57718,1,0,0:0:0:0:
179,192,57795,1,0,0:0:0:50:Tom1.wav
230,192,57795,1,0,0:0:0:0:
76,192,57795,1,0,0:0:0:0:
281,192,57949,1,0,0:0:0:50:Tom2.wav
332,192,57949,1,0,0:0:0:0:
435,192,57949,1,0,0:0:0:0:
179,192,58102,1,0,0:0:0:50:Tom3.wav
230,192,58102,1,0,0:0:0:0:
281,192,58102,1,0,0:0:0:0:
332,192,58102,1,0,0:0:0:0:
25,192,58256,1,2,0:0:0:0:
76,192,58256,128,0,58410:0:0:0:50:Crash 2.wav
128,192,58256,128,0,58410:0:0:0:0:
384,192,58256,1,0,0:0:0:0:
435,192,58256,128,0,58410:0:0:0:0:
486,192,58256,128,0,58410:0:0:0:0:
25,192,58410,128,0,58718:0:0:0:0:
230,192,58410,128,0,58718:0:0:0:0:
128,192,58564,128,0,58872:0:0:0:0:
332,192,58564,128,0,58872:0:0:0:0:
384,192,58564,128,0,58872:0:0:0:0:
281,192,58718,128,0,59026:0:0:0:0:
486,192,58718,128,0,59026:0:0:0:0:
179,192,58872,128,0,59179:0:0:0:0:
435,192,58872,128,0,59179:0:0:0:0:
128,192,59026,128,0,59333:0:0:0:0:
332,192,59026,128,0,59333:0:0:0:0:
384,192,59026,128,0,59333:0:0:0:0:
25,192,59179,128,0,59487:0:0:0:0:
230,192,59179,128,0,59487:0:0:0:0:
76,192,59333,128,0,59641:0:0:0:0:
281,192,59333,128,0,59564:0:0:0:0:
179,192,59487,128,0,59795:0:0:0:0:
384,192,59487,128,0,59795:0:0:0:0:
486,192,59487,128,0,59795:0:0:0:0:
25,192,59641,128,0,59949:0:0:0:0:
281,192,59641,128,0,59949:0:0:0:0:
76,192,59795,128,0,60102:0:0:0:0:
332,192,59795,128,0,60026:0:0:0:0:
179,192,59949,128,0,60256:0:0:0:0:
435,192,59949,128,0,60256:0:0:0:0:
486,192,59949,128,0,60256:0:0:0:0:
128,192,60102,128,0,60410:0:0:0:0:
332,192,60102,128,0,60410:0:0:0:0:
76,192,60256,128,0,60487:0:0:0:0:
281,192,60256,128,0,60487:0:0:0:0:
25,192,60410,128,0,60718:0:0:0:0:
230,192,60410,128,0,60718:0:0:0:0:
384,192,60410,128,0,60718:0:0:0:0:
76,192,60564,128,0,60872:0:0:0:50:Ride.wav
281,192,60564,128,0,60872:0:0:0:0:
128,192,60718,128,0,61026:0:0:0:70:Ridecup.wav
179,192,60718,128,0,60949:0:0:0:0:
435,192,60718,128,0,61026:0:0:0:0:
486,192,60718,128,0,60949:0:0:0:0:
230,192,60872,128,0,61179:0:0:0:0:
384,192,60872,128,0,61179:0:0:0:0:
179,192,61026,128,0,61256:0:0:0:0:
332,192,61026,128,0,61333:0:0:0:0:
25,192,61179,128,0,61487:0:0:0:0:
76,192,61179,128,0,61487:0:0:0:0:
281,192,61179,128,0,61487:0:0:0:0:
179,192,61333,128,0,61641:0:0:0:0:
384,192,61333,128,0,61641:0:0:0:0:
230,192,61487,128,0,61718:0:0:0:0:
435,192,61487,128,0,61795:0:0:0:0:
76,192,61641,128,0,61949:0:0:0:0:
332,192,61641,128,0,61872:0:0:0:0:
486,192,61641,128,0,61949:0:0:0:0:
25,192,61795,128,0,62102:0:0:0:0:
230,192,61795,128,0,62026:0:0:0:0:
128,192,61949,128,0,62256:0:0:0:0:
281,192,61949,128,0,62256:0:0:0:0:
384,192,61949,128,0,62256:0:0:0:0:
179,192,62102,128,0,62410:0:0:0:0:
230,192,62102,128,0,62410:0:0:0:0:
435,192,62102,128,0,62410:0:0:0:0:
76,192,62256,128,0,62564:0:0:0:0:
332,192,62256,128,0,62564:0:0:0:0:
128,192,62410,128,0,62718:0:0:0:0:
384,192,62410,128,0,62641:0:0:0:0:
179,192,62564,128,0,62872:0:0:0:0:
230,192,62564,128,0,62872:0:0:0:0:
486,192,62564,128,0,62872:0:0:0:0:
76,192,62718,128,0,63102:0:0:0:0:
384,192,62718,128,0,63102:0:0:0:0:
25,192,62872,128,0,63102:0:0:0:0:
332,192,62872,128,0,63102:0:0:0:0:
128,192,63026,128,0,63102:0:0:0:0:
435,192,63026,128,0,63102:0:0:0:0:
486,192,63026,128,0,63102:0:0:0:0:
25,192,63179,1,2,0:0:0:0:
76,192,63179,1,8,0:0:0:0:
128,192,63179,1,0,0:0:0:50:Crash 2.wav
384,192,63179,1,0,0:0:0:0:
435,192,63179,1,0,0:0:0:0:
486,192,63179,1,0,0:0:0:0:
25,192,63487,1,2,0:0:0:0:
128,192,63487,1,8,0:0:0:0:
179,192,63487,1,0,0:0:0:50:Tom3.wav
384,192,63487,1,0,0:0:0:0:
486,192,63487,1,0,0:0:0:0:
25,192,63641,1,8,0:0:0:0:
128,192,63641,1,0,0:0:0:50:Tom3.wav
179,192,63641,1,0,0:0:0:0:
384,192,63641,1,0,0:0:0:0:
486,192,63641,1,0,0:0:0:0:
25,192,63795,1,2,0:0:0:0:
128,192,63795,1,8,0:0:0:0:
332,192,63795,1,0,0:0:0:50:Tom3.wav
384,192,63795,1,0,0:0:0:0:
486,192,63795,1,0,0:0:0:0:
25,192,63949,1,8,0:0:0:0:
128,192,63949,1,0,0:0:0:50:Tom3.wav
332,192,63949,1,0,0:0:0:0:
384,192,63949,1,0,0:0:0:0:
486,192,63949,1,0,0:0:0:0:
76,192,64102,1,8,0:0:0:0:
179,192,64102,1,2,0:0:0:0:
384,192,64102,1,0,0:0:0:50:Tom3.wav
435,192,64102,1,0,0:0:0:0:
486,192,64102,1,0,0:0:0:0:
76,192,64256,1,8,0:0:0:0:
179,192,64256,1,0,0:0:0:50:Tom3.wav
384,192,64256,1,0,0:0:0:0:
435,192,64256,1,0,0:0:0:0:
486,192,64256,1,0,0:0:0:0:
25,192,64410,1,2,0:0:0:0:
76,192,64410,1,8,0:0:0:0:
128,192,64410,1,0,0:0:0:50:Tom3.wav
332,192,64410,1,0,0:0:0:0:
435,192,64410,1,0,0:0:0:0:
25,192,64564,1,8,0:0:0:0:
76,192,64564,1,0,0:0:0:50:Tom3.wav
128,192,64564,1,0,0:0:0:0:
332,192,64564,1,0,0:0:0:0:
435,192,64564,1,0,0:0:0:0:
25,192,64718,1,8,0:0:0:0:
76,192,64718,1,2,0:0:0:0:
128,192,64718,1,0,0:0:0:50:Tom3.wav
384,192,64718,1,0,0:0:0:0:
435,192,64718,1,0,0:0:0:0:
486,192,64718,1,0,0:0:0:0:
25,192,64872,1,8,0:0:0:0:
76,192,64872,1,0,0:0:0:50:Tom3.wav
128,192,64872,1,0,0:0:0:0:
384,192,64872,1,0,0:0:0:0:
435,192,64872,1,0,0:0:0:0:
486,192,64872,1,0,0:0:0:0:
25,192,65026,1,2,0:0:0:0:
76,192,65026,1,8,0:0:0:0:
128,192,65026,1,0,0:0:0:50:Tom3.wav
384,192,65026,1,0,0:0:0:0:
435,192,65026,1,0,0:0:0:0:
486,192,65026,1,0,0:0:0:0:
25,192,65179,1,8,0:0:0:0:
76,192,65179,1,0,0:0:0:50:Tom3.wav
128,192,65179,1,0,0:0:0:0:
384,192,65179,1,0,0:0:0:0:
435,192,65179,1,0,0:0:0:0:
486,192,65179,1,0,0:0:0:0:
25,192,65333,1,8,0:0:0:0:
76,192,65333,1,2,0:0:0:0:
128,192,65333,1,0,0:0:0:50:Tom3.wav
384,192,65333,1,0,0:0:0:0:
435,192,65333,1,0,0:0:0:0:
486,192,65333,1,0,0:0:0:0:
25,192,65487,1,8,0:0:0:0:
76,192,65487,1,0,0:0:0:50:Tom3.wav
128,192,65487,1,0,0:0:0:0:
384,192,65487,1,0,0:0:0:0:
435,192,65487,1,0,0:0:0:0:
486,192,65487,1,0,0:0:0:0:
25,192,65641,1,2,0:0:0:0:
76,192,65641,1,0,0:0:0:50:Crash 2.wav
128,192,65641,1,0,0:0:0:0:
230,192,65641,1,0,0:0:0:0:
281,192,65641,1,0,0:0:0:0:
384,192,65641,1,0,0:0:0:0:
435,192,65641,1,0,0:0:0:0:
486,192,65641,1,0,0:0:0:0:
128,192,65795,1,8,0:0:0:0:
179,192,65795,1,0,0:0:0:0:
384,192,65795,1,0,0:0:0:0:
230,192,65872,1,8,0:0:0:0:
435,192,65872,1,0,0:0:0:0:
486,192,65872,1,0,0:0:0:0:
25,192,65949,1,2,0:0:0:0:
76,192,65949,1,0,0:0:0:0:
281,192,65949,1,0,0:0:0:0:
332,192,65949,1,0,0:0:0:0:
435,192,66026,1,2,0:0:0:0:
486,192,66026,1,0,0:0:0:0:
128,192,66102,1,0,0:0:0:50:Tom1.wav
332,192,66102,1,0,0:0:0:0:
384,192,66102,1,0,0:0:0:0:
25,192,66179,1,0,0:0:0:50:Tom1.wav
76,192,66179,1,0,0:0:0:0:
179,192,66256,1,0,0:0:0:50:Tom2.wav
230,192,66256,1,0,0:0:0:0:
486,192,66256,1,0,0:0:0:0:
25,192,66333,1,0,0:0:0:50:Tom2.wav
384,192,66333,1,0,0:0:0:0:
435,192,66333,1,0,0:0:0:0:
76,192,66410,1,2,0:0:0:0:
128,192,66410,1,0,0:0:0:0:
230,192,66487,1,2,0:0:0:0:
281,192,66487,1,0,0:0:0:0:
25,192,66564,1,0,0:0:0:50:Tom3.wav
384,192,66564,1,0,0:0:0:0:
435,192,66564,1,0,0:0:0:0:
128,192,66641,1,0,0:0:0:50:Tom3.wav
179,192,66641,1,0,0:0:0:0:
332,192,66641,1,0,0:0:0:0:
230,192,66718,1,2,0:0:0:0:
281,192,66718,1,0,0:0:0:0:
25,192,66795,1,2,0:0:0:0:
76,192,66795,1,0,0:0:0:0:
384,192,66872,1,8,0:0:0:0:
435,192,66872,1,0,0:0:0:0:
486,192,66872,1,0,0:0:0:0:
25,192,66949,1,8,0:0:0:0:
76,192,66949,1,0,0:0:0:0:
128,192,66949,1,0,0:0:0:0:
384,192,67026,1,8,0:0:0:0:
435,192,67026,1,0,0:0:0:0:
486,192,67026,1,0,0:0:0:0:
25,192,67102,1,8,0:0:0:0:
76,192,67102,1,0,0:0:0:0:
128,192,67102,1,0,0:0:0:0:
281,192,67179,1,8,0:0:0:0:
384,192,67179,1,0,0:0:0:0:
435,192,67179,1,0,0:0:0:0:
486,192,67179,1,0,0:0:0:0:
281,192,67333,1,8,0:0:0:0:
384,192,67333,1,0,0:0:0:70:Hat open.wav
435,192,67333,1,0,0:0:0:0:
486,192,67333,1,0,0:0:0:0:
25,192,67949,1,2,0:0:0:0:
179,192,67949,128,4,68410:0:0:0:0:
230,192,67949,1,2,0:0:0:0:
281,192,67949,1,0,0:0:0:50:Crash 2.wav
332,192,67949,1,0,0:0:0:0:
486,192,67949,1,0,0:0:0:0:
76,192,68256,1,2,0:0:0:0:
128,192,68256,128,0,68410:0:0:0:0:
384,192,68256,1,0,0:0:0:0:
435,192,68256,1,0,0:0:0:0:
25,192,68410,128,8,68718:0:0:0:0:
230,192,68410,128,0,68718:0:0:0:70:Hat open.wav
281,192,68410,1,0,0:0:0:0:
332,192,68410,1,0,0:0:0:0:
486,192,68410,1,0,0:0:0:0:
76,192,68718,1,2,0:0:0:0:
128,192,68718,1,0,0:0:0:70:Hat open.wav
384,192,68718,128,0,69026:0:0:0:0:
435,192,68718,128,0,69487:0:0:0:0:
25,192,68872,1,2,0:0:0:0:
76,192,68872,1,0,0:0:0:0:
281,192,68872,1,0,0:0:0:0:
332,192,68872,1,0,0:0:0:0:
76,192,69026,1,8,0:0:0:0:
128,192,69026,1,0,0:0:0:70:Hat open.wav
230,192,69026,128,0,69487:0:0:0:0:
281,192,69026,1,0,0:0:0:0:
486,192,69026,1,0,0:0:0:0:
25,192,69179,1,2,0:0:0:0:
179,192,69179,128,0,69487:0:0:0:0:
332,192,69179,1,0,0:0:0:0:
384,192,69179,1,0,0:0:0:0:
76,192,69333,1,0,0:0:0:70:Hat open.wav
486,192,69333,1,0,0:0:0:0:
25,192,69487,1,2,0:0:0:0:
128,192,69487,1,0,0:0:0:0:
332,192,69487,1,0,0:0:0:0:
384,192,69487,1,0,0:0:0:0:
76,192,69641,128,8,69795:0:0:0:0:
179,192,69641,1,0,0:0:0:70:Hat open.wav
230,192,69641,128,0,69795:0:0:0:0:
435,192,69641,1,0,0:0:0:0:
486,192,69641,1,0,0:0:0:0:
281,192,69795,1,0,0:0:0:0:
384,192,69795,1,0,0:0:0:0:
25,192,69949,1,2,0:0:0:0:
128,192,69949,128,0,70256:0:0:0:70:Hat open.wav
435,192,69949,1,0,0:0:0:0:
486,192,69949,1,0,0:0:0:0:
76,192,70102,1,2,0:0:0:0:
230,192,70102,1,0,0:0:0:0:
281,192,70102,128,0,70256:0:0:0:0:
384,192,70102,1,0,0:0:0:0:
25,192,70256,1,8,0:0:0:0:
179,192,70256,1,0,0:0:0:70:Hat open.wav
384,192,70256,1,0,0:0:0:0:
435,192,70256,1,0,0:0:0:0:
486,192,70256,1,0,0:0:0:0:
128,192,70410,1,2,0:0:0:0:
230,192,70410,1,4,0:0:0:0:
332,192,70410,128,0,70718:0:0:0:0:
486,192,70410,128,0,70718:0:0:0:0:
25,192,70564,1,0,0:0:0:0:
281,192,70564,1,0,0:0:0:0:
76,192,70718,1,2,0:0:0:0:
179,192,70718,1,0,0:0:0:0:
384,192,70718,1,0,0:0:0:0:
435,192,70718,1,0,0:0:0:0:
25,192,70872,1,8,0:0:0:0:
128,192,70872,1,0,0:0:0:70:Hat open.wav
230,192,70872,128,0,71179:0:0:0:0:
384,192,70872,1,0,0:0:0:0:
435,192,70872,128,0,71179:0:0:0:0:
281,192,71026,1,0,0:0:0:0:
486,192,71026,1,0,0:0:0:0:
25,192,71179,128,2,71487:0:0:0:0:
128,192,71179,1,0,0:0:0:70:Hat open.wav
332,192,71179,1,0,0:0:0:0:
384,192,71179,1,0,0:0:0:0:
76,192,71333,1,2,0:0:0:0:
179,192,71333,1,0,0:0:0:0:
384,192,71333,1,0,0:0:0:0:
435,192,71333,1,0,0:0:0:0:
128,192,71487,1,8,0:0:0:0:
230,192,71487,128,0,71949:0:0:0:70:Hat open.wav
281,192,71487,1,0,0:0:0:0:
435,192,71487,128,0,71949:0:0:0:0:
486,192,71487,1,0,0:0:0:0:
25,192,71641,128,2,72102:0:0:0:0:
76,192,71641,1,0,0:0:0:0:
332,192,71641,1,0,0:0:0:0:
384,192,71641,1,0,0:0:0:0:
332,192,71795,128,0,72256:0:0:0:70:Hat open.wav
486,192,71795,128,0,72256:0:0:0:0:
128,192,71949,1,2,0:0:0:0:
179,192,71949,1,0,0:0:0:0:
281,192,71949,1,0,0:0:0:0:
384,192,71949,1,0,0:0:0:0:
76,192,72102,128,8,72564:0:0:0:0:
128,192,72102,1,0,0:0:0:70:Hat open.wav
230,192,72102,128,0,72564:0:0:0:0:
384,192,72102,1,0,0:0:0:0:
435,192,72102,1,0,0:0:0:0:
25,192,72256,1,2,0:0:0:0:
128,192,72256,1,0,0:0:0:0:
179,192,72256,1,0,0:0:0:0:
281,192,72256,1,0,0:0:0:0:
384,192,72410,128,0,72564:0:0:0:50:Tom1.wav
435,192,72410,1,0,0:0:0:0:
486,192,72410,1,0,0:0:0:0:
25,192,72564,1,8,0:0:0:0:
128,192,72564,1,0,0:0:0:0:
179,192,72564,1,0,0:0:0:0:
332,192,72641,1,8,0:0:0:0:
384,192,72641,1,0,0:0:0:0:
486,192,72641,1,0,0:0:0:0:
25,192,72718,1,8,0:0:0:0:
128,192,72718,1,0,0:0:0:0:
179,192,72718,1,0,0:0:0:0:
25,192,72872,128,2,73179:0:0:0:0:
76,192,72872,1,4,0:0:0:0:
179,192,72872,128,0,73026:0:0:0:0:
230,192,72872,1,0,0:0:0:0:
128,192,73179,1,2,0:0:0:0:
179,192,73179,128,0,73487:0:0:0:0:
435,192,73179,1,0,0:0:0:0:
486,192,73179,1,0,0:0:0:0:
25,192,73333,1,8,0:0:0:0:
76,192,73333,128,0,73487:0:0:0:0:
281,192,73333,1,0,0:0:0:0:
332,192,73333,1,0,0:0:0:0:
384,192,73333,1,0,0:0:0:0:
230,192,73487,1,0,0:0:0:70:Hat open.wav
435,192,73487,1,0,0:0:0:0:
25,192,73641,1,2,0:0:0:0:
128,192,73641,128,0,74102:0:0:0:0:
332,192,73641,1,0,0:0:0:0:
486,192,73641,128,0,73949:0:0:0:0:
179,192,73795,1,0,0:0:0:70:Hat open.wav
281,192,73795,1,0,0:0:0:0:
25,192,73949,1,2,0:0:0:0:
230,192,73949,1,8,0:0:0:0:
332,192,73949,1,0,0:0:0:0:
384,192,73949,1,0,0:0:0:0:
435,192,73949,128,0,74410:0:0:0:0:
76,192,74102,128,0,74410:0:0:0:70:Hat open.wav
281,192,74102,1,0,0:0:0:0:
128,192,74256,1,2,0:0:0:0:
230,192,74256,1,0,0:0:0:0:
332,192,74256,1,0,0:0:0:0:
384,192,74256,1,0,0:0:0:0:
25,192,74410,1,0,0:0:0:70:Hat open.wav
281,192,74410,1,0,0:0:0:0:
486,192,74410,128,0,74718:0:0:0:0:
76,192,74564,1,2,0:0:0:0:
128,192,74564,1,8,0:0:0:0:
332,192,74564,1,0,0:0:0:0:
384,192,74564,128,0,74718:0:0:0:0:
435,192,74564,1,0,0:0:0:0:
179,192,74718,1,0,0:0:0:70:Hat open.wav
281,192,74718,1,0,0:0:0:0:
25,192,74872,128,2,75179:0:0:0:0:
76,192,74872,1,0,0:0:0:0:
332,192,74872,1,0,0:0:0:0:
384,192,74872,1,0,0:0:0:0:
128,192,75026,128,0,75179:0:0:0:70:Hat open.wav
179,192,75026,1,0,0:0:0:0:
435,192,75026,1,0,0:0:0:0:
486,192,75026,1,0,0:0:0:0:
76,192,75179,1,2,0:0:0:0:
230,192,75179,1,8,0:0:0:0:
281,192,75179,1,0,0:0:0:0:
384,192,75179,1,0,0:0:0:0:
486,192,75179,1,0,0:0:0:0:
76,192,75333,128,2,75641:0:0:0:0:
230,192,75333,1,4,0:0:0:0:
281,192,75333,1,0,0:0:0:50:Crash 2.wav
435,192,75333,128,0,75641:0:0:0:0:
25,192,75641,1,2,0:0:0:0:
179,192,75641,1,0,0:0:0:0:
332,192,75641,1,0,0:0:0:0:
486,192,75641,1,0,0:0:0:0:
76,192,75795,1,8,0:0:0:0:
128,192,75795,1,0,0:0:0:70:Hat open.wav
281,192,75795,1,0,0:0:0:0:
384,192,75795,128,0,76410:0:0:0:0:
435,192,75795,1,0,0:0:0:0:
25,192,75949,1,0,0:0:0:0:
230,192,75949,1,0,0:0:0:0:
128,192,76102,1,2,0:0:0:0:
179,192,76102,128,0,76410:0:0:0:70:Hat open.wav
435,192,76102,1,0,0:0:0:0:
486,192,76102,1,0,0:0:0:0:
25,192,76256,1,0,0:0:0:0:
281,192,76256,1,0,0:0:0:0:
25,192,76410,1,8,0:0:0:0:
76,192,76410,128,2,76718:0:0:0:0:
230,192,76410,1,0,0:0:0:50:Crash 2.wav
332,192,76410,128,0,76718:0:0:0:0:
486,192,76410,1,0,0:0:0:0:
128,192,76564,128,0,76718:0:0:0:0:
384,192,76564,128,0,76718:0:0:0:0:
179,192,76718,1,2,0:0:0:0:
230,192,76718,128,0,76949:0:0:0:70:Hat open.wav
435,192,76718,1,0,0:0:0:0:
486,192,76718,1,0,0:0:0:0:
76,192,76795,1,0,0:0:0:0:
332,192,76795,128,0,77102:0:0:0:0:
128,192,76872,1,8,0:0:0:0:
179,192,76872,128,0,77102:0:0:0:0:
25,192,76949,1,8,0:0:0:0:
281,192,76949,128,0,77256:0:0:0:0:
486,192,76949,128,0,77179:0:0:0:0:
76,192,77026,1,2,0:0:0:0:
128,192,77026,128,8,77256:0:0:0:0:
230,192,77102,128,0,77410:0:0:0:0:
435,192,77102,128,0,77333:0:0:0:0:
25,192,77179,1,8,0:0:0:0:
76,192,77179,128,0,77410:0:0:0:0:
179,192,77256,128,8,77487:0:0:0:0:
384,192,77256,128,0,77487:0:0:0:0:
25,192,77333,128,2,77564:0:0:0:0:
486,192,77333,1,8,0:0:0:0:
128,192,77410,128,8,77718:0:0:0:0:
332,192,77410,128,0,77641:0:0:0:0:
435,192,77487,1,0,0:0:0:50:Tom1.wav
486,192,77487,128,0,77795:0:0:0:0:
76,192,77564,128,0,77795:0:0:0:50:Tom1.wav
281,192,77564,128,0,77795:0:0:0:0:
384,192,77641,1,2,0:0:0:0:
435,192,77641,128,0,77795:0:0:0:50:Tom2.wav
25,192,77718,128,0,77795:0:0:0:50:Tom2.wav
230,192,77718,128,0,77795:0:0:0:0:
128,192,77795,1,2,0:0:0:0:
179,192,77795,1,0,0:0:0:50:Crash 2.wav
332,192,77795,1,0,0:0:0:0:
384,192,77795,1,0,0:0:0:0:
128,192,78102,1,2,0:0:0:0:
179,192,78102,1,0,0:0:0:0:
384,192,78102,1,0,0:0:0:0:
435,192,78102,1,0,0:0:0:0:
25,192,78256,1,8,0:0:0:0:
76,192,78256,1,0,0:0:0:0:
281,192,78256,1,0,0:0:0:0:
332,192,78256,1,0,0:0:0:0:
486,192,78256,1,0,0:0:0:0:
128,192,78410,1,0,0:0:0:70:Hat open.wav
179,192,78410,1,0,0:0:0:0:
76,192,78564,1,2,0:0:0:0:
230,192,78564,1,0,0:0:0:0:
384,192,78564,1,0,0:0:0:0:
435,192,78564,1,0,0:0:0:0:
281,192,78718,1,0,0:0:0:70:Hat open.wav
332,192,78718,1,0,0:0:0:0:
25,192,78872,1,2,0:0:0:0:
128,192,78872,1,8,0:0:0:0:
179,192,78872,1,0,0:0:0:0:
384,192,78872,1,0,0:0:0:0:
486,192,78872,1,0,0:0:0:0:
76,192,79026,1,0,0:0:0:70:Hat open.wav
332,192,79026,1,0,0:0:0:0:
128,192,79179,1,2,0:0:0:0:
179,192,79179,1,0,0:0:0:0:
435,192,79179,1,0,0:0:0:0:
486,192,79179,1,0,0:0:0:0:
230,192,79333,1,0,0:0:0:70:Hat open.wav
384,192,79333,1,0,0:0:0:0:
25,192,79487,1,2,0:0:0:0:
76,192,79487,1,8,0:0:0:0:
281,192,79487,1,0,0:0:0:0:
332,192,79487,1,0,0:0:0:0:
435,192,79487,1,0,0:0:0:0:
128,192,79641,1,0,0:0:0:70:Hat open.wav
230,192,79641,1,0,0:0:0:0:
25,192,79795,1,2,0:0:0:0:
76,192,79795,1,0,0:0:0:0:
384,192,79795,1,0,0:0:0:0:
486,192,79795,1,0,0:0:0:0:
179,192,79949,1,0,0:0:0:70:Hat open.wav
332,192,79949,1,0,0:0:0:0:
76,192,80102,1,2,0:0:0:0:
128,192,80102,1,8,0:0:0:0:
281,192,80102,1,0,0:0:0:0:
435,192,80102,1,0,0:0:0:0:
486,192,80102,1,0,0:0:0:0:
25,192,80256,1,2,0:0:0:0:
179,192,80256,1,4,0:0:0:0:
230,192,80256,1,0,0:0:0:0:
332,192,80256,1,0,0:0:0:0:
486,192,80256,1,0,0:0:0:0:
76,192,80564,1,0,0:0:0:0:
281,192,80564,1,0,0:0:0:0:
435,192,80564,1,0,0:0:0:0:
25,192,80718,1,2,0:0:0:0:
128,192,80718,1,8,0:0:0:0:
179,192,80718,1,0,0:0:0:0:
332,192,80718,1,0,0:0:0:0:
486,192,80718,1,0,0:0:0:0:
230,192,80872,1,0,0:0:0:70:Hat open.wav
281,192,80872,1,0,0:0:0:0:
76,192,81026,1,2,0:0:0:0:
128,192,81026,1,0,0:0:0:0:
384,192,81026,1,0,0:0:0:0:
486,192,81026,1,0,0:0:0:0:
179,192,81179,1,0,0:0:0:70:Hat open.wav
332,192,81179,1,0,0:0:0:0:
25,192,81333,1,2,0:0:0:0:
230,192,81333,1,8,0:0:0:0:
281,192,81333,1,0,0:0:0:0:
435,192,81333,1,0,0:0:0:0:
486,192,81333,1,0,0:0:0:0:
76,192,81487,1,0,0:0:0:70:Hat open.wav
128,192,81487,1,0,0:0:0:0:
179,192,81641,1,2,0:0:0:0:
230,192,81641,1,0,0:0:0:0:
384,192,81641,1,0,0:0:0:0:
486,192,81641,1,0,0:0:0:0:
25,192,81795,1,0,0:0:0:70:Hat open.wav
332,192,81795,1,0,0:0:0:0:
76,192,81949,1,2,0:0:0:0:
128,192,81949,1,8,0:0:0:0:
281,192,81949,1,0,0:0:0:0:
435,192,81949,1,0,0:0:0:0:
486,192,81949,1,0,0:0:0:0:
179,192,82102,1,0,0:0:0:70:Hat open.wav
384,192,82102,1,0,0:0:0:0:
25,192,82256,1,2,0:0:0:0:
128,192,82256,1,0,0:0:0:50:Crash 2.wav
332,192,82256,1,0,0:0:0:0:
486,192,82256,1,0,0:0:0:0:
76,192,82410,1,8,0:0:0:0:
230,192,82410,1,0,0:0:0:0:
281,192,82410,1,0,0:0:0:0:
384,192,82410,1,0,0:0:0:0:
435,192,82410,1,0,0:0:0:0:
25,192,82564,1,8,0:0:0:0:
128,192,82564,1,0,0:0:0:0:
179,192,82564,1,0,0:0:0:0:
332,192,82641,1,8,0:0:0:0:
435,192,82641,1,0,0:0:0:0:
486,192,82641,1,0,0:0:0:0:
25,192,82718,1,8,0:0:0:0:
76,192,82718,1,0,0:0:0:0:
179,192,82718,1,0,0:0:0:0:
332,192,82795,1,8,0:0:0:0:
384,192,82795,1,0,0:0:0:0:
486,192,82795,1,0,0:0:0:0:
128,192,82872,128,2,83179:0:0:0:0:
281,192,82872,128,4,83179:0:0:0:0:
435,192,82872,128,0,83179:0:0:0:0:
25,192,83179,1,8,0:0:0:0:
332,192,83179,1,0,0:0:0:0:
384,192,83179,1,0,0:0:0:0:
128,192,83256,1,0,0:0:0:0:
179,192,83256,1,0,0:0:0:0:
486,192,83256,1,0,0:0:0:0:
76,192,83333,128,2,83641:0:0:0:0:
281,192,83333,128,0,83641:0:0:0:50:Crash 2.wav
435,192,83333,128,0,83641:0:0:0:0:
179,192,83641,1,2,0:0:0:0:
332,192,83641,1,0,0:0:0:0:
25,192,83795,1,8,0:0:0:0:
128,192,83795,128,0,84102:0:0:0:50:Crash 2.wav
230,192,83795,1,0,0:0:0:0:
281,192,83795,1,0,0:0:0:0:
384,192,83795,128,0,84102:0:0:0:0:
486,192,83795,1,0,0:0:0:0:
179,192,83949,1,0,0:0:0:50:Tom1.wav
332,192,83949,1,0,0:0:0:0:
76,192,84026,1,0,0:0:0:50:Tom1.wav
435,192,84026,1,0,0:0:0:0:
25,192,84102,128,2,84410:0:0:0:0:
230,192,84102,128,4,84410:0:0:0:0:
281,192,84102,128,0,84410:0:0:0:0:
486,192,84102,128,0,84410:0:0:0:0:
128,192,84256,1,0,0:0:0:0:
384,192,84256,1,0,0:0:0:0:
76,192,84410,1,8,0:0:0:0:
179,192,84410,1,0,0:0:0:0:
332,192,84410,1,0,0:0:0:0:
435,192,84410,1,0,0:0:0:0:
76,192,84564,1,2,0:0:0:0:
128,192,84564,1,0,0:0:0:50:Crash 2.wav
384,192,84564,1,0,0:0:0:0:
435,192,84564,1,0,0:0:0:0:
179,192,84718,128,0,84872:0:0:0:0:
332,192,84718,128,0,84872:0:0:0:0:
486,192,84718,128,0,84872:0:0:0:0:
128,192,84795,128,0,84949:0:0:0:0:
281,192,84795,128,0,84949:0:0:0:0:
435,192,84795,128,0,84949:0:0:0:0:
76,192,84872,128,2,85026:0:0:0:0:
230,192,84872,128,0,85026:0:0:0:0:
384,192,84872,128,0,85026:0:0:0:0:
25,192,84949,128,0,85102:0:0:0:0:
179,192,84949,128,0,85102:0:0:0:0:
332,192,84949,128,0,85102:0:0:0:0:
128,192,85026,1,8,0:0:0:0:
281,192,85026,1,0,0:0:0:50:Crash 2.wav
435,192,85026,1,0,0:0:0:0:
486,192,85026,1,0,0:0:0:0:
128,192,85179,1,0,0:0:0:50:Tom3.wav
281,192,85179,1,0,0:0:0:0:
435,192,85179,1,0,0:0:0:0:
486,192,85179,1,0,0:0:0:0:
25,192,85333,1,8,0:0:0:0:
76,192,85333,1,0,0:0:0:50:Crash 2.wav
230,192,85333,1,0,0:0:0:0:
332,192,85333,1,0,0:0:0:0:
384,192,85333,1,0,0:0:0:0:
25,192,85487,1,2,0:0:0:0:
76,192,85487,1,0,0:0:0:0:
230,192,85487,1,0,0:0:0:0:
332,192,85487,1,0,0:0:0:0:
25,192,85641,1,2,0:0:0:0:
76,192,85641,1,0,0:0:0:0:
230,192,85641,1,0,0:0:0:0:
332,192,85641,1,0,0:0:0:0:
128,192,85795,1,8,0:0:0:0:
179,192,85795,1,4,0:0:0:0:
281,192,85795,1,0,0:0:0:0:
435,192,85795,1,0,0:0:0:0:
486,192,85795,1,0,0:0:0:0:
128,192,85949,1,2,0:0:0:0:
281,192,85949,1,0,0:0:0:0:
435,192,85949,1,0,0:0:0:0:
486,192,85949,1,0,0:0:0:0:
128,192,86102,1,2,0:0:0:0:
281,192,86102,1,0,0:0:0:0:
435,192,86102,1,0,0:0:0:0:
486,192,86102,1,0,0:0:0:0:
25,192,86256,1,8,0:0:0:0:
76,192,86256,1,0,0:0:0:50:Crash 2.wav
179,192,86256,1,0,0:0:0:0:
332,192,86256,1,0,0:0:0:0:
384,192,86256,1,0,0:0:0:0:
25,192,86410,1,2,0:0:0:0:
76,192,86410,1,0,0:0:0:0:
179,192,86410,1,0,0:0:0:0:
332,192,86487,1,0,0:0:0:0:
435,192,86487,1,0,0:0:0:0:
486,192,86487,1,0,0:0:0:0:
25,192,86564,1,8,0:0:0:0:
128,192,86564,1,0,0:0:0:0:
179,192,86564,1,0,0:0:0:0:
230,192,86564,1,0,0:0:0:0:
281,192,86641,1,8,0:0:0:0:
332,192,86641,1,0,0:0:0:0:
384,192,86641,1,0,0:0:0:0:
486,192,86641,1,0,0:0:0:0:
25,192,86718,1,2,0:0:0:0:
76,192,86718,1,0,0:0:0:0:
230,192,86718,1,0,0:0:0:0:
281,192,86795,1,2,0:0:0:0:
435,192,86795,1,0,0:0:0:0:
486,192,86795,1,0,0:0:0:0:
25,192,86872,1,0,0:0:0:50:Tom1.wav
128,192,86872,1,0,0:0:0:0:
179,192,86872,1,0,0:0:0:0:
332,192,86872,1,0,0:0:0:0:
76,192,86949,1,0,0:0:0:50:Tom1.wav
384,192,86949,1,0,0:0:0:0:
435,192,86949,1,0,0:0:0:0:
25,192,87026,1,2,0:0:0:0:
281,192,87026,1,0,0:0:0:0:
332,192,87026,1,0,0:0:0:0:
230,192,87102,1,2,0:0:0:0:
435,192,87102,1,0,0:0:0:0:
486,192,87102,1,0,0:0:0:0:
25,192,87179,1,0,0:0:0:50:Tom2.wav
76,192,87179,1,0,0:0:0:0:
179,192,87179,1,0,0:0:0:0:
230,192,87256,1,0,0:0:0:50:Tom2.wav
384,192,87256,1,0,0:0:0:0:
486,192,87256,1,0,0:0:0:0:
25,192,87333,1,2,0:0:0:0:
76,192,87333,1,0,0:0:0:0:
281,192,87333,1,0,0:0:0:0:
332,192,87410,1,2,0:0:0:0:
435,192,87410,1,0,0:0:0:0:
486,192,87410,1,0,0:0:0:0:
25,192,87487,1,8,0:0:0:0:
76,192,87487,1,0,0:0:0:0:
179,192,87487,1,0,0:0:0:0:
230,192,87487,1,0,0:0:0:0:
76,192,87641,1,2,0:0:0:0:
128,192,87641,1,4,0:0:0:0:
281,192,87641,1,0,0:0:0:50:Crash 2.wav
384,192,87641,1,0,0:0:0:0:
435,192,87641,1,0,0:0:0:0:
486,192,87641,1,0,0:0:0:0:
76,192,87949,1,2,0:0:0:0:
128,192,87949,1,0,0:0:0:0:
332,192,87949,1,0,0:0:0:0:
384,192,87949,1,0,0:0:0:0:
25,192,88102,1,8,0:0:0:0:
179,192,88102,1,0,0:0:0:70:Hat open.wav
230,192,88102,1,0,0:0:0:0:
435,192,88102,1,0,0:0:0:0:
486,192,88102,1,0,0:0:0:0:
332,192,88256,1,0,0:0:0:0:
384,192,88256,1,0,0:0:0:0:
76,192,88410,1,2,0:0:0:0:
128,192,88410,1,0,0:0:0:70:Hat open.wav
281,192,88410,1,0,0:0:0:0:
435,192,88410,1,0,0:0:0:0:
25,192,88564,1,2,0:0:0:0:
179,192,88564,1,0,0:0:0:0:
230,192,88564,1,0,0:0:0:0:
332,192,88564,1,0,0:0:0:0:
25,192,88718,1,8,0:0:0:0:
128,192,88718,1,0,0:0:0:70:Hat open.wav
281,192,88718,1,0,0:0:0:0:
384,192,88718,1,0,0:0:0:0:
486,192,88718,1,0,0:0:0:0:
128,192,88872,1,2,0:0:0:0:
179,192,88872,1,0,0:0:0:0:
332,192,88872,1,0,0:0:0:0:
435,192,88872,1,0,0:0:0:0:
25,192,89026,1,0,0:0:0:70:Hat open.wav
230,192,89026,1,0,0:0:0:0:
76,192,89179,1,2,0:0:0:0:
128,192,89179,1,0,0:0:0:0:
281,192,89179,1,0,0:0:0:0:
384,192,89179,1,0,0:0:0:0:
76,192,89333,1,8,0:0:0:0:
179,192,89333,1,0,0:0:0:70:Hat open.wav
230,192,89333,1,0,0:0:0:0:
435,192,89333,1,0,0:0:0:0:
486,192,89333,1,0,0:0:0:0:
281,192,89487,1,0,0:0:0:0:
384,192,89487,1,0,0:0:0:0:
25,192,89641,1,2,0:0:0:0:
128,192,89641,1,0,0:0:0:70:Hat open.wav
435,192,89641,1,0,0:0:0:0:
486,192,89641,1,0,0:0:0:0:
76,192,89795,1,2,0:0:0:0:
179,192,89795,1,0,0:0:0:0:
332,192,89795,1,0,0:0:0:0:
384,192,89795,1,0,0:0:0:0:
25,192,89949,1,8,0:0:0:0:
76,192,89949,1,0,0:0:0:70:Hat open.wav
230,192,89949,1,0,0:0:0:0:
384,192,89949,1,0,0:0:0:0:
435,192,89949,1,0,0:0:0:0:
25,192,90102,1,2,0:0:0:0:
179,192,90102,1,4,0:0:0:0:
281,192,90102,1,0,0:0:0:0:
332,192,90102,1,0,0:0:0:0:
486,192,90102,1,0,0:0:0:0:
76,192,90410,1,2,0:0:0:0:
230,192,90410,1,0,0:0:0:0:
435,192,90410,1,0,0:0:0:0:
25,192,90564,1,8,0:0:0:0:
179,192,90564,1,0,0:0:0:70:Hat open.wav
332,192,90564,1,0,0:0:0:0:
384,192,90564,1,0,0:0:0:0:
486,192,90564,1,0,0:0:0:0:
230,192,90718,1,0,0:0:0:0:
281,192,90718,1,0,0:0:0:0:
25,192,90872,1,2,0:0:0:0:
128,192,90872,1,0,0:0:0:70:Hat open.wav
384,192,90872,1,0,0:0:0:0:
435,192,90872,1,0,0:0:0:0:
128,192,91026,1,2,0:0:0:0:
179,192,91026,1,0,0:0:0:0:
332,192,91026,1,0,0:0:0:0:
384,192,91026,1,0,0:0:0:0:
25,192,91179,1,8,0:0:0:0:
76,192,91179,128,0,91641:0:0:0:70:Hat open.wav
230,192,91179,1,0,0:0:0:0:
281,192,91179,128,0,91641:0:0:0:0:
486,192,91179,1,0,0:0:0:0:
128,192,91333,1,2,0:0:0:0:
179,192,91333,1,0,0:0:0:0:
435,192,91333,1,0,0:0:0:0:
486,192,91333,128,0,91795:0:0:0:0:
25,192,91487,128,0,91949:0:0:0:70:Hat open.wav
179,192,91487,128,0,91949:0:0:0:0:
128,192,91641,1,2,0:0:0:0:
230,192,91641,1,0,0:0:0:0:
332,192,91641,1,0,0:0:0:0:
384,192,91641,1,0,0:0:0:0:
76,192,91795,1,8,0:0:0:0:
128,192,91795,1,0,0:0:0:70:Hat open.wav
281,192,91795,128,0,92102:0:0:0:0:
384,192,91795,1,0,0:0:0:0:
435,192,91795,128,0,92102:0:0:0:0:
76,192,91949,1,2,0:0:0:0:
230,192,91949,1,0,0:0:0:0:
332,192,91949,1,0,0:0:0:0:
486,192,91949,1,0,0:0:0:0:
25,192,92102,1,8,0:0:0:0:
76,192,92102,1,0,0:0:0:0:
128,192,92102,128,0,92256:0:0:0:0:
179,192,92102,128,0,92256:0:0:0:0:
332,192,92179,1,8,0:0:0:0:
384,192,92179,1,0,0:0:0:0:
435,192,92179,1,0,0:0:0:0:
486,192,92179,1,0,0:0:0:0:
25,192,92256,1,0,0:0:0:50:Tom2.wav
76,192,92256,1,0,0:0:0:0:
281,192,92256,1,0,0:0:0:0:
128,192,92333,1,0,0:0:0:50:Tom2.wav
179,192,92333,1,0,0:0:0:0:
332,192,92410,1,8,0:0:0:0:
384,192,92410,1,0,0:0:0:0:
486,192,92410,1,0,0:0:0:0:
25,192,92487,1,0,0:0:0:0:
76,192,92487,1,0,0:0:0:0:
230,192,92487,1,0,0:0:0:0:
128,192,92564,1,2,0:0:0:0:
179,192,92564,128,4,92872:0:0:0:0:
332,192,92564,1,0,0:0:0:0:
384,192,92564,128,0,92872:0:0:0:0:
486,192,92564,1,0,0:0:0:0:
128,192,92872,128,0,93179:0:0:0:0:
435,192,92872,128,0,93179:0:0:0:0:
25,192,93026,128,8,93179:0:0:0:0:
179,192,93026,1,2,0:0:0:0:
230,192,93026,1,0,0:0:0:0:
384,192,93026,128,0,93179:0:0:0:0:
486,192,93026,1,0,0:0:0:0:
281,192,93179,1,0,0:0:0:70:Hat open.wav
332,192,93179,1,0,0:0:0:0:
25,192,93333,128,2,93487:0:0:0:0:
76,192,93333,1,0,0:0:0:0:
384,192,93333,128,0,93487:0:0:0:0:
435,192,93333,1,0,0:0:0:0:
179,192,93487,1,0,0:0:0:70:Hat open.wav
332,192,93487,1,0,0:0:0:0:
25,192,93641,1,2,0:0:0:0:
76,192,93641,128,8,94102:0:0:0:0:
230,192,93641,1,0,0:0:0:0:
281,192,93641,1,0,0:0:0:0:
486,192,93641,128,0,94102:0:0:0:0:
384,192,93795,128,0,94102:0:0:0:70:Hat open.wav
435,192,93795,128,0,94102:0:0:0:0:
25,192,93949,1,2,0:0:0:0:
128,192,93949,1,0,0:0:0:0:
281,192,93949,1,0,0:0:0:0:
332,192,93949,1,0,0:0:0:0:
179,192,94102,1,0,0:0:0:70:Hat open.wav
230,192,94102,1,0,0:0:0:0:
76,192,94256,1,2,0:0:0:0:
128,192,94256,1,8,0:0:0:0:
281,192,94256,128,0,94564:0:0:0:0:
435,192,94256,128,0,94564:0:0:0:0:
25,192,94410,1,0,0:0:0:70:Hat open.wav
486,192,94410,1,0,0:0:0:0:
128,192,94564,1,2,0:0:0:0:
230,192,94564,128,0,94718:0:0:0:0:
332,192,94564,1,0,0:0:0:0:
384,192,94564,128,0,94718:0:0:0:0:
25,192,94718,128,0,94872:0:0:0:70:Hat open.wav
179,192,94718,128,0,94872:0:0:0:0:
128,192,94872,1,2,0:0:0:0:
281,192,94872,1,8,0:0:0:0:
332,192,94872,1,0,0:0:0:0:
435,192,94872,1,0,0:0:0:0:
486,192,94872,1,0,0:0:0:0:
25,192,95026,1,2,0:0:0:0:
76,192,95026,128,4,95333:0:0:0:0:
179,192,95026,1,0,0:0:0:0:
230,192,95026,128,0,95333:0:0:0:0:
384,192,95026,1,0,0:0:0:0:
179,192,95487,1,2,0:0:0:0:
230,192,95487,128,8,95795:0:0:0:0:
435,192,95487,1,0,0:0:0:70:Hat open.wav
486,192,95487,128,0,96102:0:0:0:0:
25,192,95641,1,0,0:0:0:0:
332,192,95641,1,0,0:0:0:0:
128,192,95795,128,2,96102:0:0:0:0:
179,192,95795,1,0,0:0:0:70:Hat open.wav
384,192,95795,1,0,0:0:0:0:
435,192,95795,1,0,0:0:0:0:
76,192,95949,1,0,0:0:0:0:
332,192,95949,1,0,0:0:0:0:
25,192,96102,128,2,96410:0:0:0:0:
179,192,96102,1,8,0:0:0:0:
230,192,96102,1,0,0:0:0:70:Hat open.wav
281,192,96102,128,0,96410:0:0:0:0:
435,192,96102,1,0,0:0:0:0:
332,192,96256,1,0,0:0:0:0:
384,192,96256,1,0,0:0:0:0:
76,192,96410,128,2,96718:0:0:0:0:
179,192,96410,128,0,96872:0:0:0:70:Hat open.wav
435,192,96410,1,0,0:0:0:0:
486,192,96410,1,0,0:0:0:0:
25,192,96564,1,8,0:0:0:0:
128,192,96564,1,0,0:0:0:0:
230,192,96564,1,0,0:0:0:0:
332,192,96564,1,0,0:0:0:0:
384,192,96564,128,0,97026:0:0:0:0:
230,192,96718,1,0,0:0:0:50:Tom1.wav
281,192,96718,1,0,0:0:0:0:
435,192,96718,1,0,0:0:0:0:
486,192,96718,128,0,97179:0:0:0:0:
25,192,96872,128,8,97333:0:0:0:0:
76,192,96872,1,0,0:0:0:0:
281,192,96949,1,8,0:0:0:0:
332,192,96949,1,0,0:0:0:0:
435,192,96949,1,0,0:0:0:0:
76,192,97026,1,8,0:0:0:0:
128,192,97026,128,0,97487:0:0:0:0:
230,192,97026,1,0,0:0:0:0:
179,192,97179,1,0,0:0:0:50:Tom2.wav
281,192,97179,1,0,0:0:0:0:
332,192,97179,128,0,97487:0:0:0:0:
230,192,97333,1,0,0:0:0:50:Tom3.wav
384,192,97333,1,0,0:0:0:0:
435,192,97333,128,0,97487:0:0:0:0:
25,192,97487,1,2,0:0:0:0:
76,192,97487,1,4,0:0:0:0:
179,192,97487,1,0,0:0:0:0:
486,192,97487,1,0,0:0:0:0:
128,192,97795,1,2,0:0:0:0:
179,192,97795,1,0,0:0:0:0:
384,192,97795,1,0,0:0:0:0:
486,192,97795,1,0,0:0:0:0:
25,192,97949,1,8,0:0:0:0:
76,192,97949,1,0,0:0:0:50:Crash 2.wav
281,192,97949,1,0,0:0:0:0:
384,192,97949,1,0,0:0:0:0:
435,192,97949,1,0,0:0:0:0:
76,192,98102,1,2,0:0:0:0:
128,192,98102,1,0,0:0:0:0:
332,192,98102,1,0,0:0:0:0:
486,192,98102,1,0,0:0:0:0:
25,192,98256,1,8,0:0:0:0:
179,192,98256,1,0,0:0:0:50:Crash 2.wav
230,192,98256,1,0,0:0:0:0:
384,192,98256,1,0,0:0:0:0:
435,192,98256,1,0,0:0:0:0:
25,192,98410,1,2,0:0:0:0:
76,192,98410,1,0,0:0:0:0:
281,192,98410,1,0,0:0:0:0:
332,192,98410,1,0,0:0:0:0:
25,192,98564,1,8,0:0:0:0:
128,192,98564,1,0,0:0:0:50:Crash 2.wav
179,192,98564,1,0,0:0:0:0:
384,192,98564,1,0,0:0:0:0:
435,192,98564,1,0,0:0:0:0:
230,192,98718,1,2,0:0:0:0:
435,192,98718,1,0,0:0:0:0:
486,192,98718,1,0,0:0:0:0:
25,192,98795,1,2,0:0:0:0:
332,192,98795,1,0,0:0:0:0:
384,192,98795,1,0,0:0:0:0:
76,192,98872,1,8,0:0:0:0:
128,192,98872,1,0,0:0:0:50:Crash 2.wav
179,192,98872,1,0,0:0:0:0:
230,192,98872,1,0,0:0:0:0:
281,192,98872,1,0,0:0:0:0:
25,192,99026,1,2,0:0:0:0:
332,192,99026,1,0,0:0:0:0:
384,192,99026,1,0,0:0:0:0:
486,192,99026,1,0,0:0:0:0:
76,192,99179,1,8,0:0:0:0:
128,192,99179,1,0,0:0:0:50:Crash 2.wav
281,192,99179,1,0,0:0:0:0:
435,192,99179,1,0,0:0:0:0:
486,192,99179,1,0,0:0:0:0:
25,192,99333,1,2,0:0:0:0:
179,192,99333,1,0,0:0:0:0:
230,192,99333,1,0,0:0:0:0:
384,192,99333,1,0,0:0:0:0:
76,192,99487,1,8,0:0:0:0:
128,192,99487,1,0,0:0:0:50:Crash 2.wav
332,192,99487,1,0,0:0:0:0:
486,192,99487,1,0,0:0:0:0:
25,192,99641,1,2,0:0:0:0:
76,192,99641,1,0,0:0:0:0:
281,192,99641,1,0,0:0:0:0:
435,192,99641,1,0,0:0:0:0:
25,192,99795,1,8,0:0:0:0:
128,192,99795,1,0,0:0:0:50:Crash 2.wav
179,192,99795,1,0,0:0:0:0:
384,192,99795,1,0,0:0:0:0:
486,192,99795,1,0,0:0:0:0:
76,192,99949,1,2,0:0:0:0:
230,192,99949,1,4,0:0:0:0:
281,192,99949,1,0,0:0:0:0:
332,192,99949,1,0,0:0:0:0:
435,192,99949,1,0,0:0:0:0:
25,192,100256,1,2,0:0:0:0:
179,192,100256,1,0,0:0:0:0:
384,192,100256,1,0,0:0:0:0:
486,192,100256,1,0,0:0:0:0:
76,192,100410,1,8,0:0:0:0:
128,192,100410,1,0,0:0:0:50:Crash 2.wav
281,192,100410,1,0,0:0:0:0:
384,192,100410,1,0,0:0:0:0:
435,192,100410,1,0,0:0:0:0:
25,192,100564,1,2,0:0:0:0:
179,192,100564,1,0,0:0:0:0:
332,192,100564,1,0,0:0:0:0:
486,192,100564,1,0,0:0:0:0:
76,192,100718,1,8,0:0:0:0:
179,192,100718,1,0,0:0:0:50:Crash 2.wav
281,192,100718,1,0,0:0:0:0:
384,192,100718,1,0,0:0:0:0:
435,192,100718,1,0,0:0:0:0:
25,192,100872,1,2,0:0:0:0:
230,192,100872,1,0,0:0:0:0:
435,192,100872,1,0,0:0:0:0:
486,192,100872,1,0,0:0:0:0:
25,192,101026,1,8,0:0:0:0:
128,192,101026,1,0,0:0:0:50:Crash 2.wav
281,192,101026,1,0,0:0:0:0:
332,192,101026,1,0,0:0:0:0:
486,192,101026,1,0,0:0:0:0:
76,192,101179,1,2,0:0:0:0:
179,192,101179,1,0,0:0:0:0:
384,192,101179,1,0,0:0:0:0:
435,192,101179,1,0,0:0:0:0:
281,192,101256,1,2,0:0:0:0:
332,192,101256,1,0,0:0:0:0:
25,192,101333,128,0,101410:0:0:0:50:Tom1.wav
179,192,101333,1,0,0:0:0:0:
230,192,101333,1,0,0:0:0:0:
486,192,101333,128,0,101410:0:0:0:0:
76,192,101410,1,0,0:0:0:50:Tom1.wav
128,192,101410,1,0,0:0:0:0:
384,192,101410,1,0,0:0:0:0:
435,192,101410,1,0,0:0:0:0:
25,192,101487,1,2,0:0:0:0:
179,192,101487,128,0,101564:0:0:0:0:
332,192,101487,128,0,101564:0:0:0:0:
486,192,101487,1,0,0:0:0:0:
128,192,101564,1,2,0:0:0:0:
230,192,101564,1,0,0:0:0:0:
281,192,101564,1,0,0:0:0:0:
384,192,101564,1,0,0:0:0:0:
25,192,101641,1,8,0:0:0:0:
76,192,101641,128,0,101718:0:0:0:0:
179,192,101641,1,0,0:0:0:0:
332,192,101641,1,0,0:0:0:0:
435,192,101641,128,0,101718:0:0:0:0:
486,192,101641,1,0,0:0:0:0:
128,192,101718,1,0,0:0:0:50:Tom1.wav
230,192,101718,1,0,0:0:0:0:
281,192,101718,1,0,0:0:0:0:
384,192,101718,1,0,0:0:0:0:
25,192,101795,1,2,0:0:0:0:
179,192,101795,128,0,101872:0:0:0:0:
332,192,101795,128,0,101872:0:0:0:0:
486,192,101795,1,0,0:0:0:0:
76,192,101872,1,2,0:0:0:0:
230,192,101872,1,0,0:0:0:0:
281,192,101872,1,0,0:0:0:0:
435,192,101872,1,0,0:0:0:0:
25,192,101949,128,0,102026:0:0:0:50:Tom2.wav
179,192,101949,1,0,0:0:0:0:
332,192,101949,1,0,0:0:0:0:
486,192,101949,128,0,102026:0:0:0:0:
76,192,102026,1,0,0:0:0:50:Tom2.wav
128,192,102026,1,0,0:0:0:0:
384,192,102026,1,0,0:0:0:0:
435,192,102026,1,0,0:0:0:0:
179,192,102102,1,0,0:0:0:50:Tom3.wav
230,192,102102,128,0,102179:0:0:0:0:
281,192,102102,128,0,102179:0:0:0:0:
332,192,102102,1,0,0:0:0:0:
25,192,102179,1,0,0:0:0:50:Tom3.wav
128,192,102179,1,0,0:0:0:0:
384,192,102179,1,0,0:0:0:0:
486,192,102179,1,0,0:0:0:0:
76,192,102256,128,8,102410:0:0:0:0:
179,192,102256,1,0,0:0:0:0:
230,192,102256,1,0,0:0:0:0:
281,192,102256,1,0,0:0:0:0:
332,192,102256,1,0,0:0:0:0:
435,192,102256,128,0,102410:0:0:0:0:
25,192,102410,1,2,0:0:0:0:
128,192,102410,128,0,103102:0:0:0:50:Crash 2.wav
384,192,102410,128,0,103102:0:0:0:0:
486,192,102410,1,0,0:0:0:0:
76,192,102718,1,2,0:0:0:0:
179,192,102718,1,0,0:0:0:0:
332,192,102718,1,0,0:0:0:0:
435,192,102718,1,0,0:0:0:0:
25,192,102872,1,8,0:0:0:0:
76,192,102872,128,0,103102:0:0:0:70:Hat open.wav
230,192,102872,1,0,0:0:0:0:
281,192,102872,1,0,0:0:0:0:
435,192,102872,128,0,103102:0:0:0:0:
486,192,102872,1,0,0:0:0:0:
76,192,103179,1,2,0:0:0:0:
128,192,103179,128,0,103333:0:0:0:70:Hat open.wav
384,192,103179,128,0,103333:0:0:0:0:
435,192,103179,1,0,0:0:0:0:
25,192,103333,1,2,0:0:0:0:
76,192,103333,128,0,103487:0:0:0:0:
435,192,103333,128,0,103487:0:0:0:0:
486,192,103333,1,0,0:0:0:0:
25,192,103487,128,8,103641:0:0:0:0:
128,192,103487,1,0,0:0:0:70:Hat open.wav
230,192,103487,1,0,0:0:0:0:
281,192,103487,1,0,0:0:0:0:
384,192,103487,1,0,0:0:0:0:
486,192,103487,128,0,103641:0:0:0:0:
76,192,103641,128,2,104487:0:0:0:0:
179,192,103641,1,4,0:0:0:0:
332,192,103641,1,0,0:0:0:0:
435,192,103641,128,0,104487:0:0:0:0:
25,192,103949,1,2,0:0:0:0:
230,192,103949,1,0,0:0:0:0:
281,192,103949,1,0,0:0:0:0:
486,192,103949,1,0,0:0:0:0:
25,192,104102,1,8,0:0:0:0:
128,192,104102,128,0,104487:0:0:0:50:Crash 2.wav
179,192,104102,1,0,0:0:0:0:
332,192,104102,1,0,0:0:0:0:
384,192,104102,128,0,104487:0:0:0:0:
486,192,104102,1,0,0:0:0:0:
179,192,104256,1,2,0:0:0:0:
230,192,104256,1,0,0:0:0:0:
281,192,104256,1,0,0:0:0:0:
332,192,104256,1,0,0:0:0:0:
25,192,104410,1,0,0:0:0:50:Tom2.wav
230,192,104410,128,0,104564:0:0:0:0:
281,192,104410,128,0,104564:0:0:0:0:
486,192,104410,1,0,0:0:0:0:
179,192,104487,1,0,0:0:0:50:Tom2.wav
332,192,104487,1,0,0:0:0:0:
76,192,104564,1,0,0:0:0:50:Tom3.wav
128,192,104564,128,0,104718:0:0:0:0:
384,192,104564,128,0,104718:0:0:0:0:
435,192,104564,1,0,0:0:0:0:
25,192,104718,128,8,104872:0:0:0:0:
76,192,104718,1,0,0:0:0:50:Crash 2.wav
179,192,104718,1,0,0:0:0:0:
332,192,104718,1,0,0:0:0:0:
435,192,104718,1,0,0:0:0:0:
486,192,104718,128,0,104872:0:0:0:0:
128,192,104872,1,2,0:0:0:0:
230,192,104872,128,4,105179:0:0:0:0:
281,192,104872,128,0,105179:0:0:0:0:
384,192,104872,1,0,0:0:0:0:
128,192,105179,1,8,0:0:0:0:
332,192,105179,1,0,0:0:0:0:
384,192,105179,1,0,0:0:0:0:
25,192,105256,1,8,0:0:0:0:
76,192,105256,1,0,0:0:0:0:
281,192,105256,1,0,0:0:0:0:
230,192,105333,1,2,0:0:0:0:
435,192,105333,1,0,0:0:0:0:
486,192,105333,1,0,0:0:0:0:
25,192,105410,1,2,0:0:0:0:
76,192,105410,1,0,0:0:0:0:
332,192,105410,1,0,0:0:0:0:
128,192,105487,1,0,0:0:0:50:Tom2.wav
179,192,105487,1,0,0:0:0:0:
384,192,105487,1,0,0:0:0:0:
230,192,105564,1,0,0:0:0:50:Tom1.wav
435,192,105564,1,0,0:0:0:0:
486,192,105564,1,0,0:0:0:0:
25,192,105641,1,2,0:0:0:0:
281,192,105641,1,0,0:0:0:0:
332,192,105641,1,0,0:0:0:0:
76,192,105718,1,2,0:0:0:0:
128,192,105718,1,0,0:0:0:0:
486,192,105718,1,0,0:0:0:0:
179,192,105795,1,0,0:0:0:50:Tom3.wav
384,192,105795,1,0,0:0:0:0:
435,192,105795,1,0,0:0:0:0:
25,192,105872,1,0,0:0:0:50:Tom2.wav
281,192,105872,1,0,0:0:0:0:
332,192,105872,1,0,0:0:0:0:
76,192,105949,1,2,0:0:0:0:
128,192,105949,1,0,0:0:0:0:
486,192,105949,1,0,0:0:0:0:
179,192,106026,1,2,0:0:0:0:
332,192,106026,1,0,0:0:0:0:
384,192,106026,1,0,0:0:0:0:
25,192,106102,128,8,106949:0:0:0:0:
230,192,106102,128,0,107026:0:0:0:0:
281,192,106102,128,0,107026:0:0:0:0:
486,192,106102,128,0,106949:0:0:0:0:
25,192,107026,1,2,0:0:0:0:
76,192,107026,1,0,0:0:0:0:
435,192,107026,1,0,0:0:0:0:
486,192,107026,1,0,0:0:0:0:
128,192,107102,1,2,0:0:0:0:
230,192,107102,1,0,0:0:0:0:
281,192,107102,1,0,0:0:0:0:
384,192,107102,1,0,0:0:0:0:
25,192,107179,1,8,0:0:0:0:
76,192,107179,1,0,0:0:0:0:
179,192,107179,1,0,0:0:0:0:
332,192,107179,1,0,0:0:0:0:
435,192,107179,1,0,0:0:0:0:
486,192,107179,1,0,0:0:0:0:
25,192,107487,1,8,0:0:0:0:
76,192,107487,1,0,0:0:0:50:Crash 2.wav
128,192,107487,1,0,0:0:0:0:
179,192,107487,1,0,0:0:0:0:
486,192,107487,128,0,107949:0:0:0:0:
25,192,107641,1,2,0:0:0:0:
76,192,107641,1,0,0:0:0:0:
384,192,107641,128,0,107949:0:0:0:0:
128,192,107795,1,2,0:0:0:0:
179,192,107795,1,0,0:0:0:0:
332,192,107795,128,0,108102:0:0:0:0:
25,192,107949,1,8,0:0:0:0:
76,192,107949,1,4,0:0:0:0:
128,192,107949,1,0,0:0:0:0:
179,192,107949,1,0,0:0:0:0:
435,192,107949,128,0,108102:0:0:0:0:
128,192,108102,1,2,0:0:0:0:
179,192,108102,1,0,0:0:0:0:
486,192,108102,128,0,108256:0:0:0:0:
128,192,108256,1,2,0:0:0:0:
179,192,108256,1,0,0:0:0:0:
332,192,108256,128,0,108410:0:0:0:0:
25,192,108410,1,8,0:0:0:0:
76,192,108410,1,0,0:0:0:50:Crash 2.wav
128,192,108410,1,0,0:0:0:0:
179,192,108410,1,0,0:0:0:0:
486,192,108410,128,0,108872:0:0:0:0:
25,192,108564,1,2,0:0:0:0:
76,192,108564,1,0,0:0:0:0:
384,192,108564,128,0,108872:0:0:0:0:
128,192,108718,1,2,0:0:0:0:
179,192,108718,1,0,0:0:0:0:
332,192,108718,128,0,109026:0:0:0:0:
25,192,108872,1,8,0:0:0:0:
76,192,108872,1,4,0:0:0:0:
128,192,108872,1,0,0:0:0:0:
179,192,108872,1,0,0:0:0:0:
435,192,108872,128,0,109026:0:0:0:0:
25,192,109026,1,2,0:0:0:0:
76,192,109026,1,0,0:0:0:0:
486,192,109026,128,0,109179:0:0:0:0:
25,192,109179,1,2,0:0:0:0:
76,192,109179,1,0,0:0:0:0:
384,192,109179,128,0,109333:0:0:0:0:
25,192,109333,1,8,0:0:0:0:
76,192,109333,1,0,0:0:0:50:Crash 2.wav
128,192,109333,1,0,0:0:0:0:
179,192,109333,1,0,0:0:0:0:
332,192,109333,128,0,109795:0:0:0:0:
486,192,109333,128,0,109487:0:0:0:0:
435,192,109410,1,0,0:0:0:0:
128,192,109487,1,2,0:0:0:0:
179,192,109487,1,0,0:0:0:0:
384,192,109487,1,0,0:0:0:0:
435,192,109564,1,0,0:0:0:0:
25,192,109641,1,8,0:0:0:0:
76,192,109641,1,0,0:0:0:50:Crash 2.wav
384,192,109641,128,0,109795:0:0:0:0:
486,192,109641,128,0,109795:0:0:0:0:
25,192,109795,1,2,0:0:0:0:
76,192,109795,1,0,0:0:0:0:
128,192,109795,1,0,0:0:0:0:
179,192,109795,1,0,0:0:0:0:
25,192,109949,128,8,110410:0:0:0:0:
332,192,109949,1,0,0:0:0:50:Crash 2.wav
384,192,109949,1,0,0:0:0:0:
435,192,109949,1,0,0:0:0:0:
486,192,109949,1,0,0:0:0:0:
128,192,110102,128,2,110410:0:0:0:0:
435,192,110102,1,0,0:0:0:0:
486,192,110102,1,0,0:0:0:0:
179,192,110256,128,2,110564:0:0:0:0:
332,192,110256,1,0,0:0:0:0:
384,192,110256,1,0,0:0:0:0:
76,192,110410,128,8,110564:0:0:0:0:
332,192,110410,1,4,0:0:0:0:
384,192,110410,1,0,0:0:0:0:
435,192,110410,1,0,0:0:0:0:
486,192,110410,1,0,0:0:0:0:
25,192,110564,128,2,110718:0:0:0:0:
332,192,110564,1,0,0:0:0:0:
384,192,110564,1,0,0:0:0:0:
179,192,110718,128,2,110872:0:0:0:0:
332,192,110718,1,0,0:0:0:0:
384,192,110718,1,0,0:0:0:0:
25,192,110872,128,8,111333:0:0:0:0:
332,192,110872,1,0,0:0:0:50:Crash 2.wav
384,192,110872,1,0,0:0:0:0:
435,192,110872,1,0,0:0:0:0:
486,192,110872,1,0,0:0:0:0:
128,192,111026,128,2,111333:0:0:0:0:
435,192,111026,1,0,0:0:0:0:
486,192,111026,1,0,0:0:0:0:
179,192,111179,128,2,111487:0:0:0:0:
332,192,111179,1,0,0:0:0:0:
384,192,111179,1,0,0:0:0:0:
76,192,111333,128,8,111487:0:0:0:0:
332,192,111333,1,4,0:0:0:0:
384,192,111333,1,0,0:0:0:0:
435,192,111333,1,0,0:0:0:0:
486,192,111333,1,0,0:0:0:0:
25,192,111487,128,2,111641:0:0:0:0:
435,192,111487,1,0,0:0:0:0:
486,192,111487,1,0,0:0:0:0:
128,192,111641,128,2,111795:0:0:0:0:
435,192,111641,1,0,0:0:0:0:
486,192,111641,1,0,0:0:0:0:
25,192,111795,128,8,111949:0:0:0:0:
179,192,111795,128,0,112256:0:0:0:0:
332,192,111795,1,0,0:0:0:0:
384,192,111795,1,0,0:0:0:0:
486,192,111795,1,0,0:0:0:0:
435,192,111872,1,0,0:0:0:50:Tom1.wav
76,192,111949,128,2,112102:0:0:0:0:
332,192,111949,1,0,0:0:0:0:
384,192,111949,1,0,0:0:0:0:
486,192,112026,1,2,0:0:0:0:
25,192,112102,128,8,112256:0:0:0:0:
128,192,112102,128,0,112256:0:0:0:50:Tom3.wav
384,192,112102,1,0,0:0:0:0:
435,192,112102,1,0,0:0:0:0:
332,192,112179,1,0,0:0:0:50:Tom2.wav
435,192,112256,1,2,0:0:0:0:
486,192,112256,1,0,0:0:0:0:
384,192,112333,1,2,0:0:0:0:
25,192,112410,128,8,112872:0:0:0:0:
76,192,112410,1,0,0:0:0:50:Crash 2.wav
128,192,112410,1,0,0:0:0:0:
332,192,112410,1,0,0:0:0:0:
435,192,112410,1,0,0:0:0:0:
486,192,112410,1,0,0:0:0:0:
76,192,112564,1,2,0:0:0:0:
128,192,112564,1,0,0:0:0:0:
384,192,112564,128,0,112872:0:0:0:0:
230,192,112718,1,2,0:0:0:0:
281,192,112718,1,0,0:0:0:0:
486,192,112718,128,0,113026:0:0:0:0:
76,192,112872,128,8,113026:0:0:0:0:
128,192,112872,1,4,0:0:0:0:
179,192,112872,1,0,0:0:0:0:
230,192,112872,1,0,0:0:0:0:
128,192,113026,1,2,0:0:0:0:
179,192,113026,128,0,113333:0:0:0:0:
230,192,113179,1,2,0:0:0:0:
332,192,113179,128,0,113333:0:0:0:0:
281,192,113333,1,8,0:0:0:0:
384,192,113333,1,0,0:0:0:50:Crash 2.wav
435,192,113333,1,0,0:0:0:0:
486,192,113333,128,0,113795:0:0:0:0:
128,192,113487,128,2,113795:0:0:0:0:
384,192,113487,1,0,0:0:0:0:
435,192,113487,1,0,0:0:0:0:
25,192,113641,128,2,113949:0:0:0:0:
230,192,113641,1,0,0:0:0:0:
281,192,113641,1,0,0:0:0:0:
281,192,113795,1,8,0:0:0:0:
332,192,113795,1,4,0:0:0:0:
384,192,113795,1,0,0:0:0:0:
435,192,113795,128,0,113949:0:0:0:0:
332,192,113949,128,2,114256:0:0:0:0:
384,192,113949,1,0,0:0:0:0:
179,192,114102,128,2,114256:0:0:0:0:
281,192,114102,1,0,0:0:0:0:
25,192,114256,128,8,114564:0:0:0:0:
76,192,114256,1,0,0:0:0:50:Crash 2.wav
128,192,114256,1,0,0:0:0:0:
230,192,114256,1,0,0:0:0:0:
486,192,114256,128,0,114410:0:0:0:0:
332,192,114410,1,2,0:0:0:0:
384,192,114410,128,0,114564:0:0:0:0:
128,192,114564,1,8,0:0:0:0:
179,192,114564,1,0,0:0:0:50:Crash 2.wav
230,192,114564,1,0,0:0:0:0:
25,192,114641,1,0,0:0:0:0:
128,192,114718,1,2,0:0:0:0:
179,192,114718,1,0,0:0:0:0:
332,192,114718,1,0,0:0:0:0:
384,192,114718,1,0,0:0:0:0:
25,192,114795,1,0,0:0:0:0:
76,192,114795,1,0,0:0:0:0:
435,192,114795,1,0,0:0:0:0:
486,192,114795,1,0,0:0:0:0:
128,192,114872,1,8,0:0:0:0:
179,192,114872,1,2,0:0:0:0:
332,192,114872,1,0,0:0:0:50:Tom3.wav
384,192,114872,1,0,0:0:0:0:
25,192,115026,1,8,0:0:0:0:
76,192,115026,1,0,0:0:0:50:Tom3.wav
435,192,115026,1,0,0:0:0:0:
486,192,115026,1,0,0:0:0:0:
25,192,115179,1,8,0:0:0:0:
76,192,115179,1,2,0:0:0:0:
435,192,115179,1,0,0:0:0:50:Tom3.wav
486,192,115179,1,0,0:0:0:0:
76,192,115333,1,8,0:0:0:0:
128,192,115333,1,0,0:0:0:50:Tom3.wav
384,192,115333,1,0,0:0:0:0:
435,192,115333,1,0,0:0:0:0:
76,192,115487,1,2,0:0:0:0:
128,192,115487,1,8,0:0:0:0:
384,192,115487,1,0,0:0:0:50:Tom3.wav
435,192,115487,1,0,0:0:0:0:
486,192,115487,1,0,0:0:0:0:
25,192,115487,1,0,0:0:0:0:
25,192,115641,1,8,0:0:0:0:
76,192,115641,1,0,0:0:0:50:Tom3.wav
128,192,115641,1,0,0:0:0:0:
384,192,115641,1,0,0:0:0:0:
435,192,115641,1,0,0:0:0:0:
486,192,115641,1,0,0:0:0:0:
25,192,115795,1,8,0:0:0:0:
76,192,115795,1,2,0:0:0:0:
128,192,115795,1,0,0:0:0:50:Tom3.wav
384,192,115795,1,0,0:0:0:0:
435,192,115795,1,0,0:0:0:0:
486,192,115795,1,0,0:0:0:0:
25,192,115949,1,8,0:0:0:0:
76,192,115949,1,0,0:0:0:50:Tom3.wav
128,192,115949,1,0,0:0:0:0:
384,192,115949,1,0,0:0:0:0:
435,192,115949,1,0,0:0:0:0:
486,192,115949,1,0,0:0:0:0:
25,192,116102,1,2,0:0:0:0:
76,192,116102,1,4,0:0:0:0:
128,192,116102,1,0,0:0:0:0:
384,192,116102,1,0,0:0:0:0:
435,192,116102,1,0,0:0:0:0:
486,192,116102,1,0,0:0:0:0:
128,192,116256,1,0,0:0:0:50:Tom1.wav
179,192,116256,1,0,0:0:0:0:
384,192,116256,1,0,0:0:0:0:
230,192,116333,1,0,0:0:0:50:Tom1.wav
435,192,116333,1,0,0:0:0:0:
486,192,116333,1,0,0:0:0:0:
25,192,116410,1,2,0:0:0:0:
76,192,116410,1,0,0:0:0:50:Tom1.wav
281,192,116410,1,0,0:0:0:0:
332,192,116410,1,0,0:0:0:0:
435,192,116487,1,0,0:0:0:50:Tom1.wav
486,192,116487,1,0,0:0:0:0:
128,192,116564,1,0,0:0:0:50:Tom1.wav
332,192,116564,1,0,0:0:0:0:
384,192,116564,1,0,0:0:0:0:
25,192,116641,1,0,0:0:0:50:Tom1.wav
76,192,116641,1,0,0:0:0:0:
179,192,116718,1,2,0:0:0:0:
230,192,116718,1,0,0:0:0:50:Tom2.wav
486,192,116718,1,0,0:0:0:0:
25,192,116795,1,0,0:0:0:50:Tom2.wav
384,192,116795,1,0,0:0:0:0:
435,192,116795,1,0,0:0:0:0:
76,192,116872,1,0,0:0:0:50:Tom2.wav
128,192,116872,1,0,0:0:0:0:
179,192,116949,1,0,0:0:0:50:Tom2.wav
230,192,116949,1,0,0:0:0:0:
332,192,116949,1,0,0:0:0:0:
25,192,117026,1,2,0:0:0:0:
435,192,117026,1,0,0:0:0:50:Tom3.wav
486,192,117026,1,0,0:0:0:0:
76,192,117102,1,0,0:0:0:50:Tom3.wav
128,192,117102,1,0,0:0:0:0:
384,192,117102,1,0,0:0:0:0:
179,192,117179,1,0,0:0:0:50:Tom3.wav
281,192,117179,1,0,0:0:0:0:
332,192,117179,1,0,0:0:0:0:
25,192,117256,1,0,0:0:0:50:Tom3.wav
435,192,117256,1,0,0:0:0:0:
486,192,117256,1,0,0:0:0:0:
128,192,117333,128,2,118026:0:0:0:0:
179,192,117333,1,4,0:0:0:0:
332,192,117333,1,0,0:0:0:50:Crash 2.wav
384,192,117333,1,0,0:0:0:0:
25,192,117487,128,0,118179:0:0:0:0:
179,192,117641,128,2,118333:0:0:0:0:
332,192,117641,1,0,0:0:0:0:
384,192,117641,1,0,0:0:0:0:
76,192,117795,128,0,118487:0:0:0:0:
332,192,117872,1,0,0:0:0:0:
435,192,117949,1,2,0:0:0:0:
486,192,117949,1,0,0:0:0:0:
332,192,118026,1,0,0:0:0:0:
128,192,118102,128,0,118949:0:0:0:0:
435,192,118102,1,0,0:0:0:0:
25,192,118256,128,2,118641:0:0:0:0:
384,192,118256,1,0,0:0:0:0:
486,192,118256,1,0,0:0:0:0:
179,192,118410,128,0,118795:0:0:0:0:
76,192,118564,128,2,119333:0:0:0:0:
384,192,118564,1,0,0:0:0:0:
486,192,118564,1,0,0:0:0:0:
25,192,118718,128,0,119333:0:0:0:0:
179,192,118872,128,2,119179:0:0:0:0:
332,192,118872,1,0,0:0:0:0:
384,192,118872,1,0,0:0:0:0:
128,192,119026,128,0,119333:0:0:0:0:
384,192,119026,1,0,0:0:0:0:
486,192,119102,1,0,0:0:0:0:
332,192,119179,1,2,0:0:0:0:
384,192,119179,1,0,0:0:0:0:
179,192,119333,128,0,119872:0:0:0:0:
435,192,119333,1,0,0:0:0:0:
76,192,119487,128,2,120026:0:0:0:0:
332,192,119487,1,0,0:0:0:0:
486,192,119487,1,0,0:0:0:0:
128,192,119641,128,0,120179:0:0:0:0:
25,192,119795,128,2,120641:0:0:0:0:
435,192,119795,1,0,0:0:0:0:
486,192,119795,1,0,0:0:0:0:
179,192,119949,128,0,120487:0:0:0:0:
332,192,119949,1,0,0:0:0:0:
76,192,120102,128,2,121026:0:0:0:0:
384,192,120102,1,0,0:0:0:0:
435,192,120102,1,0,0:0:0:0:
128,192,120256,128,0,120795:0:0:0:0:
486,192,120256,1,0,0:0:0:0:
332,192,120410,1,2,0:0:0:0:
384,192,120410,1,0,0:0:0:0:
179,192,120564,128,0,121026:0:0:0:0:
435,192,120564,1,0,0:0:0:0:
25,192,120718,128,2,121026:0:0:0:0:
332,192,120718,1,0,0:0:0:0:
486,192,120718,1,0,0:0:0:0:
128,192,120872,128,0,121026:0:0:0:0:
384,192,120872,1,0,0:0:0:0:
281,192,121026,128,2,121872:0:0:0:0:
435,192,121026,1,0,0:0:0:0:
486,192,121026,1,0,0:0:0:0:
230,192,121179,128,0,121718:0:0:0:0:
76,192,121333,1,2,0:0:0:0:
128,192,121333,1,0,0:0:0:0:
332,192,121333,128,0,121564:0:0:0:0:
25,192,121487,1,0,0:0:0:0:
179,192,121487,128,0,122026:0:0:0:0:
332,192,121641,128,2,122256:0:0:0:0:
384,192,121641,1,0,0:0:0:0:
435,192,121641,1,0,0:0:0:0:
230,192,121795,128,0,122256:0:0:0:70:Hat open.wav
486,192,121795,1,0,0:0:0:0:
25,192,121949,1,2,0:0:0:0:
76,192,121949,1,0,0:0:0:0:
281,192,121949,128,0,122256:0:0:0:0:
179,192,122102,128,0,122256:0:0:0:0:
76,192,122256,1,2,0:0:0:0:
128,192,122256,1,4,0:0:0:0:
384,192,122256,128,0,122949:0:0:0:0:
486,192,122410,128,0,123102:0:0:0:0:
25,192,122564,1,2,0:0:0:0:
179,192,122564,1,0,0:0:0:0:
332,192,122564,128,0,123256:0:0:0:0:
435,192,122718,128,0,123410:0:0:0:0:
128,192,122795,1,0,0:0:0:0:
25,192,122872,1,2,0:0:0:0:
76,192,122872,1,0,0:0:0:0:
128,192,123026,1,0,0:0:0:0:
384,192,123026,128,0,123872:0:0:0:0:
76,192,123179,1,2,0:0:0:0:
179,192,123179,1,0,0:0:0:0:
486,192,123179,128,0,123564:0:0:0:0:
332,192,123333,128,0,123718:0:0:0:0:
128,192,123487,1,2,0:0:0:0:
179,192,123487,1,0,0:0:0:0:
435,192,123487,128,0,124256:0:0:0:0:
486,192,123641,128,0,124256:0:0:0:0:
76,192,123795,1,2,0:0:0:0:
128,192,123795,1,0,0:0:0:0:
332,192,123795,128,0,124102:0:0:0:0:
25,192,123949,1,0,0:0:0:0:
384,192,123949,128,0,124256:0:0:0:0:
179,192,124026,1,0,0:0:0:0:
25,192,124102,1,2,0:0:0:0:
76,192,124102,1,0,0:0:0:0:
332,192,124256,128,0,124795:0:0:0:0:
128,192,124410,1,2,0:0:0:0:
179,192,124410,1,0,0:0:0:0:
435,192,124410,128,0,124949:0:0:0:0:
76,192,124564,1,0,0:0:0:70:Hat open.wav
384,192,124564,128,0,125102:0:0:0:0:
25,192,124718,1,2,0:0:0:0:
128,192,124718,1,0,0:0:0:0:
486,192,124718,128,0,125564:0:0:0:0:
332,192,124872,128,0,125410:0:0:0:0:
76,192,125026,1,2,0:0:0:0:
128,192,125026,1,0,0:0:0:0:
435,192,125026,128,0,125949:0:0:0:0:
384,192,125179,128,0,125718:0:0:0:0:
179,192,125256,1,0,0:0:0:0:
25,192,125333,1,2,0:0:0:0:
76,192,125333,1,0,0:0:0:0:
179,192,125410,1,0,0:0:0:0:
25,192,125487,1,0,0:0:0:0:
332,192,125487,128,0,125949:0:0:0:0:
179,192,125564,1,0,0:0:0:0:
25,192,125641,1,2,0:0:0:0:
76,192,125641,1,0,0:0:0:0:
486,192,125641,128,0,125949:0:0:0:0:
384,192,125795,128,0,125949:0:0:0:0:
25,192,125949,1,8,0:0:0:0:
128,192,125949,1,0,0:0:0:0:
179,192,125949,1,0,0:0:0:0:
332,192,126487,1,0,0:0:0:0:
179,192,126564,1,0,0:0:0:0:
332,192,126641,1,0,0:0:0:0:
25,192,126718,1,2,0:0:0:0:
76,192,126718,1,0,0:0:0:0:
179,192,126718,1,0,0:0:0:0:
230,192,126718,1,0,0:0:0:0:
281,192,126795,1,2,0:0:0:0:
332,192,126795,1,0,0:0:0:0:
435,192,126795,1,0,0:0:0:0:
486,192,126795,1,0,0:0:0:0:
25,192,126872,1,8,0:0:0:0:
76,192,126872,1,0,0:0:0:50:Crash 2.wav
179,192,126872,1,0,0:0:0:0:
230,192,126872,1,0,0:0:0:0:
384,192,126872,1,0,0:0:0:0:
76,192,127179,1,2,0:0:0:0:
128,192,127179,1,4,0:0:0:0:
332,192,127179,128,0,127487:0:0:0:0:
384,192,127333,128,0,127641:0:0:0:0:
435,192,127333,128,0,127487:0:0:0:0:
25,192,127487,1,8,0:0:0:0:
76,192,127487,1,2,0:0:0:0:
179,192,127487,1,0,0:0:0:0:
486,192,127487,128,0,127718:0:0:0:0:
332,192,127641,128,0,127949:0:0:0:0:
435,192,127641,128,0,127795:0:0:0:0:
179,192,127795,1,2,0:0:0:0:
230,192,127795,1,0,0:0:0:0:
486,192,127795,1,0,0:0:0:0:
435,192,127872,1,0,0:0:0:0:
76,192,127949,128,0,128256:0:0:0:0:
384,192,127949,1,0,0:0:0:0:
128,192,128102,128,8,128256:0:0:0:0:
179,192,128102,128,2,128410:0:0:0:0:
332,192,128102,1,0,0:0:0:0:
435,192,128102,1,0,0:0:0:0:
486,192,128102,1,0,0:0:0:0:
230,192,128256,128,0,128564:0:0:0:0:
25,192,128410,128,2,128718:0:0:0:0:
76,192,128410,128,0,128564:0:0:0:0:
384,192,128410,1,0,0:0:0:0:
486,192,128410,1,0,0:0:0:0:
128,192,128564,128,0,128872:0:0:0:0:
76,192,128718,128,8,129026:0:0:0:0:
179,192,128718,128,2,129179:0:0:0:0:
332,192,128718,1,0,0:0:0:0:
435,192,128718,1,0,0:0:0:0:
486,192,128718,1,0,0:0:0:0:
230,192,128872,128,0,129179:0:0:0:0:
25,192,128949,1,0,0:0:0:0:
128,192,129026,1,2,0:0:0:0:
332,192,129026,1,0,0:0:0:0:
384,192,129026,1,0,0:0:0:0:
25,192,129102,1,0,0:0:0:0:
128,192,129179,1,0,0:0:0:0:
25,192,129256,1,0,0:0:0:0:
179,192,129333,1,8,0:0:0:0:
230,192,129333,1,2,0:0:0:0:
435,192,129333,128,0,129641:0:0:0:0:
486,192,129333,1,0,0:0:0:0:
332,192,129487,128,0,129795:0:0:0:70:Hat open.wav
25,192,129641,1,2,0:0:0:0:
76,192,129641,1,0,0:0:0:0:
281,192,129641,128,0,129949:0:0:0:0:
384,192,129795,128,0,129949:0:0:0:0:
435,192,129795,128,0,129949:0:0:0:0:
25,192,129949,1,8,0:0:0:0:
128,192,129949,1,2,0:0:0:0:
179,192,129949,1,0,0:0:0:0:
486,192,129949,128,0,130410:0:0:0:0:
332,192,130102,128,0,130179:0:0:0:0:
435,192,130102,128,0,130256:0:0:0:0:
179,192,130256,1,2,0:0:0:0:
230,192,130256,1,0,0:0:0:0:
332,192,130256,1,0,0:0:0:0:
384,192,130333,1,0,0:0:0:0:
128,192,130410,128,0,130718:0:0:0:0:
435,192,130410,1,0,0:0:0:0:
76,192,130564,128,8,130872:0:0:0:0:
281,192,130564,1,2,0:0:0:0:
332,192,130564,1,0,0:0:0:0:
486,192,130564,1,0,0:0:0:0:
384,192,130718,128,0,131026:0:0:0:0:
230,192,130872,1,2,0:0:0:0:
281,192,130872,1,0,0:0:0:0:
435,192,130872,128,0,131026:0:0:0:0:
486,192,130872,128,0,131179:0:0:0:0:
76,192,131026,128,0,131179:0:0:0:0:
128,192,131026,128,0,131333:0:0:0:0:
25,192,131179,128,8,131487:0:0:0:0:
179,192,131179,128,2,131487:0:0:0:0:
281,192,131179,1,0,0:0:0:0:
384,192,131179,1,0,0:0:0:0:
435,192,131179,1,0,0:0:0:0:
76,192,131333,128,0,131487:0:0:0:0:
332,192,131487,1,2,0:0:0:0:
384,192,131487,1,0,0:0:0:0:
435,192,131487,128,0,131795:0:0:0:0:
486,192,131487,128,0,131795:0:0:0:0:
25,192,131641,128,8,131795:0:0:0:0:
76,192,131641,128,0,131795:0:0:0:70:Hat open.wav
128,192,131641,1,0,0:0:0:0:
230,192,131641,1,0,0:0:0:0:
281,192,131641,1,0,0:0:0:0:
332,192,131795,1,2,0:0:0:0:
384,192,131795,1,0,0:0:0:0:
25,192,131949,1,8,0:0:0:0:
76,192,131949,1,0,0:0:0:70:Hat open.wav
128,192,131949,1,0,0:0:0:0:
230,192,131949,128,0,132102:0:0:0:0:
281,192,131949,128,0,132102:0:0:0:0:
179,192,132102,128,2,132410:0:0:0:0:
435,192,132102,1,4,0:0:0:0:
486,192,132102,1,0,0:0:0:0:
76,192,132256,128,0,132410:0:0:0:0:
128,192,132256,128,0,132564:0:0:0:0:
25,192,132410,128,8,132872:0:0:0:0:
281,192,132410,1,2,0:0:0:0:
384,192,132410,1,0,0:0:0:0:
435,192,132410,1,0,0:0:0:0:
76,192,132564,128,0,132872:0:0:0:0:
179,192,132564,128,0,132641:0:0:0:0:
230,192,132718,1,2,0:0:0:0:
332,192,132718,1,0,0:0:0:0:
384,192,132718,1,0,0:0:0:0:
179,192,132795,1,0,0:0:0:0:
128,192,132872,1,0,0:0:0:0:
486,192,132872,128,0,133179:0:0:0:0:
25,192,133026,1,8,0:0:0:0:
128,192,133026,1,2,0:0:0:0:
179,192,133026,1,0,0:0:0:0:
332,192,133026,128,0,133333:0:0:0:0:
435,192,133026,128,0,133179:0:0:0:0:
384,192,133179,128,0,133487:0:0:0:0:
25,192,133333,1,2,0:0:0:0:
76,192,133333,1,0,0:0:0:0:
281,192,133333,128,0,133487:0:0:0:0:
486,192,133333,128,0,133641:0:0:0:0:
435,192,133487,128,0,133949:0:0:0:0:
25,192,133641,1,8,0:0:0:0:
128,192,133641,1,2,0:0:0:0:
179,192,133641,1,0,0:0:0:0:
332,192,133641,128,0,134256:0:0:0:0:
384,192,133641,128,0,133795:0:0:0:0:
281,192,133795,128,0,134256:0:0:0:0:
486,192,133872,1,0,0:0:0:0:
25,192,133949,1,2,0:0:0:0:
76,192,133949,1,0,0:0:0:0:
384,192,133949,1,0,0:0:0:0:
486,192,134026,1,0,0:0:0:0:
384,192,134102,1,0,0:0:0:0:
486,192,134179,1,0,0:0:0:0:
25,192,134256,1,8,0:0:0:0:
76,192,134256,128,2,134564:0:0:0:0:
179,192,134256,1,0,0:0:0:0:
230,192,134256,1,0,0:0:0:0:
384,192,134256,1,0,0:0:0:0:
128,192,134410,128,0,134718:0:0:0:70:Hat open.wav
230,192,134564,128,2,134872:0:0:0:0:
332,192,134564,1,0,0:0:0:0:
486,192,134564,1,0,0:0:0:0:
76,192,134718,128,0,134872:0:0:0:0:
179,192,134718,128,0,135026:0:0:0:0:
25,192,134872,128,8,135333:0:0:0:0:
281,192,134872,1,2,0:0:0:0:
384,192,134872,1,0,0:0:0:0:
486,192,134872,1,0,0:0:0:0:
76,192,135026,128,0,135333:0:0:0:0:
128,192,135026,128,0,135179:0:0:0:0:
230,192,135179,1,2,0:0:0:0:
435,192,135179,1,0,0:0:0:0:
486,192,135179,1,0,0:0:0:0:
179,192,135256,1,0,0:0:0:0:
128,192,135333,1,0,0:0:0:0:
384,192,135333,128,0,135641:0:0:0:0:
230,192,135487,1,8,0:0:0:0:
281,192,135487,1,2,0:0:0:0:
435,192,135487,128,0,135795:0:0:0:0:
486,192,135487,1,0,0:0:0:0:
128,192,135641,128,0,135949:0:0:0:0:
25,192,135795,128,2,136102:0:0:0:0:
76,192,135795,128,0,135949:0:0:0:0:
332,192,135795,1,0,0:0:0:0:
179,192,135949,1,8,0:0:0:0:
230,192,135949,1,0,0:0:0:70:Hat open.wav
281,192,135949,1,0,0:0:0:0:
384,192,135949,128,0,136256:0:0:0:0:
435,192,135949,128,0,136102:0:0:0:0:
76,192,136102,1,8,0:0:0:0:
128,192,136102,1,0,0:0:0:70:Hat open.wav
179,192,136102,1,0,0:0:0:0:
332,192,136102,128,0,136410:0:0:0:0:
486,192,136102,128,0,136410:0:0:0:0:
230,192,136256,1,2,0:0:0:0:
281,192,136256,1,0,0:0:0:0:
435,192,136256,128,0,136410:0:0:0:0:
25,192,136410,128,2,136718:0:0:0:0:
76,192,136410,128,0,136564:0:0:0:0:
179,192,136410,1,0,0:0:0:0:
128,192,136564,128,8,136718:0:0:0:0:
435,192,136564,1,0,0:0:0:0:
486,192,136564,1,0,0:0:0:0:
179,192,136641,1,8,0:0:0:0:
281,192,136641,1,0,0:0:0:0:
332,192,136641,1,0,0:0:0:0:
230,192,136718,1,8,0:0:0:0:
435,192,136718,128,0,136872:0:0:0:0:
486,192,136718,128,0,137026:0:0:0:0:
76,192,136872,1,2,0:0:0:0:
128,192,136872,1,0,0:0:0:0:
384,192,136872,128,0,137026:0:0:0:0:
25,192,137026,128,8,137333:0:0:0:0:
76,192,137026,128,0,137333:0:0:0:50:Crash 2.wav
128,192,137026,128,0,137333:0:0:0:0:
179,192,137026,1,0,0:0:0:0:
281,192,137179,1,2,0:0:0:0:
332,192,137179,1,0,0:0:0:0:
435,192,137333,1,2,0:0:0:0:
486,192,137333,1,0,0:0:0:0:
25,192,137487,1,8,0:0:0:0:
76,192,137487,1,4,0:0:0:0:
128,192,137487,1,0,0:0:0:0:
179,192,137487,1,0,0:0:0:0:
332,192,137487,128,0,137949:0:0:0:0:
25,192,137641,1,2,0:0:0:0:
179,192,137641,1,0,0:0:0:0:
384,192,137641,128,0,137949:0:0:0:0:
25,192,137795,1,2,0:0:0:0:
179,192,137795,1,0,0:0:0:0:
25,192,137949,1,8,0:0:0:0:
76,192,137949,1,0,0:0:0:50:Crash 2.wav
128,192,137949,1,0,0:0:0:0:
179,192,137949,1,0,0:0:0:0:
486,192,137949,128,0,138872:0:0:0:0:
76,192,138102,1,2,0:0:0:0:
128,192,138102,1,0,0:0:0:0:
384,192,138102,128,0,138564:0:0:0:0:
76,192,138256,1,2,0:0:0:0:
128,192,138256,1,0,0:0:0:0:
25,192,138410,1,8,0:0:0:0:
76,192,138410,1,4,0:0:0:0:
128,192,138410,1,0,0:0:0:0:
179,192,138410,1,0,0:0:0:0:
332,192,138410,128,0,138564:0:0:0:0:
25,192,138564,1,2,0:0:0:0:
76,192,138564,1,0,0:0:0:0:
435,192,138564,128,0,138872:0:0:0:0:
25,192,138718,1,2,0:0:0:0:
76,192,138718,1,0,0:0:0:0:
25,192,138872,1,8,0:0:0:0:
76,192,138872,1,0,0:0:0:50:Crash 2.wav
128,192,138872,1,0,0:0:0:0:
179,192,138872,1,0,0:0:0:0:
128,192,139026,1,2,0:0:0:0:
179,192,139026,1,0,0:0:0:0:
332,192,139026,128,0,139333:0:0:0:0:
25,192,139179,1,8,0:0:0:0:
76,192,139179,1,0,0:0:0:50:Crash 2.wav
128,192,139179,1,0,0:0:0:0:
179,192,139179,1,0,0:0:0:0:
486,192,139179,128,0,139333:0:0:0:0:
25,192,139333,1,2,0:0:0:0:
76,192,139333,1,0,0:0:0:0:
384,192,139333,128,0,139641:0:0:0:0:
435,192,139333,128,0,139487:0:0:0:0:
128,192,139410,1,2,0:0:0:0:
25,192,139487,1,8,0:0:0:0:
76,192,139487,1,0,0:0:0:50:Crash 2.wav
179,192,139487,1,0,0:0:0:0:
486,192,139487,128,0,139641:0:0:0:0:
128,192,139641,1,2,0:0:0:0:
179,192,139641,1,0,0:0:0:0:
25,192,139795,1,2,0:0:0:0:
76,192,139795,1,0,0:0:0:0:
25,192,139949,1,8,0:0:0:0:
76,192,139949,1,4,0:0:0:0:
128,192,139949,1,0,0:0:0:0:
179,192,139949,1,0,0:0:0:0:
486,192,139949,128,0,140410:0:0:0:0:
76,192,140102,1,2,0:0:0:0:
128,192,140102,1,0,0:0:0:0:
384,192,140102,128,0,140410:0:0:0:0:
76,192,140256,1,2,0:0:0:0:
128,192,140256,1,0,0:0:0:0:
25,192,140410,1,8,0:0:0:0:
76,192,140410,1,0,0:0:0:50:Crash 2.wav
128,192,140410,1,0,0:0:0:0:
179,192,140410,1,0,0:0:0:0:
332,192,140410,128,0,140872:0:0:0:0:
435,192,140410,128,0,140564:0:0:0:0:
25,192,140564,1,2,0:0:0:0:
179,192,140564,1,0,0:0:0:0:
384,192,140564,128,0,141641:0:0:0:0:
25,192,140718,1,2,0:0:0:0:
179,192,140718,1,0,0:0:0:0:
25,192,140872,1,8,0:0:0:0:
76,192,140872,1,4,0:0:0:0:
128,192,140872,1,0,0:0:0:0:
179,192,140872,1,0,0:0:0:0:
435,192,140872,128,0,141641:0:0:0:0:
486,192,140872,128,0,141641:0:0:0:0:
25,192,141026,1,2,0:0:0:0:
76,192,141026,1,0,0:0:0:0:
332,192,141026,128,0,141641:0:0:0:0:
128,192,141179,1,2,0:0:0:0:
179,192,141179,1,0,0:0:0:0:
25,192,141333,1,8,0:0:0:0:
76,192,141333,1,0,0:0:0:0:
128,192,141372,1,8,0:0:0:0:
179,192,141372,1,0,0:0:0:0:
128,192,141487,1,2,0:0:0:0:
179,192,141487,1,0,0:0:0:0:
128,192,141641,1,0,0:0:0:50:Tom2.wav
179,192,141641,1,0,0:0:0:0:
25,192,141679,1,0,0:0:0:50:Tom3.wav
76,192,141679,1,0,0:0:0:0:
25,192,141795,1,2,0:0:0:0:
76,192,141795,1,0,0:0:0:0:
25,192,141949,1,8,0:0:0:0:
76,192,141949,1,0,0:0:0:50:Crash 2.wav
128,192,141949,1,0,0:0:0:0:
179,192,141949,1,0,0:0:0:0:
384,192,141949,128,0,142256:0:0:0:0:
435,192,141949,128,0,142256:0:0:0:0:
486,192,141949,128,0,142256:0:0:0:0:
128,192,142102,1,2,0:0:0:0:
179,192,142102,1,0,0:0:0:0:
25,192,142256,1,2,0:0:0:0:
76,192,142256,1,0,0:0:0:0:
179,192,142410,128,8,142872:0:0:0:0:
332,192,142410,1,4,0:0:0:0:
384,192,142410,1,0,0:0:0:0:
435,192,142410,1,0,0:0:0:0:
486,192,142410,1,0,0:0:0:0:
128,192,142564,128,2,142872:0:0:0:0:
332,192,142564,1,0,0:0:0:0:
435,192,142564,1,0,0:0:0:0:
332,192,142718,1,2,0:0:0:0:
435,192,142718,1,0,0:0:0:0:
25,192,142872,128,8,143795:0:0:0:0:
332,192,142872,1,0,0:0:0:50:Crash 2.wav
384,192,142872,1,0,0:0:0:0:
435,192,142872,1,0,0:0:0:0:
486,192,142872,1,0,0:0:0:0:
128,192,143026,128,2,143487:0:0:0:0:
384,192,143026,1,0,0:0:0:0:
486,192,143026,1,0,0:0:0:0:
384,192,143179,1,2,0:0:0:0:
486,192,143179,1,0,0:0:0:0:
179,192,143333,128,8,143487:0:0:0:0:
332,192,143333,1,4,0:0:0:0:
384,192,143333,1,0,0:0:0:0:
435,192,143333,1,0,0:0:0:0:
486,192,143333,1,0,0:0:0:0:
76,192,143487,128,2,143795:0:0:0:0:
435,192,143487,1,0,0:0:0:0:
486,192,143487,1,0,0:0:0:0:
332,192,143641,1,2,0:0:0:0:
384,192,143641,1,0,0:0:0:0:
332,192,143795,1,8,0:0:0:0:
384,192,143795,1,0,0:0:0:50:Crash 2.wav
435,192,143795,1,0,0:0:0:0:
486,192,143795,1,0,0:0:0:0:
25,192,143949,128,2,144256:0:0:0:0:
435,192,143949,1,0,0:0:0:0:
486,192,143949,1,0,0:0:0:0:
179,192,144102,128,8,144256:0:0:0:0:
332,192,144102,1,0,0:0:0:50:Crash 2.wav
384,192,144102,1,0,0:0:0:0:
76,192,144256,128,2,144564:0:0:0:0:
128,192,144256,128,0,144410:0:0:0:0:
435,192,144256,1,0,0:0:0:0:
486,192,144256,1,0,0:0:0:0:
384,192,144333,1,0,0:0:0:0:
25,192,144410,128,4,144564:0:0:0:0:
332,192,144410,1,8,0:0:0:0:
435,192,144410,1,0,0:0:0:0:
486,192,144410,1,0,0:0:0:0:
332,192,144564,1,2,0:0:0:0:
384,192,144564,1,0,0:0:0:0:
128,192,144718,128,2,144872:0:0:0:0:
179,192,144718,128,0,145179:0:0:0:0:
332,192,144718,1,0,0:0:0:0:
384,192,144718,1,0,0:0:0:0:
25,192,144872,128,8,146256:0:0:0:0:
332,192,144872,1,0,0:0:0:50:Crash 2.wav
384,192,144872,1,0,0:0:0:0:
435,192,144872,1,0,0:0:0:0:
486,192,144872,1,0,0:0:0:0:
435,192,145026,1,2,0:0:0:0:
486,192,145026,1,0,0:0:0:0:
76,192,145179,128,2,146256:0:0:0:0:
435,192,145179,1,0,0:0:0:0:
486,192,145179,1,0,0:0:0:0:
332,192,145333,1,8,0:0:0:0:
384,192,145333,1,4,0:0:0:0:
435,192,145333,1,0,0:0:0:0:
486,192,145333,1,0,0:0:0:0:
128,192,145487,128,2,146256:0:0:0:0:
179,192,145487,128,0,146256:0:0:0:0:
332,192,145487,1,0,0:0:0:0:
486,192,145487,1,0,0:0:0:0:
332,192,145641,1,2,0:0:0:0:
486,192,145641,1,0,0:0:0:0:
332,192,145795,1,8,0:0:0:0:
384,192,145795,1,0,0:0:0:50:Crash 2.wav
435,192,145795,1,0,0:0:0:0:
486,192,145795,1,0,0:0:0:0:
384,192,145949,1,2,0:0:0:0:
435,192,145949,1,0,0:0:0:0:
384,192,146102,1,2,0:0:0:0:
435,192,146102,1,0,0:0:0:0:
332,192,146256,1,8,0:0:0:0:
384,192,146256,1,0,0:0:0:50:Crash 2.wav
435,192,146256,1,0,0:0:0:0:
486,192,146256,1,0,0:0:0:0:
230,192,146410,128,2,146564:0:0:0:0:
281,192,146410,128,0,146564:0:0:0:0:
25,192,146564,128,8,146872:0:0:0:0:
76,192,146564,128,0,146718:0:0:0:50:Crash 2.wav
435,192,146564,128,0,146718:0:0:0:0:
486,192,146564,128,0,146872:0:0:0:0:
179,192,146872,128,2,147179:0:0:0:0:
230,192,146872,128,8,147179:0:0:0:0:
281,192,146872,128,0,147179:0:0:0:0:
332,192,146872,128,0,147179:0:0:0:0:
25,192,146949,1,8,0:0:0:0:
486,192,146949,1,0,0:0:0:0:
128,192,147026,1,8,0:0:0:0:
384,192,147026,1,0,0:0:0:0:
25,192,147102,1,8,0:0:0:0:
486,192,147102,1,0,0:0:0:0:
76,192,147179,1,8,0:0:0:0:
435,192,147179,1,2,0:0:0:0:
179,192,147256,1,8,0:0:0:0:
332,192,147256,1,0,0:0:0:0:
25,192,147333,128,8,147641:0:0:0:0:
76,192,147333,128,0,147641:0:0:0:0:
435,192,147333,128,0,147641:0:0:0:0:
486,192,147333,128,0,147641:0:0:0:0:
128,192,147410,1,8,0:0:0:0:
384,192,147410,1,0,0:0:0:0:
230,192,147487,1,8,0:0:0:0:
281,192,147487,1,2,0:0:0:0:
179,192,147564,1,8,0:0:0:0:
332,192,147564,1,0,0:0:0:0:
128,192,147641,1,8,0:0:0:0:
384,192,147641,1,0,0:0:0:0:
230,192,147718,1,8,0:0:0:0:
281,192,147718,1,0,0:0:0:0:
76,192,147795,128,8,148102:0:0:0:0:
128,192,147795,128,2,148102:0:0:0:0:
384,192,147795,128,0,148102:0:0:0:0:
435,192,147795,128,0,148102:0:0:0:0:
179,192,147872,1,8,0:0:0:0:
332,192,147872,1,0,0:0:0:0:
25,192,147949,1,8,0:0:0:0:
486,192,147949,1,0,0:0:0:0:
230,192,148026,1,8,0:0:0:0:
281,192,148026,1,0,0:0:0:0:
179,192,148102,1,8,0:0:0:0:
332,192,148102,1,2,0:0:0:0:
76,192,148179,1,8,0:0:0:0:
435,192,148179,1,0,0:0:0:0:
25,192,148256,128,8,148564:0:0:0:0:
128,192,148256,128,0,148564:0:0:0:0:
384,192,148256,128,0,148564:0:0:0:0:
486,192,148256,128,0,148564:0:0:0:0:
179,192,148333,1,8,0:0:0:0:
332,192,148333,1,0,0:0:0:0:
76,192,148410,1,8,0:0:0:0:
435,192,148410,1,2,0:0:0:0:
230,192,148487,1,8,0:0:0:0:
281,192,148487,1,0,0:0:0:0:
179,192,148564,1,8,0:0:0:0:
332,192,148564,1,0,0:0:0:0:
76,192,148641,1,8,0:0:0:0:
435,192,148641,1,0,0:0:0:0:
25,192,148718,128,8,148872:0:0:0:0:
179,192,148718,128,2,148872:0:0:0:0:
332,192,148718,128,0,148872:0:0:0:0:
486,192,148718,128,0,148872:0:0:0:0:
128,192,148795,1,8,0:0:0:0:
384,192,148795,1,0,0:0:0:0:
76,192,148872,1,8,0:0:0:0:
435,192,148872,1,0,0:0:0:0:
128,192,148949,1,8,0:0:0:0:
384,192,148949,1,0,0:0:0:0:
25,192,149026,1,8,0:0:0:0:
76,192,149026,1,2,0:0:0:0:
179,192,149026,128,0,149333:0:0:0:0:
230,192,149026,128,0,149333:0:0:0:0:
281,192,149026,128,0,149333:0:0:0:0:
332,192,149026,128,0,149333:0:0:0:0:
435,192,149102,1,8,0:0:0:0:
486,192,149102,1,0,0:0:0:0:
25,192,149179,1,8,0:0:0:0:
76,192,149179,1,0,0:0:0:0:
435,192,149256,1,8,0:0:0:0:
486,192,149256,1,0,0:0:0:0:
25,192,149333,1,2,0:0:0:0:
76,192,149333,1,0,0:0:0:0:
128,192,149487,1,0,0:0:0:50:Tom1.wav
384,192,149487,1,0,0:0:0:0:
435,192,149487,1,0,0:0:0:0:
76,192,149564,1,0,0:0:0:50:Tom1.wav
281,192,149564,1,0,0:0:0:0:
332,192,149564,1,0,0:0:0:0:
25,192,149641,1,0,0:0:0:50:Tom1.wav
179,192,149641,1,0,0:0:0:0:
230,192,149641,1,0,0:0:0:0:
76,192,149718,1,0,0:0:0:50:Tom1.wav
128,192,149718,1,0,0:0:0:0:
384,192,149718,1,0,0:0:0:0:
179,192,149795,1,2,0:0:0:0:
230,192,149795,1,0,0:0:0:0:
435,192,149795,1,0,0:0:0:0:
486,192,149795,1,0,0:0:0:0:
25,192,149872,1,2,0:0:0:0:
76,192,149872,1,0,0:0:0:0:
332,192,149872,1,0,0:0:0:0:
384,192,149872,1,0,0:0:0:0:
76,192,149949,1,8,0:0:0:0:
128,192,149949,1,0,0:0:0:0:
179,192,149949,1,0,0:0:0:0:
384,192,149949,1,0,0:0:0:0:
435,192,149949,1,0,0:0:0:0:
486,192,149949,1,0,0:0:0:0:
25,192,150026,1,0,0:0:0:50:Tom1.wav
332,192,150026,1,0,0:0:0:0:
76,192,150102,1,2,0:0:0:0:
128,192,150102,1,0,0:0:0:0:
384,192,150102,1,0,0:0:0:0:
435,192,150102,1,0,0:0:0:0:
25,192,150179,1,2,0:0:0:0:
179,192,150179,1,0,0:0:0:0:
332,192,150179,1,0,0:0:0:0:
486,192,150179,1,0,0:0:0:0:
76,192,150256,1,0,0:0:0:50:Tom2.wav
435,192,150256,1,0,0:0:0:0:
128,192,150333,1,0,0:0:0:50:Tom2.wav
384,192,150333,1,0,0:0:0:0:
25,192,150410,1,2,0:0:0:0:
230,192,150410,1,0,0:0:0:0:
281,192,150410,1,0,0:0:0:0:
486,192,150410,1,0,0:0:0:0:
76,192,150487,1,2,0:0:0:0:
435,192,150487,1,0,0:0:0:0:
25,192,150564,128,0,150641:0:0:0:50:Tom3.wav
128,192,150564,128,0,150641:0:0:0:0:
230,192,150564,128,0,150641:0:0:0:0:
281,192,150564,128,0,150641:0:0:0:0:
384,192,150564,128,0,150641:0:0:0:0:
486,192,150564,128,0,150641:0:0:0:0:
25,192,150718,128,2,150795:0:0:0:0:
128,192,150718,128,0,150795:0:0:0:0:
230,192,150718,128,0,150795:0:0:0:0:
281,192,150718,128,0,150795:0:0:0:0:
384,192,150718,128,0,150795:0:0:0:0:
486,192,150718,128,0,150795:0:0:0:0:
25,192,150872,1,8,0:0:0:0:
76,192,150872,128,0,150949:0:0:0:50:Crash 2.wav
179,192,150872,128,0,150949:0:0:0:0:
230,192,150872,1,0,0:0:0:0:
281,192,150872,1,0,0:0:0:0:
332,192,150872,128,0,150949:0:0:0:0:
435,192,150872,128,0,150949:0:0:0:0:
486,192,150872,1,0,0:0:0:0:
76,192,151026,128,2,151102:0:0:0:0:
128,192,151026,1,0,0:0:0:70:Hat open.wav
179,192,151026,128,0,151102:0:0:0:0:
332,192,151026,128,0,151102:0:0:0:0:
384,192,151026,1,0,0:0:0:0:
435,192,151026,128,0,151102:0:0:0:0:
25,192,151179,128,0,151487:0:0:0:0:
179,192,151179,128,0,151333:0:0:0:0:
332,192,151179,128,0,151333:0:0:0:0:
486,192,151179,128,0,151487:0:0:0:0:
76,192,151333,128,0,151641:0:0:0:0:
128,192,151333,128,0,151487:0:0:0:0:
384,192,151333,128,0,151487:0:0:0:0:
435,192,151333,128,0,151641:0:0:0:0:
179,192,151487,128,0,151641:0:0:0:0:
332,192,151487,128,0,151641:0:0:0:0:
25,192,151641,128,4,152102:0:0:0:0:
128,192,151641,1,2,0:0:0:0:
384,192,151641,128,2,151949:0:0:0:0:
486,192,151641,1,0,0:0:0:50:Crash 2.wav
76,192,151949,1,2,0:0:0:0:
128,192,151949,1,0,0:0:0:0:
332,192,151949,1,0,0:0:0:0:
486,192,151949,128,0,152410:0:0:0:0:
128,192,152102,1,8,0:0:0:0:
179,192,152102,128,0,152410:0:0:0:70:Hat open.wav
281,192,152102,1,0,0:0:0:0:
384,192,152102,1,0,0:0:0:0:
435,192,152102,1,0,0:0:0:0:
76,192,152256,1,0,0:0:0:0:
332,192,152256,1,0,0:0:0:0:
25,192,152410,128,2,152872:0:0:0:0:
128,192,152410,1,0,0:0:0:70:Hat open.wav
281,192,152410,128,0,152564:0:0:0:0:
435,192,152410,1,0,0:0:0:0:
128,192,152564,1,2,0:0:0:0:
179,192,152564,1,0,0:0:0:0:
435,192,152564,1,0,0:0:0:0:
486,192,152564,1,0,0:0:0:0:
76,192,152718,1,8,0:0:0:0:
179,192,152718,1,0,0:0:0:70:Hat open.wav
230,192,152718,1,0,0:0:0:0:
332,192,152718,128,0,152872:0:0:0:0:
486,192,152718,1,0,0:0:0:0:
76,192,152872,1,2,0:0:0:0:
128,192,152872,128,0,153179:0:0:0:0:
384,192,152872,128,0,153179:0:0:0:0:
435,192,152872,1,0,0:0:0:0:
179,192,153026,1,0,0:0:0:70:Hat open.wav
332,192,153026,1,0,0:0:0:0:
25,192,153179,1,2,0:0:0:0:
76,192,153179,1,0,0:0:0:0:
281,192,153179,1,0,0:0:0:0:
435,192,153179,1,0,0:0:0:0:
25,192,153333,128,8,153795:0:0:0:0:
76,192,153333,1,0,0:0:0:70:Hat open.wav
230,192,153333,128,0,153487:0:0:0:0:
281,192,153333,1,0,0:0:0:0:
486,192,153333,1,0,0:0:0:0:
128,192,153487,1,0,0:0:0:0:
332,192,153487,1,0,0:0:0:0:
179,192,153641,1,2,0:0:0:0:
281,192,153641,128,0,153795:0:0:0:70:Hat open.wav
332,192,153641,1,0,0:0:0:0:
486,192,153641,1,0,0:0:0:0:
76,192,153795,1,2,0:0:0:0:
128,192,153795,128,0,153949:0:0:0:0:
384,192,153795,1,0,0:0:0:0:
435,192,153795,128,0,153949:0:0:0:0:
25,192,153949,1,8,0:0:0:0:
179,192,153949,1,0,0:0:0:70:Hat open.wav
230,192,153949,1,0,0:0:0:0:
332,192,153949,1,0,0:0:0:0:
486,192,153949,1,0,0:0:0:0:
76,192,154102,1,4,0:0:0:0:
128,192,154102,128,2,154410:0:0:0:0:
384,192,154102,1,0,0:0:0:0:
435,192,154102,128,0,154410:0:0:0:0:
25,192,154410,1,2,0:0:0:0:
76,192,154410,1,0,0:0:0:0:
332,192,154410,1,0,0:0:0:0:
384,192,154410,1,0,0:0:0:0:
25,192,154564,128,8,155179:0:0:0:0:
76,192,154564,1,0,0:0:0:70:Hat open.wav
281,192,154564,1,0,0:0:0:0:
435,192,154564,1,0,0:0:0:0:
486,192,154564,128,0,154872:0:0:0:0:
128,192,154718,1,0,0:0:0:0:
332,192,154718,1,0,0:0:0:0:
179,192,154872,1,2,0:0:0:0:
281,192,154872,1,0,0:0:0:70:Hat open.wav
384,192,154872,128,0,155333:0:0:0:0:
435,192,154872,1,0,0:0:0:0:
76,192,155026,1,2,0:0:0:0:
128,192,155026,1,0,0:0:0:0:
332,192,155026,1,0,0:0:0:0:
486,192,155026,1,0,0:0:0:0:
76,192,155179,128,8,155487:0:0:0:0:
179,192,155179,1,0,0:0:0:70:Hat open.wav
230,192,155179,1,0,0:0:0:0:
281,192,155179,1,0,0:0:0:0:
435,192,155179,1,0,0:0:0:0:
281,192,155333,1,2,0:0:0:0:
332,192,155333,128,0,155795:0:0:0:0:
435,192,155333,1,0,0:0:0:0:
486,192,155333,128,0,155795:0:0:0:0:
25,192,155487,128,0,155949:0:0:0:70:Hat open.wav
179,192,155487,128,0,155949:0:0:0:0:
76,192,155641,1,2,0:0:0:0:
230,192,155641,1,0,0:0:0:0:
384,192,155641,1,0,0:0:0:0:
76,192,155795,1,8,0:0:0:0:
128,192,155795,1,0,0:0:0:70:Hat open.wav
281,192,155795,128,0,156256:0:0:0:0:
384,192,155795,1,0,0:0:0:0:
435,192,155795,128,0,156256:0:0:0:0:
128,192,155949,1,2,0:0:0:0:
230,192,155949,1,0,0:0:0:0:
332,192,155949,1,0,0:0:0:0:
486,192,155949,1,0,0:0:0:0:
25,192,156102,128,8,156256:0:0:0:0:
76,192,156102,128,0,156256:0:0:0:0:
179,192,156102,1,0,0:0:0:0:
332,192,156179,1,8,0:0:0:0:
384,192,156179,1,0,0:0:0:0:
486,192,156179,1,0,0:0:0:0:
128,192,156256,1,0,0:0:0:50:Tom1.wav
179,192,156256,1,0,0:0:0:0:
230,192,156256,1,0,0:0:0:0:
332,192,156333,1,0,0:0:0:50:Tom1.wav
435,192,156333,1,0,0:0:0:0:
76,192,156410,1,0,0:0:0:50:Tom2.wav
128,192,156410,1,0,0:0:0:0:
230,192,156410,1,0,0:0:0:0:
281,192,156487,1,0,0:0:0:50:Tom2.wav
332,192,156487,1,0,0:0:0:0:
384,192,156487,1,0,0:0:0:0:
25,192,156564,128,4,157179:0:0:0:0:
76,192,156564,1,2,0:0:0:0:
128,192,156564,1,0,0:0:0:0:
435,192,156564,128,0,156872:0:0:0:0:
486,192,156564,1,0,0:0:0:0:
76,192,156872,1,2,0:0:0:0:
128,192,156872,1,0,0:0:0:0:
332,192,156872,128,0,157026:0:0:0:0:
384,192,156872,1,0,0:0:0:0:
128,192,157026,1,8,0:0:0:0:
179,192,157026,1,0,0:0:0:0:
281,192,157026,128,0,157179:0:0:0:0:
384,192,157026,1,0,0:0:0:0:
435,192,157026,1,0,0:0:0:0:
230,192,157179,1,0,0:0:0:70:Hat open.wav
486,192,157179,1,0,0:0:0:0:
25,192,157333,1,2,0:0:0:0:
76,192,157333,128,0,157487:0:0:0:0:
332,192,157333,1,0,0:0:0:0:
384,192,157333,128,0,157641:0:0:0:0:
128,192,157487,128,0,157641:0:0:0:70:Hat open.wav
230,192,157487,1,0,0:0:0:0:
25,192,157641,1,8,0:0:0:0:
76,192,157641,1,2,0:0:0:0:
281,192,157641,1,0,0:0:0:0:
332,192,157641,1,0,0:0:0:0:
435,192,157641,1,0,0:0:0:0:
179,192,157795,128,0,158256:0:0:0:70:Hat open.wav
486,192,157795,128,0,158256:0:0:0:0:
25,192,157949,1,2,0:0:0:0:
76,192,157949,1,0,0:0:0:0:
332,192,157949,1,0,0:0:0:0:
384,192,157949,1,0,0:0:0:0:
230,192,158102,1,0,0:0:0:70:Hat open.wav
281,192,158102,1,0,0:0:0:0:
76,192,158256,1,8,0:0:0:0:
128,192,158256,128,2,158718:0:0:0:0:
332,192,158256,1,0,0:0:0:0:
384,192,158256,1,0,0:0:0:0:
435,192,158256,128,0,158564:0:0:0:0:
25,192,158410,1,0,0:0:0:70:Hat open.wav
179,192,158410,1,0,0:0:0:0:
76,192,158564,1,2,0:0:0:0:
332,192,158564,128,0,159026:0:0:0:0:
384,192,158564,1,0,0:0:0:0:
486,192,158564,1,0,0:0:0:0:
25,192,158718,128,0,159026:0:0:0:70:Hat open.wav
281,192,158718,1,0,0:0:0:0:
76,192,158872,1,8,0:0:0:0:
179,192,158872,1,2,0:0:0:0:
230,192,158872,1,0,0:0:0:0:
435,192,158872,1,0,0:0:0:0:
486,192,158872,1,0,0:0:0:0:
76,192,159026,128,4,159333:0:0:0:0:
128,192,159026,1,2,0:0:0:0:
281,192,159026,1,0,0:0:0:50:Crash 2.wav
384,192,159026,128,0,159333:0:0:0:0:
486,192,159026,1,0,0:0:0:0:
128,192,159333,1,2,0:0:0:0:
179,192,159333,1,0,0:0:0:0:
435,192,159333,1,0,0:0:0:0:
486,192,159333,1,0,0:0:0:0:
76,192,159487,128,8,159795:0:0:0:0:
128,192,159487,1,0,0:0:0:70:Hat open.wav
281,192,159487,1,0,0:0:0:0:
384,192,159487,128,0,159795:0:0:0:0:
435,192,159487,1,0,0:0:0:0:
25,192,159641,1,0,0:0:0:0:
230,192,159641,1,0,0:0:0:0:
128,192,159795,128,2,160102:0:0:0:0:
179,192,159795,1,0,0:0:0:70:Hat open.wav
435,192,159795,128,0,160102:0:0:0:0:
486,192,159795,1,0,0:0:0:0:
76,192,159949,1,0,0:0:0:0:
332,192,159949,1,0,0:0:0:0:
25,192,160102,128,2,160333:0:0:0:0:
179,192,160102,1,8,0:0:0:0:
281,192,160102,128,0,160333:0:0:0:50:Crash 2.wav
384,192,160102,1,0,0:0:0:0:
486,192,160102,1,0,0:0:0:0:
76,192,160256,128,0,160333:0:0:0:0:
332,192,160256,128,0,160333:0:0:0:0:
128,192,160410,1,2,0:0:0:0:
179,192,160410,1,0,0:0:0:50:Tom1.wav
384,192,160410,1,0,0:0:0:0:
435,192,160410,1,0,0:0:0:0:
25,192,160487,128,0,160641:0:0:0:0:
281,192,160487,128,0,160641:0:0:0:0:
76,192,160564,128,8,160718:0:0:0:0:
332,192,160564,128,0,160718:0:0:0:0:
128,192,160641,128,8,160795:0:0:0:0:
384,192,160641,128,0,160795:0:0:0:0:
179,192,160718,128,8,160872:0:0:0:0:
230,192,160718,1,2,0:0:0:0:
435,192,160718,128,0,160872:0:0:0:0:
486,192,160718,1,0,0:0:0:0:
76,192,160795,128,0,160949:0:0:0:0:
332,192,160795,128,0,160949:0:0:0:0:
25,192,160872,128,8,161026:0:0:0:0:
281,192,160872,128,0,161026:0:0:0:0:
179,192,160949,128,8,161102:0:0:0:0:
435,192,160949,128,0,161102:0:0:0:0:
128,192,161026,128,8,161179:0:0:0:0:
230,192,161026,1,2,0:0:0:0:
384,192,161026,128,0,161179:0:0:0:0:
486,192,161026,1,0,0:0:0:0:
76,192,161102,128,0,161256:0:0:0:50:Tom1.wav
332,192,161102,128,0,161256:0:0:0:0:
179,192,161179,128,0,161333:0:0:0:50:Tom1.wav
435,192,161179,128,0,161333:0:0:0:0:
230,192,161256,128,0,161410:0:0:0:50:Tom1.wav
486,192,161256,128,0,161410:0:0:0:0:
25,192,161333,1,0,0:0:0:50:Tom2.wav
76,192,161333,128,0,161487:0:0:0:0:
281,192,161333,1,0,0:0:0:0:
332,192,161333,128,0,161487:0:0:0:0:
128,192,161410,128,0,161487:0:0:0:50:Tom2.wav
384,192,161410,128,0,161487:0:0:0:0:
179,192,161487,128,2,161949:0:0:0:0:
230,192,161487,1,0,0:0:0:50:Crash 2.wav
435,192,161487,128,0,161949:0:0:0:0:
486,192,161487,1,0,0:0:0:0:
128,192,161795,1,0,0:0:0:0:
281,192,161795,1,0,0:0:0:0:
25,192,161949,1,2,0:0:0:0:
76,192,161949,1,8,0:0:0:0:
230,192,161949,1,0,0:0:0:0:
332,192,161949,1,0,0:0:0:0:
384,192,161949,1,0,0:0:0:0:
128,192,162102,1,0,0:0:0:70:Hat open.wav
486,192,162102,1,0,0:0:0:0:
25,192,162256,128,2,162564:0:0:0:0:
76,192,162256,1,0,0:0:0:0:
281,192,162256,128,0,162564:0:0:0:0:
332,192,162256,1,0,0:0:0:0:
179,192,162410,1,0,0:0:0:70:Hat open.wav
435,192,162410,1,0,0:0:0:0:
128,192,162564,1,2,0:0:0:0:
230,192,162564,1,8,0:0:0:0:
332,192,162564,1,0,0:0:0:0:
384,192,162564,1,0,0:0:0:0:
486,192,162564,1,0,0:0:0:0:
25,192,162718,128,0,163026:0:0:0:70:Hat open.wav
281,192,162718,128,0,163026:0:0:0:0:
76,192,162872,1,2,0:0:0:0:
179,192,162872,1,0,0:0:0:0:
384,192,162872,1,0,0:0:0:0:
435,192,162872,1,0,0:0:0:0:
128,192,163026,1,0,0:0:0:70:Hat open.wav
486,192,163026,1,0,0:0:0:0:
25,192,163179,1,2,0:0:0:0:
76,192,163179,128,8,163487:0:0:0:0:
281,192,163179,1,0,0:0:0:0:
332,192,163179,128,0,163487:0:0:0:0:
435,192,163179,1,0,0:0:0:0:
128,192,163333,1,0,0:0:0:70:Hat open.wav
230,192,163333,1,0,0:0:0:0:
25,192,163487,1,2,0:0:0:0:
179,192,163487,128,0,163795:0:0:0:0:
435,192,163487,128,0,163795:0:0:0:0:
486,192,163487,1,0,0:0:0:0:
281,192,163641,1,0,0:0:0:70:Hat open.wav
384,192,163641,1,0,0:0:0:0:
25,192,163795,128,2,164102:0:0:0:0:
76,192,163795,1,8,0:0:0:0:
332,192,163795,128,0,164102:0:0:0:0:
384,192,163795,1,0,0:0:0:0:
486,192,163795,1,0,0:0:0:0:
128,192,163949,1,2,0:0:0:0:
179,192,163949,1,4,0:0:0:0:
230,192,163949,128,0,164410:0:0:0:50:Crash 2.wav
435,192,163949,1,0,0:0:0:0:
486,192,163949,128,0,164410:0:0:0:0:
25,192,164410,1,8,0:0:0:0:
76,192,164410,1,2,0:0:0:0:
281,192,164410,1,0,0:0:0:0:
332,192,164410,1,0,0:0:0:0:
384,192,164410,1,0,0:0:0:0:
179,192,164564,1,0,0:0:0:70:Hat open.wav
435,192,164564,1,0,0:0:0:0:
25,192,164718,1,2,0:0:0:0:
128,192,164718,128,0,165949:0:0:0:0:
332,192,164718,1,0,0:0:0:0:
384,192,164718,128,0,165949:0:0:0:0:
76,192,164872,1,0,0:0:0:70:Hat open.wav
230,192,164872,1,0,0:0:0:0:
179,192,165026,1,8,0:0:0:0:
281,192,165026,1,2,0:0:0:0:
332,192,165026,1,0,0:0:0:0:
435,192,165026,1,0,0:0:0:0:
486,192,165026,1,0,0:0:0:0:
76,192,165179,1,0,0:0:0:70:Hat open.wav
230,192,165179,1,0,0:0:0:0:
25,192,165333,128,2,166102:0:0:0:0:
179,192,165333,1,0,0:0:0:0:
281,192,165333,128,0,166102:0:0:0:0:
486,192,165333,1,0,0:0:0:0:
76,192,165487,1,0,0:0:0:70:Hat open.wav
435,192,165487,1,0,0:0:0:0:
179,192,165641,1,8,0:0:0:0:
230,192,165641,1,2,0:0:0:0:
332,192,165641,1,0,0:0:0:0:
435,192,165641,1,0,0:0:0:0:
486,192,165641,1,0,0:0:0:0:
76,192,165795,1,0,0:0:0:70:Hat open.wav
230,192,165795,1,0,0:0:0:0:
76,192,165949,128,2,166102:0:0:0:0:
179,192,165949,1,0,0:0:0:50:Tom1.wav
332,192,165949,128,0,166102:0:0:0:0:
435,192,165949,1,0,0:0:0:0:
179,192,166102,1,8,0:0:0:0:
230,192,166102,1,0,0:0:0:0:
435,192,166102,1,0,0:0:0:0:
486,192,166102,1,0,0:0:0:0:
25,192,166179,1,8,0:0:0:0:
76,192,166179,1,0,0:0:0:0:
281,192,166179,1,0,0:0:0:0:
332,192,166179,1,0,0:0:0:0:
128,192,166256,1,8,0:0:0:0:
179,192,166256,1,2,0:0:0:0:
384,192,166256,1,0,0:0:0:0:
435,192,166256,1,0,0:0:0:0:
25,192,166333,1,8,0:0:0:0:
230,192,166333,1,0,0:0:0:0:
281,192,166333,1,0,0:0:0:0:
486,192,166333,1,0,0:0:0:0:
76,192,166410,1,8,0:0:0:0:
179,192,166410,1,0,0:0:0:0:
332,192,166410,1,0,0:0:0:0:
435,192,166410,1,0,0:0:0:0:
25,192,166487,1,8,0:0:0:0:
128,192,166487,1,0,0:0:0:0:
384,192,166487,1,0,0:0:0:0:
486,192,166487,1,0,0:0:0:0:
179,192,166564,128,2,166872:0:0:0:0:
230,192,166564,128,4,166872:0:0:0:0:
281,192,166564,128,0,166872:0:0:0:0:
332,192,166564,128,0,166872:0:0:0:0:
76,192,166872,1,8,0:0:0:0:
128,192,166872,1,0,0:0:0:0:
384,192,166872,1,0,0:0:0:0:
435,192,166872,1,0,0:0:0:0:
25,192,167026,128,2,167487:0:0:0:0:
128,192,167026,128,0,167333:0:0:0:50:Crash 2.wav
384,192,167026,128,0,167333:0:0:0:0:
486,192,167026,128,0,167487:0:0:0:0:
179,192,167333,1,2,0:0:0:0:
332,192,167333,1,0,0:0:0:0:
76,192,167487,1,8,0:0:0:0:
128,192,167487,128,0,167795:0:0:0:50:Crash 2.wav
230,192,167487,128,0,167949:0:0:0:0:
281,192,167487,128,0,167949:0:0:0:0:
384,192,167487,128,0,167795:0:0:0:0:
435,192,167487,1,0,0:0:0:0:
179,192,167641,1,0,0:0:0:50:Tom1.wav
332,192,167641,1,0,0:0:0:0:
25,192,167718,1,0,0:0:0:50:Tom1.wav
486,192,167718,1,0,0:0:0:0:
76,192,167795,128,2,168256:0:0:0:0:
179,192,167795,1,4,0:0:0:0:
332,192,167795,1,0,0:0:0:0:
435,192,167795,128,0,168256:0:0:0:0:
25,192,168102,1,8,0:0:0:0:
128,192,168102,1,0,0:0:0:0:
179,192,168102,1,0,0:0:0:0:
332,192,168102,1,0,0:0:0:0:
384,192,168102,1,0,0:0:0:0:
486,192,168102,1,0,0:0:0:0:
128,192,168256,1,2,0:0:0:0:
230,192,168256,128,0,168718:0:0:0:50:Crash 2.wav
281,192,168256,128,0,168718:0:0:0:0:
384,192,168256,1,0,0:0:0:0:
25,192,168410,128,0,168564:0:0:0:0:
486,192,168410,128,0,168564:0:0:0:0:
128,192,168487,128,0,168641:0:0:0:0:
384,192,168487,128,0,168641:0:0:0:0:
76,192,168564,128,2,168718:0:0:0:0:
435,192,168564,128,0,168718:0:0:0:0:
179,192,168641,128,0,168795:0:0:0:0:
332,192,168641,128,0,168795:0:0:0:0:
25,192,168718,128,8,168795:0:0:0:0:
128,192,168718,1,0,0:0:0:0:
384,192,168718,1,0,0:0:0:0:
486,192,168718,128,0,168795:0:0:0:0:
76,192,168872,1,0,0:0:0:50:Tom3.wav
128,192,168872,1,0,0:0:0:0:
384,192,168872,1,0,0:0:0:0:
435,192,168872,1,0,0:0:0:0:
179,192,168949,1,2,0:0:0:0:
332,192,168949,1,0,0:0:0:0:
25,192,169026,1,8,0:0:0:0:
76,192,169026,128,0,169333:0:0:0:50:Crash 2.wav
230,192,169026,1,0,0:0:0:0:
281,192,169026,1,0,0:0:0:0:
435,192,169026,128,0,169333:0:0:0:0:
486,192,169026,1,0,0:0:0:0:
128,192,169179,1,2,0:0:0:0:
179,192,169179,1,0,0:0:0:0:
332,192,169179,1,0,0:0:0:0:
384,192,169179,1,0,0:0:0:0:
25,192,169333,1,2,0:0:0:0:
179,192,169333,1,0,0:0:0:0:
332,192,169333,1,0,0:0:0:0:
486,192,169333,1,0,0:0:0:0:
25,192,169487,1,4,0:0:0:0:
76,192,169487,1,8,0:0:0:0:
128,192,169487,128,0,169795:0:0:0:0:
384,192,169487,128,0,169795:0:0:0:0:
435,192,169487,1,0,0:0:0:0:
486,192,169487,1,0,0:0:0:0:
25,192,169641,1,2,0:0:0:0:
230,192,169641,1,0,0:0:0:0:
281,192,169641,1,0,0:0:0:0:
486,192,169641,1,0,0:0:0:0:
76,192,169795,1,2,0:0:0:0:
179,192,169795,1,0,0:0:0:0:
332,192,169795,1,0,0:0:0:0:
435,192,169795,1,0,0:0:0:0:
25,192,169949,128,8,170256:0:0:0:0:
76,192,169949,1,0,0:0:0:50:Crash 2.wav
230,192,169949,1,0,0:0:0:0:
281,192,169949,1,0,0:0:0:0:
435,192,169949,1,0,0:0:0:0:
486,192,169949,128,0,170256:0:0:0:0:
128,192,170102,1,2,0:0:0:0:
179,192,170102,1,0,0:0:0:0:
384,192,170102,1,0,0:0:0:0:
76,192,170179,1,2,0:0:0:0:
281,192,170179,1,0,0:0:0:0:
332,192,170179,1,0,0:0:0:0:
128,192,170256,1,8,0:0:0:0:
179,192,170256,1,0,0:0:0:0:
230,192,170256,1,0,0:0:0:0:
384,192,170333,1,8,0:0:0:0:
435,192,170333,1,0,0:0:0:0:
486,192,170333,1,0,0:0:0:0:
25,192,170410,1,8,0:0:0:0:
76,192,170410,1,0,0:0:0:0:
128,192,170410,1,0,0:0:0:0:
384,192,170487,1,8,0:0:0:0:
435,192,170487,1,0,0:0:0:0:
486,192,170487,1,0,0:0:0:0:
25,192,170564,1,0,0:0:0:50:Tom1.wav
76,192,170564,1,0,0:0:0:0:
128,192,170564,1,0,0:0:0:0:
179,192,170641,1,0,0:0:0:50:Tom1.wav
435,192,170641,1,0,0:0:0:0:
486,192,170641,1,0,0:0:0:0:
25,192,170718,1,2,0:0:0:0:
76,192,170718,1,0,0:0:0:0:
384,192,170718,1,0,0:0:0:0:
128,192,170795,1,2,0:0:0:0:
281,192,170795,1,0,0:0:0:0:
332,192,170795,1,0,0:0:0:0:
179,192,170872,1,0,0:0:0:50:Tom2.wav
230,192,170872,1,0,0:0:0:0:
486,192,170872,1,0,0:0:0:0:
25,192,170949,1,0,0:0:0:50:Tom2.wav
76,192,170949,1,0,0:0:0:0:
435,192,170949,1,0,0:0:0:0:
128,192,171026,1,2,0:0:0:0:
332,192,171026,1,0,0:0:0:0:
384,192,171026,1,0,0:0:0:0:
25,192,171102,1,2,0:0:0:0:
230,192,171102,1,0,0:0:0:0:
281,192,171102,1,0,0:0:0:0:
76,192,171179,1,8,0:0:0:0:
128,192,171179,1,0,0:0:0:50:Crash 2.wav
435,192,171179,1,0,0:0:0:0:
486,192,171179,1,0,0:0:0:0:
25,192,171333,1,2,0:0:0:0:
76,192,171333,128,4,171949:0:0:0:0:
128,192,171333,1,0,0:0:0:0:
384,192,171333,1,0,0:0:0:0:
435,192,171333,128,0,171641:0:0:0:0:
486,192,171333,1,0,0:0:0:0:
128,192,171641,1,2,0:0:0:0:
179,192,171641,1,0,0:0:0:0:
332,192,171641,1,0,0:0:0:0:
384,192,171641,128,0,171795:0:0:0:0:
25,192,171795,1,8,0:0:0:0:
179,192,171795,1,0,0:0:0:70:Hat open.wav
230,192,171795,1,0,0:0:0:0:
435,192,171795,1,0,0:0:0:0:
486,192,171795,128,0,171949:0:0:0:0:
281,192,171949,1,0,0:0:0:0:
384,192,171949,1,0,0:0:0:0:
25,192,172102,1,2,0:0:0:0:
76,192,172102,128,0,172256:0:0:0:70:Hat open.wav
332,192,172102,1,0,0:0:0:0:
486,192,172102,128,0,172410:0:0:0:0:
128,192,172256,128,2,172410:0:0:0:0:
179,192,172256,1,0,0:0:0:0:
281,192,172256,1,0,0:0:0:0:
435,192,172256,1,0,0:0:0:0:
25,192,172410,128,8,172872:0:0:0:0:
76,192,172410,1,0,0:0:0:70:Hat open.wav
230,192,172410,1,0,0:0:0:0:
281,192,172410,128,0,172564:0:0:0:0:
384,192,172410,1,0,0:0:0:0:
128,192,172564,1,2,0:0:0:0:
179,192,172564,1,0,0:0:0:0:
332,192,172564,128,0,172872:0:0:0:0:
486,192,172564,1,0,0:0:0:0:
76,192,172718,1,0,0:0:0:70:Hat open.wav
281,192,172718,1,0,0:0:0:0:
179,192,172872,1,2,0:0:0:0:
230,192,172872,1,0,0:0:0:0:
435,192,172872,1,0,0:0:0:0:
486,192,172872,1,0,0:0:0:0:
25,192,173026,1,8,0:0:0:0:
76,192,173026,128,0,173179:0:0:0:70:Hat open.wav
128,192,173026,1,0,0:0:0:0:
332,192,173026,1,0,0:0:0:0:
384,192,173026,128,0,173179:0:0:0:0:
179,192,173179,1,0,0:0:0:0:
486,192,173179,1,0,0:0:0:0:
128,192,173333,128,2,173641:0:0:0:0:
230,192,173333,1,0,0:0:0:70:Hat open.wav
281,192,173333,1,0,0:0:0:0:
435,192,173333,128,0,173641:0:0:0:0:
25,192,173487,1,2,0:0:0:0:
76,192,173487,128,0,173641:0:0:0:0:
332,192,173487,1,0,0:0:0:0:
384,192,173487,128,0,173641:0:0:0:0:
25,192,173641,1,8,0:0:0:0:
179,192,173641,1,0,0:0:0:70:Hat open.wav
230,192,173641,1,0,0:0:0:0:
332,192,173641,1,0,0:0:0:0:
486,192,173641,1,0,0:0:0:0:
25,192,173795,1,2,0:0:0:0:
76,192,173795,1,4,0:0:0:0:
128,192,173795,128,0,174256:0:0:0:0:
332,192,173795,128,0,174564:0:0:0:0:
384,192,173795,1,0,0:0:0:0:
25,192,174102,1,2,0:0:0:0:
76,192,174102,1,0,0:0:0:0:
179,192,174102,1,0,0:0:0:0:
230,192,174102,1,0,0:0:0:0:
76,192,174256,1,8,0:0:0:0:
281,192,174256,1,0,0:0:0:70:Hat open.wav
384,192,174256,1,0,0:0:0:0:
435,192,174256,1,0,0:0:0:0:
486,192,174256,128,0,175026:0:0:0:0:
25,192,174410,1,0,0:0:0:0:
230,192,174410,1,0,0:0:0:0:
76,192,174564,128,2,175026:0:0:0:0:
128,192,174564,1,0,0:0:0:70:Hat open.wav
384,192,174564,1,0,0:0:0:0:
435,192,174564,1,0,0:0:0:0:
179,192,174718,1,2,0:0:0:0:
230,192,174718,1,0,0:0:0:0:
332,192,174718,1,0,0:0:0:0:
384,192,174718,1,0,0:0:0:0:
25,192,174872,128,8,175026:0:0:0:0:
179,192,174872,1,0,0:0:0:70:Hat open.wav
281,192,174872,1,0,0:0:0:0:
332,192,174872,1,0,0:0:0:0:
435,192,174872,128,0,175026:0:0:0:0:
128,192,175026,128,2,175487:0:0:0:0:
230,192,175026,1,0,0:0:0:0:
281,192,175026,1,0,0:0:0:0:
384,192,175026,128,0,175487:0:0:0:0:
25,192,175179,1,0,0:0:0:70:Hat open.wav
486,192,175179,1,0,0:0:0:0:
25,192,175333,1,2,0:0:0:0:
76,192,175333,1,0,0:0:0:0:
435,192,175333,1,0,0:0:0:0:
486,192,175333,1,0,0:0:0:0:
76,192,175487,1,8,0:0:0:0:
179,192,175487,1,0,0:0:0:70:Hat open.wav
230,192,175487,1,0,0:0:0:0:
332,192,175487,1,0,0:0:0:0:
435,192,175487,1,0,0:0:0:0:
25,192,175641,1,2,0:0:0:0:
281,192,175641,1,0,0:0:0:0:
332,192,175641,1,0,0:0:0:0:
486,192,175641,1,0,0:0:0:0:
76,192,175795,128,0,176256:0:0:0:50:Tom2.wav
128,192,175795,128,0,175949:0:0:0:0:
230,192,175795,1,0,0:0:0:0:
281,192,175795,1,0,0:0:0:0:
384,192,175949,128,8,176256:0:0:0:0:
435,192,175949,128,0,176256:0:0:0:0:
486,192,175949,1,0,0:0:0:0:
128,192,176026,1,8,0:0:0:0:
179,192,176026,1,0,0:0:0:0:
230,192,176026,1,0,0:0:0:0:
25,192,176102,1,8,0:0:0:0:
281,192,176102,1,0,0:0:0:0:
332,192,176102,1,0,0:0:0:0:
128,192,176256,1,2,0:0:0:0:
179,192,176256,128,4,176564:0:0:0:0:
230,192,176256,1,0,0:0:0:0:
332,192,176256,1,0,0:0:0:0:
486,192,176256,128,0,176564:0:0:0:0:
25,192,176718,1,8,0:0:0:0:
128,192,176718,1,2,0:0:0:0:
179,192,176718,128,0,177333:0:0:0:0:
384,192,176718,128,0,177026:0:0:0:0:
435,192,176718,1,0,0:0:0:0:
281,192,176872,1,0,0:0:0:70:Hat open.wav
486,192,176872,1,0,0:0:0:0:
25,192,177026,128,2,177333:0:0:0:0:
128,192,177026,1,0,0:0:0:0:
332,192,177026,1,0,0:0:0:0:
435,192,177026,1,0,0:0:0:0:
281,192,177179,1,0,0:0:0:70:Hat open.wav
486,192,177179,1,0,0:0:0:0:
128,192,177333,1,8,0:0:0:0:
230,192,177333,128,2,177795:0:0:0:0:
384,192,177333,1,0,0:0:0:0:
435,192,177333,1,0,0:0:0:0:
486,192,177333,1,0,0:0:0:0:
76,192,177487,128,0,177795:0:0:0:70:Hat open.wav
332,192,177487,1,0,0:0:0:0:
128,192,177641,1,2,0:0:0:0:
179,192,177641,1,0,0:0:0:0:
435,192,177641,1,0,0:0:0:0:
486,192,177641,1,0,0:0:0:0:
25,192,177795,1,0,0:0:0:70:Hat open.wav
384,192,177795,1,0,0:0:0:0:
25,192,177949,1,8,0:0:0:0:
230,192,177949,1,2,0:0:0:0:
281,192,177949,1,0,0:0:0:0:
332,192,177949,128,0,178410:0:0:0:0:
486,192,177949,128,0,178256:0:0:0:0:
76,192,178102,1,0,0:0:0:70:Hat open.wav
179,192,178102,1,0,0:0:0:0:
25,192,178256,1,2,0:0:0:0:
230,192,178256,1,0,0:0:0:0:
281,192,178256,1,0,0:0:0:0:
384,192,178256,128,0,178410:0:0:0:0:
76,192,178410,1,0,0:0:0:70:Hat open.wav
179,192,178410,1,0,0:0:0:0:
230,192,178410,1,0,0:0:0:0:
435,192,178410,128,0,178718:0:0:0:0:
486,192,178410,128,0,178718:0:0:0:0:
128,192,178564,1,2,0:0:0:0:
179,192,178564,1,8,0:0:0:0:
230,192,178564,1,0,0:0:0:0:
332,192,178564,1,0,0:0:0:0:
384,192,178564,1,0,0:0:0:0:
25,192,178718,1,2,0:0:0:0:
76,192,178718,128,4,179487:0:0:0:0:
281,192,178718,128,0,179179:0:0:0:0:
332,192,178718,1,0,0:0:0:0:
128,192,179026,1,0,0:0:0:0:
332,192,179026,1,0,0:0:0:0:
179,192,179179,1,2,0:0:0:0:
230,192,179179,1,8,0:0:0:0:
384,192,179179,128,0,179949:0:0:0:70:Hat open.wav
435,192,179179,1,0,0:0:0:0:
25,192,179333,1,0,0:0:0:0:
332,192,179333,1,0,0:0:0:0:
128,192,179487,128,2,179949:0:0:0:0:
179,192,179487,1,0,0:0:0:70:Hat open.wav
435,192,179487,1,0,0:0:0:0:
486,192,179487,1,0,0:0:0:0:
76,192,179641,1,0,0:0:0:0:
281,192,179641,1,0,0:0:0:0:
25,192,179795,1,2,0:0:0:0:
179,192,179795,1,8,0:0:0:0:
332,192,179795,1,0,0:0:0:70:Hat open.wav
435,192,179795,128,0,179949:0:0:0:0:
486,192,179795,1,0,0:0:0:0:
179,192,179949,128,0,180256:0:0:0:50:Tom1.wav
230,192,179949,1,0,0:0:0:0:
281,192,179949,1,0,0:0:0:0:
332,192,179949,128,0,180256:0:0:0:0:
76,192,180102,1,2,0:0:0:0:
128,192,180102,1,0,0:0:0:0:
384,192,180102,1,0,0:0:0:0:
435,192,180102,1,0,0:0:0:0:
25,192,180256,1,8,0:0:0:0:
76,192,180256,1,0,0:0:0:50:Crash 2.wav
435,192,180256,1,0,0:0:0:0:
486,192,180256,1,0,0:0:0:0:
128,192,180410,1,2,0:0:0:0:
179,192,180410,1,8,0:0:0:0:
384,192,180410,1,0,0:0:0:50:Crash 2.wav
76,192,180487,1,0,0:0:0:0:
435,192,180487,1,0,0:0:0:0:
486,192,180487,1,0,0:0:0:0:
25,192,180564,1,8,0:0:0:0:
128,192,180564,1,0,0:0:0:0:
179,192,180564,1,0,0:0:0:0:
332,192,180641,1,8,0:0:0:0:
384,192,180641,1,0,0:0:0:0:
486,192,180641,1,0,0:0:0:0:
25,192,180718,1,8,0:0:0:0:
76,192,180718,1,2,0:0:0:0:
179,192,180718,1,0,0:0:0:0:
128,192,180872,1,0,0:0:0:50:Tom2.wav
179,192,180872,1,0,0:0:0:0:
332,192,180872,1,0,0:0:0:0:
230,192,181026,1,0,0:0:0:50:Tom3.wav
281,192,181026,1,0,0:0:0:0:
435,192,181026,1,0,0:0:0:0:
76,192,181179,1,2,0:0:0:0:
128,192,181179,1,4,0:0:0:0:
384,192,181179,1,0,0:0:0:0:
435,192,181179,1,0,0:0:0:0:
486,192,181179,1,0,0:0:0:0:
25,192,181487,1,2,0:0:0:0:
281,192,181487,1,0,0:0:0:0:
332,192,181487,1,0,0:0:0:0:
486,192,181487,1,0,0:0:0:0:
76,192,181641,1,8,0:0:0:0:
128,192,181641,1,0,0:0:0:50:Crash 2.wav
230,192,181641,1,0,0:0:0:0:
384,192,181641,1,0,0:0:0:0:
435,192,181641,1,0,0:0:0:0:
25,192,181795,1,2,0:0:0:0:
179,192,181795,1,0,0:0:0:0:
332,192,181795,1,0,0:0:0:0:
486,192,181795,1,0,0:0:0:0:
76,192,181949,1,8,0:0:0:0:
128,192,181949,1,0,0:0:0:50:Crash 2.wav
281,192,181949,1,0,0:0:0:0:
384,192,181949,1,0,0:0:0:0:
486,192,181949,1,0,0:0:0:0:
179,192,182102,1,2,0:0:0:0:
230,192,182102,1,0,0:0:0:0:
435,192,182102,1,0,0:0:0:0:
486,192,182102,1,0,0:0:0:0:
76,192,182256,1,8,0:0:0:0:
128,192,182256,1,0,0:0:0:50:Crash 2.wav
281,192,182256,1,0,0:0:0:0:
384,192,182256,1,0,0:0:0:0:
486,192,182256,1,0,0:0:0:0:
128,192,182410,1,2,0:0:0:0:
230,192,182410,1,0,0:0:0:0:
332,192,182410,1,0,0:0:0:0:
25,192,182487,1,2,0:0:0:0:
76,192,182487,1,0,0:0:0:0:
435,192,182487,1,0,0:0:0:0:
128,192,182564,1,8,0:0:0:0:
179,192,182564,1,0,0:0:0:50:Crash 2.wav
332,192,182564,1,0,0:0:0:0:
384,192,182564,1,0,0:0:0:0:
486,192,182564,1,0,0:0:0:0:
25,192,182718,1,2,0:0:0:0:
128,192,182718,1,0,0:0:0:0:
179,192,182718,1,0,0:0:0:0:
486,192,182718,1,0,0:0:0:0:
25,192,182872,1,8,0:0:0:0:
76,192,182872,1,0,0:0:0:50:Crash 2.wav
230,192,182872,1,0,0:0:0:0:
384,192,182872,1,0,0:0:0:0:
435,192,182872,1,0,0:0:0:0:
128,192,183026,1,2,0:0:0:0:
281,192,183026,1,0,0:0:0:0:
332,192,183026,1,0,0:0:0:0:
486,192,183026,1,0,0:0:0:0:
25,192,183179,1,8,0:0:0:0:
179,192,183179,1,0,0:0:0:50:Crash 2.wav
384,192,183179,1,0,0:0:0:0:
435,192,183179,1,0,0:0:0:0:
76,192,183333,1,2,0:0:0:0:
230,192,183333,1,0,0:0:0:0:
435,192,183333,1,0,0:0:0:0:
486,192,183333,1,0,0:0:0:0:
25,192,183487,1,8,0:0:0:0:
128,192,183487,1,0,0:0:0:50:Crash 2.wav
332,192,183487,1,0,0:0:0:0:
384,192,183487,1,0,0:0:0:0:
486,192,183487,1,0,0:0:0:0:
76,192,183641,1,2,0:0:0:0:
179,192,183641,1,4,0:0:0:0:
230,192,183641,1,0,0:0:0:0:
281,192,183641,1,0,0:0:0:0:
435,192,183641,1,0,0:0:0:0:
25,192,183949,1,2,0:0:0:0:
128,192,183949,1,0,0:0:0:0:
332,192,183949,1,0,0:0:0:0:
486,192,183949,1,0,0:0:0:0:
76,192,184102,1,8,0:0:0:0:
128,192,184102,1,0,0:0:0:50:Crash 2.wav
230,192,184102,1,0,0:0:0:0:
384,192,184102,1,0,0:0:0:0:
435,192,184102,1,0,0:0:0:0:
25,192,184256,1,2,0:0:0:0:
179,192,184256,1,0,0:0:0:0:
332,192,184256,1,0,0:0:0:0:
486,192,184256,1,0,0:0:0:0:
76,192,184410,1,8,0:0:0:0:
128,192,184410,1,0,0:0:0:50:Crash 2.wav
230,192,184410,1,0,0:0:0:0:
332,192,184410,1,0,0:0:0:0:
435,192,184410,1,0,0:0:0:0:
25,192,184564,1,2,0:0:0:0:
76,192,184564,1,0,0:0:0:0:
281,192,184564,1,0,0:0:0:0:
486,192,184564,1,0,0:0:0:0:
25,192,184718,1,8,0:0:0:0:
179,192,184718,1,0,0:0:0:50:Crash 2.wav
230,192,184718,1,0,0:0:0:0:
384,192,184718,1,0,0:0:0:0:
486,192,184718,1,0,0:0:0:0:
76,192,184872,1,2,0:0:0:0:
128,192,184872,1,0,0:0:0:0:
332,192,184872,1,0,0:0:0:0:
435,192,184872,1,0,0:0:0:0:
25,192,185026,128,8,185102:0:0:0:0:
230,192,185026,1,0,0:0:0:0:
281,192,185026,1,0,0:0:0:0:
486,192,185026,128,0,185102:0:0:0:0:
76,192,185102,1,8,0:0:0:0:
128,192,185102,1,0,0:0:0:0:
384,192,185102,1,0,0:0:0:0:
435,192,185102,1,0,0:0:0:0:
25,192,185179,1,2,0:0:0:0:
179,192,185179,128,0,185256:0:0:0:0:
332,192,185179,128,0,185256:0:0:0:0:
486,192,185179,1,0,0:0:0:0:
128,192,185256,1,2,0:0:0:0:
230,192,185256,1,0,0:0:0:0:
281,192,185256,1,0,0:0:0:0:
384,192,185256,1,0,0:0:0:0:
25,192,185333,1,0,0:0:0:50:Tom1.wav
76,192,185333,128,0,185410:0:0:0:0:
179,192,185333,1,0,0:0:0:0:
332,192,185333,1,0,0:0:0:0:
435,192,185333,128,0,185410:0:0:0:0:
486,192,185333,1,0,0:0:0:0:
128,192,185410,1,0,0:0:0:50:Tom1.wav
230,192,185410,1,0,0:0:0:0:
281,192,185410,1,0,0:0:0:0:
384,192,185410,1,0,0:0:0:0:
25,192,185487,1,2,0:0:0:0:
179,192,185487,128,0,185564:0:0:0:0:
332,192,185487,128,0,185564:0:0:0:0:
486,192,185487,1,0,0:0:0:0:
76,192,185564,1,2,0:0:0:0:
230,192,185564,1,0,0:0:0:0:
281,192,185564,1,0,0:0:0:0:
435,192,185564,1,0,0:0:0:0:
25,192,185641,128,0,185718:0:0:0:50:Tom2.wav
179,192,185641,1,0,0:0:0:0:
332,192,185641,1,0,0:0:0:0:
486,192,185641,128,0,185718:0:0:0:0:
76,192,185718,1,0,0:0:0:50:Tom2.wav
128,192,185718,1,0,0:0:0:0:
384,192,185718,1,0,0:0:0:0:
435,192,185718,1,0,0:0:0:0:
179,192,185795,1,2,0:0:0:0:
230,192,185795,128,0,185872:0:0:0:0:
281,192,185795,128,0,185872:0:0:0:0:
332,192,185795,1,0,0:0:0:0:
25,192,185872,1,2,0:0:0:0:
128,192,185872,1,0,0:0:0:0:
384,192,185872,1,0,0:0:0:0:
486,192,185872,1,0,0:0:0:0:
76,192,185949,128,4,186256:0:0:0:0:
179,192,185949,1,0,0:0:0:0:
230,192,185949,1,0,0:0:0:0:
281,192,185949,1,0,0:0:0:0:
332,192,185949,1,0,0:0:0:0:
435,192,185949,128,0,186256:0:0:0:0:
25,192,186102,1,2,0:0:0:0:
128,192,186102,128,0,186795:0:0:0:50:Crash 2.wav
384,192,186102,128,0,186795:0:0:0:0:
486,192,186102,1,0,0:0:0:0:
76,192,186410,1,2,0:0:0:0:
179,192,186410,1,0,0:0:0:0:
332,192,186410,1,0,0:0:0:0:
435,192,186410,1,0,0:0:0:0:
25,192,186564,1,8,0:0:0:0:
76,192,186564,128,0,186872:0:0:0:70:Hat open.wav
230,192,186564,1,0,0:0:0:0:
281,192,186564,1,0,0:0:0:0:
435,192,186564,128,0,186872:0:0:0:0:
486,192,186564,1,0,0:0:0:0:
25,192,186872,1,2,0:0:0:0:
128,192,186872,128,0,187102:0:0:0:70:Hat open.wav
384,192,186872,128,0,187102:0:0:0:0:
486,192,186872,1,0,0:0:0:0:
25,192,187026,128,2,187256:0:0:0:0:
76,192,187026,1,0,0:0:0:0:
435,192,187026,1,0,0:0:0:0:
486,192,187026,128,0,187256:0:0:0:0:
76,192,187179,1,8,0:0:0:0:
128,192,187179,128,0,187641:0:0:0:70:Hat open.wav
230,192,187179,1,0,0:0:0:0:
281,192,187179,1,0,0:0:0:0:
384,192,187179,128,0,187641:0:0:0:0:
435,192,187179,1,0,0:0:0:0:
76,192,187333,128,2,188179:0:0:0:0:
179,192,187333,1,4,0:0:0:0:
332,192,187333,1,0,0:0:0:0:
435,192,187333,128,0,188179:0:0:0:0:
25,192,187641,1,2,0:0:0:0:
230,192,187641,1,0,0:0:0:0:
281,192,187641,1,0,0:0:0:0:
486,192,187641,1,0,0:0:0:0:
25,192,187795,128,8,188179:0:0:0:0:
128,192,187795,1,0,0:0:0:50:Crash 2.wav
179,192,187795,1,0,0:0:0:0:
332,192,187795,1,0,0:0:0:0:
384,192,187795,1,0,0:0:0:0:
486,192,187795,128,0,188179:0:0:0:0:
179,192,187949,1,2,0:0:0:0:
230,192,187949,1,0,0:0:0:0:
281,192,187949,1,0,0:0:0:0:
332,192,187949,1,0,0:0:0:0:
128,192,188102,1,0,0:0:0:50:Tom2.wav
230,192,188102,128,0,188333:0:0:0:0:
281,192,188102,128,0,188333:0:0:0:0:
384,192,188102,1,0,0:0:0:0:
179,192,188179,1,0,0:0:0:50:Tom2.wav
332,192,188179,1,0,0:0:0:0:
76,192,188256,1,0,0:0:0:50:Tom3.wav
128,192,188256,128,0,188487:0:0:0:0:
384,192,188256,128,0,188487:0:0:0:0:
435,192,188256,1,0,0:0:0:0:
25,192,188410,128,8,188872:0:0:0:0:
76,192,188410,1,0,0:0:0:70:Hat open.wav
179,192,188410,1,0,0:0:0:0:
332,192,188410,1,0,0:0:0:0:
435,192,188410,1,0,0:0:0:0:
486,192,188410,128,0,188872:0:0:0:0:
128,192,188564,1,2,0:0:0:0:
230,192,188564,128,4,188872:0:0:0:0:
281,192,188564,128,0,188872:0:0:0:0:
384,192,188564,1,0,0:0:0:0:
128,192,188872,1,8,0:0:0:0:
179,192,188872,1,0,0:0:0:0:
384,192,188872,1,0,0:0:0:0:
230,192,188949,1,8,0:0:0:0:
435,192,188949,1,0,0:0:0:0:
486,192,188949,1,0,0:0:0:0:
25,192,189026,1,2,0:0:0:0:
76,192,189026,1,0,0:0:0:0:
281,192,189026,1,0,0:0:0:0:
179,192,189102,1,2,0:0:0:0:
435,192,189102,1,0,0:0:0:0:
486,192,189102,1,0,0:0:0:0:
128,192,189179,1,0,0:0:0:50:Tom2.wav
332,192,189179,1,0,0:0:0:0:
384,192,189179,1,0,0:0:0:0:
25,192,189256,1,0,0:0:0:50:Tom1.wav
76,192,189256,1,0,0:0:0:0:
281,192,189256,1,0,0:0:0:0:
179,192,189333,1,2,0:0:0:0:
230,192,189333,1,0,0:0:0:0:
486,192,189333,1,0,0:0:0:0:
25,192,189410,1,2,0:0:0:0:
384,192,189410,1,0,0:0:0:0:
435,192,189410,1,0,0:0:0:0:
76,192,189487,1,0,0:0:0:50:Tom3.wav
128,192,189487,1,0,0:0:0:0:
332,192,189487,1,0,0:0:0:0:
179,192,189564,1,0,0:0:0:50:Tom2.wav
230,192,189564,1,0,0:0:0:0:
486,192,189564,1,0,0:0:0:0:
25,192,189641,1,2,0:0:0:0:
384,192,189641,1,0,0:0:0:0:
435,192,189641,1,0,0:0:0:0:
128,192,189718,1,2,0:0:0:0:
179,192,189718,1,0,0:0:0:0:
332,192,189718,1,0,0:0:0:0:
230,192,189795,128,8,190872:0:0:0:0:
281,192,189795,128,0,190872:0:0:0:0:
435,192,189795,128,0,190872:0:0:0:0:
486,192,189795,128,0,190872:0:0:0:0:
76,192,191179,128,2,191410:0:0:0:0:
332,192,191179,1,4,0:0:0:0:
435,192,191179,1,0,0:0:0:50:Crash 2.wav
486,192,191179,1,0,0:0:0:0:
128,192,191333,128,0,191564:0:0:0:0:
179,192,191487,128,0,191718:0:0:0:0:
25,192,191641,128,0,191795:0:0:0:0:
230,192,191641,128,0,192102:0:0:0:0:
486,192,191641,1,0,0:0:0:0:
76,192,191795,128,0,191949:0:0:0:0:
384,192,191795,1,0,0:0:0:0:
486,192,191872,1,0,0:0:0:0:
128,192,191949,128,0,192102:0:0:0:0:
384,192,192026,1,0,0:0:0:0:
25,192,192102,128,0,192333:0:0:0:0:
486,192,192102,1,0,0:0:0:0:
76,192,192256,128,0,192487:0:0:0:0:
384,192,192256,1,0,0:0:0:0:
486,192,192333,1,0,0:0:0:0:
128,192,192410,128,0,192641:0:0:0:0:
179,192,192564,128,0,192718:0:0:0:0:
230,192,192564,128,0,192718:0:0:0:0:
76,192,192872,128,0,193026:0:0:0:0:
230,192,192872,128,0,193026:0:0:0:0:
25,192,193026,128,0,193256:0:0:0:0:
76,192,193179,128,0,193410:0:0:0:0:
128,192,193333,128,0,193564:0:0:0:0:
230,192,193487,128,0,193641:0:0:0:50:Ride.wav
435,192,193487,1,0,0:0:0:0:
486,192,193564,1,0,0:0:0:50:Ride.wav
76,192,193641,128,0,193872:0:0:0:55:Hat open.wav
332,192,193641,1,0,0:0:0:0:
384,192,193641,1,0,0:0:0:0:
128,192,193795,128,0,194026:0:0:0:0:
179,192,193949,128,0,194179:0:0:0:0:
25,192,194102,128,0,194256:0:0:0:0:
230,192,194102,128,0,194564:0:0:0:0:
128,192,194256,128,0,194410:0:0:0:0:
25,192,194410,128,0,194564:0:0:0:0:
76,192,194564,128,0,194795:0:0:0:0:
128,192,194718,128,0,194949:0:0:0:0:
179,192,194872,128,0,195102:0:0:0:0:
25,192,195026,128,0,195179:0:0:0:0:
230,192,195026,128,0,195487:0:0:0:0:
128,192,195179,128,0,195333:0:0:0:0:
25,192,195333,128,0,195487:0:0:0:0:
76,192,195487,128,0,195718:0:0:0:0:
128,192,195641,128,0,195872:0:0:0:0:
435,192,195641,1,0,0:0:0:0:
179,192,195795,128,0,196026:0:0:0:70:Hat open.wav
332,192,195795,1,0,0:0:0:0:
486,192,195795,1,0,0:0:0:0:
230,192,195949,128,0,196102:0:0:0:0:
25,192,196102,128,2,196410:0:0:0:0:
76,192,196102,128,4,196256:0:0:0:0:
384,192,196102,1,0,0:0:0:0:
435,192,196102,1,0,0:0:0:0:
486,192,196102,1,0,0:0:0:0:
179,192,196256,128,0,196410:0:0:0:0:
332,192,196256,1,0,0:0:0:0:
486,192,196333,1,0,0:0:0:0:
230,192,196410,128,0,196564:0:0:0:0:
384,192,196487,1,0,0:0:0:0:
76,192,196564,128,0,196718:0:0:0:0:
486,192,196564,1,0,0:0:0:0:
128,192,196718,128,0,196872:0:0:0:0:
384,192,196718,1,0,0:0:0:0:
486,192,196795,1,0,0:0:0:0:
25,192,196872,128,0,197026:0:0:0:0:
332,192,196949,1,0,0:0:0:0:
179,192,197026,128,0,197333:0:0:0:0:
486,192,197026,1,0,0:0:0:0:
332,192,197128,1,0,0:0:0:50:Tom1.wav
384,192,197128,1,0,0:0:0:0:
230,192,197179,128,0,197487:0:0:0:0:
435,192,197231,1,0,0:0:0:50:Tom1.wav
486,192,197231,1,0,0:0:0:0:
76,192,197333,128,0,197641:0:0:0:50:Tom1.wav
332,192,197333,1,0,0:0:0:0:
384,192,197333,1,0,0:0:0:0:
128,192,197487,128,0,197795:0:0:0:0:
25,192,197641,128,0,197949:0:0:0:0:
179,192,197795,128,0,198102:0:0:0:50:Tom2.wav
384,192,197795,1,0,0:0:0:0:
435,192,197795,1,0,0:0:0:0:
230,192,197949,128,0,198256:0:0:0:0:
76,192,198102,128,0,198410:0:0:0:0:
128,192,198256,128,0,198564:0:0:0:50:Tom3.wav
435,192,198256,1,0,0:0:0:0:
486,192,198256,1,0,0:0:0:0:
25,192,198410,128,0,198564:0:0:0:0:
76,192,198564,128,2,198718:0:0:0:0:
230,192,198564,128,4,198718:0:0:0:0:
332,192,198564,1,0,0:0:0:0:
384,192,198564,1,0,0:0:0:0:
486,192,198564,1,0,0:0:0:0:
25,192,198718,128,0,198872:0:0:0:0:
179,192,198718,128,0,198872:0:0:0:0:
435,192,198718,1,0,0:0:0:0:
76,192,198872,128,0,199026:0:0:0:70:Hat open.wav
230,192,198872,128,0,199026:0:0:0:0:
486,192,198872,1,0,0:0:0:0:
128,192,199026,128,8,199179:0:0:0:0:
281,192,199026,128,0,199179:0:0:0:0:
332,192,199026,1,0,0:0:0:0:
384,192,199026,1,0,0:0:0:0:
435,192,199026,1,0,0:0:0:0:
25,192,199179,128,0,199256:0:0:0:0:
179,192,199179,128,0,199256:0:0:0:0:
25,192,199333,128,0,199410:0:0:0:50:Tom1.wav
179,192,199333,128,0,199410:0:0:0:0:
435,192,199333,1,0,0:0:0:0:
486,192,199333,1,0,0:0:0:0:
76,192,199487,128,0,199564:0:0:0:50:Tom2.wav
230,192,199487,128,0,199564:0:0:0:0:
384,192,199487,1,0,0:0:0:0:
435,192,199487,1,0,0:0:0:0:
76,192,199641,128,0,199718:0:0:0:50:Tom3.wav
230,192,199641,128,0,199718:0:0:0:0:
332,192,199641,1,0,0:0:0:0:
384,192,199641,1,0,0:0:0:0:
25,192,199795,1,2,0:0:0:0:
76,192,199795,1,0,0:0:0:50:Crash 2.wav
128,192,199795,1,0,0:0:0:0:
230,192,199795,1,0,0:0:0:0:
281,192,199795,1,0,0:0:0:0:
435,192,199795,1,0,0:0:0:0:
486,192,199795,1,0,0:0:0:0:
128,192,199949,1,0,0:0:0:50:Tom1.wav
179,192,199949,128,0,200256:0:0:0:0:
332,192,199949,128,0,200256:0:0:0:0:
384,192,199949,1,0,0:0:0:0:
25,192,200026,1,0,0:0:0:50:Tom1.wav
230,192,200026,1,0,0:0:0:0:
281,192,200026,1,0,0:0:0:0:
486,192,200026,1,0,0:0:0:0:
76,192,200102,128,0,200410:0:0:0:50:Tom1.wav
128,192,200102,1,0,0:0:0:0:
384,192,200102,1,0,0:0:0:0:
435,192,200102,128,0,200410:0:0:0:0:
25,192,200256,1,0,0:0:0:50:Tom1.wav
128,192,200256,128,0,200564:0:0:0:0:
384,192,200256,128,0,200564:0:0:0:0:
486,192,200256,1,0,0:0:0:0:
179,192,200410,1,0,0:0:0:50:Tom2.wav
230,192,200410,128,0,200718:0:0:0:0:
281,192,200410,128,0,200718:0:0:0:0:
332,192,200410,1,0,0:0:0:0:
25,192,200564,128,0,200949:0:0:0:50:Tom2.wav
76,192,200564,1,0,0:0:0:0:
435,192,200564,1,0,0:0:0:0:
486,192,200564,128,0,200949:0:0:0:0:
76,192,200718,1,0,0:0:0:50:Tom3.wav
128,192,200718,128,0,200949:0:0:0:0:
384,192,200718,128,0,200949:0:0:0:0:
435,192,200718,1,0,0:0:0:0:
179,192,200872,128,0,201026:0:0:0:50:Tom3.wav
230,192,200872,1,0,0:0:0:0:
281,192,200872,1,0,0:0:0:0:
332,192,200872,128,0,201026:0:0:0:0:
76,192,201026,1,2,0:0:0:0:
128,192,201026,128,0,201256:0:0:0:50:Crash 2.wav
384,192,201026,1,0,0:0:0:0:
435,192,201026,1,0,0:0:0:0:
25,192,201179,128,0,201410:0:0:0:0:
435,192,201179,1,0,0:0:0:0:
128,192,201333,128,2,201564:0:0:0:0:
332,192,201333,1,0,0:0:0:0:
486,192,201333,1,0,0:0:0:0:
76,192,201487,128,0,201718:0:0:0:0:
332,192,201487,1,0,0:0:0:0:
25,192,201641,128,2,201872:0:0:0:0:
384,192,201641,1,0,0:0:0:0:
486,192,201641,1,0,0:0:0:0:
179,192,201795,128,0,202026:0:0:0:0:
486,192,201795,1,0,0:0:0:0:
76,192,201949,128,2,202179:0:0:0:0:
384,192,201949,1,0,0:0:0:0:
435,192,201949,1,0,0:0:0:0:
25,192,202102,128,0,202333:0:0:0:0:
384,192,202102,1,0,0:0:0:0:
128,192,202256,128,2,202487:0:0:0:0:
332,192,202256,1,0,0:0:0:0:
486,192,202256,1,0,0:0:0:0:
76,192,202410,128,0,202641:0:0:0:0:
332,192,202410,1,0,0:0:0:0:
25,192,202564,128,2,202795:0:0:0:0:
435,192,202564,1,0,0:0:0:0:
486,192,202564,1,0,0:0:0:0:
179,192,202718,128,0,202949:0:0:0:0:
435,192,202718,1,0,0:0:0:0:
128,192,202872,128,2,203179:0:0:0:0:
384,192,202872,1,0,0:0:0:0:
486,192,202872,1,0,0:0:0:0:
25,192,202949,1,0,0:0:0:0:
76,192,203026,1,0,0:0:0:0:
486,192,203026,1,0,0:0:0:0:
25,192,203102,1,0,0:0:0:0:
76,192,203179,1,2,0:0:0:0:
281,192,203179,128,0,203487:0:0:0:0:
384,192,203179,1,0,0:0:0:0:
435,192,203179,1,0,0:0:0:0:
25,192,203333,1,8,0:0:0:0:
128,192,203333,1,0,0:0:0:70:Hat open.wav
230,192,203333,128,0,203487:0:0:0:0:
435,192,203333,1,0,0:0:0:0:
25,192,203487,1,2,0:0:0:0:
76,192,203487,1,0,0:0:0:0:
384,192,203487,128,0,203718:0:0:0:0:
76,192,203641,1,0,0:0:0:0:
486,192,203641,128,0,203872:0:0:0:0:
25,192,203795,1,2,0:0:0:0:
179,192,203795,1,0,0:0:0:0:
384,192,203795,128,0,204026:0:0:0:0:
179,192,203949,1,0,0:0:0:0:
435,192,203949,128,0,204179:0:0:0:0:
25,192,204102,1,2,0:0:0:0:
76,192,204102,1,0,0:0:0:0:
486,192,204102,128,0,204333:0:0:0:0:
25,192,204256,1,0,0:0:0:0:
332,192,204256,128,0,204487:0:0:0:0:
76,192,204410,1,2,0:0:0:0:
179,192,204410,1,0,0:0:0:0:
435,192,204410,128,0,204641:0:0:0:0:
179,192,204564,1,0,0:0:0:0:
486,192,204564,128,0,204795:0:0:0:0:
76,192,204718,1,2,0:0:0:0:
128,192,204718,1,0,0:0:0:0:
384,192,204718,128,0,204949:0:0:0:0:
25,192,204872,1,0,0:0:0:50:Tom1.wav
76,192,204872,1,0,0:0:0:0:
435,192,204872,128,0,205102:0:0:0:0:
128,192,204910,1,0,0:0:0:50:Tom1.wav
179,192,204910,1,0,0:0:0:0:
25,192,205026,1,2,0:0:0:0:
76,192,205026,1,0,0:0:0:0:
486,192,205026,128,0,205256:0:0:0:0:
25,192,205179,1,0,0:0:0:50:Tom2.wav
179,192,205179,1,0,0:0:0:0:
332,192,205179,128,0,205410:0:0:0:0:
128,192,205333,1,2,0:0:0:0:
179,192,205333,1,0,0:0:0:0:
384,192,205333,128,0,205564:0:0:0:0:
25,192,205487,1,0,0:0:0:50:Tom3.wav
76,192,205487,1,0,0:0:0:0:
486,192,205487,128,0,205718:0:0:0:0:
179,192,205641,128,2,205949:0:0:0:0:
332,192,205641,128,0,205949:0:0:0:0:
230,192,205795,128,0,205949:0:0:0:0:
281,192,205795,128,0,205949:0:0:0:0:
25,192,205949,128,2,206256:0:0:0:0:
76,192,205949,128,4,206179:0:0:0:0:
128,192,205949,128,0,206179:0:0:0:0:
384,192,205949,128,0,206179:0:0:0:0:
435,192,205949,128,0,206179:0:0:0:0:
486,192,205949,128,0,206256:0:0:0:0:
179,192,206102,128,0,206487:0:0:0:0:
332,192,206102,128,0,206487:0:0:0:0:
76,192,206256,128,2,206641:0:0:0:0:
128,192,206256,128,0,206487:0:0:0:0:
230,192,206256,1,0,0:0:0:0:
281,192,206256,1,0,0:0:0:0:
384,192,206256,128,0,206487:0:0:0:0:
435,192,206256,128,0,206641:0:0:0:0:
25,192,206410,128,0,206795:0:0:0:0:
486,192,206410,128,0,206795:0:0:0:0:
128,192,206564,128,2,206949:0:0:0:0:
179,192,206564,128,0,206795:0:0:0:0:
230,192,206564,1,0,0:0:0:0:
281,192,206564,1,0,0:0:0:0:
332,192,206564,128,0,206795:0:0:0:0:
384,192,206564,128,0,206949:0:0:0:0:
76,192,206718,128,0,207102:0:0:0:0:
435,192,206718,128,0,207102:0:0:0:0:
25,192,206872,128,2,207102:0:0:0:0:
179,192,206872,128,0,207256:0:0:0:0:
230,192,206872,1,0,0:0:0:0:
281,192,206872,1,0,0:0:0:0:
332,192,206872,128,0,207256:0:0:0:0:
486,192,206872,128,0,207102:0:0:0:0:
128,192,207026,128,0,207410:0:0:0:0:
384,192,207026,128,0,207410:0:0:0:0:
25,192,207179,128,2,207564:0:0:0:0:
76,192,207179,128,0,207410:0:0:0:0:
230,192,207179,1,0,0:0:0:0:
281,192,207179,1,0,0:0:0:0:
435,192,207179,128,0,207410:0:0:0:0:
486,192,207179,128,0,207564:0:0:0:0:
179,192,207333,128,0,207718:0:0:0:0:
332,192,207333,128,0,207718:0:0:0:0:
76,192,207487,128,2,208026:0:0:0:0:
128,192,207487,128,0,207718:0:0:0:0:
230,192,207487,1,0,0:0:0:0:
281,192,207487,1,0,0:0:0:0:
384,192,207487,128,0,207718:0:0:0:0:
435,192,207487,128,0,208026:0:0:0:0:
25,192,207641,128,0,207872:0:0:0:0:
486,192,207641,128,0,207872:0:0:0:0:
128,192,207795,128,2,208026:0:0:0:0:
179,192,207795,128,0,208179:0:0:0:0:
230,192,207795,1,0,0:0:0:0:
281,192,207795,1,0,0:0:0:0:
332,192,207795,128,0,208179:0:0:0:0:
384,192,207795,128,0,208026:0:0:0:0:
25,192,207949,128,2,208333:0:0:0:0:
230,192,207949,1,0,0:0:0:0:
281,192,207949,1,0,0:0:0:0:
486,192,207949,128,0,208333:0:0:0:0:
76,192,208102,128,8,208333:0:0:0:0:
128,192,208102,128,0,208333:0:0:0:0:
230,192,208102,1,0,0:0:0:0:
281,192,208102,1,0,0:0:0:0:
384,192,208102,128,0,208333:0:0:0:0:
435,192,208102,128,0,208333:0:0:0:0:
179,192,208256,128,2,208410:0:0:0:0:
230,192,208256,1,0,0:0:0:0:
281,192,208256,1,0,0:0:0:0:
332,192,208256,128,0,208410:0:0:0:0:
25,192,208410,128,8,208641:0:0:0:0:
76,192,208410,128,0,208641:0:0:0:50:Crash 2.wav
128,192,208410,128,0,208641:0:0:0:0:
230,192,208410,128,0,208641:0:0:0:0:
281,192,208410,128,0,208641:0:0:0:0:
384,192,208410,128,0,208641:0:0:0:0:
435,192,208410,128,0,208641:0:0:0:0:
486,192,208410,128,0,208641:0:0:0:0:
76,192,208718,1,8,0:0:0:0:
128,192,208718,1,0,0:0:0:50:Tom3.wav
384,192,208718,1,0,0:0:0:0:
435,192,208718,1,0,0:0:0:0:
76,192,208872,1,8,0:0:0:0:
128,192,208872,1,0,0:0:0:50:Tom3.wav
384,192,208872,1,0,0:0:0:0:
435,192,208872,1,0,0:0:0:0:
25,192,209026,1,8,0:0:0:0:
76,192,209026,1,0,0:0:0:50:Tom3.wav
128,192,209026,1,0,0:0:0:0:
384,192,209026,1,0,0:0:0:0:
435,192,209026,1,0,0:0:0:0:
486,192,209026,1,0,0:0:0:0:
25,192,209179,1,8,0:0:0:0:
76,192,209179,1,0,0:0:0:50:Tom3.wav
128,192,209179,1,0,0:0:0:0:
384,192,209179,1,0,0:0:0:0:
435,192,209179,1,0,0:0:0:0:
486,192,209179,1,0,0:0:0:0:
25,192,209333,1,8,0:0:0:0:
76,192,209333,1,0,0:0:0:50:Tom3.wav
128,192,209333,1,0,0:0:0:0:
384,192,209333,1,0,0:0:0:0:
435,192,209333,1,0,0:0:0:0:
486,192,209333,1,0,0:0:0:0:
25,192,209487,1,2,0:0:0:0:
76,192,209487,1,0,0:0:0:0:
128,192,209487,1,0,0:0:0:0:
384,192,209487,1,0,0:0:0:0:
435,192,209487,1,0,0:0:0:0:
486,192,209487,1,0,0:0:0:0:
179,192,209564,1,2,0:0:0:0:
332,192,209564,1,0,0:0:0:0:
76,192,209641,1,8,0:0:0:0:
128,192,209641,1,0,0:0:0:0:
384,192,209641,1,0,0:0:0:0:
435,192,209641,1,0,0:0:0:0:
230,192,209718,1,0,0:0:0:50:Tom1.wav
281,192,209718,1,0,0:0:0:0:
76,192,209795,1,0,0:0:0:50:Tom3.wav
435,192,209795,1,0,0:0:0:0:
25,192,209872,1,0,0:0:0:50:Tom2.wav
486,192,209872,1,0,0:0:0:0:
128,192,209949,1,2,0:0:0:0:
384,192,209949,1,0,0:0:0:0:
179,192,210026,1,2,0:0:0:0:
332,192,210026,1,0,0:0:0:0:
76,192,210102,1,8,0:0:0:0:
128,192,210102,1,0,0:0:0:0:
384,192,210102,1,0,0:0:0:0:
435,192,210102,1,0,0:0:0:0:
25,192,210179,1,0,0:0:0:50:Tom1.wav
486,192,210179,1,0,0:0:0:0:
179,192,210256,1,0,0:0:0:50:Tom3.wav
332,192,210256,1,0,0:0:0:0:
76,192,210333,1,0,0:0:0:50:Tom2.wav
435,192,210333,1,0,0:0:0:0:
230,192,210410,1,2,0:0:0:0:
281,192,210410,1,0,0:0:0:0:
179,192,210487,1,2,0:0:0:0:
332,192,210487,1,0,0:0:0:0:
25,192,210564,1,8,0:0:0:0:
76,192,210564,1,0,0:0:0:0:
128,192,210564,1,0,0:0:0:0:
384,192,210641,1,8,0:0:0:0:
435,192,210641,1,0,0:0:0:0:
486,192,210641,1,0,0:0:0:0:
25,192,210718,1,8,0:0:0:0:
76,192,210718,1,0,0:0:0:0:
128,192,210718,1,0,0:0:0:0:
384,192,210795,1,8,0:0:0:0:
435,192,210795,1,0,0:0:0:0:
486,192,210795,1,0,0:0:0:0:
25,192,210872,1,2,0:0:0:0:
76,192,210872,1,4,0:0:0:0:
128,192,210872,128,0,211179:0:0:0:0:
179,192,210872,128,0,211179:0:0:0:0:
435,192,210872,128,0,211179:0:0:0:0:
486,192,210872,128,0,211179:0:0:0:0:
25,192,211179,128,8,211333:0:0:0:0:
230,192,211179,128,2,211333:0:0:0:0:
332,192,211179,1,0,0:0:0:70:Hat open.wav
384,192,211179,1,0,0:0:0:0:
76,192,211256,128,0,211410:0:0:0:0:
281,192,211256,128,0,211410:0:0:0:0:
128,192,211333,128,0,211487:0:0:0:0:
332,192,211333,128,0,211487:0:0:0:0:
179,192,211410,128,0,211564:0:0:0:0:
384,192,211410,128,0,211564:0:0:0:0:
230,192,211487,128,2,211641:0:0:0:0:
435,192,211487,128,0,211641:0:0:0:70:Hat open.wav
76,192,211564,128,0,211872:0:0:0:0:
332,192,211564,128,0,211872:0:0:0:0:
128,192,211641,128,0,211718:0:0:0:0:
384,192,211641,128,0,211718:0:0:0:0:
179,192,211718,128,0,211795:0:0:0:0:
435,192,211718,128,0,211795:0:0:0:0:
25,192,211795,128,8,211949:0:0:0:0:
128,192,211795,1,2,0:0:0:0:
230,192,211795,128,0,211949:0:0:0:70:Hat open.wav
281,192,211795,128,0,211949:0:0:0:0:
384,192,211795,1,0,0:0:0:0:
486,192,211795,128,0,211949:0:0:0:0:
179,192,211872,128,0,212026:0:0:0:0:
435,192,211872,128,0,212026:0:0:0:0:
128,192,211949,128,0,212179:0:0:0:0:
384,192,211949,128,0,212179:0:0:0:0:
76,192,212026,128,0,212102:0:0:0:0:
332,192,212026,128,0,212102:0:0:0:0:
25,192,212102,128,2,212256:0:0:0:0:
281,192,212102,128,0,212256:0:0:0:70:Hat open.wav
76,192,212179,128,0,212333:0:0:0:0:
332,192,212179,128,0,212333:0:0:0:0:
128,192,212256,128,0,212410:0:0:0:0:
384,192,212256,128,0,212410:0:0:0:0:
179,192,212333,128,0,212487:0:0:0:0:
435,192,212333,128,0,212487:0:0:0:0:
76,192,212410,1,8,0:0:0:0:
230,192,212410,128,2,212487:0:0:0:0:
332,192,212410,1,0,0:0:0:70:Hat open.wav
486,192,212410,128,0,212487:0:0:0:0:
25,192,212487,128,0,212564:0:0:0:0:
281,192,212487,128,0,212564:0:0:0:0:
76,192,212564,128,0,212641:0:0:0:0:
332,192,212564,128,0,212641:0:0:0:0:
128,192,212641,128,0,212718:0:0:0:0:
384,192,212641,128,0,212718:0:0:0:0:
179,192,212718,128,2,212872:0:0:0:0:
435,192,212718,128,0,212872:0:0:0:70:Hat open.wav
230,192,212795,128,0,212949:0:0:0:0:
486,192,212795,128,0,212949:0:0:0:0:
25,192,212872,128,0,213026:0:0:0:0:
281,192,212872,128,0,213026:0:0:0:0:
76,192,212949,128,0,213102:0:0:0:0:
332,192,212949,128,0,213102:0:0:0:0:
128,192,213026,1,8,0:0:0:0:
230,192,213026,128,2,213102:0:0:0:0:
384,192,213026,1,0,0:0:0:70:Hat open.wav
486,192,213026,128,0,213102:0:0:0:0:
179,192,213102,128,0,213179:0:0:0:0:
435,192,213102,128,0,213179:0:0:0:0:
128,192,213179,128,0,213333:0:0:0:0:
384,192,213179,128,0,213333:0:0:0:0:
76,192,213256,128,0,213333:0:0:0:0:
179,192,213256,128,0,213333:0:0:0:0:
332,192,213256,128,0,213333:0:0:0:0:
435,192,213256,128,0,213333:0:0:0:0:
25,192,213333,128,2,213641:0:0:0:0:
230,192,213333,128,0,213641:0:0:0:70:Hat open.wav
281,192,213333,128,0,213641:0:0:0:0:
486,192,213333,128,0,213641:0:0:0:0:
76,192,213641,1,8,0:0:0:0:
179,192,213641,128,2,213795:0:0:0:0:
332,192,213641,128,0,213795:0:0:0:70:Hat open.wav
435,192,213641,1,0,0:0:0:0:
128,192,213795,128,0,214102:0:0:0:0:
384,192,213795,128,0,214102:0:0:0:0:
25,192,213949,128,2,214102:0:0:0:0:
281,192,213949,128,0,214102:0:0:0:70:Hat open.wav
76,192,214102,128,0,214564:0:0:0:0:
332,192,214102,128,0,214564:0:0:0:0:
25,192,214256,1,8,0:0:0:0:
179,192,214256,128,2,214564:0:0:0:0:
230,192,214256,1,0,0:0:0:70:Hat open.wav
281,192,214256,1,0,0:0:0:0:
435,192,214256,128,0,214564:0:0:0:0:
486,192,214256,1,0,0:0:0:0:
128,192,214410,128,0,214872:0:0:0:0:
384,192,214410,128,0,214872:0:0:0:0:
25,192,214564,128,2,214949:0:0:0:0:
486,192,214564,128,0,214949:0:0:0:70:Hat open.wav
76,192,214718,128,0,214872:0:0:0:0:
179,192,214718,128,0,215179:0:0:0:0:
332,192,214718,128,0,215179:0:0:0:0:
435,192,214718,128,0,214872:0:0:0:0:
230,192,214872,1,10,0:0:0:0:
281,192,214872,1,0,0:0:0:70:Hat open.wav
76,192,215026,128,0,215179:0:0:0:0:
435,192,215026,128,0,215179:0:0:0:0:
128,192,215179,128,2,215410:0:0:0:0:
384,192,215179,128,0,215410:0:0:0:70:Hat open.wav
25,192,215333,128,0,215564:0:0:0:0:
281,192,215333,128,0,215564:0:0:0:0:
76,192,215410,128,0,215487:0:0:0:0:
332,192,215410,128,0,215487:0:0:0:0:
128,192,215487,1,2,0:0:0:0:
230,192,215487,128,8,215718:0:0:0:0:
384,192,215487,1,0,0:0:0:70:Hat open.wav
486,192,215487,128,0,215718:0:0:0:0:
179,192,215564,128,0,215641:0:0:0:0:
435,192,215564,128,0,215641:0:0:0:0:
128,192,215641,128,0,215718:0:0:0:0:
384,192,215641,128,0,215718:0:0:0:0:
76,192,215718,128,0,215949:0:0:0:0:
332,192,215718,128,0,215949:0:0:0:0:
25,192,215795,128,2,215872:0:0:0:0:
128,192,215795,128,4,216256:0:0:0:0:
179,192,215795,128,0,216256:0:0:0:0:
281,192,215795,128,0,215872:0:0:0:0:
384,192,215795,128,0,216256:0:0:0:0:
435,192,215795,128,0,216256:0:0:0:0:
25,192,216102,1,2,0:0:0:0:
230,192,216102,1,8,0:0:0:0:
281,192,216102,1,0,0:0:0:70:Hat open.wav
486,192,216102,1,0,0:0:0:0:
25,192,216256,1,0,0:0:0:0:
76,192,216256,1,0,0:0:0:0:
281,192,216256,1,0,0:0:0:0:
332,192,216256,1,0,0:0:0:0:
25,192,216333,1,0,0:0:0:0:
76,192,216333,1,0,0:0:0:0:
281,192,216333,1,0,0:0:0:0:
332,192,216333,1,0,0:0:0:0:
25,192,216410,128,2,216718:0:0:0:0:
128,192,216410,1,0,0:0:0:70:Hat open.wav
281,192,216410,128,0,216718:0:0:0:0:
384,192,216410,1,0,0:0:0:0:
76,192,216641,128,0,217026:0:0:0:0:
332,192,216641,128,0,217026:0:0:0:0:
179,192,216718,1,8,0:0:0:0:
230,192,216718,1,2,0:0:0:0:
435,192,216718,1,0,0:0:0:70:Hat open.wav
486,192,216718,1,0,0:0:0:0:
128,192,216872,128,0,217179:0:0:0:0:
384,192,216872,128,0,217179:0:0:0:0:
179,192,217026,128,2,217333:0:0:0:0:
435,192,217026,128,0,217333:0:0:0:70:Hat open.wav
25,192,217256,128,0,217641:0:0:0:0:
281,192,217256,128,0,217641:0:0:0:0:
76,192,217333,1,8,0:0:0:0:
128,192,217333,1,2,0:0:0:0:
332,192,217333,1,0,0:0:0:70:Hat open.wav
384,192,217333,1,0,0:0:0:0:
179,192,217487,128,0,217718:0:0:0:0:
435,192,217487,128,0,217718:0:0:0:0:
76,192,217641,128,2,218026:0:0:0:0:
128,192,217641,128,0,217718:0:0:0:50:Tom2.wav
332,192,217641,128,0,218026:0:0:0:0:
384,192,217641,128,0,217718:0:0:0:0:
179,192,217872,1,8,0:0:0:0:
230,192,217872,1,0,0:0:0:0:
435,192,217872,1,0,0:0:0:0:
486,192,217872,1,0,0:0:0:0:
25,192,217949,1,8,0:0:0:0:
128,192,217949,1,0,0:0:0:0:
281,192,217949,1,0,0:0:0:0:
384,192,217949,1,0,0:0:0:0:
76,192,218102,128,2,218179:0:0:0:0:
179,192,218102,1,0,0:0:0:0:
332,192,218102,128,0,218179:0:0:0:0:
435,192,218102,1,0,0:0:0:0:
230,192,218179,1,2,0:0:0:0:
486,192,218179,1,0,0:0:0:0:
25,192,218256,1,8,0:0:0:0:
76,192,218256,1,4,0:0:0:0:
128,192,218256,128,0,218718:0:0:0:0:
281,192,218256,1,0,0:0:0:0:
332,192,218256,1,0,0:0:0:0:
384,192,218256,128,0,218718:0:0:0:0:
25,192,218410,1,2,0:0:0:0:
76,192,218410,1,0,0:0:0:0:
281,192,218410,1,0,0:0:0:0:
332,192,218410,1,0,0:0:0:0:
179,192,218564,128,2,218718:0:0:0:0:
230,192,218564,1,0,0:0:0:0:
435,192,218564,128,0,218718:0:0:0:0:
486,192,218564,1,0,0:0:0:0:
25,192,218718,128,8,218872:0:0:0:0:
230,192,218718,128,0,219026:0:0:0:50:Crash 2.wav
281,192,218718,128,0,219026:0:0:0:0:
486,192,218718,128,0,218872:0:0:0:0:
128,192,218872,128,2,219026:0:0:0:0:
384,192,218872,128,0,219026:0:0:0:0:
76,192,219026,128,2,219102:0:0:0:0:
435,192,219026,128,0,219102:0:0:0:0:
25,192,219102,128,0,219333:0:0:0:0:
486,192,219102,128,0,219333:0:0:0:0:
128,192,219179,1,8,0:0:0:0:
179,192,219179,1,4,0:0:0:0:
332,192,219179,1,0,0:0:0:0:
384,192,219179,1,0,0:0:0:0:
76,192,219333,1,2,0:0:0:0:
230,192,219333,1,0,0:0:0:0:
281,192,219333,1,0,0:0:0:0:
435,192,219333,1,0,0:0:0:0:
179,192,219487,128,2,219641:0:0:0:0:
230,192,219538,128,0,219692:0:0:0:0:
281,192,219590,128,0,219743:0:0:0:0:
332,192,219641,128,8,219795:0:0:0:0:
384,192,219692,128,0,219846:0:0:0:0:
435,192,219743,128,0,219897:0:0:0:0:
486,192,219795,128,8,219949:0:0:0:0:
281,192,219846,128,0,219949:0:0:0:0:
230,192,219897,128,0,220000:0:0:0:0:
179,192,219949,128,2,220051:0:0:0:0:
128,192,220000,128,0,220102:0:0:0:0:
76,192,220051,128,0,220154:0:0:0:0:
25,192,220102,128,8,220205:0:0:0:0:
435,192,220154,128,0,220205:0:0:0:0:
384,192,220205,128,0,220256:0:0:0:0:
332,192,220256,128,8,220308:0:0:0:0:
281,192,220308,128,0,220359:0:0:0:0:
230,192,220359,128,0,220410:0:0:0:0:
76,192,220410,128,8,220487:0:0:0:0:
332,192,220410,128,0,220487:0:0:0:0:
128,192,220449,128,0,220526:0:0:0:0:
384,192,220449,128,0,220526:0:0:0:0:
179,192,220487,128,8,220564:0:0:0:0:
435,192,220487,128,0,220564:0:0:0:0:
230,192,220526,128,0,220602:0:0:0:0:
486,192,220526,128,0,220602:0:0:0:0:
25,192,220564,128,8,220641:0:0:0:0:
281,192,220564,128,0,220641:0:0:0:0:
76,192,220602,128,0,220679:0:0:0:0:
332,192,220602,128,0,220679:0:0:0:0:
128,192,220641,128,8,220718:0:0:0:0:
384,192,220641,128,0,220718:0:0:0:0:
179,192,220679,128,0,220718:0:0:0:0:
435,192,220679,128,0,220718:0:0:0:0:
25,192,220718,128,2,220872:0:0:0:0:
230,192,220718,128,4,221179:0:0:0:0:
281,192,220718,128,0,220872:0:0:0:0:
486,192,220718,128,0,221179:0:0:0:0:
128,192,220872,128,0,221179:0:0:0:0:
384,192,220872,128,0,221179:0:0:0:0:
25,192,221026,1,8,0:0:0:0:
76,192,221026,1,2,0:0:0:0:
179,192,221026,128,0,221179:0:0:0:70:Hat open.wav
281,192,221026,1,0,0:0:0:0:
332,192,221026,1,0,0:0:0:0:
435,192,221026,128,0,221179:0:0:0:0:
25,192,221179,128,0,221487:0:0:0:0:
76,192,221179,128,0,221641:0:0:0:0:
281,192,221179,128,0,221487:0:0:0:0:
332,192,221179,128,0,221641:0:0:0:0:
128,192,221333,1,2,0:0:0:0:
179,192,221333,1,0,0:0:0:70:Hat open.wav
435,192,221333,1,0,0:0:0:0:
486,192,221333,1,0,0:0:0:0:
25,192,221641,1,8,0:0:0:0:
128,192,221641,128,2,221949:0:0:0:0:
179,192,221641,1,0,0:0:0:70:Hat open.wav
384,192,221641,128,0,221949:0:0:0:0:
435,192,221641,1,0,0:0:0:0:
486,192,221641,1,0,0:0:0:0:
25,192,221795,128,0,221949:0:0:0:0:
486,192,221795,128,0,221949:0:0:0:0:
76,192,221949,128,2,222410:0:0:0:0:
230,192,221949,1,0,0:0:0:70:Hat open.wav
281,192,221949,1,0,0:0:0:0:
435,192,221949,128,0,222410:0:0:0:0:
179,192,222102,128,0,222410:0:0:0:0:
332,192,222102,128,0,222410:0:0:0:0:
25,192,222256,1,8,0:0:0:0:
128,192,222256,1,2,0:0:0:0:
230,192,222256,128,0,222564:0:0:0:70:Hat open.wav
281,192,222256,128,0,222564:0:0:0:0:
384,192,222256,1,0,0:0:0:0:
486,192,222256,1,0,0:0:0:0:
25,192,222410,128,0,222795:0:0:0:0:
486,192,222410,128,0,222795:0:0:0:0:
76,192,222564,128,2,222795:0:0:0:0:
179,192,222564,1,0,0:0:0:70:Hat open.wav
332,192,222564,1,0,0:0:0:0:
435,192,222564,128,0,222795:0:0:0:0:
128,192,222718,128,0,223026:0:0:0:0:
230,192,222718,1,0,0:0:0:0:
281,192,222718,1,0,0:0:0:0:
384,192,222718,128,0,223026:0:0:0:0:
230,192,222795,1,0,0:0:0:0:
281,192,222795,1,0,0:0:0:0:
25,192,222872,1,8,0:0:0:0:
76,192,222872,1,2,0:0:0:0:
179,192,222872,128,0,223026:0:0:0:70:Hat open.wav
332,192,222872,128,0,223026:0:0:0:0:
435,192,222872,1,0,0:0:0:0:
486,192,222872,1,0,0:0:0:0:
76,192,223179,128,2,223641:0:0:0:0:
179,192,223179,1,0,0:0:0:50:Crash 2.wav
332,192,223179,1,0,0:0:0:0:
435,192,223179,128,0,223641:0:0:0:0:
25,192,223333,128,0,223641:0:0:0:0:
486,192,223333,128,0,223641:0:0:0:0:
128,192,223487,1,8,0:0:0:0:
179,192,223487,128,2,223795:0:0:0:0:
332,192,223487,128,0,223795:0:0:0:70:Hat open.wav
384,192,223487,1,0,0:0:0:0:
230,192,223641,128,0,223949:0:0:0:0:
281,192,223641,128,0,223949:0:0:0:0:
25,192,223795,1,2,0:0:0:0:
76,192,223795,128,0,224102:0:0:0:70:Hat open.wav
435,192,223795,128,0,224102:0:0:0:0:
486,192,223795,1,0,0:0:0:0:
128,192,223949,128,0,224410:0:0:0:0:
384,192,223949,128,0,224410:0:0:0:0:
25,192,224102,128,8,224410:0:0:0:0:
179,192,224102,1,2,0:0:0:0:
230,192,224102,1,0,0:0:0:70:Hat open.wav
281,192,224102,1,0,0:0:0:0:
332,192,224102,1,0,0:0:0:0:
486,192,224102,128,0,224410:0:0:0:0:
76,192,224256,128,0,224564:0:0:0:0:
435,192,224256,128,0,224564:0:0:0:0:
179,192,224410,1,2,0:0:0:0:
230,192,224410,128,0,225026:0:0:0:0:
281,192,224410,128,0,225026:0:0:0:0:
332,192,224410,1,0,0:0:0:0:
25,192,224564,1,0,0:0:0:50:Tom1.wav
179,192,224564,128,0,224872:0:0:0:0:
332,192,224564,128,0,224872:0:0:0:0:
486,192,224564,1,0,0:0:0:0:
76,192,224718,128,8,225026:0:0:0:0:
435,192,224718,128,0,225026:0:0:0:0:
128,192,224795,1,8,0:0:0:0:
384,192,224795,1,0,0:0:0:0:
25,192,224872,128,8,225179:0:0:0:0:
486,192,224872,128,0,225179:0:0:0:0:
179,192,224949,1,0,0:0:0:0:
332,192,224949,1,0,0:0:0:0:
128,192,225026,128,2,225102:0:0:0:0:
179,192,225026,1,0,0:0:0:50:Tom2.wav
332,192,225026,1,0,0:0:0:0:
384,192,225026,128,0,225102:0:0:0:0:
128,192,225179,128,8,225256:0:0:0:0:
230,192,225179,128,0,225256:0:0:0:0:
281,192,225179,128,0,225256:0:0:0:0:
384,192,225179,128,0,225256:0:0:0:0:
25,192,225256,1,8,0:0:0:0:
179,192,225256,1,0,0:0:0:0:
332,192,225256,1,0,0:0:0:0:
486,192,225256,1,0,0:0:0:0:
76,192,225333,128,8,225410:0:0:0:0:
128,192,225333,128,0,225410:0:0:0:0:
384,192,225333,128,0,225410:0:0:0:0:
435,192,225333,128,0,225410:0:0:0:0:
25,192,225487,128,0,225564:0:0:0:50:Tom3.wav
179,192,225487,128,0,225564:0:0:0:0:
332,192,225487,128,0,225564:0:0:0:0:
486,192,225487,128,0,225564:0:0:0:0:
25,192,225641,128,2,225872:0:0:0:0:
76,192,225641,1,4,0:0:0:0:
128,192,225641,1,0,0:0:0:0:
384,192,225641,1,0,0:0:0:0:
435,192,225641,1,0,0:0:0:0:
486,192,225641,128,0,225718:0:0:0:0:
128,192,225795,1,2,0:0:0:0:
179,192,225795,1,0,0:0:0:0:
332,192,225795,1,0,0:0:0:0:
384,192,225795,1,0,0:0:0:0:
486,192,225795,128,0,226179:0:0:0:0:
25,192,225949,128,2,226026:0:0:0:0:
76,192,225949,1,0,0:0:0:0:
179,192,225949,1,0,0:0:0:0:
332,192,225949,1,0,0:0:0:0:
435,192,225949,1,0,0:0:0:0:
25,192,226102,128,8,226487:0:0:0:0:
76,192,226102,1,0,0:0:0:50:Crash 2.wav
128,192,226102,1,0,0:0:0:0:
230,192,226102,1,0,0:0:0:0:
281,192,226102,1,0,0:0:0:0:
384,192,226102,1,0,0:0:0:0:
435,192,226102,1,0,0:0:0:0:
128,192,226256,1,2,0:0:0:0:
179,192,226256,1,0,0:0:0:0:
332,192,226256,1,0,0:0:0:0:
384,192,226256,1,0,0:0:0:0:
486,192,226256,128,0,226333:0:0:0:0:
76,192,226410,1,2,0:0:0:0:
230,192,226410,1,0,0:0:0:0:
281,192,226410,1,0,0:0:0:0:
435,192,226410,1,0,0:0:0:0:
486,192,226410,128,0,226795:0:0:0:0:
25,192,226564,128,8,226641:0:0:0:0:
76,192,226564,1,0,0:0:0:50:Tom3.wav
128,192,226564,1,0,0:0:0:0:
179,192,226564,1,0,0:0:0:0:
332,192,226564,1,0,0:0:0:0:
384,192,226564,1,0,0:0:0:0:
435,192,226564,1,0,0:0:0:0:
25,192,226718,128,2,227102:0:0:0:0:
128,192,226718,1,0,0:0:0:0:
179,192,226718,1,0,0:0:0:0:
332,192,226718,1,0,0:0:0:0:
384,192,226718,1,0,0:0:0:0:
76,192,226872,1,2,0:0:0:0:
230,192,226872,1,0,0:0:0:0:
281,192,226872,1,0,0:0:0:0:
435,192,226872,1,0,0:0:0:0:
486,192,226872,128,0,226949:0:0:0:0:
76,192,227026,1,8,0:0:0:0:
179,192,227026,1,4,0:0:0:0:
230,192,227026,1,0,0:0:0:0:
281,192,227026,1,0,0:0:0:0:
332,192,227026,1,0,0:0:0:0:
435,192,227026,1,0,0:0:0:0:
486,192,227026,128,0,227410:0:0:0:0:
25,192,227179,128,2,227256:0:0:0:0:
128,192,227179,1,0,0:0:0:0:
179,192,227179,1,0,0:0:0:0:
332,192,227179,1,0,0:0:0:0:
384,192,227179,1,0,0:0:0:0:
25,192,227333,128,2,227718:0:0:0:0:
76,192,227333,1,0,0:0:0:0:
128,192,227333,1,0,0:0:0:0:
384,192,227333,1,0,0:0:0:0:
435,192,227333,1,0,0:0:0:0:
76,192,227487,1,8,0:0:0:0:
179,192,227487,1,0,0:0:0:50:Crash 2.wav
230,192,227487,1,0,0:0:0:0:
281,192,227487,1,0,0:0:0:0:
332,192,227487,1,0,0:0:0:0:
435,192,227487,1,0,0:0:0:0:
486,192,227487,128,0,227564:0:0:0:0:
128,192,227641,1,2,0:0:0:0:
230,192,227641,1,0,0:0:0:0:
281,192,227641,1,0,0:0:0:0:
384,192,227641,1,0,0:0:0:0:
486,192,227641,128,0,228102:0:0:0:0:
25,192,227795,128,8,227872:0:0:0:0:
76,192,227795,1,0,0:0:0:50:Crash 2.wav
128,192,227795,1,0,0:0:0:0:
384,192,227795,1,0,0:0:0:0:
435,192,227795,1,0,0:0:0:0:
25,192,227949,128,2,228102:0:0:0:0:
179,192,227949,1,0,0:0:0:0:
435,192,227949,1,0,0:0:0:0:
128,192,228026,1,2,0:0:0:0:
384,192,228026,1,0,0:0:0:0:
76,192,228102,128,8,228564:0:0:0:0:
179,192,228102,1,0,0:0:0:50:Tom3.wav
332,192,228102,128,0,228564:0:0:0:0:
435,192,228102,1,0,0:0:0:0:
128,192,228256,128,2,228410:0:0:0:0:
230,192,228256,1,0,0:0:0:0:
384,192,228256,128,0,228410:0:0:0:0:
486,192,228256,1,0,0:0:0:0:
25,192,228410,128,2,228564:0:0:0:0:
179,192,228410,1,0,0:0:0:0:
281,192,228410,128,0,228564:0:0:0:0:
435,192,228410,1,0,0:0:0:0:
128,192,228564,128,8,229026:0:0:0:0:
179,192,228564,1,0,0:0:0:50:Crash 2.wav
230,192,228564,1,0,0:0:0:0:
384,192,228564,128,0,229026:0:0:0:0:
435,192,228564,1,0,0:0:0:0:
486,192,228564,1,0,0:0:0:0:
76,192,228718,1,2,0:0:0:0:
179,192,228718,128,0,228872:0:0:0:0:
332,192,228718,1,0,0:0:0:0:
435,192,228718,128,0,228872:0:0:0:0:
25,192,228872,1,2,0:0:0:0:
230,192,228872,128,0,229179:0:0:0:0:
281,192,228872,1,0,0:0:0:0:
486,192,228872,128,0,229179:0:0:0:0:
25,192,229026,1,8,0:0:0:0:
76,192,229026,128,4,229333:0:0:0:0:
179,192,229026,1,0,0:0:0:0:
281,192,229026,1,0,0:0:0:0:
332,192,229026,128,0,229333:0:0:0:0:
435,192,229026,1,0,0:0:0:0:
128,192,229179,128,2,229333:0:0:0:0:
179,192,229179,1,0,0:0:0:0:
384,192,229179,128,0,229333:0:0:0:0:
435,192,229179,1,0,0:0:0:0:
25,192,229333,128,2,229487:0:0:0:0:
230,192,229333,1,0,0:0:0:0:
281,192,229333,1,0,0:0:0:0:
486,192,229333,128,0,229487:0:0:0:0:
76,192,229487,128,8,229641:0:0:0:0:
128,192,229487,128,4,229564:0:0:0:0:
179,192,229487,128,0,229718:0:0:0:0:
332,192,229487,128,0,229718:0:0:0:0:
384,192,229487,128,0,229564:0:0:0:0:
435,192,229487,128,0,229641:0:0:0:0:
25,192,229641,128,2,229872:0:0:0:0:
230,192,229641,1,0,0:0:0:0:
281,192,229641,1,0,0:0:0:0:
486,192,229641,128,0,229872:0:0:0:0:
76,192,229795,1,2,0:0:0:0:
179,192,229795,128,0,229872:0:0:0:0:
332,192,229795,128,0,229872:0:0:0:0:
435,192,229795,1,0,0:0:0:0:
230,192,229872,128,0,229949:0:0:0:0:
281,192,229872,128,0,229949:0:0:0:0:
25,192,229949,1,8,0:0:0:0:
128,192,229949,128,0,230256:0:0:0:50:Crash 2.wav
179,192,229949,1,0,0:0:0:0:
332,192,229949,1,0,0:0:0:0:
384,192,229949,128,0,230256:0:0:0:0:
486,192,229949,1,0,0:0:0:0:
76,192,230102,128,2,230410:0:0:0:0:
230,192,230102,1,0,0:0:0:0:
281,192,230102,1,0,0:0:0:0:
435,192,230102,128,0,230410:0:0:0:0:
25,192,230256,1,8,0:0:0:0:
179,192,230256,128,0,230564:0:0:0:50:Crash 2.wav
230,192,230256,1,0,0:0:0:0:
281,192,230256,1,0,0:0:0:0:
332,192,230256,128,0,230564:0:0:0:0:
486,192,230256,1,0,0:0:0:0:
25,192,230410,128,2,230564:0:0:0:0:
128,192,230410,1,0,0:0:0:0:
384,192,230410,1,0,0:0:0:0:
486,192,230410,128,0,230564:0:0:0:0:
281,192,230564,1,8,0:0:0:0:
384,192,230564,1,0,0:0:0:0:
435,192,230564,1,0,0:0:0:0:
76,192,230641,1,8,0:0:0:0:
128,192,230641,1,0,0:0:0:0:
230,192,230641,1,0,0:0:0:0:
281,192,230718,1,8,0:0:0:0:
384,192,230718,1,0,0:0:0:0:
435,192,230718,1,0,0:0:0:0:
76,192,230795,1,8,0:0:0:0:
128,192,230795,1,0,0:0:0:0:
230,192,230795,1,0,0:0:0:0:
281,192,230872,1,2,0:0:0:0:
435,192,230872,1,0,0:0:0:0:
486,192,230872,1,0,0:0:0:0:
25,192,230949,1,2,0:0:0:0:
76,192,230949,1,0,0:0:0:0:
230,192,230949,1,0,0:0:0:0:
332,192,231026,1,0,0:0:0:50:Tom2.wav
435,192,231026,1,0,0:0:0:0:
486,192,231026,1,0,0:0:0:0:
25,192,231102,1,0,0:0:0:50:Tom2.wav
76,192,231102,1,0,0:0:0:0:
179,192,231102,1,0,0:0:0:0:
332,192,231179,1,0,0:0:0:50:Tom3.wav
435,192,231179,1,0,0:0:0:0:
486,192,231179,1,0,0:0:0:0:
25,192,231256,1,0,0:0:0:50:Tom3.wav
76,192,231256,1,0,0:0:0:0:
179,192,231256,1,0,0:0:0:0:
332,192,231333,1,2,0:0:0:0:
435,192,231333,1,0,0:0:0:0:
486,192,231333,1,0,0:0:0:0:
25,192,231410,1,2,0:0:0:0:
76,192,231410,1,0,0:0:0:0:
179,192,231410,1,0,0:0:0:0:
281,192,231487,1,8,0:0:0:0:
384,192,231487,1,0,0:0:0:0:
435,192,231487,1,0,0:0:0:0:
486,192,231487,1,0,0:0:0:0:
25,192,231564,1,8,0:0:0:0:
76,192,231564,1,0,0:0:0:0:
128,192,231564,1,0,0:0:0:0:
230,192,231564,1,0,0:0:0:0:
281,192,231641,1,8,0:0:0:0:
384,192,231641,1,0,0:0:0:0:
435,192,231641,1,0,0:0:0:0:
486,192,231641,1,0,0:0:0:0:
25,192,231718,1,8,0:0:0:0:
76,192,231718,1,0,0:0:0:0:
128,192,231718,1,0,0:0:0:0:
230,192,231718,1,0,0:0:0:0:
281,192,231795,1,2,0:0:0:0:
384,192,231795,1,0,0:0:0:0:
435,192,231795,1,0,0:0:0:0:
486,192,231795,1,0,0:0:0:0:
128,192,231872,1,2,0:0:0:0:
179,192,231872,1,0,0:0:0:0:
332,192,231872,1,0,0:0:0:0:
25,192,231949,1,0,0:0:0:50:Tom1.wav
76,192,231949,1,0,0:0:0:0:
281,192,231949,1,0,0:0:0:0:
128,192,232026,1,0,0:0:0:50:Tom1.wav
179,192,232026,1,0,0:0:0:0:
332,192,232026,1,0,0:0:0:0:
25,192,232102,1,0,0:0:0:50:Tom2.wav
76,192,232102,1,0,0:0:0:0:
384,192,232102,1,0,0:0:0:0:
128,192,232179,1,0,0:0:0:50:Tom2.wav
179,192,232179,1,0,0:0:0:0:
486,192,232179,1,0,0:0:0:0:
230,192,232256,1,2,0:0:0:0:
332,192,232256,1,0,0:0:0:0:
384,192,232256,1,0,0:0:0:0:
179,192,232333,1,2,0:0:0:0:
435,192,232333,1,0,0:0:0:0:
486,192,232333,1,0,0:0:0:0:
128,192,232410,1,0,0:0:0:50:Tom2.wav
332,192,232410,1,0,0:0:0:0:
384,192,232410,1,0,0:0:0:0:
25,192,232487,1,0,0:0:0:50:Tom2.wav
76,192,232487,1,0,0:0:0:0:
281,192,232487,1,0,0:0:0:0:
435,192,232487,1,0,0:0:0:0:
486,192,232487,1,0,0:0:0:0:
128,192,232564,1,0,0:0:0:50:Tom3.wav
179,192,232564,1,0,0:0:0:0:
332,192,232564,1,0,0:0:0:0:
25,192,232641,1,0,0:0:0:50:Tom3.wav
76,192,232641,1,0,0:0:0:0:
384,192,232641,1,0,0:0:0:0:
128,192,232718,1,2,0:0:0:0:
179,192,232718,1,0,0:0:0:0:
281,192,232718,1,0,0:0:0:0:
230,192,232795,1,2,0:0:0:0:
435,192,232795,1,0,0:0:0:0:
486,192,232795,1,0,0:0:0:0:
25,192,232872,1,2,0:0:0:0:
76,192,232872,1,0,0:0:0:0:
179,192,232872,1,0,0:0:0:0:
128,192,232949,1,2,0:0:0:0:
332,192,232949,1,0,0:0:0:0:
384,192,232949,1,0,0:0:0:0:
25,192,233026,1,8,0:0:0:0:
76,192,233026,1,0,0:0:0:50:Crash 2.wav
435,192,233026,1,0,0:0:0:0:
486,192,233026,1,0,0:0:0:0:
128,192,233102,1,0,0:0:0:0:
281,192,233102,1,0,0:0:0:0:
179,192,233179,1,8,0:0:0:0:
230,192,233179,1,0,0:0:0:0:
332,192,233256,1,8,0:0:0:0:
384,192,233256,1,0,0:0:0:0:
435,192,233256,1,0,0:0:0:0:
76,192,233333,1,8,0:0:0:0:
128,192,233333,1,2,0:0:0:0:
179,192,233333,1,0,0:0:0:0:
230,192,233410,1,0,0:0:0:0:
435,192,233410,1,0,0:0:0:0:
332,192,233487,1,8,0:0:0:0:
384,192,233487,1,0,0:0:0:0:
25,192,233564,1,8,0:0:0:0:
76,192,233564,1,0,0:0:0:0:
128,192,233564,1,0,0:0:0:0:
281,192,233641,1,8,0:0:0:0:
332,192,233641,1,2,0:0:0:0:
384,192,233641,1,0,0:0:0:0:
230,192,233718,1,0,0:0:0:0:
486,192,233718,1,0,0:0:0:0:
128,192,233795,1,8,0:0:0:0:
179,192,233795,1,0,0:0:0:0:
281,192,233872,1,8,0:0:0:0:
332,192,233872,1,0,0:0:0:0:
384,192,233872,1,0,0:0:0:0:
25,192,233949,1,8,0:0:0:0:
76,192,233949,1,2,0:0:0:0:
128,192,233949,1,0,0:0:0:0:
179,192,234026,1,0,0:0:0:0:
332,192,234026,1,0,0:0:0:0:
76,192,234102,1,2,0:0:0:0:
128,192,234102,1,4,0:0:0:0:
384,192,234102,1,0,0:0:0:0:
435,192,234102,128,0,235487:0:0:0:0:
486,192,234102,128,0,235487:0:0:0:0:
25,192,234410,1,8,0:0:0:0:
128,192,234410,1,0,0:0:0:50:Crash 2.wav
179,192,234410,1,0,0:0:0:0:
230,192,234564,1,2,0:0:0:0:
281,192,234564,1,0,0:0:0:50:Tom3.wav
128,192,234718,1,8,0:0:0:0:
384,192,234718,1,0,0:0:0:0:
179,192,234795,1,8,0:0:0:0:
281,192,234795,1,0,0:0:0:0:
332,192,234795,1,0,0:0:0:0:
25,192,234872,1,8,0:0:0:0:
128,192,234872,1,2,0:0:0:0:
76,192,234949,1,8,0:0:0:0:
281,192,234949,1,0,0:0:0:0:
128,192,235026,1,0,0:0:0:50:Tom1.wav
179,192,235026,1,0,0:0:0:0:
332,192,235026,1,0,0:0:0:0:
25,192,235102,1,0,0:0:0:50:Tom1.wav
230,192,235102,1,0,0:0:0:0:
384,192,235102,1,0,0:0:0:0:
76,192,235179,1,0,0:0:0:50:Tom2.wav
128,192,235179,1,0,0:0:0:0:
281,192,235179,1,0,0:0:0:0:
179,192,235256,1,0,0:0:0:50:Tom2.wav
332,192,235256,1,0,0:0:0:0:
384,192,235256,1,0,0:0:0:0:
25,192,235333,1,0,0:0:0:50:Tom3.wav
76,192,235333,1,0,0:0:0:0:
230,192,235333,1,0,0:0:0:0:
128,192,235410,1,0,0:0:0:50:Tom3.wav
179,192,235410,1,0,0:0:0:0:
281,192,235410,1,0,0:0:0:0:
25,192,235487,1,2,0:0:0:0:
76,192,235487,1,0,0:0:0:50:Crash 2.wav
230,192,235487,1,0,0:0:0:0:
332,192,235487,1,0,0:0:0:0:
384,192,235487,1,0,0:0:0:0:
25,192,235795,1,8,0:0:0:0:
76,192,235795,1,0,0:0:0:50:Tom3.wav
128,192,235795,1,0,0:0:0:0:
281,192,235795,1,0,0:0:0:0:
332,192,235795,1,0,0:0:0:0:
179,192,235949,1,0,0:0:0:50:Tom3.wav
435,192,235949,1,0,0:0:0:0:
486,192,235949,1,0,0:0:0:0:
76,192,236026,1,0,0:0:0:50:Tom1.wav
128,192,236026,1,0,0:0:0:0:
384,192,236026,1,0,0:0:0:0:
25,192,236102,1,2,0:0:0:0:
281,192,236102,1,0,0:0:0:50:Tom3.wav
332,192,236102,1,0,0:0:0:0:
486,192,236102,1,0,0:0:0:0:
179,192,236256,1,2,0:0:0:0:
230,192,236256,1,0,0:0:0:50:Tom3.wav
384,192,236256,1,0,0:0:0:0:
435,192,236256,1,0,0:0:0:0:
25,192,236410,1,8,0:0:0:0:
76,192,236410,1,0,0:0:0:50:Tom3.wav
128,192,236410,1,0,0:0:0:0:
281,192,236410,1,0,0:0:0:0:
332,192,236410,1,0,0:0:0:0:
179,192,236564,1,0,0:0:0:50:Tom3.wav
230,192,236564,1,0,0:0:0:0:
435,192,236564,1,0,0:0:0:0:
486,192,236564,1,0,0:0:0:0:
76,192,236718,1,2,0:0:0:0:
128,192,236718,1,0,0:0:0:50:Tom3.wav
332,192,236718,1,0,0:0:0:0:
384,192,236718,1,0,0:0:0:0:
179,192,236872,1,2,0:0:0:0:
230,192,236872,1,0,0:0:0:50:Tom3.wav
435,192,236872,1,0,0:0:0:0:
486,192,236872,1,0,0:0:0:0:
25,192,237026,1,8,0:0:0:0:
76,192,237026,1,0,0:0:0:50:Tom3.wav
128,192,237026,1,0,0:0:0:0:
281,192,237026,1,0,0:0:0:0:
332,192,237026,1,0,0:0:0:0:
179,192,237179,1,0,0:0:0:50:Tom3.wav
435,192,237179,1,0,0:0:0:0:
486,192,237179,1,0,0:0:0:0:
76,192,237256,1,0,0:0:0:50:Tom1.wav
128,192,237256,1,0,0:0:0:0:
384,192,237256,1,0,0:0:0:0:
25,192,237333,1,2,0:0:0:0:
281,192,237333,1,0,0:0:0:50:Tom3.wav
332,192,237333,1,0,0:0:0:0:
486,192,237333,1,0,0:0:0:0:
179,192,237487,1,2,0:0:0:0:
230,192,237487,1,0,0:0:0:50:Tom3.wav
384,192,237487,1,0,0:0:0:0:
435,192,237487,1,0,0:0:0:0:
25,192,237641,1,8,0:0:0:0:
76,192,237641,1,0,0:0:0:50:Tom3.wav
128,192,237641,1,0,0:0:0:0:
281,192,237641,1,0,0:0:0:0:
332,192,237641,1,0,0:0:0:0:
179,192,237795,1,0,0:0:0:50:Tom3.wav
230,192,237795,1,0,0:0:0:0:
435,192,237795,1,0,0:0:0:0:
486,192,237795,1,0,0:0:0:0:
128,192,237872,1,0,0:0:0:50:Tom2.wav
332,192,237872,1,0,0:0:0:0:
384,192,237872,1,0,0:0:0:0:
25,192,237949,1,2,0:0:0:0:
76,192,237949,1,0,0:0:0:50:Tom3.wav
230,192,237949,1,0,0:0:0:0:
281,192,237949,1,0,0:0:0:0:
179,192,238102,1,2,0:0:0:0:
230,192,238102,1,0,0:0:0:50:Tom3.wav
435,192,238102,1,0,0:0:0:0:
486,192,238102,1,0,0:0:0:0:
25,192,238256,1,8,0:0:0:0:
76,192,238256,1,0,0:0:0:50:Tom3.wav
128,192,238256,1,0,0:0:0:0:
281,192,238256,1,0,0:0:0:0:
332,192,238256,1,0,0:0:0:0:
179,192,238410,1,0,0:0:0:50:Tom3.wav
435,192,238410,1,0,0:0:0:0:
486,192,238410,1,0,0:0:0:0:
76,192,238487,1,0,0:0:0:50:Tom1.wav
128,192,238487,1,0,0:0:0:0:
384,192,238487,1,0,0:0:0:0:
25,192,238564,1,2,0:0:0:0:
281,192,238564,1,0,0:0:0:50:Tom3.wav
332,192,238564,1,0,0:0:0:0:
486,192,238564,1,0,0:0:0:0:
179,192,238718,1,2,0:0:0:0:
230,192,238718,1,0,0:0:0:50:Tom3.wav
384,192,238718,1,0,0:0:0:0:
435,192,238718,1,0,0:0:0:0:
25,192,238872,1,8,0:0:0:0:
76,192,238872,1,0,0:0:0:50:Tom3.wav
128,192,238872,1,0,0:0:0:0:
281,192,238872,1,0,0:0:0:0:
332,192,238872,1,0,0:0:0:0:
179,192,239026,1,0,0:0:0:50:Tom3.wav
230,192,239026,1,0,0:0:0:0:
435,192,239026,1,0,0:0:0:0:
486,192,239026,1,0,0:0:0:0:
76,192,239179,1,2,0:0:0:0:
128,192,239179,1,0,0:0:0:50:Tom3.wav
332,192,239179,1,0,0:0:0:0:
384,192,239179,1,0,0:0:0:0:
179,192,239333,1,2,0:0:0:0:
230,192,239333,1,0,0:0:0:50:Tom3.wav
435,192,239333,1,0,0:0:0:0:
486,192,239333,1,0,0:0:0:0:
25,192,239487,1,8,0:0:0:0:
76,192,239487,1,0,0:0:0:50:Tom3.wav
128,192,239487,1,0,0:0:0:0:
281,192,239487,1,0,0:0:0:0:
332,192,239487,1,0,0:0:0:0:
179,192,239641,1,2,0:0:0:0:
435,192,239641,1,0,0:0:0:0:
486,192,239641,1,0,0:0:0:0:
230,192,239718,1,2,0:0:0:0:
281,192,239718,1,0,0:0:0:0:
384,192,239718,1,0,0:0:0:0:
332,192,239795,1,0,0:0:0:50:Tom1.wav
435,192,239795,1,0,0:0:0:0:
486,192,239795,1,0,0:0:0:0:
25,192,239872,1,0,0:0:0:50:Tom1.wav
76,192,239872,1,0,0:0:0:0:
281,192,239872,1,0,0:0:0:0:
128,192,239949,1,2,0:0:0:0:
179,192,239949,1,0,0:0:0:0:
332,192,239949,1,0,0:0:0:0:
384,192,239949,1,0,0:0:0:0:
230,192,240026,1,2,0:0:0:0:
281,192,240026,1,0,0:0:0:0:
435,192,240026,1,0,0:0:0:0:
25,192,240102,1,8,0:0:0:0:
76,192,240102,1,0,0:0:0:0:
128,192,240102,1,0,0:0:0:0:
384,192,240102,1,0,0:0:0:0:
486,192,240102,1,0,0:0:0:0:
179,192,240179,1,8,0:0:0:0:
281,192,240179,1,0,0:0:0:0:
332,192,240179,1,0,0:0:0:0:
76,192,240256,1,0,0:0:0:50:Tom2.wav
230,192,240256,1,0,0:0:0:0:
435,192,240256,1,0,0:0:0:0:
486,192,240256,1,0,0:0:0:0:
128,192,240333,1,0,0:0:0:50:Tom2.wav
332,192,240333,1,0,0:0:0:0:
384,192,240333,1,0,0:0:0:0:
25,192,240410,1,2,0:0:0:0:
76,192,240410,1,0,0:0:0:50:Crash 2.wav
179,192,240410,1,0,0:0:0:0:
230,192,240410,1,0,0:0:0:0:
435,192,240410,1,0,0:0:0:0:
486,192,240410,1,0,0:0:0:0:
179,192,240718,1,8,0:0:0:0:
230,192,240718,1,0,0:0:0:50:Tom3.wav
384,192,240718,1,0,0:0:0:0:
435,192,240718,1,0,0:0:0:0:
486,192,240718,1,0,0:0:0:0:
25,192,240872,1,0,0:0:0:50:Tom3.wav
76,192,240872,1,0,0:0:0:0:
332,192,240872,1,0,0:0:0:0:
128,192,241026,1,2,0:0:0:0:
179,192,241026,1,0,0:0:0:50:Tom3.wav
384,192,241026,1,0,0:0:0:0:
76,192,241179,1,2,0:0:0:0:
281,192,241179,1,0,0:0:0:50:Tom3.wav
332,192,241179,1,0,0:0:0:0:
179,192,241333,1,8,0:0:0:0:
230,192,241333,1,0,0:0:0:50:Tom3.wav
384,192,241333,1,0,0:0:0:0:
435,192,241333,1,0,0:0:0:0:
486,192,241333,1,0,0:0:0:0:
25,192,241487,1,0,0:0:0:50:Tom3.wav
76,192,241487,1,0,0:0:0:0:
281,192,241487,1,0,0:0:0:0:
332,192,241487,1,0,0:0:0:0:
179,192,241641,1,2,0:0:0:0:
230,192,241641,1,0,0:0:0:50:Tom3.wav
435,192,241641,1,0,0:0:0:0:
486,192,241641,1,0,0:0:0:0:
25,192,241795,1,2,0:0:0:0:
76,192,241795,1,0,0:0:0:50:Tom3.wav
281,192,241795,1,0,0:0:0:0:
332,192,241795,1,0,0:0:0:0:
179,192,241949,1,8,0:0:0:0:
230,192,241949,1,0,0:0:0:50:Tom3.wav
384,192,241949,1,0,0:0:0:0:
435,192,241949,1,0,0:0:0:0:
486,192,241949,1,0,0:0:0:0:
25,192,242102,1,0,0:0:0:50:Tom3.wav
76,192,242102,1,0,0:0:0:0:
281,192,242102,1,0,0:0:0:0:
332,192,242102,1,0,0:0:0:0:
179,192,242256,1,2,0:0:0:0:
230,192,242256,1,0,0:0:0:50:Tom3.wav
435,192,242256,1,0,0:0:0:0:
486,192,242256,1,0,0:0:0:0:
76,192,242410,1,2,0:0:0:0:
128,192,242410,1,0,0:0:0:50:Tom3.wav
281,192,242410,1,0,0:0:0:0:
332,192,242410,1,0,0:0:0:0:
179,192,242564,1,8,0:0:0:0:
230,192,242564,1,0,0:0:0:50:Tom3.wav
384,192,242564,1,0,0:0:0:0:
435,192,242564,1,0,0:0:0:0:
486,192,242564,1,0,0:0:0:0:
25,192,242718,1,2,0:0:0:0:
76,192,242718,1,0,0:0:0:0:
281,192,242718,1,0,0:0:0:0:
332,192,242718,1,0,0:0:0:0:
128,192,242872,1,8,0:0:0:0:
179,192,242872,1,0,0:0:0:50:Crash 2.wav
384,192,242872,1,0,0:0:0:0:
435,192,242872,1,0,0:0:0:0:
486,192,242872,1,0,0:0:0:0:
25,192,243026,1,2,0:0:0:0:
76,192,243026,1,0,0:0:0:0:
281,192,243026,1,0,0:0:0:0:
332,192,243026,1,0,0:0:0:0:
179,192,243179,1,8,0:0:0:0:
230,192,243179,1,0,0:0:0:50:Crash 2.wav
384,192,243179,1,0,0:0:0:0:
435,192,243179,1,0,0:0:0:0:
486,192,243179,1,0,0:0:0:0:
76,192,243333,1,2,0:0:0:0:
128,192,243333,1,0,0:0:0:0:
281,192,243333,1,0,0:0:0:0:
332,192,243333,1,0,0:0:0:0:
179,192,243487,1,2,0:0:0:0:
230,192,243487,1,0,0:0:0:0:
435,192,243487,1,0,0:0:0:0:
486,192,243487,1,0,0:0:0:0:
25,192,243641,1,8,0:0:0:0:
76,192,243641,1,0,0:0:0:50:Crash 2.wav
281,192,243641,1,0,0:0:0:0:
332,192,243641,1,0,0:0:0:0:
384,192,243641,1,0,0:0:0:0:
179,192,243795,1,2,0:0:0:0:
230,192,243795,1,0,0:0:0:0:
435,192,243795,1,0,0:0:0:0:
486,192,243795,1,0,0:0:0:0:
76,192,243949,1,8,0:0:0:0:
128,192,243949,1,0,0:0:0:50:Crash 2.wav
281,192,243949,1,0,0:0:0:0:
332,192,243949,1,0,0:0:0:0:
384,192,243949,1,0,0:0:0:0:
76,192,244256,1,2,0:0:0:0:
128,192,244256,1,0,0:0:0:0:
486,192,244256,1,0,0:0:0:0:
25,192,244410,1,8,0:0:0:0:
76,192,244410,1,0,0:0:0:50:Crash 2.wav
332,192,244410,1,0,0:0:0:0:
384,192,244410,1,0,0:0:0:0:
435,192,244410,1,0,0:0:0:0:
128,192,244564,1,2,0:0:0:0:
179,192,244564,1,0,0:0:0:0:
281,192,244564,1,0,0:0:0:0:
486,192,244564,1,0,0:0:0:0:
128,192,244718,1,0,0:0:0:50:Tom1.wav
384,192,244718,1,0,0:0:0:0:
435,192,244718,1,0,0:0:0:0:
76,192,244795,1,0,0:0:0:50:Tom1.wav
281,192,244795,1,0,0:0:0:0:
332,192,244795,1,0,0:0:0:0:
25,192,244872,1,0,0:0:0:50:Tom1.wav
179,192,244872,1,0,0:0:0:0:
230,192,244872,1,0,0:0:0:0:
281,192,244949,1,0,0:0:0:50:Tom1.wav
435,192,244949,1,0,0:0:0:0:
486,192,244949,1,0,0:0:0:0:
76,192,245026,1,0,0:0:0:50:Tom2.wav
128,192,245026,1,0,0:0:0:0:
384,192,245026,1,0,0:0:0:0:
179,192,245102,1,0,0:0:0:50:Tom2.wav
230,192,245102,1,0,0:0:0:0:
435,192,245102,1,0,0:0:0:0:
281,192,245179,1,0,0:0:0:50:Tom3.wav
332,192,245179,1,0,0:0:0:0:
486,192,245179,1,0,0:0:0:0:
25,192,245256,1,0,0:0:0:50:Tom3.wav
76,192,245256,1,0,0:0:0:0:
230,192,245256,1,0,0:0:0:0:
128,192,245333,1,2,0:0:0:0:
179,192,245333,1,0,0:0:0:50:Crash 2.wav
332,192,245333,1,0,0:0:0:0:
384,192,245333,128,0,247718:0:0:0:0:
486,192,245333,128,0,245718:0:0:0:0:
435,192,245487,128,0,245872:0:0:0:0:
332,192,245641,128,0,246026:0:0:0:0:
486,192,245795,128,0,246179:0:0:0:0:
435,192,245949,128,0,246333:0:0:0:0:
332,192,246102,128,0,246487:0:0:0:0:
486,192,246256,128,0,247718:0:0:0:0:
435,192,246410,128,0,247718:0:0:0:0:
128,192,246564,128,0,247718:0:0:0:0:
179,192,246564,128,0,246949:0:0:0:0:
332,192,246564,128,0,247718:0:0:0:0:
25,192,246718,128,0,247102:0:0:0:0:
76,192,246872,128,0,247256:0:0:0:0:
179,192,247026,128,0,247410:0:0:0:0:
25,192,247179,128,0,247564:0:0:0:0:
76,192,247333,128,0,247718:0:0:0:0:
179,192,247487,128,0,247718:0:0:0:0:
25,192,247641,128,0,247718:0:0:0:0:
128,192,247795,128,0,248333:0:0:0:0:
230,192,247795,128,0,249949:0:0:0:0:
281,192,247795,128,0,249949:0:0:0:0:
384,192,247795,128,0,248333:0:0:0:0:
76,192,247949,128,0,248949:0:0:0:0:
435,192,247949,128,0,248949:0:0:0:0:
179,192,248102,128,0,248487:0:0:0:0:
332,192,248102,128,0,248487:0:0:0:0:
25,192,248256,128,0,248641:0:0:0:0:
486,192,248256,128,0,248641:0:0:0:0:
128,192,248410,128,0,248795:0:0:0:0:
384,192,248410,128,0,248795:0:0:0:0:
179,192,248564,128,0,248949:0:0:0:0:
332,192,248564,128,0,248949:0:0:0:0:
25,192,248718,128,0,249102:0:0:0:0:
486,192,248718,128,0,249102:0:0:0:0:
128,192,248872,128,0,249256:0:0:0:0:
384,192,248872,128,0,249256:0:0:0:0:
76,192,249026,128,0,249872:0:0:0:0:
179,192,249026,128,0,249410:0:0:0:0:
332,192,249026,128,0,249410:0:0:0:0:
435,192,249026,128,0,249872:0:0:0:0:
25,192,249179,128,0,249564:0:0:0:0:
486,192,249179,128,0,249564:0:0:0:0:
128,192,249333,128,0,249718:0:0:0:0:
384,192,249333,128,0,249718:0:0:0:0:
179,192,249487,128,0,249872:0:0:0:0:
332,192,249487,128,0,249872:0:0:0:0:
25,192,249641,128,0,249872:0:0:0:0:
486,192,249641,128,0,249872:0:0:0:0:
128,192,249795,128,0,249949:0:0:0:0:
384,192,249795,128,0,249949:0:0:0:0:
25,192,249949,128,2,250179:0:0:0:0:
76,192,249949,128,0,250179:0:0:0:50:Tom2.wav
179,192,249949,1,0,0:0:0:50:Tom3.wav
332,192,249949,1,0,0:0:0:0:
435,192,249949,128,0,250179:0:0:0:0:
486,192,249949,128,0,250179:0:0:0:0:
76,192,250256,1,8,0:0:0:0:
128,192,250256,1,0,0:0:0:50:Crash 2.wav
230,192,250256,1,0,0:0:0:0:
281,192,250256,1,0,0:0:0:0:
384,192,250256,1,0,0:0:0:0:
435,192,250256,1,0,0:0:0:0:
25,192,250410,1,2,0:0:0:0:
179,192,250410,1,0,0:0:0:0:
332,192,250410,1,0,0:0:0:0:
486,192,250410,1,0,0:0:0:0:
128,192,250564,1,2,0:0:0:0:
230,192,250564,1,0,0:0:0:0:
281,192,250564,1,0,0:0:0:0:
384,192,250564,1,0,0:0:0:0:
25,192,250718,1,8,0:0:0:0:
76,192,250718,1,0,0:0:0:50:Crash 2.wav
179,192,250718,1,0,0:0:0:0:
332,192,250718,1,0,0:0:0:0:
435,192,250718,1,0,0:0:0:0:
486,192,250718,1,0,0:0:0:0:
128,192,250872,1,2,0:0:0:0:
230,192,250872,1,0,0:0:0:0:
281,192,250872,1,0,0:0:0:0:
384,192,250872,1,0,0:0:0:0:
25,192,251026,1,2,0:0:0:0:
179,192,251026,1,0,0:0:0:0:
332,192,251026,1,0,0:0:0:0:
486,192,251026,1,0,0:0:0:0:
76,192,251179,1,8,0:0:0:0:
128,192,251179,1,0,0:0:0:50:Crash 2.wav
230,192,251179,1,0,0:0:0:0:
281,192,251179,1,0,0:0:0:0:
384,192,251179,1,0,0:0:0:0:
435,192,251179,1,0,0:0:0:0:
25,192,251333,1,2,0:0:0:0:
179,192,251333,1,0,0:0:0:0:
332,192,251333,1,0,0:0:0:0:
486,192,251333,1,0,0:0:0:0:
128,192,251487,1,2,0:0:0:0:
179,192,251487,1,0,0:0:0:0:
332,192,251487,1,0,0:0:0:0:
384,192,251487,1,0,0:0:0:0:
25,192,251641,1,8,0:0:0:0:
76,192,251641,1,4,0:0:0:0:
230,192,251641,1,0,0:0:0:0:
281,192,251641,1,0,0:0:0:0:
435,192,251641,1,0,0:0:0:0:
486,192,251641,1,0,0:0:0:0:
128,192,251795,1,2,0:0:0:0:
179,192,251795,1,0,0:0:0:0:
332,192,251795,1,0,0:0:0:0:
384,192,251795,1,0,0:0:0:0:
25,192,251949,1,2,0:0:0:0:
179,192,251949,1,0,0:0:0:0:
332,192,251949,1,0,0:0:0:0:
486,192,251949,1,0,0:0:0:0:
76,192,252102,1,8,0:0:0:0:
128,192,252102,1,0,0:0:0:50:Crash 2.wav
230,192,252102,1,0,0:0:0:0:
281,192,252102,1,0,0:0:0:0:
384,192,252102,1,0,0:0:0:0:
435,192,252102,1,0,0:0:0:0:
25,192,252256,1,2,0:0:0:0:
179,192,252256,1,0,0:0:0:0:
332,192,252256,1,0,0:0:0:0:
486,192,252256,1,0,0:0:0:0:
25,192,252410,1,8,0:0:0:0:
128,192,252410,1,0,0:0:0:50:Crash 2.wav
230,192,252410,1,0,0:0:0:0:
281,192,252410,1,0,0:0:0:0:
384,192,252410,1,0,0:0:0:0:
486,192,252410,1,0,0:0:0:0:
76,192,252564,1,2,0:0:0:0:
435,192,252564,1,0,0:0:0:0:
179,192,252641,1,2,0:0:0:0:
332,192,252641,1,0,0:0:0:0:
25,192,252718,1,8,0:0:0:0:
76,192,252718,1,0,0:0:0:0:
128,192,252718,1,0,0:0:0:0:
384,192,252795,1,8,0:0:0:0:
435,192,252795,1,0,0:0:0:0:
486,192,252795,1,0,0:0:0:0:
25,192,252872,1,8,0:0:0:0:
76,192,252872,1,0,0:0:0:0:
128,192,252872,1,0,0:0:0:0:
384,192,252949,1,8,0:0:0:0:
435,192,252949,1,0,0:0:0:0:
486,192,252949,1,0,0:0:0:0:
25,192,253026,1,2,0:0:0:0:
128,192,253026,1,0,0:0:0:0:
179,192,253026,1,0,0:0:0:0:
76,192,253102,1,2,0:0:0:0:
230,192,253102,1,0,0:0:0:0:
281,192,253102,1,0,0:0:0:0:
179,192,253179,1,0,0:0:0:50:Tom1.wav
435,192,253179,1,0,0:0:0:0:
486,192,253179,1,0,0:0:0:0:
128,192,253256,1,0,0:0:0:50:Tom1.wav
332,192,253256,1,0,0:0:0:0:
384,192,253256,1,0,0:0:0:0:
76,192,253333,1,0,0:0:0:50:Tom2.wav
230,192,253333,1,0,0:0:0:0:
281,192,253333,1,0,0:0:0:0:
179,192,253410,1,0,0:0:0:50:Tom2.wav
435,192,253410,1,0,0:0:0:0:
486,192,253410,1,0,0:0:0:0:
25,192,253487,1,2,0:0:0:0:
76,192,253487,1,0,0:0:0:0:
332,192,253487,1,0,0:0:0:0:
128,192,253564,1,2,0:0:0:0:
179,192,253564,1,0,0:0:0:0:
384,192,253564,1,0,0:0:0:0:
230,192,253641,1,0,0:0:0:50:Tom3.wav
281,192,253641,1,0,0:0:0:0:
435,192,253641,1,0,0:0:0:0:
25,192,253718,1,0,0:0:0:50:Tom3.wav
76,192,253718,1,0,0:0:0:0:
332,192,253718,1,0,0:0:0:0:
179,192,253795,1,2,0:0:0:0:
435,192,253795,1,0,0:0:0:0:
486,192,253795,1,0,0:0:0:0:
25,192,253872,1,2,0:0:0:0:
76,192,253872,1,0,0:0:0:0:
332,192,253872,1,0,0:0:0:0:
128,192,253949,1,8,0:0:0:0:
179,192,253949,1,0,0:0:0:50:Tom3.wav
230,192,253949,1,0,0:0:0:0:
384,192,253949,1,0,0:0:0:0:
435,192,253949,1,0,0:0:0:0:
486,192,253949,1,0,0:0:0:0:
25,192,254102,1,8,0:0:0:0:
76,192,254102,1,0,0:0:0:50:Tom3.wav
128,192,254102,1,0,0:0:0:0:
384,192,254102,1,0,0:0:0:0:
435,192,254102,1,0,0:0:0:0:
486,192,254102,1,0,0:0:0:0:
25,192,254256,1,8,0:0:0:0:
76,192,254256,1,0,0:0:0:50:Tom3.wav
128,192,254256,1,0,0:0:0:0:
384,192,254256,1,0,0:0:0:0:
435,192,254256,1,0,0:0:0:0:
486,192,254256,1,0,0:0:0:0:
25,192,254410,1,8,0:0:0:0:
76,192,254410,1,0,0:0:0:70:Hat open.wav
128,192,254410,1,0,0:0:0:0:
384,192,254410,1,0,0:0:0:0:
435,192,254410,1,0,0:0:0:0:
486,192,254410,1,0,0:0:0:0:
25,192,256256,128,2,258872:0:0:0:0:
76,192,256256,1,4,0:0:0:0:
230,192,256256,1,0,0:0:0:50:Crash 2.wav
281,192,256256,1,0,0:0:0:0:
435,192,256256,1,0,0:0:0:0:
486,192,256256,128,0,257641:0:0:0:0:
332,192,257026,1,0,0:0:0:70:Hat open.wav
435,192,257026,1,0,0:0:0:0:
384,192,257641,128,0,258872:0:0:0:0:
179,192,257949,128,0,258102:0:0:0:0:
128,192,258102,128,0,258256:0:0:0:0:
76,192,258256,128,0,258872:0:0:0:70:Hat open.wav
281,192,258256,1,0,0:0:0:0:
486,192,258256,1,0,0:0:0:0:
128,192,258872,1,2,0:0:0:0:
179,192,258872,1,0,0:0:0:0:
435,192,258872,1,0,0:0:0:0:
486,192,258872,128,0,261333:0:0:0:0:
25,192,259487,1,0,0:0:0:70:Hat open.wav
230,192,259487,1,0,0:0:0:0:
25,192,260102,1,0,0:0:0:50:Tom1.wav
76,192,260102,1,0,0:0:0:0:
128,192,260141,1,0,0:0:0:50:Tom1.wav
179,192,260141,1,0,0:0:0:0:
179,192,260564,1,0,0:0:0:50:Tom2.wav
230,192,260564,1,0,0:0:0:0:
281,192,260564,1,0,0:0:0:0:
332,192,261026,1,0,0:0:0:50:Tom3.wav
384,192,261026,1,0,0:0:0:0:
435,192,261026,1,0,0:0:0:0:
25,192,261333,1,2,0:0:0:0:
128,192,261333,1,0,0:0:0:50:Crash 2.wav
230,192,261333,1,0,0:0:0:0:
281,192,261333,128,0,263795:0:0:0:0:
332,192,261949,1,0,0:0:0:70:Hat open.wav
486,192,261949,1,0,0:0:0:0:
25,192,263179,1,0,0:0:0:70:Hat open.wav
128,192,263179,1,0,0:0:0:0:
128,192,263795,128,2,264872:0:0:0:0:
384,192,263795,128,0,264872:0:0:0:0:
25,192,264410,1,0,0:0:0:70:Hat open.wav
486,192,264410,1,0,0:0:0:0:
179,192,264872,1,2,0:0:0:0:
332,192,264872,1,0,0:0:0:0:
25,192,264949,1,2,0:0:0:0:
128,192,264949,1,0,0:0:0:0:
384,192,264949,1,0,0:0:0:0:
486,192,264949,1,0,0:0:0:0:
76,192,265026,1,8,0:0:0:0:
230,192,265026,1,0,0:0:0:50:Crash 2.wav
281,192,265026,1,0,0:0:0:0:
435,192,265026,1,0,0:0:0:0:
25,192,265179,128,8,265333:0:0:0:0:
281,192,265179,128,0,265333:0:0:0:50:Crash 2.wav
76,192,265256,128,0,265410:0:0:0:0:
332,192,265256,128,0,265410:0:0:0:0:
128,192,265333,128,0,265487:0:0:0:0:
384,192,265333,128,0,265487:0:0:0:0:
179,192,265410,128,0,265564:0:0:0:0:
435,192,265410,128,0,265564:0:0:0:0:
230,192,265487,128,0,265641:0:0:0:50:Tom1.wav
486,192,265487,128,0,265641:0:0:0:0:
128,192,265564,128,0,265718:0:0:0:0:
332,192,265564,128,0,265718:0:0:0:0:
76,192,265641,128,0,265718:0:0:0:0:
384,192,265641,128,0,265718:0:0:0:0:
25,192,265795,128,0,266256:0:0:0:50:Tom2.wav
128,192,265795,128,0,266179:0:0:0:0:
384,192,265795,128,0,266179:0:0:0:0:
486,192,265795,128,0,266256:0:0:0:0:
179,192,265949,128,0,266179:0:0:0:50:Tom3.wav
332,192,265949,128,0,266179:0:0:0:0:
76,192,266102,128,0,266256:0:0:0:0:
435,192,266102,128,0,266256:0:0:0:0:
128,192,266256,1,2,0:0:0:0:
179,192,266256,1,4,0:0:0:0:
332,192,266256,1,0,0:0:0:0:
384,192,266256,1,0,0:0:0:0:
76,192,266564,1,2,0:0:0:0:
128,192,266564,1,0,0:0:0:70:Hat open.wav
435,192,266564,1,0,0:0:0:0:
486,192,266564,1,0,0:0:0:0:
179,192,266718,1,0,0:0:0:70:Hat open.wav
332,192,266718,1,0,0:0:0:0:
76,192,266872,1,2,0:0:0:0:
128,192,266872,1,0,0:0:0:70:Hat open.wav
281,192,266872,1,0,0:0:0:0:
384,192,266872,1,0,0:0:0:0:
230,192,267026,1,0,0:0:0:70:Hat open.wav
435,192,267026,1,0,0:0:0:0:
25,192,267179,1,2,0:0:0:0:
76,192,267179,1,0,0:0:0:70:Hat open.wav
332,192,267179,1,0,0:0:0:0:
384,192,267179,1,0,0:0:0:0:
128,192,267333,1,0,0:0:0:70:Hat open.wav
230,192,267333,1,0,0:0:0:0:
25,192,267487,1,2,0:0:0:0:
179,192,267487,1,0,0:0:0:70:Hat open.wav
384,192,267487,1,0,0:0:0:0:
435,192,267487,1,0,0:0:0:0:
76,192,267641,1,0,0:0:0:70:Hat open.wav
332,192,267641,1,0,0:0:0:0:
230,192,267795,1,2,0:0:0:0:
281,192,267795,1,0,0:0:0:70:Hat open.wav
435,192,267795,1,0,0:0:0:0:
486,192,267795,1,0,0:0:0:0:
76,192,267949,1,0,0:0:0:70:Hat open.wav
179,192,267949,1,0,0:0:0:0:
25,192,268102,1,2,0:0:0:0:
128,192,268102,1,0,0:0:0:70:Hat open.wav
281,192,268102,1,0,0:0:0:0:
384,192,268102,1,0,0:0:0:0:
179,192,268256,1,0,0:0:0:70:Hat open.wav
486,192,268256,1,0,0:0:0:0:
25,192,268410,1,2,0:0:0:0:
76,192,268410,1,0,0:0:0:70:Hat open.wav
384,192,268410,1,0,0:0:0:0:
435,192,268410,1,0,0:0:0:0:
128,192,268564,1,8,0:0:0:0:
179,192,268564,1,0,0:0:0:0:
281,192,268564,1,0,0:0:0:0:
332,192,268564,1,0,0:0:0:0:
230,192,268641,1,8,0:0:0:0:
384,192,268641,1,0,0:0:0:0:
25,192,268718,1,2,0:0:0:0:
76,192,268718,1,4,0:0:0:0:
281,192,268718,1,0,0:0:0:0:
435,192,268718,1,0,0:0:0:0:
486,192,268718,1,0,0:0:0:0:
128,192,268872,1,0,0:0:0:70:Hat open.wav
332,192,268872,1,0,0:0:0:0:
25,192,269026,1,2,0:0:0:0:
230,192,269026,1,0,0:0:0:70:Hat open.wav
384,192,269026,1,0,0:0:0:0:
435,192,269026,1,0,0:0:0:0:
76,192,269179,1,0,0:0:0:70:Hat open.wav
332,192,269179,1,0,0:0:0:0:
128,192,269333,1,2,0:0:0:0:
230,192,269333,1,0,0:0:0:70:Hat open.wav
281,192,269333,1,0,0:0:0:0:
435,192,269333,1,0,0:0:0:0:
179,192,269487,1,0,0:0:0:70:Hat open.wav
384,192,269487,1,0,0:0:0:0:
25,192,269641,1,2,0:0:0:0:
76,192,269641,1,0,0:0:0:70:Hat open.wav
332,192,269641,1,0,0:0:0:0:
486,192,269641,1,0,0:0:0:0:
281,192,269795,1,0,0:0:0:70:Hat open.wav
435,192,269795,1,0,0:0:0:0:
76,192,269949,1,2,0:0:0:0:
128,192,269949,1,0,0:0:0:70:Hat open.wav
384,192,269949,1,0,0:0:0:0:
486,192,269949,1,0,0:0:0:0:
179,192,270102,1,0,0:0:0:70:Hat open.wav
332,192,270102,1,0,0:0:0:0:
25,192,270256,1,2,0:0:0:0:
128,192,270256,1,0,0:0:0:70:Hat open.wav
435,192,270256,1,0,0:0:0:0:
486,192,270256,1,0,0:0:0:0:
179,192,270410,1,0,0:0:0:70:Hat open.wav
384,192,270410,1,0,0:0:0:0:
25,192,270564,1,2,0:0:0:0:
76,192,270564,1,0,0:0:0:70:Hat open.wav
281,192,270564,1,0,0:0:0:0:
332,192,270564,1,0,0:0:0:0:
128,192,270718,1,0,0:0:0:0:
384,192,270718,1,0,0:0:0:0:
179,192,270872,1,2,0:0:0:0:
230,192,270872,1,0,0:0:0:50:Tom2.wav
435,192,270872,1,0,0:0:0:50:Tom3.wav
486,192,270872,1,0,0:0:0:0:
128,192,271026,1,0,0:0:0:0:
384,192,271026,1,0,0:0:0:0:
25,192,271179,1,2,0:0:0:0:
76,192,271179,1,0,0:0:0:50:Crash 2.wav
281,192,271179,1,0,0:0:0:0:
332,192,271179,1,0,0:0:0:0:
486,192,271179,1,0,0:0:0:0:
128,192,271333,1,0,0:0:0:0:
435,192,271333,1,0,0:0:0:0:
25,192,271487,1,2,0:0:0:0:
76,192,271487,1,8,0:0:0:0:
332,192,271487,1,0,0:0:0:50:Tom3.wav
384,192,271487,1,0,0:0:0:0:
128,192,271641,1,8,0:0:0:0:
486,192,271641,1,0,0:0:0:50:Tom3.wav
25,192,271795,1,2,0:0:0:0:
76,192,271795,1,8,0:0:0:0:
230,192,271795,1,0,0:0:0:50:Tom3.wav
281,192,271795,1,0,0:0:0:0:
128,192,271949,1,8,0:0:0:0:
332,192,271949,1,0,0:0:0:50:Tom3.wav
25,192,272102,1,8,0:0:0:0:
76,192,272102,1,2,0:0:0:0:
384,192,272102,1,0,0:0:0:50:Tom3.wav
435,192,272102,1,0,0:0:0:0:
128,192,272256,1,8,0:0:0:0:
281,192,272256,1,0,0:0:0:50:Tom3.wav
25,192,272410,1,2,0:0:0:0:
76,192,272410,1,8,0:0:0:0:
435,192,272410,1,0,0:0:0:50:Tom3.wav
486,192,272410,1,0,0:0:0:0:
25,192,272564,1,8,0:0:0:0:
76,192,272564,1,0,0:0:0:50:Tom3.wav
128,192,272564,1,0,0:0:0:0:
384,192,272564,1,0,0:0:0:0:
435,192,272564,1,0,0:0:0:0:
486,192,272564,1,0,0:0:0:0:
25,192,272718,1,8,0:0:0:0:
76,192,272718,1,2,0:0:0:0:
128,192,272718,1,0,0:0:0:50:Tom3.wav
384,192,272718,1,0,0:0:0:0:
435,192,272718,1,0,0:0:0:0:
486,192,272718,1,0,0:0:0:0:
25,192,272872,1,8,0:0:0:0:
76,192,272872,1,0,0:0:0:50:Tom3.wav
128,192,272872,1,0,0:0:0:0:
384,192,272872,1,0,0:0:0:0:
435,192,272872,1,0,0:0:0:0:
486,192,272872,1,0,0:0:0:0:
25,192,273026,128,2,273179:0:0:0:0:
128,192,273026,1,8,0:0:0:0:
179,192,273026,1,0,0:0:0:50:Tom3.wav
332,192,273026,1,0,0:0:0:0:
384,192,273026,1,0,0:0:0:0:
486,192,273026,128,0,273179:0:0:0:0:
76,192,273102,128,0,273256:0:0:0:0:
435,192,273102,128,0,273256:0:0:0:0:
128,192,273179,128,8,273333:0:0:0:0:
230,192,273179,1,0,0:0:0:50:Tom3.wav
281,192,273179,1,0,0:0:0:0:
384,192,273179,128,0,273333:0:0:0:0:
179,192,273256,128,0,273410:0:0:0:0:
332,192,273256,128,0,273410:0:0:0:0:
25,192,273333,1,8,0:0:0:0:
76,192,273333,1,2,0:0:0:0:
435,192,273333,1,0,0:0:0:50:Tom3.wav
486,192,273333,1,0,0:0:0:0:
76,192,273487,1,2,0:0:0:0:
128,192,273487,1,0,0:0:0:0:
384,192,273487,1,0,0:0:0:0:
435,192,273487,1,0,0:0:0:0:
25,192,273564,1,2,0:0:0:0:
230,192,273564,1,0,0:0:0:0:
281,192,273564,1,0,0:0:0:0:
486,192,273564,1,0,0:0:0:0:
332,192,273641,1,8,0:0:0:0:
384,192,273641,1,0,0:0:0:0:
435,192,273641,1,0,0:0:0:0:
76,192,273718,1,8,0:0:0:0:
128,192,273718,1,0,0:0:0:0:
179,192,273718,1,0,0:0:0:0:
332,192,273795,1,8,0:0:0:0:
384,192,273795,1,0,0:0:0:0:
435,192,273795,1,0,0:0:0:0:
76,192,273872,1,8,0:0:0:0:
128,192,273872,1,0,0:0:0:0:
179,192,273872,1,0,0:0:0:0:
230,192,273949,1,2,0:0:0:0:
435,192,273949,1,0,0:0:0:0:
486,192,273949,1,0,0:0:0:0:
179,192,274026,1,2,0:0:0:0:
332,192,274026,1,0,0:0:0:0:
384,192,274026,1,0,0:0:0:0:
25,192,274102,1,0,0:0:0:50:Tom1.wav
76,192,274102,1,0,0:0:0:0:
281,192,274102,1,0,0:0:0:0:
128,192,274179,1,0,0:0:0:50:Tom1.wav
179,192,274179,1,0,0:0:0:0:
384,192,274179,1,0,0:0:0:0:
281,192,274256,1,0,0:0:0:50:Tom2.wav
435,192,274256,1,0,0:0:0:0:
486,192,274256,1,0,0:0:0:0:
25,192,274333,1,0,0:0:0:50:Tom2.wav
76,192,274333,1,0,0:0:0:0:
230,192,274333,1,0,0:0:0:0:
128,192,274410,1,2,0:0:0:0:
179,192,274410,1,0,0:0:0:0:
281,192,274410,1,0,0:0:0:0:
230,192,274487,1,2,0:0:0:0:
332,192,274487,1,0,0:0:0:0:
384,192,274487,1,0,0:0:0:0:
128,192,274564,1,0,0:0:0:50:Tom2.wav
179,192,274564,1,0,0:0:0:0:
281,192,274564,1,0,0:0:0:0:
332,192,274641,1,0,0:0:0:50:Tom2.wav
435,192,274641,1,0,0:0:0:0:
486,192,274641,1,0,0:0:0:0:
25,192,274718,1,0,0:0:0:50:Tom3.wav
76,192,274718,1,0,0:0:0:0:
179,192,274718,1,0,0:0:0:0:
332,192,274795,1,0,0:0:0:50:Tom3.wav
435,192,274795,1,0,0:0:0:0:
486,192,274795,1,0,0:0:0:0:
25,192,274872,1,2,0:0:0:0:
76,192,274872,1,0,0:0:0:0:
230,192,274872,1,0,0:0:0:0:
281,192,274872,1,0,0:0:0:0:
128,192,274949,1,2,0:0:0:0:
179,192,274949,1,0,0:0:0:0:
332,192,274949,1,0,0:0:0:0:
384,192,274949,1,0,0:0:0:0:
25,192,275026,1,8,0:0:0:0:
76,192,275026,1,0,0:0:0:50:Crash 2.wav
230,192,275026,1,0,0:0:0:0:
281,192,275026,1,0,0:0:0:0:
435,192,275026,1,0,0:0:0:0:
486,192,275026,1,0,0:0:0:0:
128,192,275179,1,2,0:0:0:0:
179,192,275179,1,0,0:0:0:0:
332,192,275179,1,0,0:0:0:0:
384,192,275179,1,0,0:0:0:0:
128,192,275333,1,2,0:0:0:0:
179,192,275333,1,0,0:0:0:0:
332,192,275333,1,0,0:0:0:0:
384,192,275333,1,0,0:0:0:0:
25,192,275487,1,8,0:0:0:0:
76,192,275487,1,0,0:0:0:50:Crash 2.wav
128,192,275487,1,0,0:0:0:0:
179,192,275487,1,0,0:0:0:0:
332,192,275487,1,0,0:0:0:0:
384,192,275487,1,0,0:0:0:0:
435,192,275487,1,0,0:0:0:0:
486,192,275487,1,0,0:0:0:0:
25,192,275641,1,8,0:0:0:0:
76,192,275641,1,0,0:0:0:50:Crash 2.wav
128,192,275641,1,0,0:0:0:0:
179,192,275641,1,0,0:0:0:0:
332,192,275641,1,0,0:0:0:0:
384,192,275641,1,0,0:0:0:0:
435,192,275641,1,0,0:0:0:0:
486,192,275641,1,0,0:0:0:0:
25,192,275949,128,2,276410:0:0:0:0:
76,192,275949,1,4,0:0:0:0:
128,192,275949,1,2,0:0:0:0:
230,192,275949,1,0,0:0:0:50:Crash 2.wav
281,192,275949,1,0,0:0:0:0:
384,192,275949,1,0,0:0:0:0:
435,192,275949,128,0,276256:0:0:0:0:
486,192,275949,1,0,0:0:0:0:
76,192,276256,1,2,0:0:0:0:
179,192,276256,1,0,0:0:0:0:
281,192,276256,1,0,0:0:0:0:
384,192,276256,128,0,276718:0:0:0:0:
128,192,276410,128,8,276718:0:0:0:0:
230,192,276410,1,0,0:0:0:70:Hat open.wav
332,192,276410,1,0,0:0:0:0:
435,192,276410,1,0,0:0:0:0:
486,192,276410,1,0,0:0:0:0:
76,192,276564,1,0,0:0:0:0:
281,192,276564,1,0,0:0:0:0:
25,192,276718,128,2,277179:0:0:0:0:
179,192,276718,128,0,277026:0:0:0:70:Hat open.wav
435,192,276718,1,0,0:0:0:0:
486,192,276718,1,0,0:0:0:0:
76,192,276872,1,2,0:0:0:0:
128,192,276872,1,0,0:0:0:0:
332,192,276872,1,0,0:0:0:0:
384,192,276872,1,0,0:0:0:0:
76,192,277026,1,8,0:0:0:0:
230,192,277026,1,0,0:0:0:70:Hat open.wav
281,192,277026,1,0,0:0:0:0:
435,192,277026,128,0,277641:0:0:0:0:
486,192,277026,1,0,0:0:0:0:
128,192,277179,1,2,0:0:0:0:
179,192,277179,1,0,0:0:0:0:
281,192,277179,128,0,277641:0:0:0:0:
384,192,277179,1,0,0:0:0:0:
25,192,277333,1,0,0:0:0:70:Hat open.wav
332,192,277333,1,0,0:0:0:0:
128,192,277487,1,2,0:0:0:0:
179,192,277487,1,0,0:0:0:0:
230,192,277487,1,0,0:0:0:0:
384,192,277487,1,0,0:0:0:0:
25,192,277641,1,8,0:0:0:0:
76,192,277641,128,0,278102:0:0:0:70:Hat open.wav
332,192,277641,1,0,0:0:0:0:
384,192,277641,1,0,0:0:0:0:
486,192,277641,128,0,277949:0:0:0:0:
128,192,277795,1,0,0:0:0:0:
281,192,277795,1,0,0:0:0:0:
25,192,277949,1,2,0:0:0:0:
179,192,277949,1,0,0:0:0:70:Hat open.wav
332,192,277949,128,0,278410:0:0:0:0:
384,192,277949,1,0,0:0:0:0:
179,192,278102,128,2,278410:0:0:0:0:
230,192,278102,1,0,0:0:0:0:
435,192,278102,1,0,0:0:0:0:
486,192,278102,1,0,0:0:0:0:
25,192,278256,1,8,0:0:0:0:
76,192,278256,1,0,0:0:0:70:Hat open.wav
128,192,278256,1,0,0:0:0:0:
384,192,278256,1,0,0:0:0:0:
435,192,278256,1,0,0:0:0:0:
25,192,278410,128,2,278872:0:0:0:0:
76,192,278410,1,4,0:0:0:0:
230,192,278410,128,0,278872:0:0:0:0:
281,192,278410,1,0,0:0:0:0:
486,192,278410,1,0,0:0:0:0:
179,192,278564,1,0,0:0:0:0:
435,192,278564,1,0,0:0:0:0:
76,192,278718,1,2,0:0:0:0:
128,192,278718,1,0,0:0:0:0:
384,192,278718,1,0,0:0:0:0:
486,192,278718,1,0,0:0:0:0:
76,192,278872,128,8,279026:0:0:0:0:
179,192,278872,1,0,0:0:0:70:Hat open.wav
281,192,278872,128,0,279026:0:0:0:0:
332,192,278872,1,0,0:0:0:0:
435,192,278872,1,0,0:0:0:0:
128,192,279026,1,0,0:0:0:0:
230,192,279026,1,0,0:0:0:0:
128,192,279179,128,2,279333:0:0:0:0:
332,192,279179,128,0,279333:0:0:0:70:Hat open.wav
384,192,279179,1,0,0:0:0:0:
486,192,279179,1,0,0:0:0:0:
25,192,279333,1,2,0:0:0:0:
76,192,279333,1,0,0:0:0:0:
230,192,279333,1,0,0:0:0:0:
281,192,279333,1,0,0:0:0:0:
128,192,279487,1,8,0:0:0:0:
179,192,279487,128,0,279641:0:0:0:70:Hat open.wav
384,192,279487,1,0,0:0:0:0:
435,192,279487,1,0,0:0:0:0:
486,192,279487,128,0,279949:0:0:0:0:
25,192,279641,1,2,0:0:0:0:
76,192,279641,1,0,0:0:0:0:
230,192,279641,128,0,279949:0:0:0:0:
332,192,279641,1,0,0:0:0:0:
128,192,279795,1,0,0:0:0:70:Hat open.wav
435,192,279795,1,0,0:0:0:0:
25,192,279949,1,2,0:0:0:0:
76,192,279949,1,0,0:0:0:0:
332,192,279949,1,0,0:0:0:0:
384,192,279949,1,0,0:0:0:0:
128,192,280102,1,8,0:0:0:0:
179,192,280102,1,0,0:0:0:70:Hat open.wav
281,192,280102,1,0,0:0:0:0:
435,192,280102,1,0,0:0:0:0:
486,192,280102,1,0,0:0:0:0:
25,192,280256,1,2,0:0:0:0:
76,192,280256,1,0,0:0:0:0:
230,192,280256,1,0,0:0:0:0:
384,192,280256,1,0,0:0:0:0:
25,192,280410,128,0,280872:0:0:0:50:Tom2.wav
179,192,280410,128,0,280564:0:0:0:0:
281,192,280410,1,0,0:0:0:0:
435,192,280410,1,0,0:0:0:0:
486,192,280410,1,0,0:0:0:0:
332,192,280487,1,0,0:0:0:50:Tom2.wav
384,192,280487,1,0,0:0:0:0:
128,192,280564,128,0,280872:0:0:0:50:Tom3.wav
435,192,280564,1,0,0:0:0:0:
486,192,280564,1,0,0:0:0:0:
281,192,280641,1,0,0:0:0:50:Tom3.wav
332,192,280641,1,0,0:0:0:0:
384,192,280718,1,8,0:0:0:0:
435,192,280718,1,0,0:0:0:0:
486,192,280718,1,0,0:0:0:0:
179,192,280872,128,2,281179:0:0:0:0:
332,192,280872,1,4,0:0:0:0:
384,192,280872,1,0,0:0:0:0:
435,192,280872,128,0,281487:0:0:0:0:
76,192,281179,128,0,281487:0:0:0:0:
281,192,281179,1,0,0:0:0:0:
25,192,281333,1,8,0:0:0:0:
128,192,281333,1,2,0:0:0:0:
332,192,281333,1,0,0:0:0:0:
384,192,281333,1,0,0:0:0:0:
486,192,281333,1,0,0:0:0:0:
179,192,281487,1,0,0:0:0:70:Hat open.wav
230,192,281487,1,0,0:0:0:0:
25,192,281641,128,2,282102:0:0:0:0:
76,192,281641,1,0,0:0:0:0:
281,192,281641,128,0,281949:0:0:0:0:
435,192,281641,1,0,0:0:0:0:
128,192,281795,1,0,0:0:0:70:Hat open.wav
384,192,281795,1,0,0:0:0:0:
179,192,281949,1,8,0:0:0:0:
230,192,281949,1,2,0:0:0:0:
332,192,281949,128,0,282410:0:0:0:0:
435,192,281949,1,0,0:0:0:0:
486,192,281949,1,0,0:0:0:0:
76,192,282102,128,0,282410:0:0:0:70:Hat open.wav
384,192,282102,1,0,0:0:0:0:
128,192,282256,1,2,0:0:0:0:
179,192,282256,1,0,0:0:0:0:
435,192,282256,1,0,0:0:0:0:
486,192,282256,1,0,0:0:0:0:
25,192,282410,1,0,0:0:0:70:Hat open.wav
281,192,282410,1,0,0:0:0:0:
76,192,282564,1,8,0:0:0:0:
128,192,282564,128,2,282872:0:0:0:0:
230,192,282564,1,0,0:0:0:0:
384,192,282564,1,0,0:0:0:0:
435,192,282564,128,0,282872:0:0:0:0:
179,192,282718,1,0,0:0:0:70:Hat open.wav
332,192,282718,1,0,0:0:0:0:
25,192,282872,1,2,0:0:0:0:
76,192,282872,1,0,0:0:0:0:
230,192,282872,1,0,0:0:0:0:
281,192,282872,128,0,283026:0:0:0:0:
486,192,282872,128,0,283333:0:0:0:0:
230,192,283026,128,0,283333:0:0:0:70:Hat open.wav
435,192,283026,1,0,0:0:0:0:
76,192,283179,1,8,0:0:0:0:
128,192,283179,1,2,0:0:0:0:
281,192,283179,1,0,0:0:0:0:
332,192,283179,1,0,0:0:0:0:
384,192,283179,1,0,0:0:0:0:
25,192,283333,128,4,284102:0:0:0:0:
179,192,283333,1,2,0:0:0:0:
332,192,283333,128,0,283795:0:0:0:50:Crash 2.wav
435,192,283333,1,0,0:0:0:0:
179,192,283641,1,0,0:0:0:0:
281,192,283641,1,0,0:0:0:0:
76,192,283795,1,2,0:0:0:0:
128,192,283795,128,8,284102:0:0:0:0:
384,192,283795,1,0,0:0:0:70:Hat open.wav
435,192,283795,128,0,284410:0:0:0:0:
486,192,283795,1,0,0:0:0:0:
230,192,283949,1,0,0:0:0:0:
332,192,283949,1,0,0:0:0:0:
76,192,284102,1,2,0:0:0:0:
179,192,284102,128,0,284410:0:0:0:70:Hat open.wav
384,192,284102,1,0,0:0:0:0:
486,192,284102,1,0,0:0:0:0:
25,192,284256,1,0,0:0:0:0:
281,192,284256,1,0,0:0:0:0:
76,192,284410,1,2,0:0:0:0:
128,192,284410,128,8,284718:0:0:0:0:
230,192,284410,1,0,0:0:0:70:Hat open.wav
332,192,284410,1,0,0:0:0:0:
384,192,284410,128,0,284718:0:0:0:0:
25,192,284564,128,0,284718:0:0:0:0:
281,192,284564,128,0,284718:0:0:0:0:
179,192,284718,1,2,0:0:0:0:
230,192,284718,1,0,0:0:0:0:
435,192,284718,1,0,0:0:0:0:
486,192,284718,1,0,0:0:0:0:
25,192,284872,1,8,0:0:0:0:
76,192,284872,1,0,0:0:0:50:Crash 2.wav
281,192,284872,1,0,0:0:0:0:
332,192,284872,1,0,0:0:0:0:
384,192,284872,1,0,0:0:0:0:
25,192,285026,1,8,0:0:0:0:
76,192,285026,1,0,0:0:0:50:Crash 2.wav
281,192,285026,1,0,0:0:0:0:
332,192,285026,1,0,0:0:0:0:
384,192,285026,1,0,0:0:0:0:
25,192,285179,1,8,0:0:0:0:
76,192,285179,1,0,0:0:0:0:
128,192,285179,1,0,0:0:0:0:
384,192,285256,1,8,0:0:0:0:
435,192,285256,1,0,0:0:0:0:
486,192,285256,1,0,0:0:0:0:
25,192,285333,1,8,0:0:0:0:
76,192,285333,1,0,0:0:0:0:
281,192,285333,1,0,0:0:0:0:
128,192,285410,1,8,0:0:0:0:
179,192,285410,1,0,0:0:0:0:
332,192,285410,1,0,0:0:0:0:
384,192,285487,1,8,0:0:0:0:
435,192,285487,1,0,0:0:0:0:
486,192,285487,1,0,0:0:0:0:
128,192,285564,1,8,0:0:0:0:
179,192,285564,1,0,0:0:0:0:
332,192,285564,1,0,0:0:0:0:
25,192,285641,1,8,0:0:0:0:
76,192,285641,1,0,0:0:0:0:
281,192,285641,1,0,0:0:0:0:
25,192,285795,1,2,0:0:0:0:
76,192,285795,1,4,0:0:0:0:
179,192,285795,1,0,0:0:0:0:
230,192,285795,1,0,0:0:0:0:
384,192,285795,1,0,0:0:0:0:
435,192,285795,1,0,0:0:0:0:
76,192,286102,1,2,0:0:0:0:
128,192,286102,1,0,0:0:0:0:
435,192,286102,1,0,0:0:0:0:
486,192,286102,1,0,0:0:0:0:
25,192,286256,1,8,0:0:0:0:
179,192,286256,1,0,0:0:0:50:Crash 2.wav
281,192,286256,1,0,0:0:0:0:
332,192,286256,1,0,0:0:0:0:
384,192,286256,1,0,0:0:0:0:
76,192,286410,1,2,0:0:0:0:
230,192,286410,1,0,0:0:0:0:
435,192,286410,1,0,0:0:0:0:
486,192,286410,1,0,0:0:0:0:
25,192,286564,1,8,0:0:0:0:
128,192,286564,1,0,0:0:0:50:Crash 2.wav
179,192,286564,1,0,0:0:0:0:
332,192,286564,1,0,0:0:0:0:
384,192,286564,1,0,0:0:0:0:
230,192,286718,1,2,0:0:0:0:
281,192,286718,1,0,0:0:0:0:
435,192,286718,1,0,0:0:0:0:
486,192,286718,1,0,0:0:0:0:
25,192,286872,1,8,0:0:0:0:
76,192,286872,1,0,0:0:0:50:Crash 2.wav
128,192,286872,1,0,0:0:0:0:
332,192,286872,1,0,0:0:0:0:
384,192,286872,1,0,0:0:0:0:
179,192,287026,1,2,0:0:0:0:
230,192,287026,1,0,0:0:0:0:
435,192,287026,1,0,0:0:0:0:
486,192,287026,1,0,0:0:0:0:
76,192,287102,1,2,0:0:0:0:
128,192,287102,1,0,0:0:0:0:
332,192,287102,1,0,0:0:0:0:
384,192,287102,1,0,0:0:0:0:
25,192,287179,1,8,0:0:0:0:
230,192,287179,1,0,0:0:0:50:Crash 2.wav
281,192,287179,1,0,0:0:0:0:
435,192,287179,1,0,0:0:0:0:
486,192,287179,1,0,0:0:0:0:
76,192,287333,1,2,0:0:0:0:
179,192,287333,1,0,0:0:0:0:
332,192,287333,1,0,0:0:0:0:
384,192,287333,1,0,0:0:0:0:
25,192,287487,1,8,0:0:0:0:
128,192,287487,1,0,0:0:0:50:Crash 2.wav
230,192,287487,1,0,0:0:0:0:
281,192,287487,1,0,0:0:0:0:
486,192,287487,1,0,0:0:0:0:
179,192,287641,1,2,0:0:0:0:
332,192,287641,1,0,0:0:0:0:
384,192,287641,1,0,0:0:0:0:
435,192,287641,1,0,0:0:0:0:
25,192,287795,1,8,0:0:0:0:
76,192,287795,1,0,0:0:0:50:Crash 2.wav
128,192,287795,1,0,0:0:0:0:
281,192,287795,1,0,0:0:0:0:
486,192,287795,1,0,0:0:0:0:
179,192,287949,1,2,0:0:0:0:
230,192,287949,1,0,0:0:0:0:
332,192,287949,1,0,0:0:0:0:
435,192,287949,1,0,0:0:0:0:
25,192,288102,1,8,0:0:0:0:
128,192,288102,1,0,0:0:0:50:Crash 2.wav
281,192,288102,1,0,0:0:0:0:
384,192,288102,1,0,0:0:0:0:
486,192,288102,1,0,0:0:0:0:
76,192,288256,1,2,0:0:0:0:
179,192,288256,1,4,0:0:0:0:
230,192,288256,1,0,0:0:0:0:
332,192,288256,1,0,0:0:0:0:
435,192,288256,1,0,0:0:0:0:
25,192,288564,1,2,0:0:0:0:
76,192,288564,1,0,0:0:0:0:
384,192,288564,1,0,0:0:0:0:
435,192,288564,1,0,0:0:0:0:
128,192,288718,1,8,0:0:0:0:
179,192,288718,1,0,0:0:0:50:Crash 2.wav
230,192,288718,1,0,0:0:0:0:
332,192,288718,1,0,0:0:0:0:
486,192,288718,1,0,0:0:0:0:
25,192,288872,1,2,0:0:0:0:
76,192,288872,1,0,0:0:0:0:
281,192,288872,1,0,0:0:0:0:
435,192,288872,1,0,0:0:0:0:
128,192,289026,1,8,0:0:0:0:
179,192,289026,1,0,0:0:0:50:Crash 2.wav
332,192,289026,1,0,0:0:0:0:
384,192,289026,1,0,0:0:0:0:
486,192,289026,1,0,0:0:0:0:
25,192,289179,1,2,0:0:0:0:
76,192,289179,1,0,0:0:0:0:
230,192,289179,1,0,0:0:0:0:
281,192,289179,1,0,0:0:0:0:
128,192,289333,1,8,0:0:0:0:
179,192,289333,1,0,0:0:0:50:Crash 2.wav
384,192,289333,1,0,0:0:0:0:
435,192,289333,1,0,0:0:0:0:
486,192,289333,1,0,0:0:0:0:
25,192,289487,1,2,0:0:0:0:
76,192,289487,1,0,0:0:0:0:
281,192,289487,1,0,0:0:0:0:
332,192,289487,1,0,0:0:0:0:
128,192,289564,1,2,0:0:0:0:
384,192,289564,1,0,0:0:0:0:
25,192,289641,128,8,289718:0:0:0:0:
76,192,289641,1,0,0:0:0:0:
179,192,289641,1,0,0:0:0:0:
332,192,289641,1,0,0:0:0:0:
435,192,289641,1,0,0:0:0:0:
486,192,289641,128,0,289718:0:0:0:0:
230,192,289718,1,8,0:0:0:0:
281,192,289718,1,0,0:0:0:0:
25,192,289795,1,2,0:0:0:0:
128,192,289795,128,0,289872:0:0:0:0:
384,192,289795,128,0,289872:0:0:0:0:
486,192,289795,1,0,0:0:0:0:
179,192,289872,1,2,0:0:0:0:
332,192,289872,1,0,0:0:0:0:
25,192,289949,1,0,0:0:0:50:Tom1.wav
76,192,289949,128,0,290026:0:0:0:0:
435,192,289949,128,0,290026:0:0:0:0:
486,192,289949,1,0,0:0:0:0:
128,192,290026,1,0,0:0:0:50:Tom1.wav
179,192,290026,1,0,0:0:0:0:
332,192,290026,1,0,0:0:0:0:
384,192,290026,1,0,0:0:0:0:
25,192,290102,1,2,0:0:0:0:
76,192,290102,1,0,0:0:0:0:
230,192,290102,128,0,290179:0:0:0:0:
281,192,290102,128,0,290179:0:0:0:0:
435,192,290102,1,0,0:0:0:0:
486,192,290102,1,0,0:0:0:0:
128,192,290179,1,2,0:0:0:0:
384,192,290179,1,0,0:0:0:0:
76,192,290256,1,0,0:0:0:50:Tom2.wav
179,192,290256,128,0,290333:0:0:0:0:
332,192,290256,128,0,290333:0:0:0:0:
435,192,290256,1,0,0:0:0:0:
128,192,290333,1,0,0:0:0:50:Tom2.wav
230,192,290333,1,0,0:0:0:0:
281,192,290333,1,0,0:0:0:0:
384,192,290333,1,0,0:0:0:0:
25,192,290410,128,2,290487:0:0:0:0:
76,192,290410,1,0,0:0:0:0:
435,192,290410,1,0,0:0:0:0:
486,192,290410,128,0,290487:0:0:0:0:
128,192,290487,1,2,0:0:0:0:
179,192,290487,1,0,0:0:0:0:
332,192,290487,1,0,0:0:0:0:
384,192,290487,1,0,0:0:0:0:
25,192,290564,1,8,0:0:0:0:
76,192,290564,128,0,290641:0:0:0:0:
435,192,290564,128,0,290641:0:0:0:0:
486,192,290564,1,0,0:0:0:0:
128,192,290641,1,0,0:0:0:0:
179,192,290641,1,0,0:0:0:0:
332,192,290641,1,0,0:0:0:0:
384,192,290641,1,0,0:0:0:0:
25,192,290718,128,2,291026:0:0:0:0:
76,192,290718,1,0,0:0:0:50:Crash 2.wav
230,192,290718,128,0,291102:0:0:0:0:
281,192,290718,128,0,291102:0:0:0:0:
435,192,290718,1,0,0:0:0:0:
486,192,290718,128,0,291026:0:0:0:0:
76,192,291026,1,2,0:0:0:0:
128,192,291026,1,0,0:0:0:0:
384,192,291026,1,0,0:0:0:0:
435,192,291026,1,0,0:0:0:0:
25,192,291179,128,8,291641:0:0:0:0:
179,192,291179,128,0,291487:0:0:0:70:Hat open.wav
332,192,291179,128,0,291487:0:0:0:0:
486,192,291179,128,0,291641:0:0:0:0:
76,192,291487,1,2,0:0:0:0:
128,192,291487,1,0,0:0:0:70:Hat open.wav
384,192,291487,1,0,0:0:0:0:
435,192,291487,1,0,0:0:0:0:
179,192,291641,1,2,0:0:0:0:
230,192,291641,1,0,0:0:0:0:
281,192,291641,1,0,0:0:0:0:
332,192,291641,1,0,0:0:0:0:
25,192,291795,1,8,0:0:0:0:
76,192,291795,1,0,0:0:0:70:Hat open.wav
128,192,291795,1,0,0:0:0:0:
384,192,291795,1,0,0:0:0:0:
435,192,291795,1,0,0:0:0:0:
486,192,291795,1,0,0:0:0:0:
25,192,291949,128,2,292256:0:0:0:0:
76,192,291949,1,4,0:0:0:0:
179,192,291949,128,0,292179:0:0:0:0:
332,192,291949,128,0,292179:0:0:0:0:
435,192,291949,1,0,0:0:0:0:
486,192,291949,128,0,292256:0:0:0:0:
76,192,292256,1,2,0:0:0:0:
179,192,292256,1,0,0:0:0:0:
332,192,292256,1,0,0:0:0:0:
435,192,292256,1,0,0:0:0:0:
25,192,292410,128,8,292872:0:0:0:0:
128,192,292410,128,0,292718:0:0:0:50:Crash 2.wav
384,192,292410,128,0,292718:0:0:0:0:
486,192,292410,128,0,292872:0:0:0:0:
76,192,292564,1,2,0:0:0:0:
179,192,292564,1,0,0:0:0:0:
332,192,292564,1,0,0:0:0:0:
435,192,292564,1,0,0:0:0:0:
76,192,292718,1,0,0:0:0:50:Tom2.wav
230,192,292718,1,0,0:0:0:0:
281,192,292718,1,0,0:0:0:0:
435,192,292718,1,0,0:0:0:0:
128,192,292795,1,0,0:0:0:50:Tom2.wav
179,192,292795,1,0,0:0:0:0:
332,192,292795,1,0,0:0:0:0:
384,192,292795,1,0,0:0:0:0:
76,192,292872,1,0,0:0:0:50:Tom3.wav
230,192,292872,1,0,0:0:0:0:
281,192,292872,1,0,0:0:0:0:
435,192,292872,1,0,0:0:0:0:
25,192,292949,1,0,0:0:0:50:Tom3.wav
179,192,292949,1,0,0:0:0:0:
332,192,292949,1,0,0:0:0:0:
486,192,292949,1,0,0:0:0:0:
76,192,293026,1,8,0:0:0:0:
128,192,293026,128,0,293333:0:0:0:70:Hat open.wav
230,192,293026,1,0,0:0:0:0:
281,192,293026,1,0,0:0:0:0:
384,192,293026,128,0,293333:0:0:0:0:
435,192,293026,1,0,0:0:0:0:
25,192,293179,128,2,293487:0:0:0:0:
230,192,293179,128,4,293564:0:0:0:0:
281,192,293179,128,0,293564:0:0:0:0:
486,192,293179,128,0,293487:0:0:0:0:
76,192,293487,128,2,293718:0:0:0:0:
179,192,293487,1,0,0:0:0:0:
332,192,293487,1,0,0:0:0:0:
435,192,293487,128,0,293718:0:0:0:0:
25,192,293641,1,8,0:0:0:0:
128,192,293641,1,0,0:0:0:50:Crash 2.wav
179,192,293641,128,0,293872:0:0:0:0:
332,192,293641,128,0,293872:0:0:0:0:
384,192,293641,1,0,0:0:0:0:
486,192,293641,1,0,0:0:0:0:
76,192,293795,1,2,0:0:0:0:
128,192,293795,128,0,294026:0:0:0:0:
384,192,293795,128,0,294026:0:0:0:0:
435,192,293795,1,0,0:0:0:0:
25,192,293949,128,8,294179:0:0:0:0:
76,192,293949,1,0,0:0:0:50:Crash 2.wav
179,192,293949,1,0,0:0:0:0:
332,192,293949,1,0,0:0:0:0:
435,192,293949,1,0,0:0:0:0:
486,192,293949,128,0,294179:0:0:0:0:
76,192,294102,1,2,0:0:0:0:
179,192,294102,128,0,294333:0:0:0:0:
332,192,294102,128,0,294333:0:0:0:0:
435,192,294102,1,0,0:0:0:0:
25,192,294256,1,8,0:0:0:0:
128,192,294256,128,0,294410:0:0:0:50:Crash 2.wav
230,192,294256,1,0,0:0:0:0:
281,192,294256,1,0,0:0:0:0:
384,192,294256,128,0,294410:0:0:0:0:
486,192,294256,1,0,0:0:0:0:
76,192,294333,128,0,294410:0:0:0:0:
435,192,294333,128,0,294410:0:0:0:0:
25,192,294410,128,2,294718:0:0:0:0:
179,192,294410,128,4,294795:0:0:0:0:
332,192,294410,128,0,294795:0:0:0:0:
486,192,294410,128,0,294718:0:0:0:0:
76,192,294718,128,8,294949:0:0:0:0:
128,192,294718,1,0,0:0:0:0:
384,192,294718,1,0,0:0:0:0:
435,192,294718,128,0,294949:0:0:0:0:
25,192,294872,1,2,0:0:0:0:
128,192,294872,128,0,295026:0:0:0:50:Tom3.wav
230,192,294872,1,0,0:0:0:0:
281,192,294872,1,0,0:0:0:0:
384,192,294872,128,0,295026:0:0:0:0:
486,192,294872,1,0,0:0:0:0:
179,192,294949,1,0,0:0:0:0:
332,192,294949,1,0,0:0:0:0:
25,192,295026,1,8,0:0:0:0:
76,192,295026,128,0,295179:0:0:0:0:
435,192,295026,128,0,295179:0:0:0:0:
486,192,295026,1,0,0:0:0:0:
128,192,295102,1,8,0:0:0:0:
384,192,295102,1,0,0:0:0:0:
179,192,295179,128,8,295333:0:0:0:0:
230,192,295179,1,0,0:0:0:0:
281,192,295179,1,0,0:0:0:0:
332,192,295179,128,0,295333:0:0:0:0:
76,192,295256,1,0,0:0:0:0:
435,192,295256,1,0,0:0:0:0:
25,192,295333,128,8,295487:0:0:0:0:
128,192,295333,1,0,0:0:0:0:
384,192,295333,1,0,0:0:0:0:
486,192,295333,128,0,295487:0:0:0:0:
179,192,295410,1,8,0:0:0:0:
332,192,295410,1,0,0:0:0:0:
76,192,295487,128,8,295718:0:0:0:0:
128,192,295487,1,0,0:0:0:0:
384,192,295487,1,0,0:0:0:0:
435,192,295487,128,0,295718:0:0:0:0:
25,192,295641,128,2,296026:0:0:0:0:
128,192,295641,128,4,296333:0:0:0:0:
230,192,295641,128,0,295795:0:0:0:0:
281,192,295641,128,0,295795:0:0:0:0:
384,192,295641,128,0,296333:0:0:0:0:
486,192,295641,128,0,296026:0:0:0:0:
76,192,295949,1,2,0:0:0:0:
179,192,295949,1,0,0:0:0:0:
332,192,295949,1,0,0:0:0:0:
435,192,295949,1,0,0:0:0:0:
25,192,296102,1,8,0:0:0:0:
76,192,296102,128,0,296410:0:0:0:50:Crash 2.wav
230,192,296102,128,0,296641:0:0:0:0:
281,192,296102,128,0,296641:0:0:0:0:
435,192,296102,128,0,296410:0:0:0:0:
486,192,296102,1,0,0:0:0:0:
25,192,296410,1,8,0:0:0:0:
128,192,296410,128,0,296641:0:0:0:50:Crash 2.wav
384,192,296410,128,0,296641:0:0:0:0:
486,192,296410,1,0,0:0:0:0:
25,192,296564,128,2,296795:0:0:0:0:
76,192,296564,1,0,0:0:0:0:
435,192,296564,1,0,0:0:0:0:
486,192,296564,128,0,296795:0:0:0:0:
76,192,296718,1,8,0:0:0:0:
128,192,296718,128,0,297179:0:0:0:50:Crash 2.wav
230,192,296718,1,0,0:0:0:0:
281,192,296718,1,0,0:0:0:0:
384,192,296718,128,0,297179:0:0:0:0:
435,192,296718,1,0,0:0:0:0:
76,192,296872,128,2,297718:0:0:0:0:
179,192,296872,128,0,297026:0:0:0:0:
332,192,296872,128,0,297026:0:0:0:0:
435,192,296872,128,0,297718:0:0:0:0:
25,192,297026,1,8,0:0:0:0:
230,192,297026,1,0,0:0:0:50:Crash 2.wav
281,192,297026,1,0,0:0:0:0:
486,192,297026,1,0,0:0:0:0:
25,192,297179,1,2,0:0:0:0:
179,192,297179,1,0,0:0:0:0:
332,192,297179,1,0,0:0:0:0:
486,192,297179,1,0,0:0:0:0:
25,192,297333,128,8,297718:0:0:0:0:
128,192,297333,128,0,297564:0:0:0:50:Crash 2.wav
179,192,297333,1,0,0:0:0:0:
332,192,297333,1,0,0:0:0:0:
384,192,297333,128,0,297564:0:0:0:0:
486,192,297333,128,0,297718:0:0:0:0:
179,192,297487,1,2,0:0:0:0:
230,192,297487,1,0,0:0:0:0:
281,192,297487,1,0,0:0:0:0:
332,192,297487,1,0,0:0:0:0:
128,192,297641,1,8,0:0:0:0:
230,192,297641,128,0,297872:0:0:0:50:Crash 2.wav
281,192,297641,128,0,297872:0:0:0:0:
384,192,297641,1,0,0:0:0:0:
179,192,297718,1,0,0:0:0:0:
332,192,297718,1,0,0:0:0:0:
76,192,297795,1,2,0:0:0:0:
128,192,297795,128,0,298026:0:0:0:0:
384,192,297795,128,0,298026:0:0:0:0:
435,192,297795,1,0,0:0:0:0:
25,192,297949,128,8,298410:0:0:0:0:
76,192,297949,1,0,0:0:0:50:Crash 2.wav
179,192,297949,1,0,0:0:0:0:
332,192,297949,1,0,0:0:0:0:
435,192,297949,1,0,0:0:0:0:
486,192,297949,128,0,298410:0:0:0:0:
128,192,298102,128,2,298256:0:0:0:0:
230,192,298102,128,4,298410:0:0:0:0:
281,192,298102,128,0,298410:0:0:0:0:
384,192,298102,128,0,298256:0:0:0:0:
128,192,298410,1,8,0:0:0:0:
332,192,298410,1,0,0:0:0:0:
384,192,298410,1,0,0:0:0:0:
25,192,298487,1,8,0:0:0:0:
76,192,298487,1,0,0:0:0:0:
281,192,298487,1,0,0:0:0:0:
230,192,298564,1,2,0:0:0:0:
435,192,298564,1,0,0:0:0:0:
486,192,298564,1,0,0:0:0:0:
25,192,298641,1,2,0:0:0:0:
76,192,298641,1,0,0:0:0:0:
332,192,298641,1,0,0:0:0:0:
128,192,298718,1,0,0:0:0:50:Tom2.wav
179,192,298718,1,0,0:0:0:0:
384,192,298718,1,0,0:0:0:0:
230,192,298795,1,0,0:0:0:50:Tom1.wav
435,192,298795,1,0,0:0:0:0:
486,192,298795,1,0,0:0:0:0:
25,192,298872,1,2,0:0:0:0:
281,192,298872,1,0,0:0:0:0:
332,192,298872,1,0,0:0:0:0:
76,192,298949,1,2,0:0:0:0:
128,192,298949,1,0,0:0:0:0:
486,192,298949,1,0,0:0:0:0:
179,192,299026,1,0,0:0:0:50:Tom3.wav
384,192,299026,1,0,0:0:0:0:
435,192,299026,1,0,0:0:0:0:
25,192,299102,1,0,0:0:0:50:Tom2.wav
281,192,299102,1,0,0:0:0:0:
332,192,299102,1,0,0:0:0:0:
76,192,299179,1,2,0:0:0:0:
128,192,299179,1,0,0:0:0:0:
486,192,299179,1,0,0:0:0:0:
179,192,299256,1,2,0:0:0:0:
332,192,299256,1,0,0:0:0:0:
384,192,299256,1,0,0:0:0:0:
25,192,299333,128,8,300256:0:0:0:0:
76,192,299333,128,0,300256:0:0:0:0:
128,192,299333,128,0,300256:0:0:0:0:
230,192,299333,128,0,300256:0:0:0:0:
435,192,299333,1,0,0:0:0:0:
332,192,300256,1,2,0:0:0:0:
384,192,300256,1,0,0:0:0:0:
435,192,300256,1,0,0:0:0:0:
486,192,300256,1,0,0:0:0:0:
25,192,300333,1,2,0:0:0:0:
76,192,300333,1,0,0:0:0:0:
128,192,300333,1,0,0:0:0:0:
179,192,300333,1,0,0:0:0:0:
281,192,300410,128,8,300718:0:0:0:0:
332,192,300410,1,0,0:0:0:50:Tom3.wav
384,192,300410,1,0,0:0:0:0:
435,192,300410,1,0,0:0:0:0:
486,192,300410,1,0,0:0:0:0:
25,192,300718,128,8,301256:0:0:0:0:
332,192,300718,1,0,0:0:0:50:Crash 2.wav
384,192,300718,1,0,0:0:0:0:
435,192,300718,1,0,0:0:0:0:
486,192,300718,1,0,0:0:0:0:
128,192,300872,128,2,301641:0:0:0:0:
435,192,300872,1,0,0:0:0:0:
486,192,300872,1,0,0:0:0:0:
179,192,301026,128,2,301410:0:0:0:0:
332,192,301026,1,0,0:0:0:0:
384,192,301026,1,0,0:0:0:0:
76,192,301179,128,8,301641:0:0:0:0:
332,192,301179,1,4,0:0:0:0:
384,192,301179,1,0,0:0:0:0:
435,192,301179,1,0,0:0:0:0:
486,192,301179,1,0,0:0:0:0:
25,192,301333,128,2,301564:0:0:0:0:
435,192,301333,1,0,0:0:0:0:
486,192,301333,1,0,0:0:0:0:
179,192,301487,128,2,301641:0:0:0:0:
332,192,301487,1,0,0:0:0:0:
384,192,301487,1,0,0:0:0:0:
25,192,301641,128,8,302179:0:0:0:0:
332,192,301641,1,0,0:0:0:50:Crash 2.wav
384,192,301641,1,0,0:0:0:0:
435,192,301641,1,0,0:0:0:0:
486,192,301641,1,0,0:0:0:0:
128,192,301795,128,2,302333:0:0:0:0:
435,192,301795,1,0,0:0:0:0:
486,192,301795,1,0,0:0:0:0:
179,192,301949,128,2,302487:0:0:0:0:
332,192,301949,1,0,0:0:0:0:
384,192,301949,1,0,0:0:0:0:
76,192,302102,128,8,302487:0:0:0:0:
332,192,302102,1,4,0:0:0:0:
384,192,302102,1,0,0:0:0:0:
435,192,302102,1,0,0:0:0:0:
486,192,302102,1,0,0:0:0:0:
25,192,302256,128,2,302487:0:0:0:0:
435,192,302256,1,0,0:0:0:0:
486,192,302256,1,0,0:0:0:0:
128,192,302410,128,2,302564:0:0:0:0:
332,192,302410,1,0,0:0:0:0:
384,192,302410,1,0,0:0:0:0:
25,192,302564,1,8,0:0:0:0:
76,192,302564,1,0,0:0:0:50:Crash 2.wav
179,192,302564,128,0,303026:0:0:0:0:
332,192,302564,1,0,0:0:0:0:
384,192,302564,1,0,0:0:0:0:
435,192,302564,1,0,0:0:0:0:
486,192,302564,1,0,0:0:0:0:
25,192,302641,1,0,0:0:0:0:
25,192,302718,1,2,0:0:0:0:
332,192,302718,1,0,0:0:0:0:
384,192,302718,1,0,0:0:0:0:
25,192,302795,1,0,0:0:0:0:
25,192,302872,1,8,0:0:0:0:
128,192,302872,128,0,303026:0:0:0:50:Crash 2.wav
435,192,302872,1,0,0:0:0:0:
486,192,302872,1,0,0:0:0:0:
332,192,303026,1,2,0:0:0:0:
384,192,303026,1,0,0:0:0:0:
435,192,303026,1,0,0:0:0:0:
486,192,303026,1,0,0:0:0:0:
25,192,303179,1,8,0:0:0:0:
76,192,303179,1,0,0:0:0:50:Crash 2.wav
128,192,303179,1,0,0:0:0:0:
179,192,303179,1,0,0:0:0:0:
486,192,303179,128,0,303718:0:0:0:0:
25,192,303333,1,2,0:0:0:0:
76,192,303333,1,0,0:0:0:0:
384,192,303333,128,0,304102:0:0:0:0:
128,192,303487,1,2,0:0:0:0:
179,192,303487,1,0,0:0:0:0:
332,192,303487,128,0,303872:0:0:0:0:
25,192,303641,1,8,0:0:0:0:
76,192,303641,1,4,0:0:0:0:
128,192,303641,1,0,0:0:0:0:
179,192,303641,1,0,0:0:0:0:
435,192,303641,128,0,304102:0:0:0:0:
25,192,303795,1,2,0:0:0:0:
76,192,303795,1,0,0:0:0:0:
486,192,303795,128,0,304026:0:0:0:0:
128,192,303949,1,2,0:0:0:0:
179,192,303949,1,0,0:0:0:0:
332,192,303949,128,0,304102:0:0:0:0:
25,192,304102,1,8,0:0:0:0:
76,192,304102,1,0,0:0:0:50:Crash 2.wav
128,192,304102,1,0,0:0:0:0:
179,192,304102,1,0,0:0:0:0:
486,192,304102,128,0,304564:0:0:0:0:
25,192,304256,1,2,0:0:0:0:
76,192,304256,1,0,0:0:0:0:
384,192,304256,128,0,304795:0:0:0:0:
128,192,304410,1,2,0:0:0:0:
179,192,304410,1,0,0:0:0:0:
332,192,304410,128,0,304949:0:0:0:0:
25,192,304564,1,8,0:0:0:0:
76,192,304564,1,4,0:0:0:0:
128,192,304564,1,0,0:0:0:0:
179,192,304564,1,0,0:0:0:0:
435,192,304564,128,0,305102:0:0:0:0:
25,192,304718,1,2,0:0:0:0:
76,192,304718,1,0,0:0:0:0:
486,192,304718,128,0,304949:0:0:0:0:
128,192,304872,1,2,0:0:0:0:
179,192,304872,1,0,0:0:0:0:
384,192,304872,128,0,305256:0:0:0:0:
25,192,305026,1,0,0:0:0:50:Tom2.wav
128,192,305026,1,0,0:0:0:0:
179,192,305026,1,0,0:0:0:0:
332,192,305026,128,0,305410:0:0:0:0:
486,192,305026,128,0,305256:0:0:0:0:
76,192,305102,1,0,0:0:0:50:Tom2.wav
128,192,305179,1,2,0:0:0:0:
179,192,305179,1,0,0:0:0:0:
435,192,305179,128,0,305487:0:0:0:0:
25,192,305256,1,2,0:0:0:0:
76,192,305333,1,0,0:0:0:50:Tom3.wav
128,192,305333,1,0,0:0:0:0:
384,192,305333,128,0,305487:0:0:0:0:
486,192,305333,128,0,305487:0:0:0:0:
179,192,305410,1,0,0:0:0:50:Tom3.wav
25,192,305487,1,2,0:0:0:0:
76,192,305487,1,0,0:0:0:0:
332,192,305487,128,0,305641:0:0:0:0:
128,192,305564,1,2,0:0:0:0:
25,192,305641,1,8,0:0:0:0:
76,192,305641,1,0,0:0:0:50:Crash 2.wav
179,192,305641,1,0,0:0:0:0:
384,192,305641,1,0,0:0:0:0:
435,192,305641,1,0,0:0:0:0:
486,192,305641,128,0,306102:0:0:0:0:
128,192,305795,128,2,306102:0:0:0:0:
384,192,305795,1,0,0:0:0:0:
435,192,305795,1,0,0:0:0:0:
25,192,305949,128,2,306256:0:0:0:0:
230,192,305949,1,0,0:0:0:0:
281,192,305949,1,0,0:0:0:0:
281,192,306102,1,4,0:0:0:0:
332,192,306102,1,8,0:0:0:0:
384,192,306102,1,0,0:0:0:0:
435,192,306102,128,0,306256:0:0:0:0:
332,192,306256,128,2,306564:0:0:0:0:
384,192,306256,1,0,0:0:0:0:
179,192,306410,128,2,306564:0:0:0:0:
281,192,306410,1,0,0:0:0:0:
25,192,306564,128,8,307026:0:0:0:0:
76,192,306564,1,0,0:0:0:50:Crash 2.wav
128,192,306564,1,0,0:0:0:0:
230,192,306564,1,0,0:0:0:0:
76,192,306718,1,2,0:0:0:0:
128,192,306718,1,0,0:0:0:0:
384,192,306718,128,0,307026:0:0:0:0:
230,192,306872,1,2,0:0:0:0:
281,192,306872,1,0,0:0:0:0:
486,192,306872,128,0,307179:0:0:0:0:
76,192,307026,128,4,307179:0:0:0:0:
128,192,307026,1,8,0:0:0:0:
179,192,307026,1,0,0:0:0:0:
230,192,307026,1,0,0:0:0:0:
128,192,307179,1,2,0:0:0:0:
179,192,307179,128,0,307487:0:0:0:0:
230,192,307333,1,2,0:0:0:0:
332,192,307333,128,0,307487:0:0:0:0:
25,192,307487,128,8,307641:0:0:0:0:
281,192,307487,1,0,0:0:0:50:Crash 2.wav
384,192,307487,1,0,0:0:0:0:
435,192,307487,1,0,0:0:0:0:
486,192,307487,128,0,307795:0:0:0:0:
128,192,307641,128,2,307795:0:0:0:0:
179,192,307641,1,0,0:0:0:0:
281,192,307795,1,8,0:0:0:0:
384,192,307795,1,0,0:0:0:50:Crash 2.wav
435,192,307795,1,0,0:0:0:0:
435,192,307872,1,0,0:0:0:0:
76,192,307949,1,2,0:0:0:0:
179,192,307949,1,0,0:0:0:0:
332,192,307949,1,0,0:0:0:0:
435,192,307949,1,0,0:0:0:0:
25,192,308102,128,8,308718:0:0:0:0:
128,192,308102,1,0,0:0:0:50:Crash 2.wav
230,192,308102,128,0,308410:0:0:0:0:
281,192,308102,1,0,0:0:0:0:
332,192,308102,1,0,0:0:0:0:
384,192,308102,1,0,0:0:0:0:
179,192,308256,128,2,308410:0:0:0:0:
435,192,308256,1,0,0:0:0:0:
486,192,308256,1,0,0:0:0:0:
76,192,308410,128,2,308718:0:0:0:0:
281,192,308410,1,0,0:0:0:0:
332,192,308410,1,0,0:0:0:0:
128,192,308564,128,4,308718:0:0:0:0:
332,192,308564,1,8,0:0:0:0:
384,192,308564,1,0,0:0:0:0:
435,192,308564,1,0,0:0:0:0:
486,192,308564,1,0,0:0:0:0:
179,192,308718,1,2,0:0:0:0:
230,192,308718,1,0,0:0:0:0:
281,192,308718,128,0,309026:0:0:0:0:
486,192,308718,128,0,309333:0:0:0:0:
25,192,308872,1,2,0:0:0:0:
76,192,308872,1,0,0:0:0:0:
332,192,308872,128,0,309026:0:0:0:0:
128,192,309026,1,8,0:0:0:0:
179,192,309026,1,0,0:0:0:50:Crash 2.wav
230,192,309026,1,0,0:0:0:0:
435,192,309026,128,0,309333:0:0:0:0:
25,192,309179,1,2,0:0:0:0:
76,192,309179,1,0,0:0:0:0:
384,192,309179,128,0,309333:0:0:0:0:
25,192,309333,128,2,309949:0:0:0:0:
76,192,309333,128,0,309487:0:0:0:0:
128,192,309487,128,4,309641:0:0:0:0:
179,192,309487,128,8,309949:0:0:0:0:
332,192,309487,1,0,0:0:0:0:
384,192,309487,1,0,0:0:0:0:
435,192,309487,1,0,0:0:0:0:
486,192,309487,1,0,0:0:0:0:
76,192,309641,128,2,309949:0:0:0:0:
332,192,309641,1,0,0:0:0:0:
384,192,309641,1,0,0:0:0:0:
128,192,309795,128,2,309949:0:0:0:0:
435,192,309795,1,0,0:0:0:0:
486,192,309795,1,0,0:0:0:0:
332,192,309949,1,0,0:0:0:50:Tom3.wav
384,192,309949,1,0,0:0:0:0:
435,192,309949,1,0,0:0:0:0:
486,192,309949,1,0,0:0:0:0:
25,192,310026,1,0,0:0:0:50:Tom2.wav
76,192,310026,1,0,0:0:0:0:
179,192,310026,1,0,0:0:0:0:
230,192,310102,128,2,310564:0:0:0:0:
281,192,310102,128,0,310564:0:0:0:0:
332,192,310179,1,2,0:0:0:0:
435,192,310179,1,0,0:0:0:0:
486,192,310179,1,0,0:0:0:0:
25,192,310256,1,8,0:0:0:0:
76,192,310256,1,0,0:0:0:0:
179,192,310256,1,0,0:0:0:0:
332,192,310333,1,8,0:0:0:0:
435,192,310333,1,0,0:0:0:0:
486,192,310333,1,0,0:0:0:0:
25,192,310410,1,8,0:0:0:0:
76,192,310410,1,0,0:0:0:0:
179,192,310410,1,0,0:0:0:0:
332,192,310487,1,8,0:0:0:0:
435,192,310487,1,0,0:0:0:0:
486,192,310487,1,0,0:0:0:0:
332,192,310564,1,2,0:0:0:0:
486,192,310564,1,0,0:0:0:0:
332,192,310641,1,2,0:0:0:0:
486,192,310641,1,0,0:0:0:0:
332,192,310718,1,2,0:0:0:0:
486,192,310718,1,0,0:0:0:0:
332,192,310795,1,2,0:0:0:0:
486,192,310795,1,0,0:0:0:0:
25,192,310872,128,8,311487:0:0:0:0:
76,192,310872,128,0,311179:0:0:0:50:Crash 2.wav
128,192,310872,1,0,0:0:0:0:
332,192,310872,1,0,0:0:0:0:
384,192,310872,1,0,0:0:0:0:
435,192,310872,1,0,0:0:0:0:
486,192,310872,1,0,0:0:0:0:
179,192,311179,128,2,311487:0:0:0:0:
230,192,311179,1,0,0:0:0:50:Crash 2.wav
332,192,311179,1,0,0:0:0:0:
384,192,311179,1,0,0:0:0:0:
128,192,311333,128,0,311487:0:0:0:0:
230,192,311487,1,2,0:0:0:0:
332,192,311487,1,8,0:0:0:0:
384,192,311487,1,0,0:0:0:50:Crash 2.wav
435,192,311487,128,0,311641:0:0:0:0:
486,192,311487,128,0,312102:0:0:0:0:
281,192,311641,128,0,311949:0:0:0:0:
25,192,311795,1,2,0:0:0:0:
76,192,311795,1,0,0:0:0:50:Crash 2.wav
179,192,311795,1,0,0:0:0:0:
332,192,311795,128,0,312102:0:0:0:0:
384,192,311949,128,0,312102:0:0:0:0:
25,192,312102,128,8,312718:0:0:0:0:
76,192,312102,128,2,312410:0:0:0:0:
179,192,312102,1,0,0:0:0:50:Crash 2.wav
230,192,312102,1,0,0:0:0:0:
281,192,312102,1,0,0:0:0:0:
128,192,312256,128,0,312564:0:0:0:0:
179,192,312410,128,2,312718:0:0:0:0:
281,192,312410,1,0,0:0:0:50:Crash 2.wav
332,192,312410,1,0,0:0:0:0:
486,192,312410,1,0,0:0:0:0:
435,192,312487,1,0,0:0:0:0:
281,192,312564,1,0,0:0:0:0:
435,192,312641,1,0,0:0:0:0:
230,192,312718,128,2,313026:0:0:0:0:
281,192,312718,128,8,313026:0:0:0:0:
332,192,312718,1,0,0:0:0:50:Crash 2.wav
384,192,312718,1,0,0:0:0:0:
486,192,312718,1,0,0:0:0:0:
25,192,313026,1,2,0:0:0:0:
76,192,313026,1,4,0:0:0:0:
435,192,313026,128,0,313333:0:0:0:0:
486,192,313026,128,0,313641:0:0:0:0:
281,192,313179,128,0,313487:0:0:0:0:
25,192,313333,1,8,0:0:0:0:
76,192,313333,1,2,0:0:0:0:
179,192,313333,1,0,0:0:0:50:Crash 2.wav
230,192,313333,1,0,0:0:0:0:
332,192,313333,128,0,313641:0:0:0:0:
384,192,313487,128,0,313641:0:0:0:0:
25,192,313641,128,2,314256:0:0:0:0:
76,192,313641,1,0,0:0:0:50:Crash 2.wav
128,192,313641,128,0,313949:0:0:0:0:
281,192,313641,1,0,0:0:0:0:
179,192,313795,128,0,314102:0:0:0:0:
76,192,313949,128,8,314256:0:0:0:0:
281,192,313949,1,2,0:0:0:0:
332,192,313949,1,0,0:0:0:50:Crash 2.wav
435,192,313949,1,0,0:0:0:0:
486,192,313949,1,0,0:0:0:0:
128,192,314102,128,0,314256:0:0:0:0:
230,192,314256,1,2,0:0:0:0:
281,192,314256,1,0,0:0:0:50:Crash 2.wav
435,192,314256,128,0,314564:0:0:0:0:
486,192,314256,128,0,314872:0:0:0:0:
384,192,314410,128,0,314718:0:0:0:0:
25,192,314564,1,2,0:0:0:0:
76,192,314564,1,8,0:0:0:0:
128,192,314564,1,0,0:0:0:50:Crash 2.wav
179,192,314564,1,0,0:0:0:0:
332,192,314564,128,0,314872:0:0:0:0:
281,192,314718,128,0,314872:0:0:0:0:
25,192,314872,128,2,315487:0:0:0:0:
230,192,314872,128,0,315179:0:0:0:50:Crash 2.wav
384,192,314872,1,0,0:0:0:0:
435,192,314872,1,0,0:0:0:0:
76,192,315026,128,8,315333:0:0:0:0:
281,192,315026,1,0,0:0:0:0:
332,192,315026,1,0,0:0:0:0:
435,192,315026,1,0,0:0:0:0:
486,192,315026,1,0,0:0:0:0:
128,192,315179,128,2,315487:0:0:0:0:
281,192,315179,1,0,0:0:0:0:
332,192,315179,1,0,0:0:0:0:
486,192,315179,1,0,0:0:0:0:
179,192,315333,128,8,315487:0:0:0:0:
230,192,315333,1,0,0:0:0:0:
384,192,315333,1,0,0:0:0:0:
435,192,315333,1,0,0:0:0:0:
486,192,315333,1,0,0:0:0:0:
332,192,315487,1,4,0:0:0:0:
384,192,315487,1,2,0:0:0:0:
435,192,315487,128,0,315795:0:0:0:0:
486,192,315487,128,0,316102:0:0:0:0:
281,192,315641,128,0,315949:0:0:0:0:
25,192,315795,1,8,0:0:0:0:
76,192,315795,1,2,0:0:0:0:
179,192,315795,1,0,0:0:0:50:Crash 2.wav
230,192,315795,1,0,0:0:0:0:
332,192,315795,128,0,316102:0:0:0:0:
435,192,315949,128,0,316102:0:0:0:0:
25,192,316102,128,2,316718:0:0:0:0:
76,192,316102,128,0,316410:0:0:0:50:Crash 2.wav
179,192,316102,1,0,0:0:0:0:
230,192,316102,1,0,0:0:0:0:
128,192,316256,128,0,316564:0:0:0:0:
230,192,316410,128,2,316718:0:0:0:0:
281,192,316410,1,8,0:0:0:0:
332,192,316410,1,0,0:0:0:50:Crash 2.wav
384,192,316410,1,0,0:0:0:0:
486,192,316410,1,0,0:0:0:0:
179,192,316564,128,0,316718:0:0:0:0:
76,192,316718,1,2,0:0:0:0:
128,192,316718,1,0,0:0:0:50:Crash 2.wav
332,192,316718,128,0,317026:0:0:0:0:
486,192,316718,128,0,317333:0:0:0:0:
281,192,316872,128,0,317179:0:0:0:0:
25,192,317026,1,2,0:0:0:0:
76,192,317026,1,8,0:0:0:0:
179,192,317026,1,0,0:0:0:50:Crash 2.wav
230,192,317026,1,0,0:0:0:0:
435,192,317026,128,0,317333:0:0:0:0:
384,192,317179,128,0,317333:0:0:0:0:
25,192,317333,128,2,317949:0:0:0:0:
76,192,317333,1,0,0:0:0:50:Crash 2.wav
230,192,317333,128,0,317641:0:0:0:0:
281,192,317333,1,0,0:0:0:0:
179,192,317487,128,0,317795:0:0:0:0:
76,192,317641,128,8,317949:0:0:0:0:
281,192,317641,1,2,0:0:0:0:
332,192,317641,1,0,0:0:0:50:Crash 2.wav
384,192,317641,1,0,0:0:0:0:
435,192,317641,1,0,0:0:0:0:
486,192,317718,1,4,0:0:0:0:
128,192,317795,128,4,317949:0:0:0:0:
332,192,317795,1,0,0:0:0:0:
179,192,317872,128,4,317949:0:0:0:0:
486,192,317872,1,0,0:0:0:0:
230,192,317949,1,2,0:0:0:0:
281,192,317949,1,4,0:0:0:0:
332,192,317949,1,0,0:0:0:0:
384,192,317949,1,0,0:0:0:0:
435,192,317949,1,0,0:0:0:0:
25,192,318102,1,8,0:0:0:0:
76,192,318102,1,0,0:0:0:0:
128,192,318102,1,0,0:0:0:0:
384,192,318179,1,8,0:0:0:0:
435,192,318179,1,0,0:0:0:0:
486,192,318179,1,0,0:0:0:0:
25,192,318256,1,2,0:0:0:0:
128,192,318256,1,0,0:0:0:0:
179,192,318256,1,0,0:0:0:0:
332,192,318333,1,2,0:0:0:0:
384,192,318333,1,0,0:0:0:0:
486,192,318333,1,0,0:0:0:0:
76,192,318410,1,0,0:0:0:50:Tom2.wav
179,192,318410,1,0,0:0:0:0:
332,192,318487,1,0,0:0:0:50:Tom2.wav
435,192,318487,1,0,0:0:0:0:
25,192,318564,1,2,0:0:0:0:
76,192,318564,1,0,0:0:0:0:
230,192,318564,1,0,0:0:0:0:
281,192,318641,1,2,0:0:0:0:
435,192,318641,1,0,0:0:0:0:
486,192,318641,1,0,0:0:0:0:
25,192,318718,1,8,0:0:0:0:
76,192,318718,1,0,0:0:0:0:
128,192,318718,1,0,0:0:0:0:
384,192,318795,1,8,0:0:0:0:
435,192,318795,1,0,0:0:0:0:
486,192,318795,1,0,0:0:0:0:
25,192,318872,1,8,0:0:0:0:
76,192,318872,1,0,0:0:0:0:
128,192,318872,1,0,0:0:0:0:
384,192,318949,1,8,0:0:0:0:
435,192,318949,1,0,0:0:0:0:
486,192,318949,1,0,0:0:0:0:
25,192,319026,1,2,0:0:0:0:
179,192,319026,1,0,0:0:0:0:
230,192,319026,1,0,0:0:0:0:
76,192,319102,1,2,0:0:0:0:
281,192,319102,1,0,0:0:0:0:
332,192,319102,1,0,0:0:0:0:
384,192,319179,1,8,0:0:0:0:
435,192,319179,1,0,0:0:0:0:
486,192,319179,1,0,0:0:0:0:
25,192,319256,1,0,0:0:0:50:Tom1.wav
76,192,319256,1,0,0:0:0:0:
128,192,319256,1,0,0:0:0:0:
281,192,319333,1,2,0:0:0:0:
332,192,319333,1,0,0:0:0:0:
486,192,319333,1,0,0:0:0:0:
179,192,319410,1,2,0:0:0:0:
230,192,319410,1,0,0:0:0:0:
435,192,319410,1,0,0:0:0:0:
25,192,319487,1,0,0:0:0:50:Tom1.wav
76,192,319487,1,0,0:0:0:0:
435,192,319564,1,0,0:0:0:50:Tom2.wav
486,192,319564,1,0,0:0:0:0:
25,192,319641,1,2,0:0:0:0:
76,192,319641,1,0,0:0:0:0:
179,192,319641,1,0,0:0:0:0:
332,192,319718,1,2,0:0:0:0:
435,192,319718,1,0,0:0:0:0:
486,192,319718,1,0,0:0:0:0:
128,192,319795,1,0,0:0:0:50:Tom3.wav
179,192,319795,1,0,0:0:0:0:
332,192,319872,1,0,0:0:0:50:Tom2.wav
384,192,319872,1,0,0:0:0:0:
25,192,319949,1,2,0:0:0:0:
179,192,319949,1,0,0:0:0:0:
230,192,319949,1,0,0:0:0:0:
281,192,320026,1,2,0:0:0:0:
332,192,320026,1,0,0:0:0:0:
486,192,320026,1,0,0:0:0:0:
76,192,320102,1,8,0:0:0:0:
128,192,320102,1,0,0:0:0:0:
179,192,320102,1,0,0:0:0:0:
332,192,320179,1,8,0:0:0:0:
384,192,320179,1,0,0:0:0:0:
435,192,320179,1,0,0:0:0:0:
76,192,320256,1,8,0:0:0:0:
128,192,320256,1,0,0:0:0:0:
179,192,320256,1,0,0:0:0:0:
332,192,320333,1,8,0:0:0:0:
384,192,320333,1,0,0:0:0:0:
435,192,320333,1,0,0:0:0:0:
25,192,321035,128,2,330326:0:0:0:0:
76,192,321035,128,4,330176:0:0:0:0:
128,192,321035,128,0,329976:0:0:0:50:Crash 2.wav
179,192,321035,128,0,322675:0:0:0:0:
230,192,321035,1,0,0:0:0:0:
281,192,321035,1,0,0:0:0:0:
332,192,321035,1,0,0:0:0:0:
384,192,321035,1,0,0:0:0:0:
435,192,321035,1,0,0:0:0:0:
486,192,321035,1,0,0:0:0:0:
281,192,321894,1,0,0:0:0:0:
384,192,321894,1,0,0:0:0:0:
486,192,321894,1,0,0:0:0:0:
384,192,322327,1,0,0:0:0:0:
486,192,322327,1,0,0:0:0:0:
230,192,322501,1,4,0:0:0:0:
281,192,322588,1,4,0:0:0:0:
332,192,322675,1,4,0:0:0:0:
435,192,322675,1,0,0:0:0:0:
179,192,323196,1,0,0:0:0:0:
281,192,323196,1,0,0:0:0:0:
230,192,323480,1,0,0:0:0:0:
332,192,323480,1,0,0:0:0:0:
281,192,323790,1,0,0:0:0:0:
435,192,323790,1,0,0:0:0:0:
384,192,324095,1,0,0:0:0:0:
486,192,324095,1,0,0:0:0:0:
332,192,324400,1,0,0:0:0:0:
435,192,324400,1,0,0:0:0:0:
179,192,324533,1,0,0:0:0:0:
281,192,324533,1,0,0:0:0:0:
230,192,324705,1,0,0:0:0:0:
332,192,324705,1,0,0:0:0:0:
281,192,324898,1,0,0:0:0:0:
384,192,324898,1,0,0:0:0:0:
332,192,325115,1,0,0:0:0:0:
435,192,325115,1,0,0:0:0:0:
230,192,325223,1,0,0:0:0:0:
384,192,325332,1,0,0:0:0:0:
486,192,325332,1,0,0:0:0:0:
179,192,325714,1,0,0:0:0:0:
332,192,325714,1,0,0:0:0:0:
230,192,326105,1,0,0:0:0:0:
384,192,326105,1,0,0:0:0:0:
281,192,326577,1,0,0:0:0:0:
435,192,326577,1,0,0:0:0:0:
332,192,327124,1,0,0:0:0:0:
486,192,327124,1,0,0:0:0:0:
230,192,327776,1,0,0:0:0:0:
281,192,327776,1,0,0:0:0:0:
332,192,327813,1,0,0:0:0:0:
384,192,327813,1,0,0:0:0:0:
435,192,327851,1,0,0:0:0:0:
486,192,327851,1,0,0:0:0:0:
