osu file format v14

[General]
AudioFilename: audio.mp3
AudioLeadIn: 0
PreviewTime: 59907
Countdown: 0
SampleSet: Soft
StackLeniency: 0.7
Mode: 0
LetterboxInBreaks: 0
WidescreenStoryboard: 0

[Editor]
DistanceSpacing: 1
BeatDivisor: 2
GridSize: 4
TimelineZoom: 1

[Metadata]
Title:Re:birth day
TitleUnicode:Re:birth day
Artist:Roselia
ArtistUnicode:Roselia
Creator:Meg
Version:NORMAL
Source:BanG Dream!
Tags:rebirth Kanau Mamayu fuyuyu- ロゼリア バンドリ ガールズバンドパーティ! Girls Band Party! 湊友希那 Minato Yukina 相羽あいな Aiba Aina 宇田川あこ Udagawa Ako 櫻川めぐ Sakuragawa Megu 白金燐子 Shirokane Rinko 明坂聡美 Akesaka Satomi 氷川紗夜 Hikawa Sayo 工藤晴香 Kudou Haruka 今井リサ Imai Risa 遠藤ゆりか Endou Yurika
BeatmapID:1300465
BeatmapSetID:594500

[Difficulty]
HPDrainRate:4
CircleSize:3.5
OverallDifficulty:4
ApproachRate:5
SliderMultiplier:1.1
SliderTickRate:1

[Events]
//Background and Video events
0,0,"BG.jpg",0,0
//Break Periods
2,17843,21384
//Storyboard Layer 0 (Background)
//Storyboard Layer 1 (Fail)
//Storyboard Layer 2 (Pass)
//Storyboard Layer 3 (Foreground)
//Storyboard Sound Samples

[TimingPoints]
702,352.941176470588,4,2,1,50,1,0
702,-100,4,2,1,50,0,0
4054,-100,4,2,2,50,0,0
4937,-100,4,2,2,50,0,0
6349,-100,4,2,1,70,0,0
17643,-100,4,2,1,60,0,0
22584,-100,4,2,2,60,0,0
22937,-100,4,2,1,50,0,0
23290,-100,4,2,1,60,0,0
45878,-100,4,2,1,50,0,0
51525,-100,4,2,2,60,0,0
57172,-100,4,2,1,70,0,0
58231,-100,4,2,1,70,0,0
58937,-100,4,2,1,5,0,0
59025,-100,4,2,1,70,0,0
59996,-100,4,2,1,80,0,1
71290,-100,4,2,10,80,0,1
71378,-100,4,2,1,80,0,1
74113,-100,4,2,10,80,0,1
74201,-100,4,2,1,80,0,1
79760,-100,4,2,12,80,0,1
79849,-100,4,2,1,80,0,1
80290,-100,4,2,12,80,0,1
80378,-100,4,2,1,80,0,1
80819,-100,4,2,12,80,0,1
80907,-100,4,2,1,80,0,1
81349,-100,4,2,12,80,0,1
81437,-100,4,2,1,80,0,1
82584,-100,4,2,1,80,0,1
93878,-100,4,2,10,80,0,1
93966,-100,4,2,1,80,0,1
96701,-100,4,2,10,80,0,1
96790,-100,4,2,1,80,0,1
100937,-100,4,2,1,80,0,1
101643,-100,4,2,1,20,0,1
102172,-100,4,2,1,80,0,1
102349,-100,4,2,1,70,0,0
118937,-100,4,2,1,30,0,0

[Colours]
Combo1 : 7,250,171
Combo2 : 128,0,255
Combo3 : 188,180,205
Combo4 : 255,128,255

[HitObjects]
256,192,702,12,2,3525,0:1:0:0:
375,47,4937,6,0,L|359:155,1,110,0|0,0:3|0:3,0:0:0:0:
408,254,5643,1,0,0:0:0:0:
330,331,5996,2,0,L|275:323,1,55,2|2,0:0|0:0,0:0:0:0:
234,285,6349,6,0,P|179:285|130:308,1,110,12|0,0:0|0:0,0:0:0:0:
84,339,6878,2,0,L|74:229,1,110,8|0,0:0|0:0,0:0:0:0:
70,174,7407,1,8,0:0:0:0:
117,74,7760,5,0,0:0:0:0:
117,74,7937,2,0,P|172:65|227:60,1,110,8|0,0:0|0:0,0:0:0:0:
280,70,8466,2,0,L|310:24,2,55,8|2|8,0:0|0:0|0:0,0:0:0:0:
203,149,9172,6,0,P|189:201|200:255,1,110,12|0,0:0|0:0,0:0:0:0:
219,307,9701,2,0,L|328:295,1,110,8|0,0:0|0:0,0:0:0:0:
381,279,10231,1,8,0:0:0:0:
467,347,10584,5,0,0:0:0:0:
467,347,10760,2,0,P|488:296|484:242,1,110,8|0,0:0|0:0,0:0:0:0:
458,192,11290,1,8,0:0:0:0:
351,164,11643,1,8,0:0:0:0:
241,171,11996,6,0,P|187:186|133:192,1,110,12|0,0:0|0:0,0:0:0:0:
78,186,12525,2,0,L|59:77,1,110,8|0,0:0|0:0,0:0:0:0:
51,22,13054,1,8,0:0:0:0:
160,30,13407,5,0,0:0:0:0:
160,30,13584,2,0,L|269:35,1,110,8|0,0:0|0:0,0:0:0:0:
309,74,14113,2,0,L|299:128,2,55,8|0|8,0:0|0:0|0:0,0:0:0:0:
407,26,14819,6,0,P|461:32|499:71,1,110,12|0,0:0|0:0,0:0:0:0:
504,126,15349,2,0,L|481:233,1,110,8|0,0:0|0:0,0:0:0:0:
490,287,15878,1,8,0:0:0:0:
399,350,16231,5,0,0:0:0:0:
399,350,16407,2,0,P|345:340|291:329,1,110,8|0,0:0|0:0,0:0:0:0:
248,293,16937,2,0,P|202:324|148:331,1,110,8|8,0:0|0:3,0:0:0:0:
58,268,17643,5,6,0:0:0:0:
454,163,22584,6,0,L|456:108,2,55,8|8|0,0:0|0:0|1:0,0:0:0:0:
364,225,23290,6,0,P|309:220|264:189,1,110,6|8,0:0|0:0,0:0:0:0:
190,108,23996,1,0,0:0:0:0:
190,108,24172,2,0,P|141:133|117:181,1,110,0|8,0:0|0:0,0:0:0:0:
108,235,24701,2,0,L|-1:221,2,110,0|8|2,0:0|0:0|0:0,0:0:0:0:
185,313,25760,1,8,0:0:0:0:
288,279,26113,6,0,P|342:274|390:300,1,110,2|8,0:0|0:0,0:0:0:0:
447,205,26819,2,0,P|473:197|500:200,2,55,2|2|0,0:0|0:0|0:0,0:0:0:0:
402,172,27349,1,8,0:0:0:0:
402,172,27525,2,0,L|411:62,1,110,0|8,0:0|0:0,0:0:0:0:
302,78,28231,2,0,L|297:132,2,55,2|2|8,0:0|0:0|0:0,0:0:0:0:
201,31,28937,6,0,P|146:30|100:58,1,110,6|8,0:0|0:0,0:0:0:0:
55,159,29643,1,2,0:0:0:0:
55,159,29819,2,0,L|63:268,1,110,0|8,0:0|0:0,0:0:0:0:
70,323,30349,1,0,0:0:0:0:
176,295,30701,2,0,P|229:285|280:303,1,110,8|2,0:0|0:0,0:0:0:0:
379,351,31407,1,8,0:0:0:0:
476,299,31760,6,0,P|485:244|478:190,1,110,2|8,0:0|0:0,0:0:0:0:
426,93,32466,1,2,0:0:0:0:
426,93,32643,2,0,L|316:103,1,110,0|8,0:0|0:0,0:0:0:0:
268,76,33172,2,0,L|253:185,1,110,0|8,0:0|0:0,0:0:0:0:
282,291,33878,2,0,P|255:298|230:309,1,55,2|0,0:0|1:0,0:0:0:0:
182,336,34231,2,0,P|155:328|130:317,1,55,0|0,1:0|1:0,0:0:0:0:
79,297,34584,6,0,P|59:245|55:191,1,110,6|8,0:0|0:0,0:0:0:0:
129,109,35290,2,0,P|148:160|152:214,1,110,2|8,0:0|0:0,0:0:0:0:
240,281,35996,2,0,P|293:267|347:261,2,110,2|8|2,0:0|0:0|0:0,0:0:0:0:
151,215,37054,1,8,0:0:0:0:
254,177,37407,6,0,P|270:124|267:70,1,110,2|8,0:0|0:0,0:0:0:0:
242,20,37937,1,0,0:0:0:0:
242,20,38113,2,0,L|351:34,1,110,2|8,0:0|0:0,0:0:0:0:
458,58,38819,2,0,P|452:112|424:159,1,110,2|8,0:0|0:0,0:0:0:0:
375,185,39349,2,0,P|380:239|408:286,1,110,0|2,0:0|0:0,0:0:0:0:
457,312,39878,1,8,0:0:0:0:
361,367,40231,6,0,L|253:344,1,110,2|8,0:0|0:0,0:0:0:0:
143,346,40937,2,0,P|155:292|189:250,1,110,2|8,0:0|0:0,0:0:0:0:
235,219,41466,1,0,0:0:0:0:
235,219,41643,2,0,L|342:196,1,110,2|8,0:0|0:0,0:0:0:0:
446,231,42349,2,0,L|457:177,1,55,2|2,0:0|0:0,0:0:0:0:
415,141,42701,2,0,L|426:87,1,55,8|0,0:0|0:0,0:0:0:0:
384,51,43054,6,0,L|274:39,1,110,2|8,0:0|0:0,0:0:0:0:
164,38,43760,2,0,P|152:92|155:147,1,110,2|8,0:0|0:0,0:0:0:0:
233,224,44466,2,0,L|287:219,2,55,2|2|8,0:0|0:0|0:0,0:0:0:0:
135,275,45172,2,0,L|80:270,2,55,8|8|8,0:0|0:0|0:0,0:0:0:0:
233,326,45878,6,0,P|391:276|234:223,1,440,6|4,0:0|3:0,0:0:0:0:
46,338,47996,1,0,3:0:0:0:
161,150,48701,6,0,P|254:95|362:98,2,220,4|0|4,3:0|3:0|3:0,0:0:0:0:
249,352,50819,2,0,P|303:342|358:342,1,110,0|8,3:0|3:0,0:0:0:0:
449,280,51525,6,0,L|458:170,1,110,12|8,0:0|0:0,0:0:0:0:
489,64,52231,2,0,L|379:54,1,110,8|8,0:0|0:0,0:0:0:0:
273,24,52937,2,0,L|263:133,1,110,8|8,0:0|0:0,0:0:0:0:
232,240,53643,2,0,L|341:249,1,110,8|8,0:0|0:0,0:0:0:0:
449,280,54349,6,0,L|458:170,1,110,8|8,0:0|0:0,0:0:0:0:
351,140,55054,2,0,L|341:249,1,110,8|8,0:0|0:0,0:0:0:0:
233,218,55760,2,0,L|243:109,1,110,8|8,0:0|0:0,0:0:0:0:
135,78,56466,2,0,L|125:187,1,110,8|8,0:0|0:0,0:0:0:0:
42,259,57172,6,0,P|36:312|77:347,1,110,10|2,0:0|0:0,0:0:0:0:
131,339,57701,2,0,P|199:319|257:334,1,110,10|2,0:0|0:0,0:0:0:0:
286,348,58231,1,8,0:0:0:0:
286,348,58407,2,0,P|364:352|401:283,1,165,4|0,0:0|0:0,0:0:0:0:
288,32,59996,5,6,0:0:0:0:
288,32,60172,2,0,L|178:46,1,110,8|2,0:0|0:0,0:0:0:0:
136,80,60701,2,0,L|116:188,1,110,8|2,0:0|0:0,0:0:0:0:
134,239,61231,2,0,L|230:291,1,110,8|2,0:0|0:0,0:0:0:0:
285,289,61760,2,0,L|364:213,1,110,8|8,0:0|0:0,0:0:0:0:
373,102,62466,1,8,0:0:0:0:
288,32,62819,6,0,L|178:46,1,110,6|8,0:0|0:0,0:0:0:0:
70,21,63525,2,0,P|69:75|82:129,1,110,2|8,0:0|0:0,0:0:0:0:
111,176,64054,1,0,0:0:0:0:
111,176,64231,2,0,L|1:190,2,110,6|8|2,0:0|0:0|0:0,0:0:0:0:
212,218,65290,1,8,0:0:0:0:
264,121,65643,5,6,0:0:0:0:
264,121,65819,2,0,P|314:100|369:91,1,110,8|2,0:0|0:0,0:0:0:0:
421,108,66349,2,0,P|456:150|481:198,1,110,8|2,0:0|0:0,0:0:0:0:
483,254,66878,2,0,P|453:300|415:339,1,110,8|2,0:0|0:0,0:0:0:0:
363,358,67407,2,0,P|309:344|260:320,1,110,8|8,0:0|0:0,0:0:0:0:
212,218,68113,1,8,0:0:0:0:
155,312,68466,6,0,L|45:298,1,110,6|8,0:0|0:0,0:0:0:0:
0,192,69172,2,0,L|109:205,1,110,2|8,0:0|0:0,0:0:0:0:
147,165,69701,1,0,0:0:0:0:
147,165,69878,6,0,L|134:55,1,110,6|8,0:0|0:0,0:0:0:0:
243,40,70584,2,0,P|292:65|346:64,1,110,2|8,0:0|1:2,0:0:0:0:
401,70,71113,1,0,1:0:0:0:
400,70,71290,6,0,P|451:47|505:41,2,110,6|8|2,0:0|0:0|0:0,0:0:0:0:
320,145,72349,2,0,L|326:199,1,55,8|0,0:0|0:0,0:0:0:0:
303,249,72701,2,0,P|353:271|407:277,2,110,6|8|2,0:0|0:0|0:0,0:0:0:0:
222,174,73760,2,0,L|228:119,1,55,8|0,0:0|0:0,0:0:0:0:
205,70,74113,6,0,P|255:47|309:41,2,110,6|8|2,0:0|0:0|0:0,0:0:0:0:
124,145,75172,2,0,L|130:199,1,55,8|0,0:0|0:0,0:0:0:0:
107,249,75525,2,0,P|157:271|211:277,2,110,6|8|2,0:0|0:0|0:0,0:0:0:0:
26,174,76584,2,0,L|32:119,1,55,8|0,0:0|0:0,0:0:0:0:
26,64,76937,6,0,B|76:44|76:44|133:49,1,110,6|8,0:0|0:0,0:0:0:0:
241,40,77643,2,0,P|241:68|239:95,1,55,2|2,0:0|0:0,0:0:0:0:
209,142,77996,2,0,P|209:169|211:196,1,55,8|0,0:0|0:0,0:0:0:0:
239,244,78349,2,0,P|283:275|337:276,1,110,6|8,0:0|0:0,0:0:0:0:
388,255,78878,1,0,0:0:0:0:
388,255,79054,1,2,0:0:0:0:
463,174,79407,2,0,L|451:120,1,55,8|0,0:0|0:0,0:0:0:0:
471,68,79760,6,0,L|361:62,1,110,14|2,0:0|0:0,0:0:0:0:
351,117,80290,2,0,L|241:111,1,110,14|2,0:0|0:0,0:0:0:0:
231,166,80819,2,0,L|121:160,1,110,14|2,0:0|0:0,0:0:0:0:
111,215,81349,2,0,L|1:209,1,110,14|2,0:0|0:0,0:0:0:0:
15,262,81878,2,0,L|21:316,2,55,12|8|8,0:0|0:0|0:0,0:0:0:0:
113,312,82584,5,6,0:0:0:0:
113,312,82760,2,0,L|221:295,1,110,8|2,0:0|0:0,0:0:0:0:
263,331,83290,2,0,L|328:242,1,110,8|2,0:0|0:0,0:0:0:0:
382,239,83819,2,0,L|365:130,1,110,8|2,0:0|0:0,0:0:0:0:
401,89,84349,2,0,L|312:23,1,110,8|8,0:0|0:0,0:0:0:0:
206,53,85054,1,8,0:0:0:0:
97,31,85407,6,0,P|47:53|25:102,1,110,6|8,0:0|0:0,0:0:0:0:
43,211,86113,2,0,P|98:208|152:218,1,110,2|8,0:0|0:0,0:0:0:0:
196,252,86643,1,0,0:0:0:0:
196,252,86819,2,0,L|206:142,2,110,2|8|2,0:0|0:0|0:0,0:0:0:0:
271,332,87878,1,10,0:0:0:0:
377,358,88231,5,6,0:0:0:0:
377,357,88407,2,0,P|395:305|399:250,1,110,8|2,0:0|0:0,0:0:0:0:
447,225,88937,2,0,P|423:175|387:134,1,110,8|2,0:0|0:0,0:0:0:0:
402,81,89466,2,0,P|350:62|295:58,1,110,8|2,0:0|0:0,0:0:0:0:
269,11,89996,2,0,P|219:34|178:70,1,110,8|8,0:0|0:0,0:0:0:0:
194,179,90701,1,8,0:0:0:0:
290,232,91054,6,0,L|398:216,1,110,6|8,0:0|0:0,0:0:0:0:
468,301,91760,2,0,L|359:316,1,110,2|8,0:0|0:0,0:0:0:0:
319,354,92290,1,0,0:0:0:0:
319,354,92466,2,0,P|297:337|272:327,1,55,2|8,0:0|0:0,0:0:0:0:
222,302,92819,2,0,P|182:340|129:346,1,110,2|0,0:0|1:0,0:0:0:0:
51,268,93525,2,0,L|54:213,1,55,8|0,1:2|1:0,0:0:0:0:
78,163,93878,6,0,P|65:109|59:54,2,110,6|8|2,0:0|0:0|0:0,0:0:0:0:
134,257,94937,2,0,P|158:244|176:223,1,55,8|0,0:0|0:0,0:0:0:0:
231,218,95290,2,0,P|218:271|212:326,2,110,6|8|2,0:0|0:0|0:0,0:0:0:0:
287,124,96349,2,0,P|311:136|329:157,1,55,8|0,0:0|0:0,0:0:0:0:
331,212,96701,6,0,P|385:199|440:201,2,110,6|8|2,0:0|0:0|0:0,0:0:0:0:
253,290,97760,2,0,L|198:283,1,55,8|0,0:0|0:0,0:0:0:0:
143,282,98113,6,0,B|123:230|123:230|150:183,1,110,6|8,0:0|0:0,0:0:0:0:
194,148,98643,1,0,0:0:0:0:
194,148,98819,2,0,P|220:155|247:161,1,55,8|0,0:0|0:0,0:0:0:0:
302,161,99172,2,0,P|328:154|355:147,2,55,2|0|4,0:0|0:0|0:0,0:0:0:0:
51,337,100937,6,0,P|37:237|135:215,1,220,12|0,0:0|0:0,0:0:0:0:
196,61,102172,1,8,0:0:0:0:
195,60,102349,6,0,P|249:74|303:78,1,110,12|0,0:0|0:0,0:0:0:0:
357,63,102878,2,0,L|397:165,1,110,8|0,0:0|0:0,0:0:0:0:
396,220,103407,1,8,0:0:0:0:
462,307,103760,5,0,0:0:0:0:
462,307,103937,2,0,P|412:329|358:324,1,110,8|0,0:0|0:0,0:0:0:0:
304,314,104466,2,0,L|293:367,2,55,8|0|8,0:0|0:0|0:0,0:0:0:0:
283,204,105172,6,0,P|230:221|186:254,1,110,12|0,0:0|0:0,0:0:0:0:
132,264,105701,2,0,P|143:210|137:155,1,110,8|0,0:0|0:0,0:0:0:0:
102,113,106231,1,8,0:0:0:0:
193,51,106584,5,0,0:0:0:0:
193,51,106760,2,0,L|301:69,1,110,8|0,0:0|0:0,0:0:0:0:
337,111,107290,1,8,0:0:0:0:
425,45,107643,1,8,0:0:0:0:
498,125,107996,6,0,P|495:180|486:235,1,110,12|0,0:0|0:0,0:0:0:0:
446,273,108525,2,0,L|336:259,1,110,8|0,0:0|0:0,0:0:0:0:
282,252,109054,1,8,0:0:0:0:
234,151,109407,5,0,0:0:0:0:
234,151,109584,2,0,L|124:164,1,110,8|0,0:0|0:0,0:0:0:0:
71,179,110113,2,0,L|49:128,2,55,8|0|8,0:0|0:0|0:0,0:0:0:0:
114,280,110819,6,0,P|164:301|188:349,1,110,4|8,0:0|0:0,0:0:0:0:
244,351,111349,2,0,L|351:327,1,110,2|8,0:0|0:0,0:0:0:0:
404,342,111878,2,0,P|425:291|446:240,1,110,2|2,0:0|0:0,0:0:0:0:
467,188,112407,2,0,P|413:182|379:140,1,110,2|2,0:0|0:0,0:0:0:0:
350,93,112937,6,0,L|297:82,1,55,10|2,0:0|0:0,0:0:0:0:
244,68,113290,2,0,L|198:98,1,55,10|10,0:0|0:0,0:0:0:0:
149,119,113643,5,6,0:0:0:0:
256,192,113819,12,0,118937,0:0:0:0:
