osu file format v14

[General]
AudioFilename: audio.mp3
AudioLeadIn: 0
PreviewTime: 59907
Countdown: 0
SampleSet: Soft
StackLeniency: 0.7
Mode: 0
LetterboxInBreaks: 0
WidescreenStoryboard: 0

[Editor]
DistanceSpacing: 0.1
BeatDivisor: 4
GridSize: 4
TimelineZoom: 1

[Metadata]
Title:Re:birth day
TitleUnicode:Re:birth day
Artist:Roselia
ArtistUnicode:Roselia
Creator:Meg
Version:INSANE
Source:BanG Dream!
Tags:rebirth Kanau Mamayu fuyuyu- ロゼリア バンドリ ガールズバンドパーティ! Girls Band Party! 湊友希那 Minato Yukina 相羽あいな Aiba Aina 宇田川あこ Udagawa Ako 櫻川めぐ Sakuragawa Megu 白金燐子 Shirokane Rinko 明坂聡美 Akesaka Satomi 氷川紗夜 Hikawa Sayo 工藤晴香 Kudou Haruka 今井リサ Imai Risa 遠藤ゆりか Endou Yurika
BeatmapID:1300419
BeatmapSetID:594500

[Difficulty]
HPDrainRate:6
CircleSize:4
OverallDifficulty:7
ApproachRate:9
SliderMultiplier:1.6
SliderTickRate:1

[Events]
//Background and Video events
0,0,"BG.jpg",0,0
//Break Periods
//Storyboard Layer 0 (Background)
//Storyboard Layer 1 (Fail)
//Storyboard Layer 2 (Pass)
//Storyboard Layer 3 (Foreground)
//Storyboard Sound Samples

[TimingPoints]
702,352.941176470588,4,2,1,50,1,0
702,-200,4,2,1,50,0,0
4054,-200,4,2,2,50,0,0
4937,-100,4,2,2,50,0,0
6349,-100,4,2,1,70,0,0
17643,-133.333333333333,4,2,1,60,0,0
20466,-133.333333333333,4,2,2,60,0,0
20643,-133.333333333333,4,2,1,60,0,0
22584,-83.3333333333333,4,2,2,60,0,0
22937,-133.333333333333,4,2,1,50,0,0
23290,-100,4,2,1,60,0,0
45878,-133.333333333333,4,2,1,50,0,0
51525,-100,4,2,2,60,0,0
57172,-100,4,2,1,70,0,0
58231,-100,4,2,1,70,0,0
58937,-100,4,2,1,5,0,0
59025,-100,4,2,1,70,0,0
59996,-90.9090909090909,4,2,1,80,0,1
71290,-90.9090909090909,4,2,10,80,0,1
71378,-90.9090909090909,4,2,1,80,0,1
74113,-90.9090909090909,4,2,10,80,0,1
74201,-90.9090909090909,4,2,1,80,0,1
79760,-83.3333333333333,4,2,12,80,0,1
79849,-83.3333333333333,4,2,1,80,0,1
80290,-83.3333333333333,4,2,12,80,0,1
80378,-83.3333333333333,4,2,1,80,0,1
80819,-83.3333333333333,4,2,12,80,0,1
80907,-83.3333333333333,4,2,1,80,0,1
81349,-83.3333333333333,4,2,12,80,0,1
81437,-83.3333333333333,4,2,1,80,0,1
82584,-90.9090909090909,4,2,1,80,0,1
93878,-90.9090909090909,4,2,10,80,0,1
93966,-90.9090909090909,4,2,1,80,0,1
96701,-90.9090909090909,4,2,10,80,0,1
96790,-90.9090909090909,4,2,1,80,0,1
100937,-100,4,2,1,80,0,1
101643,-100,4,2,1,20,0,1
102172,-100,4,2,1,80,0,1
102349,-100,4,2,1,70,0,0
118937,-100,4,2,1,30,0,0

[Colours]
Combo1 : 7,250,171
Combo2 : 128,0,255
Combo3 : 188,180,205
Combo4 : 255,128,255

[HitObjects]
256,192,702,5,4,0:0:0:0:
256,192,878,12,0,3172,0:3:0:0:
316,112,3525,6,0,P|375:109|427:80,2,120,2|0|2,0:1|0:0|0:0,0:0:0:0:
140,56,4937,6,0,P|131:95|128:134,1,80,0|0,0:3|0:3,0:0:0:0:
244,216,5290,2,0,P|240:176|232:137,1,80,0|0,0:3|0:3,0:0:0:0:
56,200,5643,2,0,P|69:214|87:222,3,40,0|0|0|0,0:0|0:0|0:0|0:0,0:0:0:0:
128,232,5996,5,2,0:0:0:0:
123,261,6084,1,2,0:0:0:0:
118,291,6172,1,2,0:0:0:0:
113,320,6260,1,2,0:0:0:0:
108,350,6349,6,0,L|186:362,1,80,12|2,0:0|0:0,0:0:0:0:
320,340,6701,1,0,0:0:0:0:
180,228,6878,6,0,P|174:188|181:149,1,80,8|2,0:0|0:0,0:0:0:0:
248,40,7231,1,0,0:0:0:0:
376,196,7407,6,0,L|296:184,1,80,8|2,0:0|0:0,0:0:0:0:
181,149,7760,1,0,0:0:0:0:
351,40,7937,6,0,P|344:79|323:112,1,80,8|2,0:0|0:0,0:0:0:0:
180,228,8290,1,0,0:0:0:0:
320,276,8466,5,8,0:0:0:0:
112,344,8643,1,2,0:0:0:0:
188,188,8819,2,0,P|190:148|177:110,1,80,8|4,0:0|0:3,0:0:0:0:
156,92,9084,1,4,0:3:0:0:
156,92,9172,5,12,0:0:0:0:
264,64,9349,1,2,0:0:0:0:
372,36,9525,1,0,0:0:0:0:
313,252,9701,5,8,0:0:0:0:
234,172,9878,1,2,0:0:0:0:
156,92,10054,1,0,0:0:0:0:
372,36,10231,5,8,0:0:0:0:
342,143,10407,1,2,0:0:0:0:
312,251,10584,1,0,0:0:0:0:
264,64,10760,5,8,0:0:0:0:
342,143,10937,1,2,0:0:0:0:
372,36,11113,1,0,0:0:0:0:
420,222,11290,5,8,0:0:0:0:
425,251,11378,1,0,0:0:0:0:
422,280,11466,1,0,0:0:0:0:
410,308,11554,1,0,0:0:0:0:
390,330,11643,5,8,0:0:0:0:
352,324,11731,1,0,0:0:0:0:
312,321,11819,1,0,0:0:0:0:
272,317,11907,1,0,0:0:0:0:
232,314,11996,6,0,L|152:325,1,80,12|2,0:0|0:0,0:0:0:0:
40,276,12349,1,0,0:0:0:0:
240,232,12525,6,0,L|160:243,1,80,8|2,0:0|0:0,0:0:0:0:
48,194,12878,1,0,0:0:0:0:
248,150,13054,6,0,L|168:161,1,80,8|2,0:0|0:0,0:0:0:0:
56,112,13407,1,0,0:0:0:0:
256,68,13584,6,0,L|176:79,1,80,8|2,0:0|0:0,0:0:0:0:
64,30,13937,1,0,0:0:0:0:
160,242,14113,5,8,0:0:0:0:
48,194,14290,1,0,0:0:0:0:
152,325,14466,2,0,L|191:319,1,40,8|4,0:0|0:3,0:0:0:0:
270,308,14643,2,0,L|309:302,1,40,4|4,0:3|0:3,0:0:0:0:
372,349,14819,5,12,0:0:0:0:
459,266,14996,1,2,0:0:0:0:
430,149,15172,1,0,0:0:0:0:
227,198,15349,5,8,0:0:0:0:
343,232,15525,1,2,0:0:0:0:
459,266,15701,1,0,0:0:0:0:
314,115,15878,5,8,0:0:0:0:
227,198,16054,1,2,0:0:0:0:
256,315,16231,1,0,0:0:0:0:
459,266,16407,5,8,0:0:0:0:
343,232,16584,1,2,0:0:0:0:
372,349,16760,1,0,0:0:0:0:
430,149,16937,6,0,L|427:109,2,40,8|0|0,0:0|0:0|0:0,0:0:0:0:
342,231,17290,2,0,P|283:224|226:241,1,120,8|0,0:3|0:0,0:0:0:0:
200,256,17643,6,0,L|196:196,1,60.0000022888184,6|0,0:0|0:0,0:0:0:0:
308,92,17996,2,0,L|304:151,1,60.0000022888184,0|0,0:0|0:0,0:0:0:0:
267,304,18349,2,0,P|220:338|161:332,1,120.000004577637,0|0,0:0|0:0,0:0:0:0:
84,222,18878,6,0,L|200:256,1,120.000004577637,12|2,3:0|3:2,0:0:0:0:
352,319,19407,2,0,P|346:290|342:260,1,60.0000022888184,8|0,3:0|0:0,0:0:0:0:
356,100,19760,6,0,L|362:129,3,30.0000011444092,8|0|8|0,3:2|0:0|3:2|0:0,0:0:0:0:
432,192,20113,2,0,L|426:221,3,30.0000011444092,8|0|8|0,3:2|0:0|3:2|0:0,0:0:0:0:
341,259,20466,6,0,B|302:241|302:241|226:259,1,120.000004577637,2|12,0:0|3:0,0:0:0:0:
120,324,20996,1,0,0:0:0:0:
120,324,21084,1,12,3:0:0:0:
120,324,21172,2,0,L|114:294,1,30.0000011444092,12|12,3:0|3:0,0:0:0:0:
48,247,21349,2,0,P|64:206|69:161,1,90.0000034332277,0|0,0:0|0:0,0:0:0:0:
32,88,21701,6,0,B|76:80|76:80|108:92|108:92|147:82,1,120.000004577637,8|2,3:2|3:2,0:0:0:0:
227,23,22231,2,0,P|253:39|282:48,1,60.0000022888184,8|0,3:0|0:0,0:0:0:0:
440,24,22584,6,0,L|427:70,1,47.9999985351563,8|8,0:0|0:0,0:0:0:0:
455,141,22760,2,0,L|442:187,1,47.9999985351563,8|8,0:0|0:0,0:0:0:0:
470,258,22937,6,0,L|445:344,1,90.0000034332277,0|0,1:0|0:0,0:0:0:0:
443,343,23290,6,0,P|416:315|379:300,1,80,6|0,0:0|0:0,0:0:0:0:
219,319,23643,2,0,P|230:244|301:215,1,160,8|0,0:0|0:0,0:0:0:0:
164,160,24172,2,0,P|160:120|159:80,2,80,0|0|8,0:0|0:0|0:0,0:0:0:0:
104,268,24701,6,0,B|64:264|64:264|26:275,1,80,0|2,0:0|0:0,0:0:0:0:
219,319,25054,2,0,B|259:323|259:323|296:311,1,80,8|0,0:0|0:0,0:0:0:0:
360,184,25407,1,2,0:0:0:0:
424,312,25584,1,2,0:0:0:0:
248,212,25760,2,0,L|255:132,1,80,8|0,0:0|0:0,0:0:0:0:
432,48,26113,6,0,P|446:126|444:206,2,160,2|8|2,0:0|0:0|0:0,0:0:0:0:
255,132,26996,1,2,0:0:0:0:
255,132,27172,2,0,L|175:121,1,80,0|8,0:0|0:0,0:0:0:0:
56,248,27525,5,0,0:0:0:0:
180,216,27701,1,2,0:0:0:0:
25,124,27878,1,8,0:0:0:0:
149,92,28054,1,0,0:0:0:0:
55,248,28231,2,0,P|52:287|54:327,1,80,2|2,0:0|0:0,0:0:0:0:
256,260,28584,2,0,P|259:220|257:180,1,80,8|0,0:0|0:0,0:0:0:0:
180,363,28937,6,0,P|217:351|257:347,1,80,6|0,0:0|0:0,0:0:0:0:
456,344,29290,2,0,B|440:280|440:280|402:259|349:257,1,160,8|2,0:0|0:0,0:0:0:0:
208,132,29819,1,0,0:0:0:0:
343,155,29996,1,0,0:0:0:0:
256,260,30172,1,8,0:0:0:0:
192,112,30349,6,0,L|198:32,1,80,0|2,0:0|0:0,0:0:0:0:
422,146,30701,2,0,P|382:153|342:154,2,80,8|0|2,0:0|0:0|0:0,0:0:0:0:
428,44,31231,1,2,0:0:0:0:
512,192,31407,2,0,L|501:271,1,80,8|0,0:0|0:0,0:0:0:0:
375,351,31760,6,0,P|344:328|306:314,1,80,2|0,0:0|0:0,0:0:0:0:
116,288,32113,2,0,P|153:274|185:250,1,80,8|0,0:0|0:0,0:0:0:0:
192,112,32466,1,2,0:0:0:0:
272,176,32643,1,0,0:0:0:0:
207,10,32819,1,0,0:0:0:0:
96,149,32996,1,8,0:0:0:0:
288,75,33172,6,0,L|366:90,1,80,0|2,0:0|0:0,0:0:0:0:
488,224,33525,1,8,0:0:0:0:
444,52,33701,1,0,0:0:0:0:
312,164,33878,1,2,0:0:0:0:
404,300,34054,1,0,1:0:0:0:
400,308,34143,1,0,1:0:0:0:
396,316,34231,2,0,L|356:308,1,40,0|0,1:0|1:0,0:0:0:0:
252,259,34407,2,0,L|292:252,1,40,0|0,1:0|1:0,0:0:0:0:
187,311,34584,6,0,P|170:237|222:180,1,160,6|8,0:0|0:0,0:0:0:0:
368,229,35113,2,0,L|356:309,1,80,0|2,0:0|0:0,0:0:0:0:
252,259,35466,5,2,0:0:0:0:
348,136,35643,1,8,0:0:0:0:
252,259,35819,2,0,L|175:237,1,80,0|2,0:0|0:0,0:0:0:0:
136,104,36172,5,0,0:0:0:0:
40,227,36349,1,8,0:0:0:0:
136,104,36525,2,0,L|212:125,1,80,0|2,0:0|0:0,0:0:0:0:
252,259,36878,5,2,0:0:0:0:
348,136,37054,1,8,0:0:0:0:
336,300,37231,1,0,0:0:0:0:
213,125,37407,6,0,P|228:50|297:16,1,160,2|8,0:0|0:0,0:0:0:0:
472,104,37937,1,0,0:0:0:0:
452,108,38025,1,0,0:0:0:0:
432,112,38113,1,2,0:0:0:0:
484,272,38290,2,0,L|491:192,1,80,2|8,0:0|0:0,0:0:0:0:
348,136,38643,1,0,0:0:0:0:
240,311,38819,6,0,P|314:287|389:310,1,160,2|8,0:0|0:0,0:0:0:0:
159,347,39349,2,0,P|154:308|164:270,1,80,0|2,0:0|0:0,0:0:0:0:
348,136,39701,1,2,0:0:0:0:
240,311,39878,1,8,0:0:0:0:
128,192,40054,1,0,0:0:0:0:
128,192,40143,1,0,0:0:0:0:
128,192,40231,6,0,B|184:184|184:184|236:208|236:208|281:200,1,160,2|8,0:0|0:0,0:0:0:0:
144,76,40760,2,0,L|64:69,1,80,0|2,0:0|0:0,0:0:0:0:
256,28,41113,1,2,0:0:0:0:
304,160,41290,1,8,0:0:0:0:
395,53,41466,1,0,0:0:0:0:
303,160,41643,6,0,P|288:217|293:277,1,120,2|0,0:0|0:0,0:0:0:0:
316,316,41996,2,0,P|326:277|326:237,1,80,8|0,0:0|0:0,0:0:0:0:
136,180,42349,1,2,0:0:0:0:
104,284,42525,1,2,0:0:0:0:
240,212,42701,1,8,0:0:0:0:
168,76,42878,1,0,0:0:0:0:
208,316,43054,6,0,B|288:304|288:304|312:336|356:340,1,160,2|8,0:0|0:0,0:0:0:0:
472,260,43584,1,0,0:0:0:0:
380,80,43760,2,0,L|372:159,1,80,2|2,0:0|0:0,0:0:0:0:
240,212,44113,2,0,L|232:132,1,80,8|0,0:0|0:0,0:0:0:0:
96,12,44466,6,0,P|80:48|79:88,1,80,2|2,0:0|0:0,0:0:0:0:
136,180,44819,1,8,0:0:0:0:
52,312,44996,1,0,1:0:0:0:
52,312,45084,1,0,1:0:0:0:
52,312,45172,5,8,0:0:0:0:
144,276,45349,1,8,0:0:0:0:
221,337,45525,1,8,0:0:0:0:
313,301,45701,1,4,0:3:0:0:
390,361,45878,6,0,B|436:336|472:352|472:352|432:284|480:260|460:201,1,240.000009155274,6|0,0:0|3:0,0:0:0:0:
372,80,47113,1,2,0:0:0:0:
372,80,47290,6,0,B|340:88|316:120|316:120|284:84|236:80|236:80|208:108|165:107,1,240.000009155274,4|0,3:0|3:0,0:0:0:0:
76,324,48349,2,0,L|65:264,1,60.0000022888184,0|0,0:0|0:0,0:0:0:0:
156,216,48701,6,0,L|176:334,2,120.000004577637,4|0|0,3:0|0:0|3:0,0:0:0:0:
15,51,49760,2,0,P|42:66|71:69,1,60.0000022888184,0|2,3:0|0:0,0:0:0:0:
168,119,50113,6,0,P|209:77|267:67,1,120.000004577637,4|0,3:0|3:0,0:0:0:0:
332,224,50819,2,0,P|373:266|431:276,1,120.000004577637,0|8,3:0|3:0,0:0:0:0:
464,108,51525,6,0,L|456:28,1,80,12|0,0:0|0:0,0:0:0:0:
412,192,51878,2,0,L|491:184,1,80,8|0,0:0|0:0,0:0:0:0:
328,140,52231,2,0,L|335:219,1,80,8|0,0:0|0:0,0:0:0:0:
380,56,52584,2,0,L|300:63,1,80,8|0,0:0|0:0,0:0:0:0:
172,176,52937,6,0,L|251:168,1,80,8|0,0:0|0:0,0:0:0:0:
207,332,53290,2,0,L|199:252,1,80,8|0,0:0|0:0,0:0:0:0:
363,296,53643,2,0,L|283:303,1,80,8|0,0:0|0:0,0:0:0:0:
328,140,53996,2,0,L|335:219,1,80,8|0,0:0|0:0,0:0:0:0:
428,367,54349,6,0,P|449:334|455:295,1,80,8|0,0:0|0:0,0:0:0:0:
508,216,54701,2,0,P|499:177|476:144,1,80,8|0,0:0|0:0,0:0:0:0:
363,292,55054,2,0,P|341:258|335:219,1,80,8|0,0:0|0:0,0:0:0:0:
283,140,55407,2,0,P|291:101|314:68,1,80,8|0,0:0|0:0,0:0:0:0:
455,295,55760,5,8,0:0:0:0:
455,295,56113,1,8,0:0:0:0:
300,340,56290,1,0,0:0:0:0:
338,183,56466,1,8,0:0:0:0:
376,312,56643,1,0,0:0:0:0:
196,228,56819,1,8,0:0:0:0:
358,114,56996,1,0,0:0:0:0:
286,271,57172,5,10,0:0:0:0:
286,271,57260,1,2,0:0:0:0:
286,271,57349,1,2,0:0:0:0:
286,271,57437,1,2,0:0:0:0:
286,271,57525,2,0,L|278:310,1,40,2|2,0:0|0:0,0:0:0:0:
180,152,57701,5,10,0:0:0:0:
180,152,57790,1,2,0:0:0:0:
180,152,57878,1,2,0:0:0:0:
180,152,57966,1,2,0:0:0:0:
180,152,58054,2,0,L|187:191,1,40,2|2,0:0|0:0,0:0:0:0:
286,33,58231,2,0,L|278:72,1,40,8|8,0:0|0:0,0:0:0:0:
335,187,58407,6,0,P|429:176|357:113,1,240,4|0,0:0|0:0,0:0:0:0:
284,257,59996,5,6,0:0:0:0:
111,269,60172,2,0,P|145:296|186:312,1,88.000002685547,8|0,0:0|0:0,0:0:0:0:
321,163,60525,5,2,0:0:0:0:
333,336,60701,2,0,P|360:302|376:261,1,88.000002685547,8|0,0:0|0:0,0:0:0:0:
227,126,61054,5,2,0:0:0:0:
400,114,61231,2,0,P|366:87|325:71,1,88.000002685547,8|0,0:0|0:0,0:0:0:0:
190,220,61584,5,2,0:0:0:0:
178,47,61760,2,0,P|151:81|135:122,1,88.000002685547,8|0,0:0|0:0,0:0:0:0:
321,163,62113,5,8,0:0:0:0:
190,220,62290,1,0,0:0:0:0:
378,262,62466,1,8,0:0:0:0:
134,122,62643,1,0,0:0:0:0:
355,49,62819,6,0,P|438:59|473:136,1,176.000005371094,6|8,0:0|0:0,0:0:0:0:
460,348,63349,1,0,0:0:0:0:
460,348,63437,1,0,0:0:0:0:
460,348,63525,2,0,P|417:345|373:351,1,88.000002685547,2|2,0:0|0:0,0:0:0:0:
186,312,63878,1,8,0:0:0:0:
376,260,64054,1,0,0:0:0:0:
264,368,64231,6,0,L|257:192,1,176.000005371094,6|8,0:0|0:0,0:0:0:0:
320,40,64760,1,0,0:0:0:0:
128,72,64937,2,0,L|215:81,1,88.000002685547,2|0,0:0|0:0,0:0:0:0:
418,162,65290,2,0,L|330:171,1,88.000002685547,8|0,0:0|0:0,0:0:0:0:
181,210,65643,5,6,0:0:0:0:
274,353,65819,2,0,P|279:310|275:266,1,88.000002685547,8|0,0:0|0:0,0:0:0:0:
237,117,66172,5,2,0:0:0:0:
94,210,66349,2,0,P|136:215|180:211,1,88.000002685547,8|0,0:0|0:0,0:0:0:0:
330,171,66701,5,2,0:0:0:0:
236,30,66878,2,0,P|231:72|235:116,1,88.000002685547,8|0,0:0|0:0,0:0:0:0:
275,266,67231,5,2,0:0:0:0:
416,172,67407,2,0,P|374:167|330:171,1,88.000002685547,8|0,0:0|0:0,0:0:0:0:
235,117,67760,5,8,0:0:0:0:
275,266,67937,1,0,0:0:0:0:
320,80,68113,1,8,0:0:0:0:
190,303,68290,1,0,0:0:0:0:
428,336,68466,6,0,P|402:255|320:238,1,176.000005371094,6|8,0:0|0:0,0:0:0:0:
152,168,68996,1,0,0:0:0:0:
152,168,69084,1,0,0:0:0:0:
152,168,69172,2,0,P|195:176|239:177,1,88.000002685547,2|2,0:0|0:0,0:0:0:0:
160,68,69525,1,8,0:0:0:0:
60,204,69701,1,0,0:0:0:0:
288,124,69878,6,0,B|296:184|296:184|276:236|276:236|283:295,1,176.000005371094,6|8,0:0|0:0,0:0:0:0:
152,168,70407,1,0,0:0:0:0:
364,252,70584,1,2,0:0:0:0:
202,338,70760,1,0,1:0:0:0:
187,335,70849,1,8,1:2:0:0:
173,333,70937,1,8,1:2:0:0:
158,331,71025,1,0,1:0:0:0:
144,328,71113,1,0,1:0:0:0:
129,326,71201,1,0,1:0:0:0:
115,322,71290,6,0,P|173:262|254:283,1,176.000005371094,6|8,0:0|0:0,0:0:0:0:
448,240,71819,1,0,0:0:0:0:
352,375,71996,2,0,P|345:332|343:288,1,88.000002685547,2|2,0:0|0:0,0:0:0:0:
439,152,72349,2,0,P|445:195|447:239,1,88.000002685547,8|0,0:0|0:0,0:0:0:0:
512,52,72701,6,0,B|429:22|429:22|349:59,1,176.000005371094,6|8,0:0|0:0,0:0:0:0:
232,144,73231,1,0,0:0:0:0:
272,236,73407,2,0,B|312:213|312:213|326:174,1,88.000002685547,2|2,0:0|0:0,0:0:0:0:
192,52,73760,2,0,B|151:74|151:74|137:113,1,88.000002685547,8|0,0:0|0:0,0:0:0:0:
160,288,74113,6,0,P|98:230|15:248,1,176.000005371094,6|8,0:0|0:0,0:0:0:0:
272,236,74643,1,0,0:0:0:0:
188,368,74819,2,0,P|144:372|104:355,1,88.000002685547,2|2,0:0|0:0,0:0:0:0:
272,236,75172,2,0,P|315:231|355:248,1,88.000002685547,8|0,0:0|0:0,0:0:0:0:
160,288,75525,6,0,B|112:212|188:188|150:119,1,176.000005371094,6|8,0:0|0:0,0:0:0:0:
60,36,76054,1,0,0:0:0:0:
240,128,76231,2,0,L|325:108,1,88.000002685547,2|2,0:0|0:0,0:0:0:0:
146,17,76584,2,0,L|60:36,1,88.000002685547,8|0,0:0|0:0,0:0:0:0:
44,240,76937,5,6,0:0:0:0:
150,119,77113,1,0,0:0:0:0:
160,288,77290,1,8,0:0:0:0:
64,152,77466,1,0,0:0:0:0:
244,232,77643,2,0,P|291:220|331:224,1,88.000002685547,2|2,0:0|0:0,0:0:0:0:
464,360,77996,2,0,P|430:324|413:287,1,88.000002685547,8|0,0:0|0:0,0:0:0:0:
405,38,78349,6,0,P|457:105|428:184,1,176.000005371094,6|8,0:0|0:0,0:0:0:0:
244,232,78878,1,0,0:0:0:0:
244,232,78966,1,0,0:0:0:0:
244,232,79054,2,0,L|157:214,1,88.000002685547,2|2,0:0|0:0,0:0:0:0:
242,94,79407,2,0,L|372:120,1,132.00000402832,8|0,0:0|0:0,0:0:0:0:
404,108,79760,6,0,P|414:154|413:202,1,95.9999970703126,14|0,0:0|0:0,0:0:0:0:
348,32,80113,1,2,0:0:0:0:
376,289,80290,6,0,P|341:321|298:344,1,95.9999970703126,14|0,0:0|0:0,0:0:0:0:
413,202,80643,1,2,0:0:0:0:
205,355,80819,6,0,P|159:341|118:315,1,95.9999970703126,14|0,0:0|0:0,0:0:0:0:
298,344,81172,1,2,0:0:0:0:
63,239,81349,6,0,P|52:192|53:144,1,95.9999970703126,14|0,0:0|0:0,0:0:0:0:
118,315,81701,1,2,0:0:0:0:
91,58,81878,6,0,L|138:64,1,47.9999985351563,12|8,0:0|0:0,0:0:0:0:
224,124,82054,2,0,L|177:131,1,47.9999985351563,8|8,0:0|0:0,0:0:0:0:
53,144,82231,2,0,L|100:150,1,47.9999985351563,8|8,0:0|0:0,0:0:0:0:
186,210,82407,2,0,L|139:217,1,47.9999985351563,8|8,0:0|0:0,0:0:0:0:
300,88,82584,5,6,0:0:0:0:
360,236,82760,2,0,P|345:277|322:314,1,88.000002685547,8|0,0:0|0:0,0:0:0:0:
152,148,83113,5,2,0:0:0:0:
300,88,83290,2,0,P|341:101|378:124,1,88.000002685547,8|0,0:0|0:0,0:0:0:0:
212,296,83643,5,2,0:0:0:0:
152,147,83819,2,0,P|165:106|188:68,1,88.000002685547,8|0,0:0|0:0,0:0:0:0:
360,236,84172,5,2,0:0:0:0:
211,295,84349,2,0,P|170:282|133:258,1,88.000002685547,8|0,0:0|0:0,0:0:0:0:
385,130,84701,5,8,0:0:0:0:
256,196,84878,1,0,0:0:0:0:
317,320,85054,1,8,0:0:0:0:
300,88,85231,1,0,0:0:0:0:
133,258,85407,6,0,P|83:190|122:116,1,176.000005371094,6|8,0:0|0:0,0:0:0:0:
240,16,85937,1,0,0:0:0:0:
240,16,86025,1,0,0:0:0:0:
240,16,86113,2,0,P|278:37|320:47,1,88.000002685547,2|2,0:0|0:0,0:0:0:0:
452,72,86466,1,8,0:0:0:0:
256,196,86643,1,0,0:0:0:0:
364,300,86819,6,0,B|371:257|371:257|360:213,1,88.000002685547,2|0,0:0|0:0,0:0:0:0:
184,144,87172,2,0,B|173:187|173:187|180:230,1,88.000002685547,8|0,0:0|0:0,0:0:0:0:
260,352,87525,1,2,0:0:0:0:
80,288,87701,1,2,0:0:0:0:
256,195,87878,2,0,P|260:174|263:152,1,44.0000013427735,10|2,0:0|0:0,0:0:0:0:
172,44,88054,2,0,P|167:65|164:87,1,44.0000013427735,2|2,0:0|0:0,0:0:0:0:
180,230,88231,5,6,0:0:0:0:
355,70,88407,2,0,L|331:154,1,88.000002685547,8|0,0:0|0:0,0:0:0:0:
294,268,88760,5,2,0:0:0:0:
134,93,88937,2,0,L|218:116,1,88.000002685547,8|0,0:0|0:0,0:0:0:0:
332,154,89290,5,2,0:0:0:0:
157,314,89466,2,0,L|180:229,1,88.000002685547,8|0,0:0|0:0,0:0:0:0:
218,116,89819,5,2,0:0:0:0:
378,291,89996,2,0,L|293:267,1,88.000002685547,8|0,0:0|0:0,0:0:0:0:
355,70,90349,5,8,0:0:0:0:
180,229,90525,1,0,0:0:0:0:
332,154,90701,1,8,0:0:0:0:
134,93,90878,1,0,0:0:0:0:
293,267,91054,6,0,P|376:241|463:253,1,176.000005371094,6|8,0:0|0:0,0:0:0:0:
448,68,91584,1,0,0:0:0:0:
448,68,91672,1,0,0:0:0:0:
448,68,91760,2,0,L|432:154,1,88.000002685547,2|2,0:0|0:0,0:0:0:0:
376,332,92113,1,8,0:0:0:0:
304,160,92290,1,0,0:0:0:0:
232,268,92466,5,2,0:0:0:0:
388,211,92643,2,0,P|399:127|340:66,1,176.000005371094,8|2,0:0|0:0,0:0:0:0:
192,32,93172,1,0,1:0:0:0:
159,39,93260,1,0,1:0:0:0:
127,47,93349,1,0,1:0:0:0:
95,54,93437,1,0,1:0:0:0:
63,62,93525,2,0,L|55:105,1,44.0000013427735,8|0,1:2|1:0,0:0:0:0:
140,184,93701,2,0,L|147:140,1,44.0000013427735,0|8,1:0|1:2,0:0:0:0:
32,216,93878,6,0,B|44:336|44:336|95:315,1,176.000005371094,6|8,0:0|0:0,0:0:0:0:
208,224,94407,1,0,0:0:0:0:
296,324,94584,1,2,0:0:0:0:
320,192,94760,1,2,0:0:0:0:
184,356,94937,1,8,0:0:0:0:
208,224,95113,1,0,0:0:0:0:
296,324,95290,6,0,P|338:334|382:335,1,88.000002685547,6|0,0:0|0:0,0:0:0:0:
504,208,95643,2,0,P|461:197|417:196,1,88.000002685547,8|0,0:0|0:0,0:0:0:0:
458,369,95996,2,0,P|468:327|469:283,1,88.000002685547,2|2,0:0|0:0,0:0:0:0:
342,162,96349,2,0,P|331:204|330:248,1,88.000002685547,8|0,0:0|0:0,0:0:0:0:
488,88,96701,6,0,B|440:52|384:72|384:72|382:39|356:13,1,176.000005371094,6|8,0:0|0:0,0:0:0:0:
168,104,97231,1,0,0:0:0:0:
273,200,97407,1,2,0:0:0:0:
132,227,97584,1,2,0:0:0:0:
308,77,97760,1,8,0:0:0:0:
168,104,97937,1,0,0:0:0:0:
273,200,98113,6,0,P|289:240|292:284,1,88.000002685547,6|0,0:0|0:0,0:0:0:0:
132,227,98466,1,8,0:0:0:0:
265,73,98643,1,0,0:0:0:0:
286,75,98731,1,8,0:0:0:0:
308,77,98819,6,0,L|396:52,1,88.000002685547,8|0,0:0|0:0,0:0:0:0:
273,200,99172,2,0,L|185:175,1,88.000002685547,2|2,0:0|0:0,0:0:0:0:
428,275,99525,5,4,0:0:0:0:
428,275,100760,2,0,L|471:269,1,44.0000013427735,4|4,0:3|0:3,0:0:0:0:
363,352,100937,6,0,B|168:376|292:216|95:231,1,320,12|0,0:0|0:0,0:0:0:0:
96,231,102172,1,8,0:0:0:0:
96,231,102260,1,8,0:0:0:0:
96,231,102349,6,0,L|101:151,1,80,12|2,0:0|0:0,0:0:0:0:
88,56,102701,1,0,0:0:0:0:
200,160,102878,6,0,L|194:239,1,80,8|2,0:0|0:0,0:0:0:0:
180,335,103231,1,0,0:0:0:0:
292,247,103407,6,0,L|297:167,1,80,8|2,0:0|0:0,0:0:0:0:
284,72,103760,1,0,0:0:0:0:
396,176,103937,6,0,L|390:255,1,80,8|2,0:0|0:0,0:0:0:0:
376,351,104290,1,0,0:0:0:0:
493,183,104466,5,8,0:0:0:0:
292,247,104643,1,0,0:0:0:0:
401,96,104819,2,0,L|395:175,1,80,8|4,0:0|0:3,0:0:0:0:
395,175,105084,1,4,0:3:0:0:
395,175,105172,5,12,0:0:0:0:
292,247,105349,1,2,0:0:0:0:
281,121,105525,1,0,0:0:0:0:
499,104,105701,5,8,0:0:0:0:
395,175,105878,1,2,0:0:0:0:
384,49,106054,1,0,0:0:0:0:
512,232,106231,5,8,0:0:0:0:
408,303,106407,1,2,0:0:0:0:
395,175,106584,1,0,0:0:0:0:
499,104,106760,5,8,0:0:0:0:
281,121,106937,1,2,0:0:0:0:
384,49,107113,1,0,0:0:0:0:
291,247,107290,5,8,0:0:0:0:
263,255,107378,1,0,0:0:0:0:
233,254,107466,1,0,0:0:0:0:
205,244,107554,1,0,0:0:0:0:
181,227,107643,5,8,0:0:0:0:
171,265,107731,1,0,0:0:0:0:
147,297,107819,1,0,0:0:0:0:
113,317,107907,1,0,0:0:0:0:
72,322,107996,6,0,P|36:307|9:278,1,80,12|2,0:0|0:0,0:0:0:0:
208,344,108349,1,0,0:0:0:0:
144,204,108525,6,0,P|139:164|150:126,1,80,8|2,0:0|0:0,0:0:0:0:
208,344,108878,1,0,0:0:0:0:
282,207,109054,6,0,P|314:182|352:173,1,80,8|2,0:0|0:0,0:0:0:0:
208,344,109407,1,0,0:0:0:0:
348,328,109584,6,0,P|385:343|412:372,1,80,8|2,0:0|0:0,0:0:0:0:
208,344,109937,1,0,0:0:0:0:
144,204,110113,5,8,0:0:0:0:
352,173,110290,1,0,0:0:0:0:
184,24,110466,2,0,P|179:63|190:101,1,80,8|4,0:0|0:3,0:0:0:0:
220,120,110731,1,4,0:3:0:0:
220,120,110819,6,0,L|259:113,3,40,4|0|8|8,0:0|0:0|0:0|0:0,0:0:0:0:
352,173,111172,2,0,L|358:212,3,40,8|0|2|0,0:0|0:0|0:0|0:0,0:0:0:0:
299,305,111525,2,0,L|259:311,3,40,8|8|8|0,0:0|0:0|0:0|0:0,0:0:0:0:
167,252,111878,2,0,L|160:212,3,40,8|0|0|0,0:0|0:0|0:0|0:0,0:0:0:0:
259,212,112231,5,0,0:0:0:0:
283,208,112319,1,0,0:0:0:0:
308,204,112407,1,2,0:0:0:0:
333,200,112496,1,2,0:0:0:0:
357,196,112584,1,2,0:0:0:0:
382,192,112672,1,2,0:0:0:0:
407,189,112760,1,2,0:0:0:0:
431,185,112849,1,2,0:0:0:0:
456,181,112937,6,0,L|449:141,1,40,10|2,0:0|0:0,0:0:0:0:
385,44,113113,2,0,L|392:84,1,40,2|2,0:0|0:0,0:0:0:0:
357,196,113290,2,0,L|350:156,1,40,10|10,0:0|0:0,0:0:0:0:
286,59,113466,2,0,L|292:98,1,40,10|10,0:0|0:0,0:0:0:0:
259,212,113643,5,6,0:0:0:0:
256,192,113819,12,0,118937,0:0:0:0:
