osu file format v14

[General]
AudioFilename: audio.mp3
AudioLeadIn: 0
PreviewTime: 59907
Countdown: 0
SampleSet: Soft
StackLeniency: 0.7
Mode: 0
LetterboxInBreaks: 0
WidescreenStoryboard: 0

[Editor]
DistanceSpacing: 1.4
BeatDivisor: 4
GridSize: 4
TimelineZoom: 1

[Metadata]
Title:Re:birth day
TitleUnicode:Re:birth day
Artist:Roselia
ArtistUnicode:Roselia
Creator:Meg
Version:HARD
Source:BanG Dream!
Tags:rebirth Kanau Mamayu fuyuyu- ロゼリア バンドリ ガールズバンドパーティ! Girls Band Party! 湊友希那 Minato Yukina 相羽あいな Aiba Aina 宇田川あこ Udagawa Ako 櫻川めぐ Sakuragawa Megu 白金燐子 Shirokane Rinko 明坂聡美 Akesaka Satomi 氷川紗夜 Hikawa Sayo 工藤晴香 Kudou Haruka 今井リサ Imai Risa 遠藤ゆりか Endou Yurika
BeatmapID:1301056
BeatmapSetID:594500

[Difficulty]
HPDrainRate:5
CircleSize:4
OverallDifficulty:6
ApproachRate:7.5
SliderMultiplier:1.4
SliderTickRate:1

[Events]
//Background and Video events
0,0,"BG.jpg",0,0
//Break Periods
//Storyboard Layer 0 (Background)
//Storyboard Layer 1 (Fail)
//Storyboard Layer 2 (Pass)
//Storyboard Layer 3 (Foreground)
//Storyboard Sound Samples

[TimingPoints]
702,352.941176470588,4,2,1,50,1,0
702,-100,4,2,1,50,0,0
4054,-133.333333333333,4,2,2,50,0,0
4937,-100,4,2,2,50,0,0
6349,-100,4,2,1,70,0,0
17643,-125,4,2,1,60,0,0
20466,-125,4,2,2,60,0,0
20643,-125,4,2,1,60,0,0
22584,-100,4,2,2,60,0,0
22937,-100,4,2,1,50,0,0
23290,-100,4,2,1,60,0,0
45878,-125,4,2,1,50,0,0
51525,-100,4,2,2,60,0,0
57172,-100,4,2,1,70,0,0
58231,-100,4,2,1,70,0,0
58937,-100,4,2,1,5,0,0
59025,-100,4,2,1,70,0,0
59996,-90.9090909090909,4,2,1,80,0,1
71290,-90.9090909090909,4,2,10,80,0,1
71378,-90.9090909090909,4,2,1,80,0,1
74113,-90.9090909090909,4,2,10,80,0,1
74201,-90.9090909090909,4,2,1,80,0,1
79760,-90.9090909090909,4,2,12,80,0,1
79849,-90.9090909090909,4,2,1,80,0,1
80290,-90.9090909090909,4,2,12,80,0,1
80378,-90.9090909090909,4,2,1,80,0,1
80819,-90.9090909090909,4,2,12,80,0,1
80907,-90.9090909090909,4,2,1,80,0,1
81349,-90.9090909090909,4,2,12,80,0,1
81437,-90.9090909090909,4,2,1,80,0,1
82584,-90.9090909090909,4,2,1,80,0,1
93878,-90.9090909090909,4,2,10,80,0,1
93966,-90.9090909090909,4,2,1,80,0,1
96701,-90.9090909090909,4,2,10,80,0,1
96790,-90.9090909090909,4,2,1,80,0,1
100937,-125,4,2,1,80,0,1
101643,-90.9090909090909,4,2,1,20,0,1
102172,-90.9090909090909,4,2,1,80,0,1
102349,-100,4,2,1,70,0,0
118937,-100,4,2,1,30,0,0

[Colours]
Combo1 : 7,250,171
Combo2 : 128,0,255
Combo3 : 188,180,205
Combo4 : 255,128,255

[HitObjects]
256,192,702,5,4,0:0:0:0:
256,192,878,12,2,3525,0:1:0:0:
199,59,4054,6,0,P|124:53|73:110,1,157.500006008148,0|2,0:0|0:0,0:0:0:0:
20,272,4937,2,0,P|54:278|88:286,1,70,0|0,0:3|0:3,0:0:0:0:
168,344,5290,2,0,P|202:337|236:329,1,70,0|0,0:3|0:3,0:0:0:0:
282,242,5643,2,0,L|275:207,3,35,0|0|0|0,0:0|0:0|0:0|0:0,0:0:0:0:
343,300,5996,2,0,L|350:266,3,35,2|2|2|2,0:0|0:0|0:0|0:0,0:0:0:0:
418,242,6349,6,0,L|487:232,2,70,12|2|0,0:0|0:0|0:0,0:0:0:0:
437,145,6878,2,0,L|506:135,2,70,8|2|0,0:0|0:0|0:0,0:0:0:0:
339,135,7407,6,0,L|269:125,2,70,8|2|0,0:0|0:0|0:0,0:0:0:0:
320,38,7937,2,0,L|250:28,2,70,8|2|0,0:0|0:0|0:0,0:0:0:0:
418,28,8466,5,8,0:0:0:0:
339,135,8643,1,2,0:0:0:0:
472,150,8819,2,0,P|488:199|487:251,1,105,8|4,0:0|0:3,0:0:0:0:
481,300,9172,6,0,L|413:282,1,70,12|2,0:0|0:0,0:0:0:0:
318,257,9525,1,0,0:0:0:0:
248,325,9701,2,0,P|228:296|221:262,1,70,8|2,0:0|0:0,0:0:0:0:
238,165,10054,1,0,0:0:0:0:
309,98,10231,6,0,B|280:78|280:78|247:67,1,70,8|2,0:0|0:0,0:0:0:0:
153,99,10584,1,0,0:0:0:0:
87,171,10760,2,0,L|78:240,1,70,8|2,0:0|0:0,0:0:0:0:
101,336,11113,1,0,0:0:0:0:
198,344,11290,6,0,L|231:333,3,35,8|0|0|0,0:0|0:0|0:0|0:0,0:0:0:0:
160,273,11643,2,0,L|126:262,3,35,8|0|0|0,0:0|0:0|0:0|0:0,0:0:0:0:
222,222,11996,6,0,P|229:187|228:152,2,70,12|2|0,0:0|0:0|0:0,0:0:0:0:
308,269,12525,2,0,P|315:234|314:199,2,70,8|2|0,0:0|0:0|0:0,0:0:0:0:
404,289,13054,6,0,P|411:323|410:358,2,70,8|2|0,0:0|0:0|0:0,0:0:0:0:
490,242,13584,2,0,P|497:276|496:311,2,70,8|2|0,0:0|0:0|0:0,0:0:0:0:
502,143,14113,5,8,0:0:0:0:
389,214,14290,1,0,0:0:0:0:
318,101,14466,2,0,P|280:65|230:49,1,105,8|4,0:0|0:3,0:0:0:0:
182,53,14819,6,0,L|170:122,1,70,12|2,0:0|0:0,0:0:0:0:
77,33,15172,1,0,0:0:0:0:
66,143,15349,2,0,L|77:212,1,70,8|2,0:0|0:0,0:0:0:0:
171,123,15701,1,0,0:0:0:0:
189,219,15878,6,0,L|177:288,1,70,8|2,0:0|0:0,0:0:0:0:
77,212,16231,1,0,0:0:0:0:
59,308,16407,2,0,L|70:377,1,70,8|2,0:0|0:0,0:0:0:0:
177,288,16760,1,0,0:0:0:0:
253,350,16937,6,0,L|322:342,1,70,8|0,0:0|0:0,0:0:0:0:
420,349,17290,2,0,P|411:298|376:260,1,105,8|0,0:3|0:0,0:0:0:0:
335,241,17643,6,0,P|334:185|357:135,2,112,6|0|0,0:0|0:0|0:0,0:0:0:0:
162,311,18878,2,0,L|50:301,1,112,12|2,3:0|3:2,0:0:0:0:
92,220,19407,2,0,L|147:224,1,56,8|0,3:0|0:0,0:0:0:0:
235,205,19760,2,0,P|241:178|240:150,1,56,8|8,3:2|3:2,0:0:0:0:
325,122,20113,2,0,P|310:98|289:79,1,56,8|8,3:2|3:2,0:0:0:0:
200,71,20466,6,0,L|88:61,2,112,2|12|12,0:0|3:0|3:0,0:0:0:0:
466,30,21701,2,0,P|453:84|442:139,1,112,8|2,3:2|3:2,0:0:0:0:
462,227,22231,2,0,L|466:282,1,56,8|0,3:0|0:0,0:0:0:0:
378,351,22584,6,0,L|375:316,1,35,8|8,0:0|0:0,0:0:0:0:
370,259,22760,2,0,L|367:224,1,35,8|8,0:0|0:0,0:0:0:0:
362,167,22937,1,0,1:0:0:0:
163,60,23290,6,0,P|96:76|28:62,1,140,6|8,0:0|0:0,0:0:0:0:
148,218,23996,1,0,0:0:0:0:
148,218,24172,2,0,P|152:252|150:287,2,70,0|0|8,0:0|0:0|0:0,0:0:0:0:
217,148,24701,6,0,L|286:141,1,70,0|2,0:0|0:0,0:0:0:0:
304,44,25054,2,0,L|373:50,1,70,8|0,0:0|0:0,0:0:0:0:
445,117,25407,1,2,0:0:0:0:
445,117,25584,1,2,0:0:0:0:
467,212,25760,2,0,P|463:246|452:279,1,70,8|0,0:0|0:0,0:0:0:0:
382,349,26113,6,0,P|355:286|374:220,2,140,2|8|2,0:0|0:0|0:0,0:0:0:0:
283,349,26996,2,0,P|248:348|213:346,1,70,2|0,0:0|0:0,0:0:0:0:
117,321,27349,1,8,0:0:0:0:
191,259,27525,6,0,P|202:225|207:190,1,70,0|2,0:0|0:0,0:0:0:0:
124,138,27878,2,0,P|113:171|108:206,1,70,8|0,0:0|0:0,0:0:0:0:
212,94,28231,1,2,0:0:0:0:
129,42,28407,1,2,0:0:0:0:
36,76,28584,2,0,P|25:109|20:144,1,70,8|0,0:0|0:0,0:0:0:0:
29,241,28937,6,0,P|97:231|163:253,1,140,6|8,0:0|0:0,0:0:0:0:
347,323,29643,1,2,0:0:0:0:
347,323,29819,2,0,L|343:253,2,70,0|0|8,0:0|0:0|0:0,0:0:0:0:
426,382,30349,6,0,P|460:375|491:360,1,70,0|2,0:0|0:0,0:0:0:0:
504,263,30701,1,8,0:0:0:0:
504,263,30878,2,0,L|500:193,1,70,0|2,0:0|0:0,0:0:0:0:
466,100,31231,2,0,P|435:118|411:143,1,70,2|8,0:0|0:0,0:0:0:0:
353,222,31584,1,0,0:0:0:0:
274,163,31760,6,0,P|206:145|137:151,2,140,2|8|2,0:0|0:0|0:0,0:0:0:0:
353,222,32643,2,0,L|357:291,1,70,0|0,0:0|0:0,0:0:0:0:
452,317,32996,6,0,L|442:177,1,140,8|2,0:0|0:0,0:0:0:0:
388,49,33525,2,0,L|371:117,1,70,8|0,0:0|0:0,0:0:0:0:
442,177,33878,1,2,0:0:0:0:
365,238,34054,1,0,1:0:0:0:
365,238,34143,1,0,1:0:0:0:
365,238,34231,2,0,L|330:245,3,35,0|0|0|0,1:0|1:0|1:0|1:0,0:0:0:0:
287,269,34584,6,0,P|229:230|160:224,1,140,6|8,0:0|0:0,0:0:0:0:
97,299,35113,2,0,P|74:272|66:239,1,70,0|2,0:0|0:0,0:0:0:0:
100,148,35466,5,2,0:0:0:0:
100,148,35643,1,8,0:0:0:0:
164,72,35819,2,0,L|233:80,1,70,0|2,0:0|0:0,0:0:0:0:
300,152,36172,5,0,0:0:0:0:
300,152,36349,1,8,0:0:0:0:
364,76,36525,2,0,L|433:84,1,70,0|2,0:0|0:0,0:0:0:0:
440,184,36878,2,0,L|509:192,2,70,2|8|0,0:0|0:0|0:0,0:0:0:0:
351,232,37407,6,0,P|331:296|367:355,1,140,2|8,0:0|0:0,0:0:0:0:
464,344,37937,1,0,0:0:0:0:
464,344,38025,1,0,0:0:0:0:
464,344,38113,2,0,L|478:275,1,70,2|2,0:0|0:0,0:0:0:0:
440,184,38466,2,0,L|454:115,1,70,8|0,0:0|0:0,0:0:0:0:
416,24,38819,6,0,L|276:39,1,140,2|8,0:0|0:0,0:0:0:0:
180,11,39349,2,0,P|178:46|186:81,1,70,0|2,0:0|0:0,0:0:0:0:
264,140,39701,1,2,0:0:0:0:
278,237,39878,1,8,0:0:0:0:
220,316,40054,1,0,0:0:0:0:
124,329,40231,6,0,P|56:318|7:269,1,140,2|8,0:0|0:0,0:0:0:0:
16,172,40760,2,0,L|26:102,1,70,0|2,0:0|0:0,0:0:0:0:
113,18,41113,2,0,L|124:88,2,70,2|8|0,0:0|0:0|0:0,0:0:0:0:
215,128,41643,6,0,P|168:177|100:187,2,140,2|8|2,0:0|0:0|0:0,0:0:0:0:
228,32,42525,1,2,0:0:0:0:
228,32,42701,2,0,L|297:41,1,70,8|0,0:0|0:0,0:0:0:0:
395,27,43054,6,0,P|438:80|419:145,1,140,2|8,0:0|0:0,0:0:0:0:
328,176,43584,1,0,0:0:0:0:
328,176,43760,2,0,P|285:228|304:293,1,140,2|8,0:0|0:0,0:0:0:0:
395,324,44290,1,0,0:0:0:0:
395,324,44466,6,0,L|464:314,1,70,2|2,0:0|0:0,0:0:0:0:
482,217,44819,2,0,L|412:226,1,70,8|0,0:0|1:0,0:0:0:0:
328,176,45172,1,8,0:0:0:0:
267,253,45349,1,8,0:0:0:0:
174,218,45525,1,8,0:0:0:0:
178,119,45701,1,4,0:3:0:0:
273,93,45878,5,6,0:0:0:0:
273,93,47113,2,0,L|276:37,1,56,2|4,0:0|3:0,0:0:0:0:
429,311,47996,1,0,3:0:0:0:
115,306,48701,6,0,B|89:258|89:258|114:214|114:214|87:153|111:98,1,224,4|0,3:0|3:0,0:0:0:0:
255,36,49760,2,0,L|309:49,1,56,0|2,3:0|0:0,0:0:0:0:
385,30,50113,6,0,P|382:84|341:121,1,112,4|0,3:0|3:0,0:0:0:0:
275,164,50643,1,0,0:0:0:0:
275,164,50819,2,0,L|164:148,1,112,0|8,3:0|3:0,0:0:0:0:
64,316,51525,6,0,L|52:247,1,70,12|0,0:0|0:0,0:0:0:0:
163,320,51878,2,0,L|152:252,1,70,8|0,0:0|0:0,0:0:0:0:
262,324,52231,2,0,L|250:255,1,70,8|0,0:0|0:0,0:0:0:0:
361,328,52584,2,0,L|349:259,1,70,8|0,0:0|0:0,0:0:0:0:
403,177,52937,6,0,L|391:108,1,70,8|0,0:0|0:0,0:0:0:0:
304,173,53290,2,0,L|292:104,1,70,8|0,0:0|0:0,0:0:0:0:
205,169,53643,2,0,L|193:100,1,70,8|0,0:0|0:0,0:0:0:0:
106,165,53996,2,0,L|94:96,1,70,8|0,0:0|0:0,0:0:0:0:
32,19,54349,6,0,P|10:45|1:79,1,70,8|0,0:0|0:0,0:0:0:0:
2,177,54701,2,0,P|5:211|23:241,1,70,8|0,0:0|0:0,0:0:0:0:
92,309,55054,2,0,P|118:330|152:339,1,70,8|0,0:0|0:0,0:0:0:0:
250,339,55407,2,0,P|284:335|314:317,1,70,8|0,0:0|0:0,0:0:0:0:
398,369,55760,6,0,P|419:342|428:308,1,70,8|0,0:0|0:0,0:0:0:0:
428,211,56113,2,0,P|424:176|406:146,1,70,8|0,0:0|0:0,0:0:0:0:
338,79,56466,2,0,P|311:57|277:48,1,70,8|0,0:0|0:0,0:0:0:0:
180,49,56819,2,0,P|145:52|115:70,1,70,8|0,0:0|0:0,0:0:0:0:
82,163,57172,6,0,L|78:197,4,35,10|2|2|2|2,0:0|0:0|0:0|0:0|0:0,0:0:0:0:
183,83,57701,2,0,L|179:48,4,35,10|2|2|2|2,0:0|0:0|0:0|0:0|0:0,0:0:0:0:
284,163,58231,2,0,L|280:197,1,35,8|8,0:0|0:0,0:0:0:0:
273,246,58407,6,0,B|418:251|418:251|365:289,1,210,4|0,0:0|0:0,0:0:0:0:
74,360,59996,5,6,0:0:0:0:
74,360,60172,2,0,L|150:353,1,77.0000023498536,8|0,0:0|0:0,0:0:0:0:
257,271,60525,5,2,0:0:0:0:
257,271,60701,2,0,L|180:264,1,77.0000023498536,8|0,0:0|0:0,0:0:0:0:
74,182,61054,5,2,0:0:0:0:
74,182,61231,2,0,L|150:175,1,77.0000023498536,8|0,0:0|0:0,0:0:0:0:
257,94,61584,5,2,0:0:0:0:
257,94,61760,2,0,L|180:87,1,77.0000023498536,8|0,0:0|0:0,0:0:0:0:
44,12,62113,6,0,P|24:44|17:82,1,77.0000023498536,8|0,0:0|0:0,0:0:0:0:
74,183,62466,2,0,P|93:150|100:112,1,77.0000023498536,8|0,0:0|0:0,0:0:0:0:
194,13,62819,6,0,P|263:24|257:94,1,154.000004699707,6|8,0:0|0:0,0:0:0:0:
280,188,63349,1,0,0:0:0:0:
194,237,63525,2,0,P|190:276|194:314,1,77.0000023498536,2|2,0:0|0:0,0:0:0:0:
285,354,63878,1,8,0:0:0:0:
373,307,64054,1,0,0:0:0:0:
457,361,64231,6,0,P|471:287|429:225,1,154.000004699707,6|8,0:0|0:0,0:0:0:0:
320,228,64760,1,0,0:0:0:0:
243,152,64937,2,0,L|90:176,1,154.000004699707,2|8,0:0|0:0,0:0:0:0:
25,100,65466,1,0,0:0:0:0:
89,23,65643,5,6,0:0:0:0:
89,23,65819,2,0,P|110:54|124:90,1,77.0000023498536,8|0,0:0|0:0,0:0:0:0:
76,212,66172,5,2,0:0:0:0:
76,212,66349,2,0,P|114:208|152:215,1,77.0000023498536,8|0,0:0|0:0,0:0:0:0:
233,317,66701,5,2,0:0:0:0:
233,317,66878,2,0,P|249:282|273:252,1,77.0000023498536,8|0,0:0|0:0,0:0:0:0:
403,233,67231,5,2,0:0:0:0:
403,233,67407,2,0,P|381:201|367:165,1,77.0000023498536,8|0,0:0|0:0,0:0:0:0:
415,45,67760,6,0,L|339:57,1,77.0000023498536,8|0,0:0|0:0,0:0:0:0:
198,121,68113,2,0,L|274:134,1,77.0000023498536,8|0,0:0|0:0,0:0:0:0:
403,233,68466,6,0,B|369:300|369:300|379:341|412:363,1,154.000004699707,6|8,0:0|0:0,0:0:0:0:
484,293,68996,1,0,0:0:0:0:
489,192,69172,2,0,P|467:162|435:141,1,77.0000023498536,2|2,0:0|0:0,0:0:0:0:
350,86,69525,1,8,0:0:0:0:
274,151,69701,1,0,0:0:0:0:
202,79,69878,6,0,P|132:52|61:78,1,154.000004699707,6|8,0:0|0:0,0:0:0:0:
12,165,70407,1,0,0:0:0:0:
102,208,70584,2,0,P|100:246|89:283,1,77.0000023498536,2|0,0:0|1:0,0:0:0:0:
56,321,70849,1,8,1:2:0:0:
56,321,70937,2,0,L|91:335,3,38.5000011749268,8|0|0|0,1:2|1:0|1:0|1:0,0:0:0:0:
119,370,71290,6,0,P|177:323|253:327,1,154.000004699707,6|8,0:0|0:0,0:0:0:0:
339,378,71819,1,0,0:0:0:0:
400,296,71996,2,0,L|414:221,1,77.0000023498536,2|2,0:0|0:0,0:0:0:0:
333,174,72349,2,0,L|319:249,1,77.0000023498536,8|0,0:0|0:0,0:0:0:0:
412,113,72701,6,0,P|349:74|276:93,1,154.000004699707,6|8,0:0|0:0,0:0:0:0:
250,190,73231,1,0,0:0:0:0:
162,238,73407,2,0,P|126:252|88:258,1,77.0000023498536,2|2,0:0|0:0,0:0:0:0:
59,162,73760,2,0,P|94:148|132:142,1,77.0000023498536,8|0,0:0|0:0,0:0:0:0:
249,278,74113,6,0,B|223:377|223:377|267:350,1,154.000004699707,6|8,0:0|0:0,0:0:0:0:
349,291,74643,1,0,0:0:0:0:
421,222,74819,2,0,P|441:254|446:292,1,77.0000023498536,2|2,0:0|0:0,0:0:0:0:
374,361,75172,2,0,P|354:328|349:291,1,77.0000023498536,8|0,0:0|0:0,0:0:0:0:
333,180,75525,6,0,P|407:194|470:153,1,154.000004699707,6|8,0:0|0:0,0:0:0:0:
388,95,76054,1,0,0:0:0:0:
281,66,76231,2,0,P|254:92|240:127,1,77.0000023498536,2|2,0:0|0:0,0:0:0:0:
206,223,76584,2,0,P|170:206|132:201,1,77.0000023498536,8|0,0:0|0:0,0:0:0:0:
34,220,76937,6,0,L|4:372,2,154.000004699707,6|8|2,0:0|0:0|0:0,0:0:0:0:
12,121,77819,1,2,0:0:0:0:
73,43,77996,2,0,L|147:63,1,77.0000023498536,8|0,0:0|0:0,0:0:0:0:
229,120,78349,6,0,P|243:84|241:46,2,77.0000023498536,6|0|8,0:0|0:0|0:0,0:0:0:0:
144,157,78878,1,0,0:0:0:0:
144,157,79054,2,0,P|142:195|155:230,1,77.0000023498536,2|2,0:0|0:0,0:0:0:0:
143,322,79407,2,0,P|195:299|252:296,1,115.50000352478,8|0,0:0|0:0,0:0:0:0:
289,326,79760,5,14,0:0:0:0:
378,309,79937,1,0,0:0:0:0:
467,292,80113,1,2,0:0:0:0:
328,164,80290,6,0,P|320:201|317:240,2,77.0000023498536,14|0|2,0:0|0:0|0:0,0:0:0:0:
448,62,80819,5,14,0:0:0:0:
359,79,80996,1,0,0:0:0:0:
270,96,81172,1,2,0:0:0:0:
407,223,81349,6,0,P|415:185|419:147,2,77.0000023498536,14|0|2,0:0|0:0|0:0,0:0:0:0:
289,326,81878,5,12,0:0:0:0:
229,259,82054,1,8,0:0:0:0:
201,345,82231,2,0,P|167:326|144:295,1,77.0000023498536,8|8,0:0|0:0,0:0:0:0:
289,326,82584,5,6,0:0:0:0:
289,326,82760,2,0,L|361:301,1,77.0000023498536,8|0,0:0|0:0,0:0:0:0:
492,311,83113,5,2,0:0:0:0:
492,311,83290,2,0,L|468:238,1,77.0000023498536,8|0,0:0|0:0,0:0:0:0:
477,108,83643,5,2,0:0:0:0:
477,108,83819,2,0,L|403:131,1,77.0000023498536,8|0,0:0|0:0,0:0:0:0:
274,123,84172,5,2,0:0:0:0:
274,123,84349,2,0,L|297:195,1,77.0000023498536,8|0,0:0|0:0,0:0:0:0:
289,326,84701,6,0,P|254:309|216:302,1,77.0000023498536,8|0,0:0|0:0,0:0:0:0:
106,287,85054,2,0,P|138:265|158:233,1,77.0000023498536,8|0,0:0|0:0,0:0:0:0:
171,127,85407,6,0,P|143:60|192:6,1,154.000004699707,6|8,0:0|0:0,0:0:0:0:
257,84,85937,1,0,0:0:0:0:
353,110,86113,2,0,P|390:104|425:87,1,77.0000023498536,2|2,0:0|0:0,0:0:0:0:
491,13,86466,1,8,0:0:0:0:
501,103,86643,1,0,0:0:0:0:
511,193,86819,6,0,L|497:347,1,154.000004699707,2|8,0:0|0:0,0:0:0:0:
396,333,87349,1,0,0:0:0:0:
359,239,87525,2,0,B|317:255|301:300|301:300|270:304|238:281,1,154.000004699707,2|10,0:0|0:0,0:0:0:0:
144,244,88054,1,2,0:0:0:0:
203,163,88231,5,6,0:0:0:0:
203,163,88407,2,0,L|200:86,1,77.0000023498536,8|0,0:0|0:0,0:0:0:0:
302,34,88760,5,2,0:0:0:0:
302,34,88937,2,0,L|304:110,1,77.0000023498536,8|0,0:0|0:0,0:0:0:0:
402,176,89290,5,2,0:0:0:0:
402,176,89466,2,0,L|399:99,1,77.0000023498536,8|0,0:0|0:0,0:0:0:0:
501,47,89819,5,2,0:0:0:0:
501,47,89996,2,0,L|503:123,1,77.0000023498536,8|0,0:0|0:0,0:0:0:0:
477,250,90349,6,0,P|440:259|405:274,1,77.0000023498536,8|0,0:0|0:0,0:0:0:0:
315,345,90701,2,0,P|279:329|242:320,1,77.0000023498536,8|0,0:0|0:0,0:0:0:0:
110,362,91054,6,0,P|52:320|83:255,1,154.000004699707,6|8,0:0|0:0,0:0:0:0:
167,219,91584,1,0,0:0:0:0:
227,153,91760,2,0,P|228:114|224:76,1,77.0000023498536,2|2,0:0|0:0,0:0:0:0:
125,64,92113,2,0,L|48:71,1,77.0000023498536,8|0,0:0|0:0,0:0:0:0:
75,169,92466,5,2,0:0:0:0:
75,169,92643,2,0,L|228:152,1,154.000004699707,8|2,0:0|0:0,0:0:0:0:
294,85,93172,2,0,P|313:118|317:156,1,77.0000023498536,0|0,1:0|1:0,0:0:0:0:
308,201,93437,1,0,1:0:0:0:
308,200,93525,2,0,P|296:216|285:231,3,38.5000011749268,8|0|0|8,1:2|1:0|1:0|1:2,0:0:0:0:
274,280,93878,6,0,P|198:284|126:311,1,154.000004699707,6|8,0:0|0:0,0:0:0:0:
43,367,94407,1,0,0:0:0:0:
3,283,94584,2,0,P|-2:244|2:206,1,77.0000023498536,2|2,0:0|0:0,0:0:0:0:
94,166,94937,2,0,P|99:204|94:242,1,77.0000023498536,8|0,0:0|0:0,0:0:0:0:
24,93,95290,6,0,B|94:63|94:63|167:89,1,154.000004699707,6|8,0:0|0:0,0:0:0:0:
220,174,95819,1,0,0:0:0:0:
208,269,95996,2,0,P|203:308|210:345,1,77.0000023498536,2|2,0:0|0:0,0:0:0:0:
297,369,96349,2,0,L|373:364,1,77.0000023498536,8|0,0:0|0:0,0:0:0:0:
489,315,96701,6,0,B|484:259|484:259|458:227|458:227|455:171,1,154.000004699707,6|8,0:0|0:0,0:0:0:0:
504,82,97231,1,0,0:0:0:0:
413,42,97407,2,0,P|376:35|338:42,1,77.0000023498536,2|2,0:0|0:0,0:0:0:0:
304,137,97760,2,0,P|341:144|379:137,1,77.0000023498536,8|0,0:0|0:0,0:0:0:0:
245,54,98113,6,0,P|206:119|224:192,1,154.000004699707,6|8,0:0|0:0,0:0:0:0:
313,238,98643,1,0,0:0:0:0:
313,238,98731,1,8,0:0:0:0:
313,238,98819,2,0,L|300:313,1,77.0000023498536,8|0,0:0|0:0,0:0:0:0:
207,349,99172,2,0,L|195:272,2,77.0000023498536,2|0|4,0:0|0:0|0:0,0:0:0:0:
58,118,100760,6,0,L|95:124,1,38.5000011749268,4|4,0:3|0:3,0:0:0:0:
129,139,100937,6,0,P|235:104|346:103,1,224,12|0,0:0|0:0,0:0:0:0:
162,341,102172,1,8,0:0:0:0:
162,341,102260,1,8,0:0:0:0:
162,341,102349,6,0,L|154:271,2,70,12|2|0,0:0|0:0|0:0,0:0:0:0:
258,264,102878,2,0,L|250:194,2,70,8|2|0,0:0|0:0|0:0,0:0:0:0:
354,187,103407,6,0,L|346:117,2,70,8|2|0,0:0|0:0|0:0,0:0:0:0:
450,110,103937,2,0,L|442:40,2,70,8|2|0,0:0|0:0|0:0,0:0:0:0:
469,232,104466,5,8,0:0:0:0:
354,187,104643,1,0,0:0:0:0:
239,142,104819,2,0,L|136:163,1,105,8|4,0:0|0:3,0:0:0:0:
103,129,105172,6,0,P|81:157|70:190,1,70,12|2,0:0|0:0,0:0:0:0:
89,286,105525,1,0,0:0:0:0:
180,321,105701,2,0,L|248:305,1,70,8|2,0:0|0:0,0:0:0:0:
320,238,106054,1,0,0:0:0:0:
406,192,106231,6,0,P|416:225|415:260,1,70,8|2,0:0|0:0,0:0:0:0:
346,329,106584,1,0,0:0:0:0:
248,305,106760,2,0,L|180:321,1,70,8|2,0:0|0:0,0:0:0:0:
89,286,107113,1,0,0:0:0:0:
125,194,107290,6,0,L|159:187,3,35,8|0|0|0,0:0|0:0|0:0|0:0,0:0:0:0:
73,143,107643,2,0,L|38:136,3,35,8|0|0|0,0:0|0:0|0:0|0:0,0:0:0:0:
124,92,107996,6,0,P|143:62|153:28,2,70,12|2|0,0:0|0:0|0:0,0:0:0:0:
196,191,108525,2,0,P|230:183|260:166,2,70,8|2|0,0:0|0:0|0:0,0:0:0:0:
176,311,109054,6,0,P|205:329|239:339,2,70,8|2|0,0:0|0:0|0:0,0:0:0:0:
86,233,109584,2,0,P|56:214|22:204,2,70,8|2|0,0:0|0:0|0:0,0:0:0:0:
196,191,110113,1,8,0:0:0:0:
102,114,110290,1,0,0:0:0:0:
212,70,110466,2,0,P|263:79|314:68,1,105,8|4,0:0|0:3,0:0:0:0:
353,70,110819,6,0,L|364:103,3,35,4|0|8|8,0:0|0:0|0:0|0:0,0:0:0:0:
437,117,111172,2,0,L|424:149,3,35,8|0|2|0,0:0|0:0|0:0|0:0,0:0:0:0:
471,206,111525,2,0,L|440:223,3,35,8|8|8|0,0:0|0:0|0:0|0:0,0:0:0:0:
439,296,111878,2,0,L|404:289,3,35,8|0|0|0,0:0|0:0|0:0|0:0,0:0:0:0:
356,344,112231,2,0,L|333:316,3,35,0|0|2|2,0:0|0:0|0:0|0:0,0:0:0:0:
262,329,112584,2,0,L|262:294,3,35,2|2|2|2,0:0|0:0|0:0|0:0,0:0:0:0:
200,256,112937,2,0,L|222:229,3,35,10|2|2|2,0:0|0:0|0:0|0:0,0:0:0:0:
198,160,113290,2,0,L|232:154,3,35,10|10|10|10,0:0|0:0|0:0|0:0,0:0:0:0:
259,87,113643,5,6,0:0:0:0:
256,192,113819,12,0,118937,0:0:0:0:
