osu file format v14

[General]
AudioFilename: audio.mp3
AudioLeadIn: 0
PreviewTime: 59907
Countdown: 0
SampleSet: Soft
StackLeniency: 0.7
Mode: 0
LetterboxInBreaks: 0
WidescreenStoryboard: 0

[Editor]
DistanceSpacing: 1
BeatDivisor: 4
GridSize: 4
TimelineZoom: 1

[Metadata]
Title:Re:birth day
TitleUnicode:Re:birth day
Artist:Roselia
ArtistUnicode:Roselia
Creator:Meg
Version:EASY
Source:BanG Dream!
Tags:rebirth Kanau Mamayu fuyuyu- ロゼリア バンドリ ガールズバンドパーティ! Girls Band Party! 湊友希那 Minato Yukina 相羽あいな Aiba Aina 宇田川あこ Udagawa Ako 櫻川めぐ Sakuragawa Megu 白金燐子 Shirokane Rinko 明坂聡美 Akesaka Satomi 氷川紗夜 Hikawa Sayo 工藤晴香 Kudou Haruka 今井リサ Imai Risa 遠藤ゆりか Endou Yurika
BeatmapID:1300436
BeatmapSetID:594500

[Difficulty]
HPDrainRate:3
CircleSize:3
OverallDifficulty:2
ApproachRate:3
SliderMultiplier:0.9
SliderTickRate:1

[Events]
//Background and Video events
0,0,"BG.jpg",0,0
//Break Periods
2,17843,21144
//Storyboard Layer 0 (Background)
//Storyboard Layer 1 (Fail)
//Storyboard Layer 2 (Pass)
//Storyboard Layer 3 (Foreground)
//Storyboard Sound Samples

[TimingPoints]
702,352.941176470588,4,2,1,50,1,0
702,-100,4,2,1,50,0,0
4054,-100,4,2,2,50,0,0
4937,-100,4,2,2,50,0,0
6349,-100,4,2,1,70,0,0
17643,-100,4,2,1,60,0,0
22584,-100,4,2,2,60,0,0
22937,-100,4,2,1,50,0,0
23290,-100,4,2,1,60,0,0
45878,-100,4,2,1,50,0,0
51525,-100,4,2,2,60,0,0
57172,-100,4,2,1,70,0,0
58231,-100,4,2,1,70,0,0
58937,-100,4,2,1,5,0,0
59025,-100,4,2,1,70,0,0
59996,-100,4,2,1,80,0,1
71290,-100,4,2,10,80,0,1
71378,-100,4,2,1,80,0,1
74113,-100,4,2,10,80,0,1
74201,-100,4,2,1,80,0,1
79760,-100,4,2,12,80,0,1
79849,-100,4,2,1,80,0,1
80290,-100,4,2,12,80,0,1
80378,-100,4,2,1,80,0,1
80819,-100,4,2,12,80,0,1
80907,-100,4,2,1,80,0,1
81349,-100,4,2,12,80,0,1
81437,-100,4,2,1,80,0,1
82584,-100,4,2,1,80,0,1
93878,-100,4,2,10,80,0,1
93966,-100,4,2,1,80,0,1
96701,-100,4,2,10,80,0,1
96790,-100,4,2,1,80,0,1
100937,-100,4,2,1,80,0,1
101643,-100,4,2,1,20,0,1
102172,-100,4,2,1,80,0,1
102349,-100,4,2,1,70,0,0
118937,-100,4,2,1,30,0,0

[Colours]
Combo1 : 7,250,171
Combo2 : 128,0,255
Combo3 : 188,180,205
Combo4 : 255,128,255

[HitObjects]
256,192,702,12,2,3525,0:1:0:0:
431,260,4937,6,0,P|427:183|356:213,1,180,0|0,0:3|0:0,0:0:0:0:
353,303,5996,1,2,0:0:0:0:
266,328,6349,6,0,L|131:311,1,135,12|8,0:0|0:0,0:0:0:0:
13,246,7407,2,0,P|53:193|117:175,1,135,8|8,0:0|0:0,0:0:0:0:
252,183,8466,2,0,L|240:93,1,90,8|8,0:0|0:0,0:0:0:0:
304,31,9172,6,0,P|370:18|431:45,1,135,12|8,0:0|0:0,0:0:0:0:
508,155,10231,2,0,P|484:218|481:286,1,135,8|8,0:0|0:0,0:0:0:0:
364,354,11290,2,0,P|336:320|296:302,1,90,8|8,0:0|0:0,0:0:0:0:
211,331,11996,6,0,P|145:343|87:311,1,135,12|8,0:0|0:0,0:0:0:0:
112,178,13054,2,0,P|177:166|235:198,1,135,8|8,0:0|0:0,0:0:0:0:
368,220,14113,2,0,L|352:131,1,90,8|8,0:0|0:0,0:0:0:0:
416,67,14819,6,0,P|356:39|294:61,1,135,12|8,0:0|0:0,0:0:0:0:
181,134,15878,2,0,P|158:72|99:44,1,135,8|8,0:0|0:0,0:0:0:0:
50,170,16937,2,0,L|38:259,1,90,8|8,0:0|0:3,0:0:0:0:
23,348,17643,5,6,0:0:0:0:
50,170,22584,6,0,L|141:167,1,90,8|0,0:0|1:0,0:0:0:0:
205,106,23290,6,0,P|293:105|353:168,1,180,6|0,0:0|0:0,0:0:0:0:
448,321,24701,2,0,B|382:302|382:302|340:335|340:335|283:320,1,180,0|2,0:0|0:0,0:0:0:0:
106,353,26113,6,0,P|108:264|165:196,1,180,2|2,0:0|0:0,0:0:0:0:
281,58,27525,2,0,P|369:75|459:81,1,180,0|2,0:0|0:0,0:0:0:0:
483,168,28584,1,8,0:0:0:0:
491,257,28937,6,0,P|407:253|391:171,1,180,6|2,0:0|0:0,0:0:0:0:
256,51,30349,2,0,B|183:37|183:37|131:41|93:88,1,180,0|2,0:0|0:0,0:0:0:0:
33,257,31760,6,0,B|54:298|51:346|51:346|95:338|138:349,1,180,2|2,0:0|0:0,0:0:0:0:
317,359,33172,2,0,P|335:272|286:199,1,180,0|2,0:0|0:0,0:0:0:0:
199,175,34231,1,0,1:0:0:0:
143,246,34584,6,0,L|9:263,2,135,6|0|8,0:0|0:0|0:0,0:0:0:0:
199,175,35996,2,0,L|332:157,2,135,2|0|8,0:0|0:0|0:0,0:0:0:0:
118,134,37407,6,0,P|110:89|112:44,1,90,2|8,0:0|0:0,0:0:0:0:
200,25,38113,2,0,L|289:35,1,90,2|8,0:0|0:0,0:0:0:0:
378,37,38819,2,0,P|420:112|369:181,1,180,2|2,0:0|0:0,0:0:0:0:
289,221,39878,1,8,0:0:0:0:
211,266,40231,6,0,P|200:200|238:146,2,135,2|0|8,0:0|0:0|0:0,0:0:0:0:
274,329,41643,2,0,P|317:318|362:315,1,90,2|8,0:0|0:0,0:0:0:0:
451,329,42349,2,0,L|466:235,1,90,2|8,0:0|0:0,0:0:0:0:
493,154,43054,6,0,B|402:140|402:140|337:81|337:81|254:117,1,270,2|8,0:0|0:0,0:0:0:0:
236,205,44466,2,0,P|170:151|182:66,2,180,2|8|6,0:0|0:0|0:0,0:0:0:0:
420,335,47290,6,0,P|331:350|241:347,1,180,4|0,3:0|3:0,0:0:0:0:
93,245,48701,2,0,P|181:229|271:233,1,180,4|0,3:0|3:0,0:0:0:0:
451,222,50113,2,0,P|474:138|429:63,1,180,4|0,3:0|3:0,0:0:0:0:
339,68,51172,1,8,3:0:0:0:
255,100,51525,6,0,P|167:118|82:92,2,180,12|8|8,0:0|0:0|0:0,0:0:0:0:
411,190,53643,2,0,B|444:273|444:273|386:342,1,180,8|8,0:0|0:0,0:0:0:0:
296,337,54701,5,8,0:0:0:0:
259,254,55054,2,0,P|223:279|205:320,2,90,8|8|8,0:0|0:0|0:0,0:0:0:0:
321,186,56113,2,0,P|366:193|411:189,2,90,8|8|8,0:0|0:0|0:0,0:0:0:0:
233,167,57172,6,0,P|201:108|140:81,1,135,10|10,0:0|0:0,0:0:0:0:
45,177,58231,2,0,L|35:221,1,45,8|4,0:0|0:0,0:0:0:0:
419,346,59996,6,0,P|455:270|390:217,1,180,6|8,0:0|0:0,0:0:0:0:
307,252,61054,2,0,L|130:218,1,180,2|8,0:0|0:0,0:0:0:0:
48,259,62113,2,0,P|40:215|52:171,1,90,8|8,0:0|0:0,0:0:0:0:
69,79,62819,6,0,B|207:25|183:174|320:110,1,270,6|8,0:0|0:0,0:0:0:0:
371,36,64231,2,0,P|399:70|409:113,1,90,6|8,0:0|0:0,0:0:0:0:
475,174,64937,2,0,P|482:217|469:260,1,90,2|8,0:0|0:0,0:0:0:0:
488,347,65643,6,0,P|405:323|383:240,1,180,6|8,0:0|0:0,0:0:0:0:
352,155,66701,2,0,B|309:154|278:138|278:138|248:147|248:147|219:129|179:131,1,180,2|8,0:0|0:0,0:0:0:0:
105,184,67760,2,0,L|94:273,1,90,8|8,0:0|0:0,0:0:0:0:
130,355,68466,6,0,B|176:337|184:290|184:290|262:361|350:314,1,270,6|8,0:0|0:0,0:0:0:0:
439,298,69878,2,0,L|432:208,1,90,6|8,0:0|0:0,0:0:0:0:
342,198,70584,2,0,L|335:108,1,90,2|8,0:0|1:2,0:0:0:0:
417,72,71290,6,0,P|350:17|268:44,1,180,6|2,0:0|0:0,0:0:0:0:
228,124,72349,1,8,0:0:0:0:
223,213,72701,2,0,P|156:268|74:241,1,180,6|2,0:0|0:0,0:0:0:0:
34,161,73760,1,8,0:0:0:0:
55,72,74113,6,0,L|227:123,1,180,6|2,0:0|0:0,0:0:0:0:
223,213,75172,1,8,0:0:0:0:
302,170,75525,2,0,L|474:221,1,180,6|2,0:0|0:0,0:0:0:0:
469,311,76584,1,8,0:0:0:0:
396,364,76937,5,6,0:0:0:0:
256,250,77643,2,0,P|211:242|167:246,1,90,2|8,0:0|0:0,0:0:0:0:
89,200,78349,2,0,P|77:265|111:321,2,135,6|0|8,0:0|0:0|0:0,0:0:0:0:
112,113,79760,6,0,P|175:135|242:145,1,135,14|14,0:0|0:0,0:0:0:0:
336,48,80819,2,0,P|399:25|466:15,1,135,14|14,0:0|0:0,0:0:0:0:
502,145,81878,2,0,L|487:233,1,90,12|8,0:0|0:0,0:0:0:0:
456,318,82584,6,0,P|383:270|296:285,1,180,6|8,0:0|0:0,0:0:0:0:
229,346,83643,2,0,P|207:263|267:201,1,180,2|8,0:0|0:0,0:0:0:0:
353,180,84701,2,0,P|359:135|352:91,1,90,8|8,0:0|0:0,0:0:0:0:
283,33,85407,6,0,B|210:54|210:54|140:33|140:33|74:54|69:121,1,270,6|8,0:0|0:0,0:0:0:0:
149,164,86819,2,0,P|152:208|142:252,1,90,2|8,0:0|0:0,0:0:0:0:
55,275,87525,2,0,P|51:319|61:363,1,90,2|10,0:0|0:0,0:0:0:0:
151,364,88231,6,0,L|329:337,1,180,6|8,0:0|0:0,0:0:0:0:
414,365,89290,2,0,P|457:289|415:214,1,180,2|8,0:0|0:0,0:0:0:0:
351,150,90349,2,0,P|309:164|264:170,1,90,8|8,0:0|0:0,0:0:0:0:
202,103,91054,6,0,B|132:39|65:92|65:92|75:131|75:131|58:163|58:163|67:201,1,270,6|8,0:0|0:0,0:0:0:0:
74,291,92466,2,0,P|116:306|160:307,1,90,2|2,0:0|0:0,0:0:0:0:
240,264,93172,2,0,P|282:248|326:247,1,90,0|8,1:0|1:2,0:0:0:0:
414,268,93878,6,0,L|440:89,1,180,6|2,0:0|0:0,0:0:0:0:
375,27,94937,1,8,0:0:0:0:
289,54,95290,2,0,L|262:232,1,180,6|2,0:0|0:0,0:0:0:0:
328,295,96349,1,8,0:0:0:0:
262,357,96701,6,0,P|173:356|91:320,1,180,6|2,0:0|0:0,0:0:0:0:
56,237,97760,1,8,0:0:0:0:
121,175,98113,2,0,P|210:175|292:211,1,180,6|8,0:0|0:0,0:0:0:0:
328,295,99172,1,2,0:0:0:0:
383,223,99525,5,4,0:0:0:0:
62,59,100937,2,0,B|40:121|40:121|63:169|63:169|41:226,1,180,12|0,0:0|0:0,0:0:0:0:
102,342,102349,6,0,P|169:333|223:294,1,135,12|8,0:0|0:0,0:0:0:0:
330,213,103407,2,0,P|263:203|209:164,1,135,8|8,0:0|0:0,0:0:0:0:
101,82,104466,2,0,P|146:80|187:63,1,90,8|8,0:0|0:0,0:0:0:0:
268,22,105172,6,0,L|394:69,1,135,12|8,0:0|0:0,0:0:0:0:
505,145,106231,2,0,P|470:202|471:269,1,135,8|8,0:0|0:0,0:0:0:0:
369,358,107290,2,0,L|279:347,1,90,8|8,0:0|0:0,0:0:0:0:
219,278,107996,6,0,P|160:310|95:299,1,135,12|8,0:0|0:0,0:0:0:0:
19,188,109054,2,0,L|52:57,1,135,8|8,0:0|0:0,0:0:0:0:
184,27,110113,2,0,P|189:71|174:113,1,90,8|8,0:0|0:0,0:0:0:0:
152,201,110819,6,0,P|218:198|278:228,1,135,4|2,0:0|0:0,0:0:0:0:
401,284,111878,2,0,P|365:227|361:160,1,135,8|2,0:0|0:0,0:0:0:0:
348,27,112937,2,0,P|332:68|301:100,2,90,10|10|6,0:0|0:0|0:0,0:0:0:0:
256,192,113819,12,0,118937,0:0:0:0:
