osu file format v14

[General]
AudioFilename: audio.mp3
AudioLeadIn: 0
PreviewTime: 59907
Countdown: 0
SampleSet: Soft
StackLeniency: 0.7
Mode: 0
LetterboxInBreaks: 0
WidescreenStoryboard: 0

[Editor]
DistanceSpacing: 1
BeatDivisor: 4
GridSize: 4
TimelineZoom: 1

[Metadata]
Title:Re:birth day
TitleUnicode:Re:birth day
Artist:Roselia
ArtistUnicode:Roselia
Creator:Meg
Version:EVER
Source:BanG Dream!
Tags:rebirth Kanau Mamayu fuyuyu- ロゼリア バンドリ ガールズバンドパーティ! Girls Band Party! 湊友希那 Minato Yukina 相羽あいな Aiba Aina 宇田川あこ Udagawa Ako 櫻川めぐ Sakuragawa Megu 白金燐子 Shirokane Rinko 明坂聡美 Akesaka Satomi 氷川紗夜 Hikawa Sayo 工藤晴香 Kudou Haruka 今井リサ Imai Risa 遠藤ゆりか Endou Yurika
BeatmapID:1257437
BeatmapSetID:594500

[Difficulty]
HPDrainRate:6
CircleSize:4
OverallDifficulty:9
ApproachRate:9.3
SliderMultiplier:1.8
SliderTickRate:1

[Events]
//Background and Video events
0,0,"BG.jpg",0,0
//Break Periods
//Storyboard Layer 0 (Background)
//Storyboard Layer 1 (Fail)
//Storyboard Layer 2 (Pass)
//Storyboard Layer 3 (Foreground)
//Storyboard Sound Samples

[TimingPoints]
702,352.941176470588,4,2,1,50,1,0
702,-200,4,2,1,50,0,0
4054,-200,4,2,2,50,0,0
6349,-100,4,2,1,70,0,0
17643,-133.333333333333,4,2,1,60,0,0
20466,-133.333333333333,4,2,2,60,0,0
20643,-133.333333333333,4,2,1,60,0,0
22584,-66.6666666666667,4,2,2,60,0,0
22937,-200,4,2,1,50,0,0
23290,-100,4,2,1,60,0,0
45878,-133.333333333333,4,2,1,50,0,0
51525,-100,4,2,2,60,0,0
57172,-100,4,2,1,70,0,0
58231,-66.6666666666667,4,2,1,70,0,0
58937,-66.6666666666667,4,2,1,5,0,0
59025,-66.6666666666667,4,2,1,70,0,0
59996,-83.3333333333333,4,2,1,80,0,1
71290,-83.3333333333333,4,2,10,80,0,1
71378,-83.3333333333333,4,2,1,80,0,1
74113,-83.3333333333333,4,2,10,80,0,1
74201,-83.3333333333333,4,2,1,80,0,1
79760,-83.3333333333333,4,2,12,80,0,1
79849,-83.3333333333333,4,2,1,80,0,1
80290,-83.3333333333333,4,2,12,80,0,1
80378,-83.3333333333333,4,2,1,80,0,1
80819,-83.3333333333333,4,2,12,80,0,1
80907,-83.3333333333333,4,2,1,80,0,1
81349,-83.3333333333333,4,2,12,80,0,1
81437,-83.3333333333333,4,2,1,80,0,1
93878,-83.3333333333333,4,2,10,80,0,1
93966,-83.3333333333333,4,2,1,80,0,1
96701,-83.3333333333333,4,2,10,80,0,1
96790,-83.3333333333333,4,2,1,80,0,1
100937,-133.333333333333,4,2,1,80,0,1
101643,-133.333333333333,4,2,1,20,0,1
102172,-100,4,2,1,80,0,1
102349,-100,4,2,1,70,0,0
118937,-100,4,2,1,30,0,0

[Colours]
Combo1 : 7,250,171
Combo2 : 128,0,255
Combo3 : 188,180,205
Combo4 : 255,128,255

[HitObjects]
256,192,702,5,4,0:0:0:0:
256,192,878,12,0,3172,0:3:0:0:
306,263,3525,6,0,P|369:240|436:248,2,135,2|0|2,0:1|0:0|0:0,0:0:0:0:
184,348,4937,2,0,L|192:304,1,45,0|0,0:3|0:3,0:3:0:0:
88,280,5290,2,0,L|80:236,1,45,0|0,0:3|0:3,0:3:0:0:
192,124,5643,1,0,0:0:0:0:
170,129,5731,1,0,0:0:0:0:
148,134,5819,1,0,0:0:0:0:
126,139,5907,1,0,0:0:0:0:
104,144,5996,5,2,0:0:0:0:
112,84,6084,1,2,0:0:0:0:
157,43,6172,1,2,0:0:0:0:
218,40,6260,1,2,0:0:0:0:
265,76,6349,6,0,P|279:95|288:115,1,45,12|0,0:0|0:0,0:0:0:0:
224,284,6525,1,2,0:0:0:0:
452,160,6701,1,0,0:0:0:0:
204,203,6878,6,0,P|183:212|165:226,1,45,8|0,0:0|0:0,0:0:0:0:
336,340,7054,1,2,0:0:0:0:
288,115,7231,1,0,0:0:0:0:
432,272,7407,6,0,P|451:261|467:245,1,45,8|0,0:0|0:0,0:0:0:0:
404,76,7584,1,2,0:0:0:0:
272,276,7760,1,0,0:0:0:0:
120,144,7937,6,0,P|121:121|125:99,1,45,8|0,0:0|0:0,0:0:0:0:
288,115,8113,1,2,0:0:0:0:
48,24,8290,1,0,0:0:0:0:
246,189,8466,6,0,P|224:196|203:203,1,45,8|0,0:0|0:0,0:0:0:0:
20,252,8643,2,0,P|41:258|62:266,1,45,2|0,0:0|0:0,0:0:0:0:
208,344,8819,5,8,0:0:0:0:
263,336,8907,1,4,0:3:0:0:
308,303,8996,1,4,0:3:0:0:
332,253,9084,1,4,0:3:0:0:
328,196,9172,6,0,P|324:174|316:153,1,45,12|0,0:0|0:0,0:0:0:0:
212,48,9349,1,2,0:0:0:0:
432,176,9525,1,0,0:0:0:0:
183,196,9701,6,0,P|187:174|195:153,1,45,8|0,0:0|0:0,0:0:0:0:
299,47,9878,1,2,0:0:0:0:
79,175,10054,1,0,0:0:0:0:
208,360,10231,6,0,P|212:338|211:316,1,45,8|0,0:0|0:0,0:0:0:0:
88,280,10407,1,2,0:0:0:0:
316,153,10584,1,0,0:0:0:0:
304,360,10760,6,0,P|300:338|301:316,1,45,8|0,0:0|0:0,0:0:0:0:
424,280,10937,1,2,0:0:0:0:
196,153,11113,1,0,0:0:0:0:
424,191,11290,5,8,0:0:0:0:
472,166,11378,1,0,0:0:0:0:
492,115,11466,1,0,0:0:0:0:
473,64,11554,1,0,0:0:0:0:
424,38,11643,5,8,0:0:0:0:
373,63,11731,1,0,0:0:0:0:
319,76,11819,1,0,0:0:0:0:
263,76,11907,1,0,0:0:0:0:
208,62,11996,6,0,P|188:73|169:85,1,45,12|0,0:0|0:0,0:0:0:0:
140,240,12172,1,2,0:0:0:0:
24,56,12349,1,0,0:0:0:0:
220,184,12525,6,0,L|227:139,1,45,8|0,0:0|0:0,0:0:0:0:
32,200,12701,1,2,0:0:0:0:
260,312,12878,1,0,0:0:0:0:
64,372,13054,6,0,L|56:327,1,45,8|0,0:0|0:0,0:0:0:0:
144,160,13231,1,2,0:0:0:0:
320,236,13407,1,0,0:0:0:0:
104,248,13584,6,0,P|84:236|66:222,1,45,8|0,0:0|0:0,0:0:0:0:
276,120,13760,1,2,0:0:0:0:
80,68,13937,1,0,0:0:0:0:
277,251,14113,6,0,P|299:245|319:235,1,45,8|0,0:0|0:0,0:0:0:0:
404,96,14290,2,0,P|384:85|362:80,1,45,0|0,0:0|0:0,0:0:0:0:
156,49,14466,5,8,0:0:0:0:
150,104,14554,1,4,0:3:0:0:
144,160,14643,1,4,0:3:0:0:
139,216,14731,1,4,0:3:0:0:
133,272,14819,6,0,L|152:312,1,45,12|0,0:0|0:0,0:0:0:0:
319,235,14996,1,2,0:0:0:0:
56,120,15172,1,0,0:0:0:0:
204,300,15349,6,0,L|246:314,1,45,8|0,0:0|0:0,0:0:0:0:
309,142,15525,1,2,0:0:0:0:
42,246,15701,1,0,0:0:0:0:
273,268,15878,6,0,L|313:248,1,45,8|0,0:0|0:0,0:0:0:0:
236,82,16054,1,2,0:0:0:0:
121,344,16231,1,0,0:0:0:0:
301,196,16407,6,0,L|315:153,1,45,8|0,0:0|0:0,0:0:0:0:
142,91,16584,1,2,0:0:0:0:
247,358,16760,1,0,0:0:0:0:
464,224,16937,6,0,L|419:227,1,45,8|0,0:0|0:0,0:0:0:0:
194,243,17113,2,0,L|239:239,1,45,0|0,0:0|0:0,0:0:0:0:
333,279,17290,5,8,0:3:0:0:
331,256,17378,1,8,0:3:0:0:
329,234,17466,1,8,0:3:0:0:
328,211,17554,1,0,0:0:0:0:
328,187,17643,6,0,P|337:12|237:157,1,472.500018024445,6|12,0:0|3:0,0:0:0:0:
308,100,19231,5,2,3:2:0:0:
264,227,19407,2,0,P|230:233|198:223,1,67.5000025749208,8|0,3:0|0:0,0:0:0:0:
176,212,19672,1,0,0:0:0:0:
176,212,19760,6,0,L|171:178,1,33.7500012874604,8|0,3:2|0:0,0:0:0:0:
176,92,19937,2,0,L|171:58,1,33.7500012874604,8|0,3:2|0:0,0:0:0:0:
92,248,20113,2,0,L|87:214,1,33.7500012874604,8|0,3:2|0:0,0:0:0:0:
92,128,20290,2,0,L|87:94,1,33.7500012874604,8|0,3:2|0:0,0:0:0:0:
7,283,20466,6,0,P|23:313|51:332,1,67.5000025749208,2|0,0:0|0:0,0:0:0:0:
128,356,20731,1,2,0:0:0:0:
144,331,20819,2,0,P|175:320|208:315,1,67.5000025749208,12|0,3:0|0:0,0:0:0:0:
224,318,21084,1,12,3:0:0:0:
240,322,21172,1,12,3:0:0:0:
257,326,21260,1,12,3:0:0:0:
273,330,21349,6,0,B|288:232|288:232|256:252,1,135.000005149842,0|8,0:0|3:2,0:0:0:0:
28,56,22054,1,2,3:2:0:0:
108,160,22231,2,0,P|139:146|166:127,1,67.5000025749208,8|0,3:0|0:0,0:0:0:0:
212,56,22496,1,2,0:0:0:0:
228,54,22584,6,0,L|296:48,1,67.5000025749208,8|8,0:0|0:0,0:0:0:0:
468,116,22760,2,0,L|400:122,1,67.5000025749208,8|8,0:0|0:0,0:0:0:0:
293,188,22937,6,0,P|284:221|285:254,1,67.5,0|0,1:0|0:0,0:0:0:0:
292,276,23290,6,0,L|381:284,1,90,6|0,0:0|0:0,0:0:0:0:
512,320,23643,2,0,B|464:328|464:328|444:357|444:357|393:366,1,135,8|0,0:0|0:0,0:0:0:0:
372,372,23996,1,0,0:0:0:0:
440,172,24172,1,0,0:0:0:0:
292,276,24349,1,0,0:0:0:0:
403,278,24525,1,8,0:0:0:0:
350,106,24701,5,0,0:0:0:0:
440,172,24878,1,2,0:0:0:0:
260,170,25054,1,8,0:0:0:0:
416,28,25231,1,0,0:0:0:0:
348,200,25407,1,2,0:0:0:0:
223,64,25584,2,0,P|268:60|312:68,1,90,2|8,0:0|0:0,0:0:0:0:
440,172,25937,1,0,0:0:0:0:
252,340,26113,6,0,B|228:252|228:252|243:210,1,135,2|0,0:0|0:0,0:0:0:0:
260,169,26466,2,0,P|216:180|171:187,1,90,8|0,0:0|0:0,0:0:0:0:
24,244,26819,1,2,0:0:0:0:
39,65,26996,2,0,L|31:154,1,90,2|0,0:0|0:0,0:0:0:0:
88,336,27349,1,8,0:0:0:0:
88,336,27437,1,0,0:0:0:0:
88,336,27525,6,0,P|127:316|172:311,1,90,0|2,0:0|0:0,0:0:0:0:
327,235,27878,2,0,P|287:215|243:210,1,90,8|0,0:0|0:0,0:0:0:0:
116,192,28231,1,2,0:0:0:0:
224,368,28407,2,0,P|246:329|243:285,1,90,2|8,0:0|0:0,0:0:0:0:
200,112,28760,1,0,0:0:0:0:
336,164,28937,6,0,B|380:164|380:164|421:144,1,90,6|0,0:0|0:0,0:0:0:0:
480,44,29290,2,0,L|345:33,1,135,8|0,0:0|0:0,0:0:0:0:
320,32,29643,1,2,0:0:0:0:
252,200,29819,1,0,0:0:0:0:
421,144,29996,1,0,0:0:0:0:
316,112,30172,1,8,0:0:0:0:
438,252,30349,6,0,P|434:296|430:341,1,90,0|2,0:0|0:0,0:0:0:0:
252,200,30701,1,8,0:0:0:0:
336,376,30878,2,0,P|340:331|343:286,1,90,0|2,0:0|0:0,0:0:0:0:
136,336,31231,1,2,0:0:0:0:
260,284,31407,1,8,0:0:0:0:
64,228,31584,1,0,0:0:0:0:
64,228,31672,1,0,0:0:0:0:
64,228,31760,6,0,B|48:184|48:184|52:140,1,90,2|0,0:0|0:0,0:0:0:0:
120,24,32113,2,0,L|254:34,1,135,8|0,0:0|0:0,0:0:0:0:
280,48,32466,1,2,0:0:0:0:
220,180,32643,1,0,0:0:0:0:
360,104,32819,1,0,0:0:0:0:
140,124,32996,1,8,0:0:0:0:
300,236,33172,5,0,0:0:0:0:
280,48,33349,1,2,0:0:0:0:
220,180,33525,1,8,0:0:0:0:
445,222,33701,1,0,0:0:0:0:
368,6,33878,1,2,0:0:0:0:
299,236,34054,1,0,1:0:0:0:
259,268,34143,1,0,1:0:0:0:
208,275,34231,1,0,1:0:0:0:
160,255,34319,1,0,1:0:0:0:
130,213,34407,1,0,1:0:0:0:
126,161,34496,1,0,1:0:0:0:
148,115,34584,6,0,P|237:124|326:116,1,180,6|8,0:0|0:0,0:0:0:0:
299,236,35113,1,0,0:0:0:0:
299,236,35201,1,0,0:0:0:0:
299,236,35290,1,2,0:0:0:0:
488,264,35466,1,2,0:0:0:0:
424,152,35643,1,8,0:0:0:0:
328,348,35819,6,0,B|284:352|284:352|241:333,1,90,0|2,0:0|0:0,0:0:0:0:
295,191,36172,1,0,0:0:0:0:
295,191,36260,1,0,0:0:0:0:
295,191,36349,2,0,L|298:235,1,45,8|0,0:0|0:0,0:0:0:0:
136,312,36525,2,0,L|132:267,1,45,0|0,0:0|0:0,0:0:0:0:
125,177,36701,1,2,0:0:0:0:
195,36,36878,1,2,0:0:0:0:
207,218,37054,1,8,0:0:0:0:
44,137,37231,1,0,0:0:0:0:
252,140,37407,6,0,B|300:116|360:120|360:120|328:112|306:78,1,180,2|8,0:0|0:0,0:0:0:0:
464,159,37937,2,0,P|453:179|440:198,1,45,0|0,0:0|0:0,0:0:0:0:
288,268,38113,1,2,0:0:0:0:
452,348,38290,1,2,0:0:0:0:
352,168,38466,1,8,0:0:0:0:
246,344,38643,1,0,0:0:0:0:
448,247,38819,6,0,L|463:158,1,90,2|0,0:0|0:0,0:0:0:0:
396,48,39172,1,8,0:0:0:0:
264,161,39349,2,0,P|307:172|351:167,1,90,0|2,0:0|0:0,0:0:0:0:
196,73,39701,1,2,0:0:0:0:
177,258,39878,1,8,0:0:0:0:
75,153,40054,1,0,0:0:0:0:
114,336,40231,6,0,P|153:314|194:296,1,90,6|0,0:0|0:0,0:0:0:0:
264,161,40584,1,8,0:0:0:0:
360,256,40760,1,0,0:0:0:0:
360,256,40849,1,0,0:0:0:0:
360,256,40937,1,2,0:0:0:0:
194,296,41113,1,2,0:0:0:0:
360,160,41290,1,8,0:0:0:0:
208,56,41466,1,0,0:0:0:0:
204,216,41643,6,0,B|144:204|144:204|92:228|92:228|28:212,2,180,2|8|2,0:0|0:0|0:0,0:0:0:0:
84,136,42525,1,2,0:0:0:0:
156,292,42701,1,8,0:0:0:0:
260,124,42878,1,0,0:0:0:0:
32,213,43054,6,0,P|75:224|119:218,1,90,2|0,0:0|0:0,0:0:0:0:
336,88,43407,2,0,P|285:45|220:50,1,135,8|0,0:0|0:0,0:0:0:0:
200,64,43760,2,0,L|211:153,1,90,2|2,0:0|0:0,0:0:0:0:
130,308,44113,2,0,L|118:218,1,90,8|0,0:0|0:0,0:0:0:0:
296,216,44466,5,2,0:0:0:0:
96,136,44643,1,2,0:0:0:0:
336,88,44819,1,8,0:0:0:0:
220,204,44996,1,0,1:0:0:0:
219,226,45084,1,0,1:0:0:0:
224,248,45172,2,0,L|268:256,1,45,8|0,0:0|0:0,0:0:0:0:
344,348,45349,2,0,L|388:339,1,45,8|0,0:0|0:0,0:0:0:0:
464,240,45525,1,8,0:0:0:0:
356,60,45701,1,4,0:3:0:0:
356,60,45790,1,4,0:3:0:0:
356,60,45878,6,0,B|320:120|372:132|347:190,1,135.000005149842,6|0,0:0|0:0,0:0:0:0:
156,324,46584,2,0,B|192:264|140:252|164:193,1,135.000005149842,0|0,3:0|0:0,0:0:0:0:
92,88,47113,1,2,0:0:0:0:
92,88,47290,6,0,P|160:92|227:85,1,135.000005149842,4|0,3:0|0:0,0:0:0:0:
420,296,47996,2,0,P|352:292|285:299,1,135.000005149842,0|0,3:0|0:0,0:0:0:0:
156,324,48525,1,0,0:0:0:0:
76,222,48701,6,0,L|91:87,2,135.000005149842,4|0|0,3:0|0:0|3:0,0:0:0:0:
300,228,49760,2,0,P|266:232|233:239,1,67.5000025749208,0|2,3:0|0:0,0:0:0:0:
156,324,50113,5,4,3:0:0:0:
360,348,50466,1,0,3:0:0:0:
135,321,50819,5,0,3:0:0:0:
380,350,51172,1,8,3:0:0:0:
400,352,51260,1,0,0:0:0:0:
420,354,51349,1,0,0:0:0:0:
492,232,51525,6,0,L|485:142,1,90,12|0,0:0|0:0,0:0:0:0:
316,120,51878,2,0,L|309:209,1,90,8|0,0:0|0:0,0:0:0:0:
395,79,52231,2,0,P|366:46|324:31,1,90,8|0,0:0|0:0,0:0:0:0:
229,249,52584,2,0,P|258:282|300:297,1,90,8|0,0:0|0:0,0:0:0:0:
160,116,52937,6,0,L|70:126,1,90,8|0,0:0|0:0,0:0:0:0:
309,209,53290,2,0,L|398:198,1,90,8|0,0:0|0:0,0:0:0:0:
136,208,53643,2,0,L|46:218,1,90,8|0,0:0|0:0,0:0:0:0:
333,117,53996,2,0,L|422:106,1,90,8|0,0:0|0:0,0:0:0:0:
300,297,54349,5,8,0:0:0:0:
216,152,54525,1,0,0:0:0:0:
398,198,54701,1,8,0:0:0:0:
200,336,54878,1,0,0:0:0:0:
316,190,55054,1,8,0:0:0:0:
383,364,55231,1,0,0:0:0:0:
300,297,55407,1,8,0:0:0:0:
480,206,55584,1,0,0:0:0:0:
312,96,55760,5,8,0:0:0:0:
312,96,56113,1,8,0:0:0:0:
180,120,56290,1,0,0:0:0:0:
344,208,56466,1,8,0:0:0:0:
148,232,56643,1,0,0:0:0:0:
376,320,56819,1,8,0:0:0:0:
116,344,56996,1,0,0:0:0:0:
343,208,57172,5,10,0:0:0:0:
360,166,57260,1,2,0:0:0:0:
351,123,57349,1,2,0:0:0:0:
319,92,57437,1,2,0:0:0:0:
275,84,57525,2,0,P|252:87|232:97,1,45,2|2,0:0|0:0,0:0:0:0:
100,276,57701,5,10,0:0:0:0:
152,293,57790,1,2,0:0:0:0:
208,287,57878,1,2,0:0:0:0:
255,258,57966,1,2,0:0:0:0:
286,211,58054,2,0,L|279:166,1,45,2|2,0:0|0:0,0:0:0:0:
144,52,58231,6,0,L|130:118,1,67.5000025749208,8|8,0:0|0:0,0:0:0:0:
99,276,58407,6,0,P|46:130|178:211,1,405.000015449525,4|0,0:0|0:0,0:0:0:0:
158,191,59996,5,6,0:0:0:0:
304,107,60172,1,8,0:0:0:0:
304,276,60349,1,0,0:0:0:0:
207,107,60525,5,2,0:0:0:0:
207,276,60701,1,8,0:0:0:0:
353,192,60878,1,0,0:0:0:0:
134,191,61054,5,2,0:0:0:0:
316,297,61231,1,8,0:0:0:0:
316,86,61407,1,0,0:0:0:0:
195,297,61584,5,2,0:0:0:0:
195,86,61760,1,8,0:0:0:0:
377,192,61937,1,0,0:0:0:0:
133,191,62113,6,0,P|80:186|30:165,1,107.999996704102,8|0,0:0|0:0,0:0:0:0:
316,86,62466,2,0,P|365:64|419:60,1,107.999996704102,8|0,0:0|0:0,0:0:0:0:
492,334,62819,6,0,P|393:364|315:296,1,215.999993408203,6|8,0:0|0:0,0:0:0:0:
452,140,63349,1,0,0:0:0:0:
452,140,63437,1,0,0:0:0:0:
452,140,63525,2,0,L|459:247,1,107.999996704102,2|2,0:0|0:0,0:0:0:0:
256,192,63878,1,8,0:0:0:0:
418,59,64054,1,0,0:0:0:0:
229,3,64231,6,0,L|221:110,1,107.999996704102,6|0,0:0|0:0,0:0:0:0:
459,247,64584,2,0,L|452:140,1,107.999996704102,8|0,0:0|0:0,0:0:0:0:
304,276,64937,1,2,0:0:0:0:
221,110,65113,1,0,0:0:0:0:
221,110,65201,1,0,0:0:0:0:
221,110,65290,2,0,L|167:106,1,53.9999983520508,8|0,0:0|0:0,0:0:0:0:
84,272,65466,2,0,L|137:268,1,53.9999983520508,0|0,0:0|0:0,0:0:0:0:
328,318,65643,5,6,0:0:0:0:
328,64,65819,1,8,0:0:0:0:
109,190,65996,1,0,0:0:0:0:
401,192,66172,5,2,0:0:0:0:
182,318,66349,1,8,0:0:0:0:
182,64,66525,1,0,0:0:0:0:
340,339,66701,5,2,0:0:0:0:
84,190,66878,1,8,0:0:0:0:
340,43,67054,1,0,0:0:0:0:
171,340,67231,5,2,0:0:0:0:
427,193,67407,1,8,0:0:0:0:
171,44,67584,1,0,0:0:0:0:
339,338,67760,6,0,P|391:354|445:351,1,107.999996704102,8|0,0:0|0:0,0:0:0:0:
188,203,68113,2,0,P|136:187|82:190,1,107.999996704102,8|0,0:0|0:0,0:0:0:0:
408,228,68466,6,0,B|440:136|440:136|421:70|360:56,1,215.999993408203,6|8,0:0|0:0,0:0:0:0:
256,272,68996,1,0,0:0:0:0:
256,272,69084,1,0,0:0:0:0:
256,272,69172,1,2,0:0:0:0:
83,189,69349,1,2,0:0:0:0:
348,140,69525,1,8,0:0:0:0:
176,324,69701,2,0,P|166:299|164:272,1,53.9999983520508,0|0,0:0|0:0,0:0:0:0:
189,174,69878,6,0,P|136:186|83:189,1,107.999996704102,6|0,0:0|0:0,0:0:0:0:
160,24,70231,2,0,P|213:25|266:38,1,107.999996704102,8|0,0:0|0:0,0:0:0:0:
164,272,70584,1,2,0:0:0:0:
383,360,70760,1,0,1:0:0:0:
427,328,70849,1,8,1:2:0:0:
446,279,70937,1,8,1:2:0:0:
434,227,71025,1,0,1:0:0:0:
395,190,71113,1,0,1:0:0:0:
343,180,71201,1,0,1:0:0:0:
293,201,71290,6,0,P|193:232|102:181,1,215.999993408203,6|8,0:0|0:0,0:0:0:0:
172,32,71819,1,0,0:0:0:0:
176,44,71907,1,0,0:0:0:0:
175,55,71996,2,0,P|176:82|171:109,1,53.9999983520508,2|0,0:0|0:0,0:0:0:0:
24,204,72172,2,0,P|23:177|28:150,1,53.9999983520508,2|0,0:0|0:0,0:0:0:0:
16,40,72349,1,8,0:0:0:0:
196,232,72525,1,0,0:0:0:0:
307,72,72701,6,0,P|360:59|414:61,1,107.999996704102,6|0,0:0|0:0,0:0:0:0:
396,289,73054,2,0,L|372:184,1,107.999996704102,8|0,0:0|0:0,0:0:0:0:
372,184,73319,1,0,0:0:0:0:
372,184,73407,1,2,0:0:0:0:
484,228,73584,1,2,0:0:0:0:
272,212,73760,1,8,0:0:0:0:
414,61,73937,1,0,0:0:0:0:
396,289,74113,6,0,B|361:144|361:144|364:184|352:211,1,215.999993408203,6|8,0:0|0:0,0:0:0:0:
88,280,74643,1,0,0:0:0:0:
100,284,74731,1,0,0:0:0:0:
112,284,74819,2,0,L|165:275,1,53.9999983520508,2|0,0:0|0:0,0:0:0:0:
272,156,74996,2,0,L|218:147,1,53.9999983520508,2|0,0:0|0:0,0:0:0:0:
88,136,75172,1,8,0:0:0:0:
256,272,75349,1,0,0:0:0:0:
230,40,75525,6,0,L|218:147,1,107.999996704102,6|0,0:0|0:0,0:0:0:0:
362,314,75878,2,0,P|367:260|352:209,1,107.999996704102,8|0,0:0|0:0,0:0:0:0:
352,209,76143,1,0,0:0:0:0:
352,209,76231,1,2,0:0:0:0:
196,356,76407,1,2,0:0:0:0:
56,188,76584,2,0,L|163:199,1,107.999996704102,8|0,0:0|0:0,0:0:0:0:
392,300,76937,6,0,B|356:316|319:308|319:308|271:352|271:352|240:344|195:355,1,215.999993408203,6|8,0:0|0:0,0:0:0:0:
344,232,77466,1,0,0:0:0:0:
163,199,77643,2,0,P|156:172|153:145,1,53.9999983520508,2|0,0:0|0:0,0:0:0:0:
240,92,77819,2,0,P|253:68|270:47,1,53.9999983520508,2|0,0:0|0:0,0:0:0:0:
369,70,77996,2,0,P|449:57|504:116,1,161.999995056153,8|0,0:0|0:0,0:0:0:0:
503,184,78349,6,0,P|450:188|397:200,1,107.999996704102,6|0,0:0|0:0,0:0:0:0:
168,268,78701,1,8,0:0:0:0:
336,340,78878,1,0,0:0:0:0:
315,159,79054,2,0,L|319:51,1,107.999996704102,2|2,0:0|0:0,0:0:0:0:
123,204,79407,2,0,P|91:274|133:339,1,161.999995056153,8|0,0:0|0:0,0:0:0:0:
168,348,79760,5,14,0:0:0:0:
344,256,79937,1,0,0:0:0:0:
344,256,80113,1,2,0:0:0:0:
148,236,80290,5,14,0:0:0:0:
416,232,80466,1,0,0:0:0:0:
416,232,80643,1,2,0:0:0:0:
128,124,80819,5,14,0:0:0:0:
439,304,80996,1,0,0:0:0:0:
439,304,81172,1,2,0:0:0:0:
108,12,81349,5,14,0:0:0:0:
367,328,81525,1,0,0:0:0:0:
367,328,81701,1,2,0:0:0:0:
135,339,81878,5,12,0:0:0:0:
90,312,81966,1,8,0:0:0:0:
65,265,82054,1,8,0:0:0:0:
70,212,82143,1,8,0:0:0:0:
102,169,82231,2,0,L|156:176,1,53.9999983520508,8|8,0:0|0:0,0:0:0:0:
404,112,82407,2,0,L|350:119,1,53.9999983520508,8|8,0:0|0:0,0:0:0:0:
181,275,82584,5,6,0:0:0:0:
220,85,82760,1,8,0:0:0:0:
364,214,82937,1,0,0:0:0:0:
158,267,83113,5,2,0:0:0:0:
238,68,83290,1,8,0:0:0:0:
370,237,83466,1,0,0:0:0:0:
137,254,83643,5,2,0:0:0:0:
259,56,83819,1,8,0:0:0:0:
369,262,83996,1,0,0:0:0:0:
117,237,84172,5,2,0:0:0:0:
285,49,84349,1,8,0:0:0:0:
363,288,84525,1,0,0:0:0:0:
184,104,84701,5,8,0:0:0:0:
184,104,84790,1,0,0:0:0:0:
184,104,84878,2,0,P|176:78|176:51,1,53.9999983520508,0|0,0:0|0:0,0:0:0:0:
448,92,85054,1,8,0:0:0:0:
448,92,85143,1,0,0:0:0:0:
448,92,85231,2,0,P|455:117|455:144,1,53.9999983520508,0|0,0:0|0:0,0:0:0:0:
255,252,85407,6,0,P|149:238|41:246,1,215.999993408203,6|8,0:0|0:0,0:0:0:0:
184,104,85937,1,0,0:0:0:0:
287,360,86113,2,0,P|332:331|363:287,1,107.999996704102,2|2,0:0|0:0,0:0:0:0:
283,62,86466,2,0,L|290:169,1,107.999996704102,8|0,0:0|0:0,0:0:0:0:
448,336,86819,5,2,0:0:0:0:
416,144,86996,1,0,0:0:0:0:
255,252,87172,2,0,B|199:248|199:248|155:219,1,107.999996704102,8|0,0:0|0:0,0:0:0:0:
16,24,87525,1,2,0:0:0:0:
166,101,87701,1,2,0:0:0:0:
193,101,87790,1,2,0:0:0:0:
220,97,87878,1,10,0:0:0:0:
246,89,87966,1,2,0:0:0:0:
270,78,88054,1,2,0:0:0:0:
293,63,88143,1,2,0:0:0:0:
313,45,88231,5,6,0:0:0:0:
352,313,88407,1,8,0:0:0:0:
99,214,88584,1,0,0:0:0:0:
344,48,88760,5,2,0:0:0:0:
335,338,88937,1,8,0:0:0:0:
87,186,89113,1,0,0:0:0:0:
374,57,89290,5,2,0:0:0:0:
312,360,89466,1,8,0:0:0:0:
80,154,89643,1,0,0:0:0:0:
405,73,89819,5,2,0:0:0:0:
283,379,89996,1,8,0:0:0:0:
77,120,90172,1,0,0:0:0:0:
352,313,90349,5,8,0:0:0:0:
352,313,90437,1,0,0:0:0:0:
352,313,90525,2,0,P|378:316|405:317,1,53.9999983520508,0|0,0:0|0:0,0:0:0:0:
99,214,90701,1,8,0:0:0:0:
99,214,90790,1,0,0:0:0:0:
99,214,90878,2,0,P|72:210|45:209,1,53.9999983520508,0|0,0:0|0:0,0:0:0:0:
256,360,91054,6,0,B|268:304|268:304|244:264|244:264|264:200|264:200|276:243,1,215.999993408203,6|8,0:0|0:0,0:0:0:0:
376,152,91584,1,0,0:0:0:0:
192,320,91760,2,0,B|168:272|168:272|181:219,1,107.999996704102,2|2,0:0|0:0,0:0:0:0:
405,317,92113,1,8,0:0:0:0:
176,88,92290,1,0,0:0:0:0:
394,45,92466,5,2,0:0:0:0:
389,71,92554,1,0,0:0:0:0:
384,98,92643,1,8,0:0:0:0:
380,124,92731,1,0,0:0:0:0:
376,152,92819,2,0,L|324:166,1,53.9999983520508,2|0,0:0|0:0,0:0:0:0:
176,88,92996,2,0,L|227:73,1,53.9999983520508,2|0,0:0|0:0,0:0:0:0:
408,244,93172,5,0,1:0:0:0:
363,273,93260,1,0,1:0:0:0:
310,279,93349,1,0,1:0:0:0:
259,262,93437,1,0,1:0:0:0:
222,223,93525,1,8,1:2:0:0:
185,184,93613,1,0,1:0:0:0:
134,167,93701,1,0,1:0:0:0:
81,173,93790,1,8,1:2:0:0:
36,203,93878,6,0,P|13:251|7:304,1,107.999996704102,6|0,0:0|0:0,0:0:0:0:
204,144,94231,2,0,P|198:90|175:42,1,107.999996704102,8|0,0:0|0:0,0:0:0:0:
288,236,94584,1,2,0:0:0:0:
81,173,94760,1,2,0:0:0:0:
320,128,94937,1,8,0:0:0:0:
152,296,95113,1,0,0:0:0:0:
181,92,95290,6,0,P|182:66|176:40,2,53.9999983520508,6|0|0,0:0|0:0|0:0,0:0:0:0:
60,264,95643,1,8,0:0:0:0:
244,168,95819,1,0,0:0:0:0:
235,375,95996,1,2,0:0:0:0:
128,160,96172,1,2,0:0:0:0:
312,64,96349,1,8,0:0:0:0:
303,271,96525,1,0,0:0:0:0:
195,55,96701,6,0,P|143:45|89:42,1,107.999996704102,6|0,0:0|0:0,0:0:0:0:
356,168,97054,2,0,P|409:165|462:155,1,107.999996704102,8|0,0:0|0:0,0:0:0:0:
312,64,97407,1,2,0:0:0:0:
303,271,97584,1,2,0:0:0:0:
196,196,97760,1,8,0:0:0:0:
424,292,97937,1,0,0:0:0:0:
185,327,98113,6,0,L|125:315,2,53.9999983520508,6|0|0,0:0|0:0|0:0,0:0:0:0:
274,102,98466,2,0,P|283:155|281:208,1,107.999996704102,8|0,0:0|0:0,0:0:0:0:
281,208,98731,1,8,0:0:0:0:
281,208,98819,5,8,0:0:0:0:
176,224,98996,1,0,0:0:0:0:
70,239,99172,1,2,0:0:0:0:
155,304,99349,1,0,0:0:0:0:
241,368,99525,5,4,0:0:0:0:
241,368,100760,2,0,L|235:314,1,53.9999983520508,4|4,0:3|0:3,0:0:0:0:
246,207,100937,6,0,P|235:314|323:251,1,270.000010299683,12|0,0:0|0:0,0:0:0:0:
172,64,102172,1,8,0:0:0:0:
136,72,102260,1,8,0:0:0:0:
100,80,102349,6,0,L|92:124,1,45,12|0,0:0|0:0,0:0:0:0:
180,256,102525,1,2,0:0:0:0:
292,98,102701,1,0,0:0:0:0:
84,212,102878,6,0,P|61:209|40:201,1,45,8|0,0:0|0:0,0:0:0:0:
264,176,103054,1,2,0:0:0:0:
112,352,103231,1,0,0:0:0:0:
192,120,103407,6,0,L|196:76,1,45,8|0,0:0|0:0,0:0:0:0:
360,196,103584,1,2,0:0:0:0:
92,124,103760,1,0,0:0:0:0:
319,48,103937,6,0,P|341:42|364:39,1,45,8|0,0:0|0:0,0:0:0:0:
488,160,104113,1,2,0:0:0:0:
256,232,104290,1,0,0:0:0:0:
408,112,104466,6,0,L|401:156,1,45,8|0,0:0|0:0,0:0:0:0:
320,344,104643,2,0,L|292:304,1,45
156,192,104819,5,8,0:0:0:0:
179,154,104907,1,4,0:3:0:0:
216,129,104996,1,4,0:3:0:0:
260,123,105084,1,4,0:3:0:0:
302,136,105172,6,0,P|323:145|343:156,1,45,12|0,0:0|0:0,0:0:0:0:
472,264,105349,1,2,0:0:0:0:
332,32,105525,1,0,0:0:0:0:
312,266,105701,6,0,P|304:286|292:306,1,45,8|0,0:0|0:0,0:0:0:0:
432,112,105878,1,2,0:0:0:0:
156,192,106054,1,0,0:0:0:0:
392,296,106231,6,0,P|395:273|395:251,1,45,8|0,0:0|0:0,0:0:0:0:
184,92,106407,1,2,0:0:0:0:
160,324,106584,1,0,0:0:0:0:
336,160,106760,6,0,L|291:167,1,45,8|0,0:0|0:0,0:0:0:0:
56,152,106937,1,2,0:0:0:0:
291,306,107113,1,0,0:0:0:0:
80,360,107290,5,8,0:0:0:0:
75,304,107378,1,0,0:0:0:0:
105,258,107466,1,0,0:0:0:0:
157,239,107554,1,0,0:0:0:0:
210,255,107643,5,8,0:0:0:0:
204,199,107731,1,0,0:0:0:0:
197,143,107819,1,0,0:0:0:0:
191,87,107907,1,0,0:0:0:0:
185,31,107996,6,0,L|227:15,1,45,12|0,0:0|0:0,0:0:0:0:
340,124,108172,1,2,0:0:0:0:
80,68,108349,1,0,0:0:0:0:
210,255,108525,6,0,L|219:210,1,45,8|0,0:0|0:0,0:0:0:0:
184,32,108701,1,2,0:0:0:0:
336,236,108878,1,0,0:0:0:0:
104,188,109054,6,0,L|61:172,1,45,8|0,0:0|0:0,0:0:0:0:
284,72,109231,1,2,0:0:0:0:
132,292,109407,1,0,0:0:0:0:
330,191,109584,6,0,L|335:235,1,45,8|0,0:0|0:0,0:0:0:0:
256,356,109760,1,2,0:0:0:0:
40,284,109937,1,0,0:0:0:0:
232,256,110113,6,0,P|235:233|237:211,1,45,8|0,0:0|0:0,0:0:0:0:
56,127,110290,2,0,P|58:149|61:171,1,45,0|0,0:0|0:0,0:0:0:0:
192,36,110466,5,8,0:0:0:0:
247,43,110554,1,4,0:3:0:0:
303,51,110643,1,4,0:3:0:0:
359,59,110731,1,4,0:3:0:0:
414,66,110819,6,0,L|418:110,1,45,4|0,0:0|0:0,0:0:0:0:
432,244,110996,1,8,0:0:0:0:
432,244,111084,1,8,0:0:0:0:
432,244,111172,2,0,L|427:199,1,45,8|0,0:0|0:0,0:0:0:0:
303,51,111349,6,0,L|307:95,1,45,2|0,0:0|0:0,0:0:0:0:
332,319,111525,1,8,0:0:0:0:
332,319,111613,1,8,0:0:0:0:
332,319,111701,2,0,L|327:274,1,45,8|0,0:0|0:0,0:0:0:0:
196,80,111878,5,8,0:0:0:0:
162,50,111966,1,0,0:0:0:0:
118,41,112054,1,0,0:0:0:0:
76,54,112143,1,0,0:0:0:0:
45,87,112231,1,0,0:0:0:0:
35,130,112319,1,0,0:0:0:0:
47,172,112407,1,2,0:0:0:0:
84,197,112496,1,2,0:0:0:0:
116,229,112584,1,2,0:0:0:0:
142,265,112672,1,2,0:0:0:0:
161,307,112760,1,2,0:0:0:0:
188,273,112849,1,2,0:0:0:0:
224,246,112937,1,10,0:0:0:0:
264,226,113025,1,2,0:0:0:0:
308,214,113113,1,2,0:0:0:0:
333,177,113201,1,2,0:0:0:0:
336,133,113290,1,10,0:0:0:0:
317,93,113378,1,10,0:0:0:0:
282,67,113466,1,10,0:0:0:0:
237,62,113554,1,10,0:0:0:0:
196,80,113643,1,6,0:0:0:0:
256,192,113819,12,0,118937,0:0:0:0:
