osu file format v14

[General]
AudioFilename: audio.mp3
AudioLeadIn: 0
PreviewTime: 61111
Countdown: 0
SampleSet: None
StackLeniency: 0.5
Mode: 0
LetterboxInBreaks: 0
WidescreenStoryboard: 1

[Editor]
DistanceSpacing: 1.2
BeatDivisor: 4
GridSize: 32
TimelineZoom: 3.199999

[Metadata]
Title:Re:birth day
TitleUnicode:Re:birth day
Artist:Roselia
ArtistUnicode:Roselia
Creator:Epixyl
Version:Insane
Source:バンドリ! ガールズバンドパーティ!
Tags:bang dream girl's band party re:birthday re birth birthday single game story oda asuka elements garden fujinaga ryutaro anfang minato yukina hikawa sayo udagawa ako shirokane rinko imai lisa bandori bushiroad craft egg japanese lyrical mcwc2307
BeatmapID:1992738
BeatmapSetID:929374

[Difficulty]
HPDrainRate:6
CircleSize:3.5
OverallDifficulty:8
ApproachRate:9
SliderMultiplier:1.5
SliderTickRate:1

[Events]
//Background and Video events
0,0,"bg.jpg",0,0
//Break Periods
2,11369,19305
//Storyboard Layer 0 (Background)
//Storyboard Layer 1 (Fail)
//Storyboard Layer 2 (Pass)
//Storyboard Layer 3 (Foreground)
//Storyboard Sound Samples

[TimingPoints]
2876,352.941176470588,4,3,0,5,1,0
8170,-100,4,3,0,80,0,0
24405,-66.6666666666667,4,3,0,5,0,0
24758,-66.6666666666667,4,3,0,90,0,0
25111,-52.6315789473684,4,3,0,80,0,0
25375,-57.1428571428571,4,3,0,5,0,0
25464,-71.4285714285714,4,3,0,60,0,0
36758,-71.4285714285714,4,3,0,70,0,0
48052,-200,4,2,0,40,0,0
53699,-100,4,3,0,40,0,0
55111,-100,4,3,0,50,0,0
56523,-100,4,3,0,60,0,0
57493,-100,4,3,0,5,0,0
57581,-100,4,3,0,60,0,0
58023,-100,4,3,0,5,0,0
58111,-100,4,3,0,70,0,0
58552,-100,4,3,0,5,0,0
58640,-100,4,3,0,70,0,0
59346,-100,4,3,0,80,0,0
60934,-100,4,3,0,5,0,0
61111,-200,4,2,0,50,0,0
62170,-66.6666666666667,4,3,0,100,0,1
73464,-66.6666666666667,4,3,0,100,0,1
84758,-66.6666666666667,4,3,0,80,0,0
96052,-66.6666666666667,4,3,0,90,0,0
101699,-133.333333333333,4,3,0,80,0,0
104523,-66.6666666666667,4,3,0,100,0,0
115817,-100,4,3,0,40,0,0
121111,-100,4,3,0,5,0,0

[Colours]
Combo1 : 255,60,157
Combo2 : 181,106,255
Combo3 : 0,240,240
Combo4 : 66,66,255

[HitObjects]
256,192,2876,12,0,7818,0:0:0:0:
15,91,8170,5,0,0:0:0:0:
64,109,8258,1,0,0:0:0:0:
96,149,8346,1,0,0:0:0:0:
109,199,8434,1,0,0:0:0:0:
40,369,8523,5,4,0:0:0:0:
40,369,8699,2,0,L|142:362,1,75
184,289,9052,5,4,0:0:0:0:
184,289,9228,2,0,L|83:281,1,75
39,209,9581,5,4,0:0:0:0:
39,209,9757,2,0,L|140:200,1,75
183,129,10110,5,4,0:0:0:0:
183,129,10286,2,0,L|82:120,1,75
36,50,10640,5,4,0:0:0:0:
124,30,10817,1,0,0:0:0:0:
210,48,10993,2,0,P|247:56|284:52,1,75,4|0,0:0|0:0,0:0:0:0:
256,192,19905,12,0,24405,0:0:0:0:
234,106,24758,5,0,0:0:0:0:
234,106,24846,1,0,0:0:0:0:
234,106,24934,1,0,0:0:0:0:
234,106,25023,1,0,0:0:0:0:
234,106,25111,2,0,B|208:257|208:257|175:185,1,213.749994292259
150,112,25464,6,0,P|101:99|50:112,1,104.999996795654,4|0,0:0|0:0,0:0:0:0:
299,222,25817,2,0,P|348:235|399:222,1,104.999996795654,8|0,0:0|0:0,0:0:0:0:
107,246,26170,1,4,0:0:0:0:
234,106,26346,6,0,P|283:93|334:106,1,104.999996795654,4|0,0:0|0:0,0:0:0:0:
107,246,26699,2,0,P|58:259|7:246,1,104.999996795654,8|0,0:0|0:0,0:0:0:0:
217,285,27052,1,4,0:0:0:0:
133,116,27228,2,0,P|141:64|174:25,1,104.999996795654,8|0,0:0|0:0,0:0:0:0:
358,70,27581,5,4,0:0:0:0:
209,188,27758,1,4,0:0:0:0:
384,257,27934,2,0,P|418:217|431:164,1,104.999996795654,8|0,0:0|0:0,0:0:0:0:
185,72,28287,6,0,P|105:131|102:238,1,209.999993591309,4|8,0:0|0:0,0:0:0:0:
256,343,28817,1,0,0:0:0:0:
262,154,28993,1,4,0:0:0:0:
150,307,29170,6,0,P|100:322|50:307,1,104.999996795654,4|0,0:0|0:0,0:0:0:0:
262,154,29523,2,0,P|311:139|361:154,1,104.999996795654,8|0,0:0|0:0,0:0:0:0:
100,234,29875,1,4,0:0:0:0:
112,44,30052,1,4,0:0:0:0:
262,154,30228,1,0,0:0:0:0:
72,166,30405,1,4,0:0:0:0:
209,37,30581,2,0,P|259:24|310:36,1,104.999996795654,4|8,0:0|0:0,0:0:0:0:
80,173,30934,5,0,0:0:0:0:
80,173,31023,1,0,0:0:0:0:
79,173,31111,2,0,P|112:268|209:296,2,209.999993591309,4|8|4,0:0|0:0|0:0,0:0:0:0:
204,30,31993,2,0,P|255:17|306:29,1,104.999996795654,4|0,0:0|0:0,0:0:0:0:
391,197,32346,2,0,P|340:209|289:197,1,104.999996795654,8|0,0:0|0:0,0:0:0:0:
127,98,32699,1,4,0:0:0:0:
70,276,32875,2,0,P|111:245|163:238,1,104.999996795654,8|0,0:0|0:0,0:0:0:0:
341,303,33228,5,4,0:0:0:0:
153,336,33405,1,4,0:0:0:0:
301,219,33581,2,0,P|352:212|400:232,1,104.999996795654,8|0,0:0|0:0,0:0:0:0:
509,357,33934,6,0,P|412:393|314:361,2,209.999993591309,4|8|4,0:0|0:0|0:0,0:0:0:0:
358,234,34817,2,0,P|309:218|260:235,1,104.999996795654,4|0,0:0|0:0,0:0:0:0:
100,337,35170,2,0,P|150:354|199:337,1,104.999996795654,8|0,0:0|0:0,0:0:0:0:
358,234,35523,1,4,0:0:0:0:
189,147,35699,2,0,P|146:119|123:72,1,104.999996795654,8|0,0:0|0:0,0:0:0:0:
197,337,36052,1,4,0:0:0:0:
289,137,36228,5,0,0:0:0:0:
317,122,36317,1,0,0:0:0:0:
348,117,36405,1,8,0:0:0:0:
379,121,36493,1,0,0:0:0:0:
408,133,36581,1,0,0:0:0:0:
430,155,36670,1,0,0:0:0:0:
446,181,36758,5,4,0:2:0:0:
379,368,36934,1,4,0:0:0:0:
253,212,37111,2,0,P|213:179|161:174,1,104.999996795654,8|0,0:0|0:0,0:0:0:0:
382,235,37464,5,4,0:0:0:0:
258,84,37640,1,0,0:0:0:0:
180,268,37817,2,0,P|218:301|269:307,1,104.999996795654,8|0,0:0|0:0,0:0:0:0:
346,121,38170,5,4,0:0:0:0:
153,69,38346,1,4,0:0:0:0:
180,268,38523,1,8,0:0:0:0:
258,84,38699,1,0,0:0:0:0:
59,102,38875,2,0,P|87:145|134:167,1,104.999996795654,4|0,0:0|0:0,0:0:0:0:
333,149,39228,2,0,P|304:105|257:83,1,104.999996795654,8|0,0:0|0:0,0:0:0:0:
59,102,39581,5,4,0:2:0:0:
250,44,39758,1,4,0:0:0:0:
133,217,39934,1,8,0:0:0:0:
327,262,40111,1,0,0:0:0:0:
327,262,40199,1,0,0:0:0:0:
327,261,40287,2,0,P|333:210|306:167,1,104.999996795654,4|0,0:0|0:0,0:0:0:0:
112,122,40640,2,0,P|105:173|132:216,1,104.999996795654,8|0,0:0|0:0,0:0:0:0:
327,262,40993,5,4,0:0:0:0:
214,96,41170,1,0,0:0:0:0:
412,85,41346,2,0,P|430:133|416:182,1,104.999996795654,8|0,0:0|0:0,0:0:0:0:
218,216,41699,5,4,0:0:0:0:
287,17,41876,1,0,0:0:0:0:
415,182,42052,2,0,P|411:233|377:272,1,104.999996795654,8|0,0:0|0:0,0:0:0:0:
164,305,42405,5,4,0:2:0:0:
348,384,42581,1,4,0:0:0:0:
312,186,42758,2,0,P|279:141|234:119,1,104.999996795654,8|0,0:0|0:0,0:0:0:0:
36,136,43111,5,4,0:0:0:0:
219,213,43287,1,0,0:0:0:0:
196,17,43464,2,0,P|144:15|97:34,1,104.999996795654,8|0,0:0|0:0,0:0:0:0:
24,254,43817,5,4,0:0:0:0:
164,112,43993,1,4,0:0:0:0:
326,228,44170,1,8,0:0:0:0:
234,52,44346,1,0,0:0:0:0:
112,206,44523,2,0,P|74:242|21:253,1,104.999996795654,4|0,0:0|0:0,0:0:0:0:
234,52,44875,2,0,P|271:15|324:4,1,104.999996795654,8|0,0:0|0:0,0:0:0:0:
64,133,45228,5,4,0:0:0:0:
161,307,45405,1,4,0:0:0:0:
262,135,45581,2,0,P|306:108|357:100,1,104.999996795654,8|0,0:0|0:0,0:0:0:0:
161,307,45934,2,0,P|116:334|65:342,1,104.999996795654,4|0,0:0|0:0,0:0:0:0:
355,228,46287,2,0,P|399:200|450:192,1,104.999996795654,8|0,0:0|0:0,0:0:0:0:
160,177,46640,5,4,0:0:0:0:
212,375,46817,1,4,0:0:0:0:
355,228,46993,1,8,0:0:0:0:
153,283,47170,1,0,0:0:0:0:
153,283,47258,1,0,0:0:0:0:
153,282,47346,2,0,P|210:272|256:197,1,104.999996795654,8|0,0:0|0:0,0:0:0:0:
293,0,47699,1,4,0:0:0:0:
65,59,47875,1,4,0:0:0:0:
242,240,48052,6,0,P|361:287|477:234,1,262.5,4|0,0:1|0:0,0:0:0:0:
292,134,49464,2,0,P|240:120|183:137,2,112.5
367,334,50699,1,0,0:0:0:0:
150,293,50875,2,0,P|48:230|36:86,1,262.5,4|0,0:0|0:0,0:0:0:0:
247,231,52287,2,0,P|270:281|258:335,2,112.5
31,97,53523,1,0,0:0:0:0:
150,293,53699,5,4,0:0:0:0:
188,179,54052,1,4,0:0:0:0:
74,140,54405,1,4,0:0:0:0:
37,254,54758,1,4,0:0:0:0:
188,179,55111,1,4,0:0:0:0:
362,136,55464,1,4,0:0:0:0:
416,307,55817,1,4,0:0:0:0:
243,357,56170,1,4,0:0:0:0:
110,173,56523,5,4,0:0:0:0:
318,272,56875,1,4,0:0:0:0:
318,272,57052,2,0,P|391:226|384:122,1,187.5
205,241,57581,2,0,P|207:328|301:373,1,187.5
283,159,58111,2,0,P|207:118|120:176,1,187.5
318,272,58640,1,0,0:0:0:0:
318,272,58993,1,4,0:0:0:0:
261,51,59170,1,0,0:0:0:0:
97,207,59346,5,4,0:0:0:0:
316,155,59523,1,0,0:0:0:0:
356,145,59611,1,0,0:0:0:0:
395,135,59699,1,0,0:0:0:0:
435,125,59787,1,0,0:0:0:0:
475,116,59875,1,4,0:0:0:0:
245,39,60052,5,0,0:0:0:0:
205,51,60140,1,0,0:0:0:0:
166,64,60228,1,0,0:0:0:0:
125,75,60317,1,0,0:0:0:0:
87,90,60405,1,4,0:0:0:0:
47,102,60493,1,4,0:0:0:0:
7,114,60581,2,0,B|57:171|53:233|53:233|97:198,1,187.5,4|0,0:0|0:0,0:0:0:0:
190,129,61111,6,0,P|222:146|270:157,2,75
57,47,62170,5,6,0:1:0:0:
13,286,62346,2,0,P|51:250|80:172,1,112.500004291535,4|0,0:0|0:0,0:0:0:0:
57,47,62699,5,4,0:0:0:0:
59,293,62875,2,0,P|90:250|105:169,1,112.500004291535,4|0,0:0|0:0,0:0:0:0:
57,47,63228,5,4,0:0:0:0:
101,288,63404,2,0,P|124:241|124:157,1,112.500004291535,4|0,0:0|0:0,0:0:0:0:
57,47,63758,5,4,0:0:0:0:
143,277,63934,2,0,P|157:226|144:144,1,112.500004291535,4|0,0:0|0:0,0:0:0:0:
57,47,64287,6,0,P|34:97|42:152,1,112.500004291535,8|0,0:0|0:0,0:0:0:0:
172,336,64640,2,0,P|195:285|187:230,1,112.500004291535,4|0,0:0|0:0,0:0:0:0:
57,47,64993,5,4,0:0:0:0:
273,111,65170,1,4,0:0:0:0:
112,267,65346,1,4,0:0:0:0:
171,49,65523,1,4,0:0:0:0:
342,193,65699,2,0,P|296:237|238:261,1,112.500004291535,12|0,0:0|0:0,0:0:0:0:
28,225,66052,1,4,0:0:0:0:
171,49,66228,1,4,0:0:0:0:
1,250,66405,5,4,0:0:0:0:
219,301,66581,1,4,0:0:0:0:
71,130,66758,1,4,0:0:0:0:
95,353,66934,1,0,0:0:0:0:
202,154,67111,2,0,P|215:95|170:26,1,112.500004291535,12|0,0:0|0:0,0:0:0:0:
25,282,67464,2,0,P|-5:338|11:405,1,112.500004291535,12|0,0:0|0:0,0:0:0:0:
202,154,67817,5,6,0:1:0:0:
447,181,67993,2,0,P|418:137|346:95,1,112.500004291535,4|0,0:0|0:0,0:0:0:0:
202,197,68346,5,4,0:0:0:0:
447,181,68522,2,0,P|410:142|332:113,1,112.500004291535,4|0,0:0|0:0,0:0:0:0:
209,240,68875,5,4,0:0:0:0:
447,181,69051,2,0,P|404:149|322:134,1,112.500004291535,4|0,0:0|0:0,0:0:0:0:
223,280,69405,5,4,0:0:0:0:
447,181,69581,2,0,P|399:157|316:157,1,112.500004291535,4|0,0:0|0:0,0:0:0:0:
216,361,69934,6,0,P|282:348|318:306,1,112.500004291535,8|0,0:0|0:0,0:0:0:0:
369,75,70287,2,0,P|303:88|267:130,1,112.500004291535,4|0,0:0|0:0,0:0:0:0:
216,361,70640,5,4,0:0:0:0:
116,158,70817,1,4,0:0:0:0:
309,256,70993,1,4,0:0:0:0:
87,296,71170,1,4,0:0:0:0:
246,138,71346,2,0,P|297:117|353:116,1,112.500004291535,12|8,0:0|0:0,0:0:0:0:
87,296,71699,1,4,0:0:0:0:
304,350,71875,1,4,0:0:0:0:
142,192,72052,5,4,0:0:0:0:
342,91,72228,1,4,0:0:0:0:
231,287,72405,1,4,0:0:0:0:
449,339,72581,1,0,0:0:0:0:
286,182,72758,5,12,0:0:0:0:
486,80,72934,1,0,0:0:0:0:
474,123,73023,1,0,0:0:0:0:
452,162,73111,1,0,0:0:0:0:
413,185,73199,1,0,0:0:0:0:
370,199,73287,1,0,0:0:0:0:
325,196,73375,1,0,0:0:0:0:
286,182,73464,6,0,P|230:173|176:186,1,112.500004291535,4|0,0:2|0:0,0:0:0:0:
372,34,73817,2,0,P|427:42|481:29,1,112.500004291535,8|0,0:0|0:0,0:0:0:0:
176,185,74170,1,4,0:0:0:0:
347,329,74346,1,4,0:0:0:0:
377,107,74523,1,8,0:0:0:0:
237,313,74699,6,0,P|290:330|346:329,1,112.500004291535,4|0,0:0|0:0,0:0:0:0:
246,126,75052,1,4,0:0:0:0:
99,296,75228,2,0,P|124:345|164:384,1,112.500004291535,8|0,0:0|0:0,0:0:0:0:
305,208,75581,1,4,0:0:0:0:
80,186,75758,1,4,0:0:0:0:
216,8,75934,2,0,P|278:5|338:36,1,112.500004291535,8|0,0:0|0:0,0:0:0:0:
108,93,76287,6,0,P|54:81|-1:92,1,112.500004291535,4|0,0:2|0:0,0:0:0:0:
305,208,76640,2,0,P|359:220|414:209,1,112.500004291535,8|0,0:0|0:0,0:0:0:0:
112,229,76993,1,4,0:0:0:0:
301,348,77169,1,4,0:0:0:0:
358,136,77346,1,8,0:0:0:0:
200,296,77522,6,0,P|156:329|101:339,1,112.500004291535,4|0,0:0|0:0,0:0:0:0:
358,136,77875,1,4,0:0:0:0:
144,205,78051,2,0,P|88:196|42:165,1,112.500004291535,8|0,0:0|0:0,0:0:0:0:
341,216,78405,1,4,0:0:0:0:
213,31,78581,1,4,0:0:0:0:
109,230,78757,2,0,P|163:241|218:230,1,112.500004291535,8|0,0:0|0:0,0:0:0:0:
440,180,79111,6,0,P|385:168|330:179,1,112.500004291535,4|0,0:0|0:0,0:0:0:0:
153,318,79464,2,0,P|98:329|43:318,1,112.500004291535,8|0,0:0|0:0,0:0:0:0:
102,100,79817,1,4,0:0:0:0:
311,180,79993,1,4,0:0:0:0:
94,243,80170,1,8,0:0:0:0:
226,62,80346,6,0,P|281:45|350:62,1,112.500004291535,4|0,0:0|0:0,0:0:0:0:
134,159,80699,1,4,0:0:0:0:
355,196,80875,2,0,P|405:222|442:283,1,112.500004291535,8|0,0:0|0:0,0:0:0:0:
248,143,81228,1,4,0:0:0:0:
237,368,81405,1,4,0:0:0:0:
436,266,81581,2,0,P|439:210|408:165,1,112.500004291535,8|0,0:0|0:0,0:0:0:0:
150,81,81934,5,10,0:0:0:0:
115,349,82111,1,4,0:0:0:0:
359,235,82287,1,4,0:0:0:0:
76,117,82464,5,8,0:0:0:0:
205,353,82640,1,4,0:0:0:0:
339,117,82817,1,4,0:0:0:0:
28,179,82993,5,10,0:0:0:0:
275,289,83170,1,4,0:0:0:0:
241,21,83346,1,4,0:0:0:0:
18,257,83523,5,8,0:0:0:0:
201,62,83699,1,4,0:0:0:0:
179,328,83875,1,8,0:0:0:0:
44,84,84052,1,4,0:0:0:0:
294,202,84228,1,8,0:0:0:0:
294,202,84317,1,0,0:0:0:0:
294,202,84405,1,4,0:0:0:0:
18,257,84581,1,4,0:0:0:0:
313,52,84758,5,6,0:1:0:0:
357,291,84934,2,0,P|319:255|290:177,1,112.500004291535,4|0,0:0|0:0,0:0:0:0:
313,52,85287,5,4,0:0:0:0:
311,298,85463,2,0,P|280:255|265:174,1,112.500004291535,4|0,0:0|0:0,0:0:0:0:
313,52,85816,5,4,0:0:0:0:
269,293,85993,2,0,P|246:246|246:162,1,112.500004291535,4|0,0:0|0:0,0:0:0:0:
313,52,86346,5,4,0:0:0:0:
227,282,86522,2,0,P|213:231|226:149,1,112.500004291535,4|0,0:0|0:0,0:0:0:0:
313,52,86875,6,0,P|263:29|208:37,1,112.500004291535,8|0,0:0|0:0,0:0:0:0:
35,182,87228,2,0,P|86:205|141:197,1,112.500004291535,4|0,0:0|0:0,0:0:0:0:
313,52,87581,5,4,0:0:0:0:
97,116,87758,1,4,0:0:0:0:
258,272,87934,1,4,0:0:0:0:
199,54,88111,1,4,0:0:0:0:
28,198,88287,2,0,P|74:242|132:266,1,112.500004291535,12|0,0:0|0:0,0:0:0:0:
342,230,88640,1,4,0:0:0:0:
199,54,88816,1,4,0:0:0:0:
369,255,88993,5,4,0:0:0:0:
151,306,89169,1,4,0:0:0:0:
299,135,89346,1,4,0:0:0:0:
268,357,89522,1,0,0:0:0:0:
159,159,89699,2,0,P|136:104|168:28,1,112.500004291535,12|0,0:0|0:0,0:0:0:0:
318,280,90052,2,0,P|357:330|353:399,1,112.500004291535,12|0,0:0|0:0,0:0:0:0:
159,159,90405,5,6,0:1:0:0:
404,186,90581,2,0,P|375:142|303:100,1,112.500004291535,4|0,0:0|0:0,0:0:0:0:
159,202,90934,5,4,0:0:0:0:
404,186,91110,2,0,P|367:147|289:118,1,112.500004291535,4|0,0:0|0:0,0:0:0:0:
166,245,91463,5,4,0:0:0:0:
404,186,91640,2,0,P|361:154|279:139,1,112.500004291535,4|0,0:0|0:0,0:0:0:0:
180,285,91993,5,4,0:0:0:0:
404,186,92169,2,0,P|356:162|273:162,1,112.500004291535,4|0,0:0|0:0,0:0:0:0:
238,371,92522,6,0,P|304:358|340:316,1,112.500004291535,8|0,0:0|0:0,0:0:0:0:
391,85,92875,2,0,P|325:98|289:140,1,112.500004291535,4|0,0:0|0:0,0:0:0:0:
226,359,93228,5,4,0:0:0:0:
126,156,93405,1,4,0:0:0:0:
319,254,93581,1,4,0:0:0:0:
97,294,93758,1,4,0:0:0:0:
256,136,93934,2,0,P|307:115|363:114,1,112.500004291535,12|8,0:0|0:0,0:0:0:0:
97,294,94287,1,4,0:0:0:0:
314,348,94463,1,4,0:0:0:0:
152,190,94640,5,4,0:0:0:0:
352,89,94816,1,4,0:0:0:0:
241,285,94993,1,4,0:0:0:0:
459,337,95169,1,0,0:0:0:0:
296,180,95346,5,12,0:0:0:0:
496,78,95522,1,0,0:0:0:0:
484,121,95611,1,0,0:0:0:0:
462,160,95699,1,0,0:0:0:0:
423,183,95787,1,0,0:0:0:0:
380,197,95875,1,0,0:0:0:0:
335,194,95963,1,0,0:0:0:0:
296,180,96052,6,0,P|240:171|186:184,1,112.500004291535,4|0,0:2|0:0,0:0:0:0:
45,332,96405,2,0,P|100:340|154:327,1,112.500004291535,8|0,0:0|0:0,0:0:0:0:
326,183,96758,1,4,0:0:0:0:
155,326,96934,1,4,0:0:0:0:
125,105,97111,1,8,0:0:0:0:
265,311,97287,6,0,P|212:328|156:327,1,112.500004291535,4|0,0:0|0:0,0:0:0:0:
256,124,97640,1,4,0:0:0:0:
403,294,97816,2,0,P|378:343|338:382,1,112.500004291535,8|0,0:0|0:0,0:0:0:0:
197,206,98169,1,4,0:0:0:0:
422,184,98346,1,4,0:0:0:0:
286,6,98522,2,0,P|224:3|164:34,1,112.500004291535,8|0,0:0|0:0,0:0:0:0:
394,91,98875,6,0,P|448:79|503:90,1,112.500004291535,4|0,0:2|0:0,0:0:0:0:
197,206,99228,2,0,P|143:218|88:207,1,112.500004291535,8|0,0:0|0:0,0:0:0:0:
390,227,99581,1,4,0:0:0:0:
201,346,99757,1,4,0:0:0:0:
144,134,99934,1,8,0:0:0:0:
302,294,100110,6,0,P|346:327|401:337,1,112.500004291535,4|0,0:0|0:0,0:0:0:0:
144,134,100463,1,4,0:0:0:0:
367,167,100640,1,0,0:0:0:0:
199,16,100817,1,8,0:0:0:0:
199,16,100905,1,0,0:0:0:0:
199,16,100993,1,8,0:0:0:0:
163,238,101170,1,4,0:0:0:0:
326,85,101346,2,0,P|376:80|439:108,1,112.500004291535,8|0,0:0|0:0,0:0:0:0:
163,238,101699,1,4,0:2:0:0:
171,246,102934,5,4,0:0:0:0:
171,246,103023,1,4,0:0:0:0:
171,246,103111,2,8,P|219:277|353:197,1,225.000008583069,4|0,0:1|0:0,0:0:0:0:
415,134,104346,5,0,0:0:0:0:
415,134,104434,1,0,0:0:0:0:
415,134,104523,1,4,0:0:0:0:
217,277,104699,1,0,0:0:0:0:
184,35,104875,1,0,0:0:0:0:
334,231,105052,5,4,0:0:0:0:
92,259,105228,1,0,0:0:0:0:
289,111,105405,1,0,0:0:0:0:
312,355,105581,5,4,0:0:0:0:
166,158,105758,1,0,0:0:0:0:
415,134,105934,1,0,0:0:0:0:
217,277,106111,5,4,0:0:0:0:
184,35,106287,1,0,0:0:0:0:
334,231,106464,1,0,0:0:0:0:
92,258,106640,5,4,0:0:0:0:
289,111,106817,1,0,0:0:0:0:
312,356,106993,2,0,P|257:363|201:356,1,112.500004291535,4|0,0:0|0:0,0:0:0:0:
201,356,107258,1,0,0:0:0:0:
201,356,107346,1,4,0:2:0:0:
341,153,107523,1,0,0:0:0:0:
99,120,107699,1,0,0:0:0:0:
295,270,107876,5,4,0:0:0:0:
323,28,108052,1,0,0:0:0:0:
175,225,108229,1,0,0:0:0:0:
419,248,108405,5,4,0:0:0:0:
222,102,108582,1,0,0:0:0:0:
198,351,108758,1,0,0:0:0:0:
341,153,108935,5,4,0:0:0:0:
99,120,109111,1,0,0:0:0:0:
295,270,109288,1,0,0:0:0:0:
322,28,109464,5,4,0:0:0:0:
266,31,109552,1,0,0:0:0:0:
215,55,109640,1,0,0:0:0:0:
190,106,109728,1,0,0:0:0:0:
187,163,109817,1,4,0:0:0:0:
178,219,109905,1,0,0:0:0:0:
150,268,109993,1,0,0:0:0:0:
96,285,110082,1,0,0:0:0:0:
41,278,110170,5,4,0:2:0:0:
239,135,110346,1,0,0:0:0:0:
272,377,110522,1,0,0:0:0:0:
122,181,110699,5,4,0:0:0:0:
364,153,110875,1,0,0:0:0:0:
167,301,111052,1,0,0:0:0:0:
144,57,111228,5,4,0:0:0:0:
290,254,111405,1,0,0:0:0:0:
41,278,111581,1,0,0:0:0:0:
239,135,111758,5,4,0:0:0:0:
272,377,111934,1,0,0:0:0:0:
122,181,112111,1,0,0:0:0:0:
364,154,112287,5,4,0:0:0:0:
167,301,112464,1,0,0:0:0:0:
144,56,112640,2,0,P|199:49|255:56,1,112.500004291535,4|0,0:0|0:0,0:0:0:0:
256,57,112905,1,0,0:0:0:0:
256,57,112993,1,4,0:2:0:0:
26,166,113170,5,0,0:0:0:0:
4,217,113258,1,0,0:0:0:0:
3,273,113346,1,4,0:0:0:0:
34,319,113434,1,0,0:0:0:0:
81,349,113523,1,8,0:0:0:0:
138,352,113611,1,0,0:0:0:0:
190,332,113699,1,0,0:0:0:0:
227,290,113787,1,0,0:0:0:0:
242,235,113875,1,4,0:0:0:0:
227,180,113964,1,0,0:0:0:0:
221,124,114052,1,8,0:0:0:0:
235,69,114140,1,0,0:0:0:0:
280,35,114228,1,0,0:0:0:0:
336,27,114317,1,0,0:0:0:0:
389,42,114405,1,4,0:2:0:0:
362,91,114493,5,0,0:0:0:0:
356,146,114581,1,8,0:0:0:0:
370,200,114670,1,0,0:0:0:0:
393,251,114758,1,0,0:0:0:0:
391,307,114846,1,0,0:0:0:0:
354,351,114934,1,4,0:0:0:0:
297,358,115023,1,0,0:0:0:0:
250,327,115111,1,8,0:0:0:0:
231,273,115199,1,0,0:0:0:0:
247,219,115287,1,8,0:0:0:0:
257,163,115375,1,0,0:0:0:0:
222,117,115464,1,4,0:0:0:0:
168,98,115552,1,0,0:0:0:0:
114,115,115640,1,4,0:0:0:0:
93,167,115728,1,0,0:0:0:0:
102,223,115817,1,6,0:1:0:0:
256,192,115905,12,4,121464,0:0:0:0:
