osu file format v14

[General]
AudioFilename: audio.mp3
AudioLeadIn: 0
PreviewTime: 61111
Countdown: 0
SampleSet: None
StackLeniency: 0.7
Mode: 0
LetterboxInBreaks: 0
WidescreenStoryboard: 1

[Editor]
DistanceSpacing: 1.2
BeatDivisor: 4
GridSize: 32
TimelineZoom: 3.199999

[Metadata]
Title:Re:birth day
TitleUnicode:Re:birth day
Artist:Roselia
ArtistUnicode:Roselia
Creator:Epixyl
Version:Expert
Source:バンドリ! ガールズバンドパーティ!
Tags:bang dream girl's band party re:birthday re birth birthday single game story oda asuka elements garden fujinaga ryutaro anfang minato yukina hikawa sayo udagawa ako shirokane rinko imai lisa bandori bushiroad craft egg japanese lyrical mcwc2307
BeatmapID:1941015
BeatmapSetID:929374

[Difficulty]
HPDrainRate:6
CircleSize:3.5
OverallDifficulty:8
ApproachRate:9.3
SliderMultiplier:1.5
SliderTickRate:1

[Events]
//Background and Video events
0,0,"bg.jpg",0,0
//Break Periods
//Storyboard Layer 0 (Background)
//Storyboard Layer 1 (Fail)
//Storyboard Layer 2 (Pass)
//Storyboard Layer 3 (Foreground)
//Storyboard Sound Samples

[TimingPoints]
2876,352.941176470588,4,3,0,5,1,0
8126,-66.6666666666667,4,3,0,80,0,0
24405,-66.6666666666667,4,3,0,5,0,0
24758,-66.6666666666667,4,3,0,90,0,0
25111,-52.6315789473684,4,3,0,80,0,0
25375,-57.1428571428571,4,3,0,5,0,0
25464,-71.4285714285714,4,3,0,60,0,0
36758,-71.4285714285714,4,3,0,70,0,0
48052,-133.333333333333,4,2,0,40,0,0
53699,-100,4,3,0,40,0,0
55111,-100,4,3,0,50,0,0
56523,-66.6666666666667,4,3,0,60,0,0
57493,-66.6666666666667,4,3,0,5,0,0
57581,-66.6666666666667,4,3,0,60,0,0
57934,-66.6666666666667,4,3,0,70,0,0
58023,-66.6666666666667,4,3,0,5,0,0
58111,-66.6666666666667,4,3,0,70,0,0
58552,-66.6666666666667,4,3,0,5,0,0
58640,-66.6666666666667,4,3,0,70,0,0
59346,-100,4,3,0,80,0,0
60934,-100,4,3,0,5,0,0
61111,-200,4,2,0,50,0,0
61375,-200,4,2,0,5,0,0
61464,-100,4,2,0,50,0,0
61728,-100,4,2,0,5,0,0
61817,-66.6666666666667,4,2,0,50,0,0
62081,-66.6666666666667,4,2,0,5,0,0
62170,-66.6666666666667,4,3,0,100,0,1
73464,-66.6666666666667,4,3,0,100,0,1
84758,-66.6666666666667,4,3,0,80,0,0
96052,-66.6666666666667,4,3,0,90,0,0
101699,-133.333333333333,4,3,0,80,0,0
104523,-66.6666666666667,4,3,0,100,0,0
115817,-100,4,3,0,40,0,0
121111,-100,4,3,0,5,0,0

[Colours]
Combo1 : 255,60,157
Combo2 : 181,106,255
Combo3 : 0,240,240
Combo4 : 66,66,255

[HitObjects]
256,192,2876,12,0,7818,0:0:0:0:
15,91,8170,5,0,0:0:0:0:
64,109,8258,1,0,0:0:0:0:
96,149,8346,1,0,0:0:0:0:
109,199,8434,1,0,0:0:0:0:
97,250,8523,5,4,0:0:0:0:
295,107,8699,1,0,0:0:0:0:
328,349,8875,1,0,0:0:0:0:
178,153,9052,5,4,0:0:0:0:
420,125,9228,1,0,0:0:0:0:
223,273,9405,1,0,0:0:0:0:
200,29,9581,5,4,0:0:0:0:
346,226,9758,1,0,0:0:0:0:
97,250,9934,1,0,0:0:0:0:
295,107,10111,5,4,0:0:0:0:
328,349,10287,1,0,0:0:0:0:
178,153,10464,1,0,0:0:0:0:
420,126,10640,5,4,0:0:0:0:
223,273,10817,1,0,0:0:0:0:
200,28,10993,2,0,P|255:21|311:28,1,112.500004291535,4|0,0:0|0:0,0:0:0:0:
311,28,11258,1,0,0:0:0:0:
311,28,11346,1,4,0:2:0:0:
171,231,11523,1,0,0:0:0:0:
413,264,11699,1,0,0:0:0:0:
217,114,11876,5,4,0:0:0:0:
189,356,12052,1,0,0:0:0:0:
337,159,12229,1,0,0:0:0:0:
93,136,12405,5,4,0:0:0:0:
290,282,12582,1,0,0:0:0:0:
314,33,12758,1,0,0:0:0:0:
171,231,12935,5,4,0:0:0:0:
413,264,13111,1,0,0:0:0:0:
217,114,13288,1,0,0:0:0:0:
190,356,13464,5,4,0:0:0:0:
246,353,13552,1,0,0:0:0:0:
297,329,13640,1,0,0:0:0:0:
322,278,13728,1,0,0:0:0:0:
325,221,13817,1,4,0:0:0:0:
334,165,13905,1,0,0:0:0:0:
362,116,13993,1,0,0:0:0:0:
416,99,14082,1,0,0:0:0:0:
471,106,14170,5,4,0:2:0:0:
273,249,14346,1,0,0:0:0:0:
240,7,14522,1,0,0:0:0:0:
390,203,14699,5,4,0:0:0:0:
148,231,14875,1,0,0:0:0:0:
345,83,15052,1,0,0:0:0:0:
368,327,15228,5,4,0:0:0:0:
222,130,15405,1,0,0:0:0:0:
471,106,15581,1,0,0:0:0:0:
273,249,15758,5,4,0:0:0:0:
240,7,15934,1,0,0:0:0:0:
390,203,16111,1,0,0:0:0:0:
148,230,16287,5,4,0:0:0:0:
345,83,16464,1,0,0:0:0:0:
368,328,16640,2,0,P|313:335|257:328,1,112.500004291535,4|0,0:0|0:0,0:0:0:0:
256,327,16905,1,0,0:0:0:0:
256,327,16993,1,4,0:2:0:0:
397,125,17170,1,0,0:0:0:0:
155,92,17346,1,0,0:0:0:0:
351,242,17523,5,4,0:0:0:0:
379,2,17699,1,0,0:0:0:0:
231,197,17876,1,0,0:0:0:0:
475,220,18052,5,4,0:0:0:0:
278,74,18229,1,0,0:0:0:0:
254,323,18405,1,0,0:0:0:0:
397,125,18582,5,4,0:0:0:0:
155,92,18758,1,0,0:0:0:0:
351,242,18935,1,0,0:0:0:0:
379,2,19111,5,4,0:0:0:0:
92,127,19287,1,0,0:0:0:0:
92,127,19375,1,0,0:0:0:0:
92,127,19464,1,4,0:0:0:0:
349,319,19640,1,0,0:0:0:0:
349,319,19728,1,0,0:0:0:0:
349,319,19817,1,6,0:1:0:0:
256,192,19905,12,0,24405,0:0:0:0:
279,40,24758,5,0,0:0:0:0:
346,43,24846,1,0,0:0:0:0:
405,75,24934,1,0,0:0:0:0:
440,133,25023,1,0,0:0:0:0:
434,200,25111,2,0,B|402:282|316:290|316:290|316:233,1,213.749994292259
313,151,25464,6,0,P|264:138|213:151,1,104.999996795654,4|0,0:0|0:0,0:0:0:0:
50,317,25817,2,0,P|99:330|150:317,1,104.999996795654,8|0,0:0|0:0,0:0:0:0:
313,151,26170,1,4,0:0:0:0:
97,232,26346,2,0,P|46:212|15:167,1,104.999996795654,4|0,0:0|0:0,0:0:0:0:
314,64,26699,2,0,P|367:82|399:125,1,104.999996795654,8|0,0:0|0:0,0:0:0:0:
347,345,27052,1,4,0:0:0:0:
109,140,27228,2,0,P|142:100|190:82,1,104.999996795654,8|0,0:0|0:0,0:0:0:0:
419,117,27581,5,4,0:0:0:0:
194,172,27758,1,4,0:0:0:0:
387,384,27934,2,0,P|421:344|434:291,1,104.999996795654,8|0,0:0|0:0,0:0:0:0:
178,62,28287,6,0,P|98:121|95:228,1,209.999993591309,4|8,0:0|0:0,0:0:0:0:
284,357,28817,1,0,0:0:0:0:
298,127,28993,1,4,0:0:0:0:
143,345,29170,6,0,P|93:360|43:345,1,104.999996795654,4|0,0:0|0:0,0:0:0:0:
298,127,29523,2,0,P|347:112|397:127,1,104.999996795654,8|0,0:0|0:0,0:0:0:0:
129,277,29875,1,4,0:0:0:0:
95,47,30052,1,4,0:0:0:0:
251,216,30228,1,0,0:0:0:0:
22,176,30405,1,4,0:0:0:0:
225,68,30581,2,0,P|275:55|326:67,1,104.999996795654,4|8,0:0|0:0,0:0:0:0:
137,285,30934,5,0,0:0:0:0:
137,285,31023,1,0,0:0:0:0:
137,285,31111,2,0,P|221:343|324:331,2,209.999993591309,4|8|4,0:0|0:0|0:0,0:0:0:0:
78,60,31993,2,0,P|129:47|180:59,1,104.999996795654,4|0,0:0|0:0,0:0:0:0:
369,190,32346,2,0,P|318:202|267:190,1,104.999996795654,8|0,0:0|0:0,0:0:0:0:
78,60,32699,1,4,0:0:0:0:
0,310,32875,2,0,P|31:269|76:242,1,104.999996795654,8|0,0:0|0:0,0:0:0:0:
308,248,33228,5,4,0:0:0:0:
93,336,33405,1,4,0:0:0:0:
322,350,33581,2,0,P|370:331|403:290,1,104.999996795654,8|0,0:0|0:0,0:0:0:0:
496,92,33934,6,0,P|399:56|301:88,2,209.999993591309,4|8|4,0:0|0:0|0:0,0:0:0:0:
346,270,34817,2,0,P|395:286|444:269,1,104.999996795654,4|0,0:0|0:0,0:0:0:0:
170,145,35170,2,0,P|120:128|71:145,1,104.999996795654,8|0,0:0|0:0,0:0:0:0:
223,353,35523,1,4,0:0:0:0:
396,202,35699,2,0,P|415:153|399:104,1,104.999996795654,8|0,0:0|0:0,0:0:0:0:
170,145,36052,1,4,0:0:0:0:
454,35,36228,5,0,0:0:0:0:
484,78,36317,1,0,0:0:0:0:
501,127,36405,1,8,0:0:0:0:
499,179,36493,1,0,0:0:0:0:
487,230,36581,1,0,0:0:0:0:
458,274,36670,1,0,0:0:0:0:
415,304,36758,5,4,0:2:0:0:
324,69,36934,1,4,0:0:0:0:
53,180,37111,2,0,P|81:222|129:242,1,104.999996795654,8|0,0:0|0:0,0:0:0:0:
427,164,37464,5,4,0:0:0:0:
231,6,37640,1,0,0:0:0:0:
53,180,37817,2,0,P|99:202|150:195,1,104.999996795654,8|0,0:0|0:0,0:0:0:0:
354,48,38170,5,4,0:0:0:0:
102,57,38346,1,4,0:0:0:0:
243,266,38523,1,8,0:0:0:0:
231,6,38699,1,0,0:0:0:0:
12,137,38875,2,0,P|40:180|87:202,1,104.999996795654,4|0,0:0|0:0,0:0:0:0:
337,236,39228,2,0,P|308:192|261:170,1,104.999996795654,8|0,0:0|0:0,0:0:0:0:
12,137,39581,5,4,0:2:0:0:
251,57,39758,1,4,0:0:0:0:
60,283,39934,1,8,0:0:0:0:
313,350,40111,1,0,0:0:0:0:
313,350,40199,1,0,0:0:0:0:
313,349,40287,2,0,P|319:298|292:255,1,104.999996795654,4|0,0:0|0:0,0:0:0:0:
77,100,40640,2,0,P|70:151|97:194,1,104.999996795654,8|0,0:0|0:0,0:0:0:0:
305,343,40993,5,4,0:0:0:0:
169,129,41170,1,0,0:0:0:0:
445,104,41346,2,0,P|463:152|449:201,1,104.999996795654,8|0,0:0|0:0,0:0:0:0:
217,261,41699,5,4,0:0:0:0:
184,10,41876,1,0,0:0:0:0:
445,104,42052,2,0,P|441:155|407:194,1,104.999996795654,8|0,0:0|0:0,0:0:0:0:
157,157,42405,5,4,0:2:0:0:
242,374,42581,1,4,0:0:0:0:
405,193,42758,2,0,P|370:155|322:134,1,104.999996795654,8|0,0:0|0:0,0:0:0:0:
72,170,43111,5,4,0:0:0:0:
312,244,43287,1,0,0:0:0:0:
249,0,43464,2,0,P|197:-2|150:17,1,104.999996795654,8|0,0:0|0:0,0:0:0:0:
32,258,43817,5,4,0:0:0:0:
214,85,43993,1,4,0:0:0:0:
430,323,44170,1,8,0:0:0:0:
300,121,44346,1,0,0:0:0:0:
112,300,44523,2,0,P|74:336|21:347,1,104.999996795654,4|0,0:0|0:0,0:0:0:0:
300,121,44875,2,0,P|337:84|390:73,1,104.999996795654,8|0,0:0|0:0,0:0:0:0:
64,137,45228,5,4,0:0:0:0:
205,347,45405,1,4,0:0:0:0:
402,190,45581,2,0,P|446:163|497:155,1,104.999996795654,8|0,0:0|0:0,0:0:0:0:
159,218,45934,2,0,P|114:245|63:253,1,104.999996795654,4|0,0:0|0:0,0:0:0:0:
355,75,46287,2,0,P|399:47|450:39,1,104.999996795654,8|0,0:0|0:0,0:0:0:0:
119,93,46640,5,4,0:0:0:0:
205,347,46817,1,4,0:0:0:0:
384,142,46993,1,8,0:0:0:0:
138,5,47170,1,0,0:0:0:0:
138,5,47258,1,0,0:0:0:0:
138,4,47346,2,0,P|188:16|224:53,1,104.999996795654,8|0,0:0|0:0,0:0:0:0:
366,277,47699,1,4,0:0:0:0:
51,279,47875,1,4,0:0:0:0:
334,110,48052,6,0,P|489:193|349:270,1,393.750015020371,4|0,0:1|0:0,0:0:0:0:
149,210,49464,2,0,P|67:211|16:275,2,168.750006437302
299,379,50699,1,0,0:0:0:0:
370,166,50875,2,0,P|280:46|261:202,1,393.750015020371,4|0,0:0|0:0,0:0:0:0:
443,274,52287,2,0,P|483:333|404:380,2,168.750006437302
301,264,53523,1,0,0:0:0:0:
156,339,53699,5,4,0:0:0:0:
37,321,54052,1,4,0:0:0:0:
55,202,54405,1,4,0:0:0:0:
173,219,54758,1,4,0:0:0:0:
256,132,55111,1,4,0:0:0:0:
433,99,55464,1,4,0:0:0:0:
472,274,55817,1,4,0:0:0:0:
296,313,56170,1,4,0:0:0:0:
78,137,56523,5,4,0:0:0:0:
400,319,56875,1,4,0:0:0:0:
400,319,57052,2,0,P|455:197|369:63,1,281.250010728836
253,149,57581,2,0,P|273:257|337:167,1,281.250010728836
253,38,58111,2,0,P|137:108|122:243,1,281.250010728836
241,376,58640,1,0,0:0:0:0:
241,376,58993,1,4,0:0:0:0:
319,73,59170,1,0,0:0:0:0:
17,154,59346,5,4,0:0:0:0:
319,229,59523,1,0,0:0:0:0:
375,231,59611,1,0,0:0:0:0:
429,216,59699,1,0,0:0:0:0:
466,174,59787,1,0,0:0:0:0:
479,119,59875,1,4,0:0:0:0:
202,26,60052,5,0,0:0:0:0:
146,34,60140,1,0,0:0:0:0:
104,71,60228,1,0,0:0:0:0:
80,122,60317,1,0,0:0:0:0:
74,177,60405,1,4,0:0:0:0:
87,231,60493,1,4,0:0:0:0:
120,275,60581,2,0,B|181:247|266:278|266:278|304:222,1,187.5,4|0,0:0|0:0,0:0:0:0:
369,109,61111,6,0,P|345:96|318:91,1,56.25
230,150,61464,2,0,P|183:190|129:188,1,112.5
212,50,61817,2,0,P|143:23|35:56,1,168.750006437302
53,43,62170,5,6,0:1:0:0:
4,375,62346,2,0,P|42:339|71:261,1,112.500004291535,4|0,0:0|0:0,0:0:0:0:
57,47,62699,5,4,0:0:0:0:
65,383,62875,2,0,P|96:340|111:259,1,112.500004291535,8|0,0:0|0:0,0:0:0:0:
57,47,63228,5,4,0:0:0:0:
123,377,63404,2,0,P|146:330|146:246,1,112.500004291535,4|0,0:0|0:0,0:0:0:0:
57,47,63758,5,4,0:0:0:0:
179,360,63934,2,0,P|193:309|180:227,1,112.500004291535,4|0,0:0|0:0,0:0:0:0:
57,47,64287,6,0,P|107:24|162:32,1,112.500004291535,8|0,0:0|0:0,0:0:0:0:
402,201,64640,2,0,P|351:224|296:216,1,112.500004291535,4|0,0:0|0:0,0:0:0:0:
57,47,64993,5,4,0:0:0:0:
336,134,65170,1,4,0:0:0:0:
115,325,65346,1,4,0:0:0:0:
141,32,65523,1,4,0:0:0:0:
411,212,65699,2,0,P|365:256|307:280,1,112.500004291535,12|0,0:0|0:0,0:0:0:0:
30,236,66052,1,4,0:0:0:0:
214,10,66228,1,4,0:0:0:0:
4,273,66405,5,4,0:0:0:0:
294,230,66581,1,4,0:0:0:0:
27,107,66758,1,4,0:0:0:0:
159,366,66934,1,0,0:0:0:0:
200,75,67111,2,0,P|251:53|306:52,1,112.500004291535,12|0,0:0|0:0,0:0:0:0:
107,296,67464,2,0,P|55:318|0:319,1,112.500004291535,12|0,0:0|0:0,0:0:0:0:
200,75,67817,5,6,0:1:0:0:
510,205,67993,2,0,P|481:161|409:119,1,112.500004291535,4|0,0:0|0:0,0:0:0:0:
182,131,68346,5,4,0:0:0:0:
510,205,68522,2,0,P|474:166|396:138,1,112.500004291535,4|0,0:0|0:0,0:0:0:0:
174,189,68875,5,4,0:0:0:0:
510,205,69051,2,0,P|467:173|386:158,1,112.500004291535,4|0,0:0|0:0,0:0:0:0:
177,248,69405,5,4,0:0:0:0:
510,205,69581,2,0,P|463:181|379:181,1,112.500004291535,4|0,0:0|0:0,0:0:0:0:
162,341,69934,6,0,P|228:328|264:286,1,112.500004291535,8|0,0:0|0:0,0:0:0:0:
350,43,70287,2,0,P|284:56|248:98,1,112.500004291535,4|0,0:0|0:0,0:0:0:0:
153,362,70640,5,4,0:0:0:0:
45,89,70817,1,4,0:0:0:0:
333,129,70993,1,4,0:0:0:0:
57,230,71170,1,4,0:0:0:0:
260,21,71346,2,0,P|311:0|367:-1,1,112.500004291535,12|8,0:0|0:0,0:0:0:0:
57,230,71699,1,4,0:0:0:0:
334,321,71875,1,4,0:0:0:0:
125,114,72052,5,4,0:0:0:0:
409,47,72228,1,4,0:0:0:0:
178,228,72405,1,4,0:0:0:0:
455,318,72581,1,0,0:0:0:0:
234,124,72758,5,12,0:0:0:0:
512,53,72934,1,0,0:0:0:0:
510,109,73023,1,0,0:0:0:0:
485,159,73111,1,0,0:0:0:0:
440,193,73199,1,0,0:0:0:0:
386,208,73287,1,0,0:0:0:0:
330,203,73375,1,0,0:0:0:0:
275,186,73464,6,0,P|219:177|165:190,1,112.500004291535,4|0,0:2|0:0,0:0:0:0:
402,17,73817,2,0,P|457:25|511:12,1,112.500004291535,8|0,0:0|0:0,0:0:0:0:
165,190,74170,1,4,0:0:0:0:
456,185,74346,1,4,0:0:0:0:
221,9,74523,1,8,0:0:0:0:
293,291,74699,6,0,P|346:308|402:307,1,112.500004291535,4|0,0:0|0:0,0:0:0:0:
307,29,75052,1,4,0:0:0:0:
159,279,75228,2,0,P|184:328|224:367,1,112.500004291535,8|0,0:0|0:0,0:0:0:0:
352,103,75581,1,4,0:0:0:0:
71,175,75758,1,4,0:0:0:0:
283,373,75934,2,0,P|314:328|319:272,1,112.500004291535,8|0,0:0|0:0,0:0:0:0:
150,31,76287,6,0,P|96:19|41:30,1,112.500004291535,4|0,0:2|0:0,0:0:0:0:
403,162,76640,2,0,P|457:174|512:163,1,112.500004291535,8|0,0:0|0:0,0:0:0:0:
129,163,76993,1,4,0:0:0:0:
384,304,77169,1,4,0:0:0:0:
371,10,77346,1,8,0:0:0:0:
229,265,77522,6,0,P|185:298|130:308,1,112.500004291535,4|0,0:0|0:0,0:0:0:0:
409,83,77875,1,4,0:0:0:0:
129,163,78051,2,0,P|73:154|27:123,1,112.500004291535,8|0,0:0|0:0,0:0:0:0:
393,164,78405,1,4,0:0:0:0:
122,53,78581,1,4,0:0:0:0:
148,343,78757,2,0,P|202:354|257:343,1,112.500004291535,8|0,0:0|0:0,0:0:0:0:
502,164,79111,6,0,P|447:152|392:163,1,112.500004291535,4|0,0:0|0:0,0:0:0:0:
148,343,79464,2,0,P|93:354|38:343,1,112.500004291535,8|0,0:0|0:0,0:0:0:0:
120,61,79817,1,4,0:0:0:0:
392,163,79993,1,4,0:0:0:0:
103,215,80170,1,8,0:0:0:0:
323,23,80346,6,0,P|378:6|447:23,1,112.500004291535,4|0,0:0|0:0,0:0:0:0:
99,117,80699,1,4,0:0:0:0:
390,136,80875,2,0,P|440:162|477:223,1,112.500004291535,8|0,0:0|0:0,0:0:0:0:
182,57,81228,1,4,0:0:0:0:
145,348,81405,1,4,0:0:0:0:
417,236,81581,2,0,P|420:180|389:135,1,112.500004291535,8|0,0:0|0:0,0:0:0:0:
106,56,81934,5,10,0:0:0:0:
70,347,82111,1,4,0:0:0:0:
336,228,82287,1,4,0:0:0:0:
27,107,82464,5,8,0:0:0:0:
183,379,82640,1,4,0:0:0:0:
340,105,82817,1,4,0:0:0:0:
18,203,82993,5,10,0:0:0:0:
317,361,83170,1,4,0:0:0:0:
299,24,83346,1,4,0:0:0:0:
60,294,83523,5,8,0:0:0:0:
299,24,83699,1,4,0:0:0:0:
271,381,83875,1,8,0:0:0:0:
86,70,84052,1,4,0:0:0:0:
409,225,84228,1,8,0:0:0:0:
409,225,84317,1,0,0:0:0:0:
409,225,84405,1,4,0:0:0:0:
60,294,84581,1,4,0:0:0:0:
299,24,84758,5,6,0:1:0:0:
348,356,84934,2,0,P|310:320|281:242,1,112.500004291535,4|0,0:0|0:0,0:0:0:0:
299,24,85287,5,4,0:0:0:0:
287,364,85463,2,0,P|256:321|241:240,1,112.500004291535,8|0,0:0|0:0,0:0:0:0:
299,24,85816,5,4,0:0:0:0:
229,358,85993,2,0,P|206:311|206:227,1,112.500004291535,4|0,0:0|0:0,0:0:0:0:
299,24,86346,5,4,0:0:0:0:
173,341,86522,2,0,P|159:290|172:208,1,112.500004291535,4|0,0:0|0:0,0:0:0:0:
299,24,86875,6,0,P|249:1|194:9,1,112.500004291535,8|0,0:0|0:0,0:0:0:0:
0,229,87228,2,0,P|51:252|106:244,1,112.500004291535,4|0,0:0|0:0,0:0:0:0:
355,91,87581,5,4,0:0:0:0:
65,140,87758,1,4,0:0:0:0:
256,360,87934,1,4,0:0:0:0:
270,66,88111,1,4,0:0:0:0:
0,176,88287,2,0,P|27:224|76:249,1,112.500004291535,12|0,0:0|0:0,0:0:0:0:
369,275,88640,1,4,0:0:0:0:
241,12,88816,1,4,0:0:0:0:
390,316,88993,5,4,0:0:0:0:
111,230,89169,1,4,0:0:0:0:
390,141,89346,1,4,0:0:0:0:
227,384,89522,1,0,0:0:0:0:
227,90,89699,2,0,P|180:59|126:48,1,112.500004291535,12|0,0:0|0:0,0:0:0:0:
282,319,90052,2,0,P|329:350|383:360,1,112.500004291535,12|0,0:0|0:0,0:0:0:0:
312,75,90405,5,6,0:1:0:0:
2,205,90581,2,0,P|31:161|103:119,1,112.500004291535,4|0,0:0|0:0,0:0:0:0:
330,131,90934,5,4,0:0:0:0:
2,205,91110,2,0,P|38:166|116:138,1,112.500004291535,4|0,0:0|0:0,0:0:0:0:
338,189,91463,5,4,0:0:0:0:
2,205,91640,2,0,P|45:173|126:158,1,112.500004291535,4|0,0:0|0:0,0:0:0:0:
335,248,91993,5,4,0:0:0:0:
2,205,92169,2,0,P|49:181|133:181,1,112.500004291535,4|0,0:0|0:0,0:0:0:0:
350,341,92522,6,0,P|284:328|248:286,1,112.500004291535,8|0,0:0|0:0,0:0:0:0:
162,43,92875,2,0,P|228:56|264:98,1,112.500004291535,4|0,0:0|0:0,0:0:0:0:
359,362,93228,5,4,0:0:0:0:
467,89,93405,1,4,0:0:0:0:
179,129,93581,1,4,0:0:0:0:
455,230,93758,1,4,0:0:0:0:
252,21,93934,2,0,P|201:0|145:-1,1,112.500004291535,12|8,0:0|0:0,0:0:0:0:
455,230,94287,1,4,0:0:0:0:
178,321,94463,1,4,0:0:0:0:
387,114,94640,5,4,0:0:0:0:
103,47,94816,1,4,0:0:0:0:
334,228,94993,1,4,0:0:0:0:
57,318,95169,1,0,0:0:0:0:
278,124,95346,5,12,0:0:0:0:
0,53,95522,1,0,0:0:0:0:
2,109,95611,1,0,0:0:0:0:
27,159,95699,1,0,0:0:0:0:
72,193,95787,1,0,0:0:0:0:
126,208,95875,1,0,0:0:0:0:
182,203,95963,1,0,0:0:0:0:
237,186,96052,6,0,P|293:177|347:190,1,112.500004291535,4|0,0:2|0:0,0:0:0:0:
110,17,96405,2,0,P|55:25|1:12,1,112.500004291535,8|0,0:0|0:0,0:0:0:0:
347,190,96758,1,4,0:0:0:0:
56,185,96934,1,4,0:0:0:0:
291,9,97111,1,8,0:0:0:0:
219,291,97287,6,0,P|166:308|110:307,1,112.500004291535,4|0,0:0|0:0,0:0:0:0:
205,29,97640,1,4,0:0:0:0:
353,279,97816,2,0,P|328:328|288:367,1,112.500004291535,8|0,0:0|0:0,0:0:0:0:
160,103,98169,1,4,0:0:0:0:
441,175,98346,1,4,0:0:0:0:
229,373,98522,2,0,P|198:328|193:272,1,112.500004291535,8|0,0:0|0:0,0:0:0:0:
362,31,98875,6,0,P|416:19|471:30,1,112.500004291535,4|0,0:2|0:0,0:0:0:0:
109,162,99228,2,0,P|55:174|0:163,1,112.500004291535,8|0,0:0|0:0,0:0:0:0:
383,163,99581,1,4,0:0:0:0:
128,304,99757,1,4,0:0:0:0:
141,10,99934,1,8,0:0:0:0:
283,265,100110,6,0,P|327:298|382:308,1,112.500004291535,4|0,0:0|0:0,0:0:0:0:
103,83,100463,1,4,0:0:0:0:
383,163,100640,1,0,0:0:0:0:
99,236,100817,1,8,0:0:0:0:
99,236,100905,1,0,0:0:0:0:
99,236,100993,1,8,0:0:0:0:
313,36,101170,1,4,0:0:0:0:
149,330,101346,2,0,P|95:341|40:330,1,112.500004291535,8|0,0:0|0:0,0:0:0:0:
375,269,101699,1,6,0:2:0:0:
383,276,102934,5,4,0:0:0:0:
383,276,103023,1,4,0:0:0:0:
383,276,103111,2,8,P|335:307|201:227,1,225.000008583069,4|0,0:1|0:0,0:0:0:0:
415,134,104346,5,0,0:0:0:0:
415,134,104434,1,0,0:0:0:0:
415,134,104523,1,4,0:0:0:0:
217,277,104699,1,0,0:0:0:0:
184,35,104875,1,0,0:0:0:0:
334,231,105052,5,4,0:0:0:0:
92,259,105228,1,0,0:0:0:0:
289,111,105405,1,0,0:0:0:0:
312,355,105581,5,4,0:0:0:0:
166,158,105758,1,0,0:0:0:0:
415,134,105934,1,0,0:0:0:0:
217,277,106111,5,4,0:0:0:0:
184,35,106287,1,0,0:0:0:0:
334,231,106464,1,0,0:0:0:0:
92,258,106640,5,4,0:0:0:0:
289,111,106817,1,0,0:0:0:0:
312,356,106993,2,0,P|257:363|201:356,1,112.500004291535,4|0,0:0|0:0,0:0:0:0:
201,356,107258,1,0,0:0:0:0:
201,356,107346,1,4,0:2:0:0:
341,153,107523,1,0,0:0:0:0:
99,120,107699,1,0,0:0:0:0:
295,270,107876,5,4,0:0:0:0:
323,28,108052,1,0,0:0:0:0:
175,225,108229,1,0,0:0:0:0:
419,248,108405,5,4,0:0:0:0:
222,102,108582,1,0,0:0:0:0:
198,351,108758,1,0,0:0:0:0:
341,153,108935,5,4,0:0:0:0:
99,120,109111,1,0,0:0:0:0:
295,270,109288,1,0,0:0:0:0:
322,28,109464,5,4,0:0:0:0:
266,31,109552,1,0,0:0:0:0:
215,55,109640,1,0,0:0:0:0:
190,106,109728,1,0,0:0:0:0:
187,163,109817,1,4,0:0:0:0:
178,219,109905,1,0,0:0:0:0:
150,268,109993,1,0,0:0:0:0:
96,285,110082,1,0,0:0:0:0:
41,278,110170,5,4,0:2:0:0:
239,135,110346,1,0,0:0:0:0:
272,377,110522,1,0,0:0:0:0:
122,181,110699,5,4,0:0:0:0:
364,153,110875,1,0,0:0:0:0:
167,301,111052,1,0,0:0:0:0:
144,57,111228,5,4,0:0:0:0:
290,254,111405,1,0,0:0:0:0:
41,278,111581,1,0,0:0:0:0:
239,135,111758,5,4,0:0:0:0:
272,377,111934,1,0,0:0:0:0:
122,181,112111,1,0,0:0:0:0:
364,154,112287,5,4,0:0:0:0:
167,301,112464,1,0,0:0:0:0:
144,56,112640,2,0,P|199:49|255:56,1,112.500004291535,4|0,0:0|0:0,0:0:0:0:
256,57,112905,1,0,0:0:0:0:
256,57,112993,1,4,0:2:0:0:
26,166,113170,5,0,0:0:0:0:
4,217,113258,1,0,0:0:0:0:
3,273,113346,1,4,0:0:0:0:
34,319,113434,1,0,0:0:0:0:
81,349,113523,1,8,0:0:0:0:
138,352,113611,1,0,0:0:0:0:
190,332,113699,1,0,0:0:0:0:
227,290,113787,1,0,0:0:0:0:
242,235,113875,1,4,0:0:0:0:
227,180,113964,1,0,0:0:0:0:
221,124,114052,1,8,0:0:0:0:
235,69,114140,1,0,0:0:0:0:
280,35,114228,1,0,0:0:0:0:
336,27,114317,1,0,0:0:0:0:
389,42,114405,1,4,0:2:0:0:
362,91,114493,5,0,0:0:0:0:
356,146,114581,1,8,0:0:0:0:
370,200,114670,1,0,0:0:0:0:
393,251,114758,1,0,0:0:0:0:
391,307,114846,1,0,0:0:0:0:
354,351,114934,1,4,0:0:0:0:
297,358,115023,1,0,0:0:0:0:
250,327,115111,1,8,0:0:0:0:
231,273,115199,1,0,0:0:0:0:
247,219,115287,1,8,0:0:0:0:
257,163,115375,1,0,0:0:0:0:
222,117,115464,1,4,0:0:0:0:
168,98,115552,1,0,0:0:0:0:
114,115,115640,1,4,0:0:0:0:
93,167,115728,1,0,0:0:0:0:
102,223,115817,1,6,0:1:0:0:
256,192,115905,12,4,121464,0:0:0:0:
