osu file format v14

[General]
AudioFilename: audio.mp3
AudioLeadIn: 0
PreviewTime: 227305
Countdown: 0
SampleSet: Normal
StackLeniency: 0.2
Mode: 0
LetterboxInBreaks: 0
WidescreenStoryboard: 0

[Editor]
DistanceSpacing: 2.5
BeatDivisor: 4
GridSize: 8
TimelineZoom: 2.1

[Metadata]
Title:R
TitleUnicode:R
Artist:Roselia
ArtistUnicode:Roselia
Creator:edwardyoyo
Version:Rosenlied
Source:
Tags:Bang Dream Roselia Girls Band Party
BeatmapID:1966405
BeatmapSetID:941686

[Difficulty]
HPDrainRate:6.2
CircleSize:3.8
OverallDifficulty:7.9
ApproachRate:9.6
SliderMultiplier:2.5
SliderTickRate:1

[Events]
//Background and Video events
0,0,"1490094649186.jpg",0,0
//Break Periods
2,43595,48073
2,66654,68179
2,69207,70732
2,207080,215945
//Storyboard Layer 0 (Background)
//Storyboard Layer 1 (Fail)
//Storyboard Layer 2 (Pass)
//Storyboard Layer 3 (Foreground)
//Storyboard Layer 4 (Overlay)
//Storyboard Sound Samples

[TimingPoints]
710,319.148936170213,4,2,0,100,1,0
1986,-100,4,2,0,100,0,0
5816,-133.333333333333,4,2,0,100,0,0
6135,-100,4,1,0,100,0,0
11561,-200,4,1,0,100,0,0
13795,-100,4,1,0,100,0,0
31348,-133.333333333333,4,1,0,100,0,0
31667,-100,4,1,0,100,0,0
36933,-133.333333333333,4,1,0,100,0,0
38210,-100,4,1,0,100,0,0
48582,-133.333333333333,4,2,0,100,0,0
53050,-100,4,1,0,100,0,0
65018,-133.333333333333,4,1,0,100,0,0
65337,-100,4,1,0,100,0,0
66454,-100,4,2,0,100,0,0
76667,-66.6666666666667,4,1,0,100,0,1
86880,-100,4,1,0,100,0,1
87199,-133.333333333333,4,2,0,100,0,0
91986,-133.333333333333,4,1,0,100,0,0
92305,-100,4,1,0,100,0,0
95656,-133.333333333333,4,1,0,100,0,0
95975,-100,4,1,0,100,0,0
99646,-100,4,2,0,100,0,0
104114,-100,4,1,0,100,0,0
126773,-133.333333333333,4,1,0,100,0,0
127092,-100,4,1,0,100,0,0
132518,-133.333333333333,4,1,0,100,0,0
132837,-100,4,1,0,100,0,0
137784,-133.333333333333,4,1,0,100,0,0
138263,-100,4,1,0,100,0,0
140178,-100,4,2,0,100,0,0
145284,-100,4,1,0,100,0,0
147837,-133.333333333333,4,1,0,100,0,0
148156,-100,4,1,0,100,0,0
150869,-66.6666666666667,4,1,0,100,0,1
154539,-66.6666666666667,4,1,0,100,0,1
159646,-133.333333333333,4,1,0,100,0,0
160284,-100,4,2,0,100,0,0
161241,-133.333333333333,4,2,0,100,0,0
163475,-100,4,2,0,100,0,0
166029,-100,4,1,0,100,0,0
173688,-100,4,2,0,100,0,0
178156,-100,4,1,0,100,0,0
181348,-133.333333333333,4,2,0,100,0,0
189007,-133.333333333333,4,1,0,100,0,0
191241,-100,4,1,0,100,0,0
217092,-100,4,2,0,100,0,0
222199,-200,4,2,0,100,0,0
224433,-100,4,2,0,100,0,0
226029,-100,4,1,0,100,0,0
227305,-66.6666666666667,4,1,0,100,0,1
237518,-133.333333333333,4,1,0,100,0,0
238795,-100,4,1,0,100,0,0
250284,-100,4,2,0,100,0,0
254752,-100,4,1,0,100,0,0
268316,-200,4,2,0,100,0,0

[HitObjects]
279,278,789,6,0,L|228:325,3,62.5
233,320,1108,1,0,0:0:0:0:
129,298,1348,6,0,P|65:192|122:79,1,250,0|4,0:0|0:0,0:0:0:0:
444,50,2305,5,8,0:0:0:0:
431,331,2944,5,8,0:0:0:0:
79,51,3582,5,8,0:0:0:0:
110,335,4220,5,8,0:0:0:0:
406,325,4858,5,8,0:0:0:0:
380,107,5497,5,8,0:0:0:0:
73,118,5816,2,2,P|134:68|245:82,1,187.500007152558
248,168,6454,5,0,0:0:0:0:
468,93,6614,1,0,0:0:0:0:
364,65,6773,2,0,P|367:137|314:205,1,125
458,247,7092,1,0,0:0:0:0:
125,322,7252,5,0,0:0:0:0:
265,160,7412,1,0,0:0:0:0:
125,322,7571,1,0,0:0:0:0:
48,70,7731,1,0,0:0:0:0:
75,206,7890,2,0,P|112:144|176:119,1,125
236,219,8210,1,0,0:0:0:0:
393,70,8369,5,0,0:0:0:0:
427,311,8688,5,8,0:0:0:0:
271,195,9007,5,0,0:0:0:0:
53,334,9167,1,0,0:0:0:0:
59,47,9327,1,0,0:0:0:0:
103,199,9486,2,0,L|219:291,1,125
256,135,9805,6,0,P|301:75|372:56,2,125
462,331,10284,2,0,P|437:266|407:204,1,125
176,53,10603,1,0,0:0:0:0:
86,298,10763,1,0,0:0:0:0:
353,202,10922,1,0,0:0:0:0:
450,71,11241,5,12,0:0:0:0:
48,217,11561,6,2,B|80:138|175:270|273:128,1,250
145,81,12518,1,0,0:0:0:0:
406,337,12837,6,2,B|527:248|352:215|454:91,1,250,2|6,0:0|0:0,0:0:0:0:
51,338,13795,5,8,0:0:0:0:
331,47,14114,1,8,0:0:0:0:
163,78,14433,6,0,B|219:166|91:189|195:334,1,250
286,224,15071,1,0,0:0:0:0:
473,165,15231,1,0,0:0:0:0:
388,79,15390,2,0,P|444:119|483:194,1,125
400,312,15710,2,0,B|373:238|240:272|208:170,1,250
63,52,16348,5,8,0:0:0:0:
429,321,16667,1,8,0:0:0:0:
191,203,16986,5,0,0:0:0:0:
281,341,17146,1,0,0:0:0:0:
276,233,17305,1,0,0:0:0:0:
88,300,17465,1,0,0:0:0:0:
127,49,17624,2,0,P|168:104|225:133,1,125
411,34,17944,5,0,0:0:0:0:
261,141,18103,1,0,0:0:0:0:
411,34,18263,1,0,0:0:0:0:
260,140,18422,1,0,0:0:0:0:
411,34,18582,1,0,0:0:0:0:
446,219,18901,6,8,B|355:241|363:361|227:273,1,250
63,56,19380,5,0,0:0:0:0:
172,110,19539,1,0,0:0:0:0:
173,231,19699,1,0,0:0:0:0:
74,326,19858,1,0,0:0:0:0:
400,248,20178,2,8,B|286:259|377:43|173:157|171:69,1,250
59,49,20656,5,0,0:0:0:0:
315,52,20816,1,0,0:0:0:0:
301,326,20975,1,0,0:0:0:0:
64,328,21135,1,0,0:0:0:0:
235,185,21454,2,8,B|362:104|354:245|481:215,1,250
433,50,22092,6,0,P|368:69|306:58,2,125
269,181,22571,1,0,0:0:0:0:
52,168,22731,2,8,B|146:186|98:314|259:326,1,250
350,308,23210,2,0,P|391:251|448:240,2,125
440,141,23688,1,0,0:0:0:0:
228,189,23848,5,8,0:0:0:0:
249,170,23928,5,8,0:0:0:0:
263,145,24007,5,8,0:0:0:0:
264,117,24087,5,8,0:0:0:0:
256,90,24167,5,8,0:0:0:0:
235,70,24247,5,8,0:0:0:0:
204,56,24327,5,8,0:0:0:0:
120,126,24486,6,0,P|72:182|72:238,1,125
317,104,24805,1,0,0:0:0:0:
443,299,24965,2,0,P|374:303|324:259,2,125
176,187,25444,2,0,P|130:139|64:106,1,125
272,88,25763,1,0,0:0:0:0:
284,121,25842,1,0,0:0:0:0:
244,114,25922,1,0,0:0:0:0:
140,39,26082,6,0,P|79:73|54:137,1,125
134,197,26401,1,0,0:0:0:0:
281,284,26561,2,0,P|355:278|393:236,2,125
422,59,27039,2,0,P|351:71|294:49,1,125
186,45,27358,1,0,0:0:0:0:
188,80,27438,1,0,0:0:0:0:
146,63,27518,1,0,0:0:0:0:
40,92,27678,6,0,P|62:146|49:211,1,125
63,328,27997,1,0,0:0:0:0:
171,145,28156,2,0,P|231:143|299:163,1,125
316,275,28475,1,0,0:0:0:0:
211,329,28635,2,0,P|282:312|329:244,1,125
223,126,28954,5,8,0:0:0:0:
355,315,29113,1,8,0:0:0:0:
435,162,29273,1,0,0:0:0:0:
421,135,29353,1,0,0:0:0:0:
398,160,29433,1,0,0:0:0:0:
311,47,29592,5,8,0:0:0:0:
241,295,29752,1,8,0:0:0:0:
142,113,29911,1,0,0:0:0:0:
123,143,29991,1,0,0:0:0:0:
107,110,30071,1,0,0:0:0:0:
144,288,30231,5,8,0:0:0:0:
450,347,30390,1,8,0:0:0:0:
469,34,30550,1,0,0:0:0:0:
429,58,30630,1,0,0:0:0:0:
472,80,30710,1,0,0:0:0:0:
287,70,30869,6,0,P|334:134|350:189,2,125
228,229,31348,2,2,P|177:166|153:48,1,187.500007152558
256,192,31986,12,0,36773,0:0:0:0:
85,97,36933,6,0,P|190:79|268:111,1,187.500007152558
272,81,37332,1,0,0:0:0:0:
256,130,37412,1,0,0:0:0:0:
404,174,37571,2,0,P|356:193|332:246,1,93.7500035762788
440,305,37890,1,0,0:0:0:0:
350,50,38050,1,0,0:0:0:0:
141,325,38210,1,4,0:0:0:0:
448,312,38529,6,0,L|376:192,1,125
378,98,38848,2,0,P|314:69|248:72,2,125
149,53,39327,5,0,0:0:0:0:
252,203,39486,1,0,0:0:0:0:
140,82,39646,1,0,0:0:0:0:
59,288,39805,1,0,0:0:0:0:
182,265,39965,2,0,P|239:309|311:293,1,125
400,128,40284,6,0,P|424:200|408:248,1,125,0|0,0:0|0:0,0:0:0:0:
433,249,40523,1,0,0:0:0:0:
388,235,40603,1,0,0:0:0:0:
240,336,40763,2,0,P|176:300|160:232,1,125,0|0,0:0|0:0,0:0:0:0:
304,48,41082,2,0,P|363:83|408:144,2,125
92,218,41561,5,0,0:0:0:0:
116,336,41720,2,0,P|89:275|94:213,1,125
40,75,42039,2,0,P|64:42|97:33,2,62.5
72,160,42358,5,8,0:0:0:0:
88,144,42438,1,8,0:0:0:0:
104,136,42518,1,8,0:0:0:0:
128,128,42598,1,8,0:0:0:0:
152,128,42678,1,8,0:0:0:0:
176,136,42757,1,8,0:0:0:0:
204,160,42837,6,0,L|233:220,1,62.5
261,217,42997,2,0,L|296:158,1,62.5
328,158,43156,2,0,L|359:218,1,62.5
395,222,43316,2,0,L|432:167,1,62.5
238,71,48582,5,0,0:0:0:0:
84,161,48901,2,0,P|180:81|260:73,1,187.500007152558
465,330,49539,1,0,0:0:0:0:
379,226,49858,1,0,0:0:0:0:
257,204,50178,1,0,0:0:0:0:
158,127,50497,2,0,P|62:207|62:279,1,187.500007152558
373,338,51135,6,0,P|445:266|453:178,1,187.500007152558
256,190,51773,1,0,0:0:0:0:
78,104,52092,1,0,0:0:0:0:
239,50,52412,2,0,P|135:50|71:122,1,187.500007152558
52,327,53050,5,10,0:0:0:0:
386,129,53210,1,10,0:0:0:0:
52,327,53369,1,10,0:0:0:0:
386,129,53529,1,10,0:0:0:0:
239,66,53688,1,0,0:0:0:0:
226,79,53768,1,0,0:0:0:0:
213,96,53848,1,0,0:0:0:0:
198,114,53928,1,0,0:0:0:0:
188,128,54007,6,2,P|170:187|189:255,1,125
257,190,54327,1,8,0:0:0:0:
365,249,54486,6,2,P|381:192|366:122,1,125
257,190,54805,1,8,0:0:0:0:
84,126,54965,6,2,P|66:185|85:253,1,125
257,190,55284,1,8,0:0:0:0:
443,250,55444,6,2,P|459:193|444:123,1,125
257,190,55763,1,8,0:0:0:0:
54,128,55922,6,2,P|36:187|55:255,1,125
171,322,56241,1,0,0:0:0:0:
190,67,56401,1,0,0:0:0:0:
306,295,56561,2,0,P|357:242|369:185,1,125
272,200,56880,2,0,P|272:124|312:85,1,125
401,77,57199,2,0,P|446:138|450:189,1,125
448,207,57438,1,0,0:0:0:0:
441,232,57518,1,0,0:0:0:0:
324,304,57678,1,0,0:0:0:0:
86,75,57837,5,0,0:0:0:0:
159,163,57997,1,0,0:0:0:0:
74,206,58156,1,0,0:0:0:0:
48,238,58236,1,0,0:0:0:0:
90,249,58316,1,0,0:0:0:0:
241,319,58475,2,2,B|208:184|400:248|352:102,1,250
312,53,58954,5,0,0:0:0:0:
283,73,59034,1,0,0:0:0:0:
281,47,59114,2,2,L|136:47,1,125
229,186,59433,1,8,0:0:0:0:
267,320,59592,6,2,L|390:238,1,125
229,186,59912,1,8,0:0:0:0:
175,57,60071,6,2,L|61:133,1,125
229,186,60390,1,8,0:0:0:0:
318,252,60550,6,2,L|318:108,1,125
229,186,60869,1,8,0:0:0:0:
159,132,61029,6,2,L|159:269,2,125
449,69,61507,5,0,0:0:0:0:
368,143,61667,2,0,P|413:213|415:277,1,125
325,293,61986,2,0,P|309:223|274:169,1,125
199,240,62305,1,0,0:0:0:0:
117,58,62465,1,0,0:0:0:0:
134,75,62545,1,0,0:0:0:0:
106,93,62624,1,0,0:0:0:0:
207,173,62784,6,0,P|289:144|338:152,2,125
91,51,63263,1,0,0:0:0:0:
135,59,63342,1,0,0:0:0:0:
107,92,63422,1,0,0:0:0:0:
154,186,63582,2,0,P|226:194|273:231,1,125
288,51,63901,5,0,0:0:0:0:
376,338,64061,1,0,0:0:0:0:
311,74,64220,1,0,0:0:0:0:
200,308,64380,1,0,0:0:0:0:
333,102,64539,1,0,0:0:0:0:
70,199,64699,1,0,0:0:0:0:
375,310,64858,1,0,0:0:0:0:
376,80,65018,6,0,P|264:56|192:80,1,187.500007152558
144,120,65417,1,0,0:0:0:0:
120,192,65497,1,0,0:0:0:0:
128,272,65577,1,0,0:0:0:0:
184,328,65656,1,0,0:0:0:0:
260,352,65736,1,0,0:0:0:0:
329,315,65816,1,0,0:0:0:0:
363,245,65896,1,0,0:0:0:0:
343,168,65975,1,0,0:0:0:0:
67,340,66135,5,8,0:0:0:0:
117,38,66454,5,8,0:0:0:0:
472,152,68688,5,8,0:0:0:0:
64,304,69007,1,8,0:0:0:0:
128,344,71241,6,2,L|48:232,1,125
208,144,71561,2,2,L|280:32,1,125
408,280,71880,5,0,0:0:0:0:
256,320,72039,1,0,0:0:0:0:
412,84,72199,2,0,P|348:129|294:109,1,125
133,59,72518,2,2,L|80:178,1,125
219,166,72837,2,2,L|264:301,1,125
128,300,73156,1,0,0:0:0:0:
331,320,73316,1,0,0:0:0:0:
89,129,73475,2,0,P|149:75|194:63,1,125
477,42,73795,5,0,0:0:0:0:
432,193,73954,1,0,0:0:0:0:
309,125,74114,2,0,P|233:83|187:69,1,125
96,172,74433,5,0,0:0:0:0:
210,267,74592,1,8,0:0:0:0:
87,308,74752,1,8,0:0:0:0:
71,128,74912,1,8,0:0:0:0:
256,292,75071,1,8,0:0:0:0:
58,348,75231,1,8,0:0:0:0:
243,60,75390,1,8,0:0:0:0:
274,217,75550,6,0,P|321:275|371:281,1,125,8|8,0:0|0:0,0:0:0:0:
367,281,75789,5,0,0:0:0:0:
379,267,75869,1,0,0:0:0:0:
392,243,75949,1,0,0:0:0:0:
401,217,76029,1,0,0:0:0:0:
401,192,76108,1,0,0:0:0:0:
392,172,76188,1,0,0:0:0:0:
380,152,76268,1,0,0:0:0:0:
364,138,76348,1,4,0:0:0:0:
51,38,76667,6,0,P|142:100|160:175,1,187.500007152558
185,175,76906,1,0,0:0:0:0:
143,177,76986,1,0,0:0:0:0:
44,225,77146,1,0,0:0:0:0:
237,69,77305,1,0,0:0:0:0:
205,330,77465,1,0,0:0:0:0:
426,333,77624,1,0,0:0:0:0:
427,248,77784,6,0,P|330:197|310:118,1,187.500007152558
415,144,78103,2,0,P|362:46|271:42,1,187.500007152558
294,34,78422,1,0,0:0:0:0:
235,231,78582,1,0,0:0:0:0:
116,117,78741,1,0,0:0:0:0:
81,152,78821,1,0,0:0:0:0:
127,165,78901,1,0,0:0:0:0:
127,342,79061,6,0,P|216:299|306:320,2,187.500007152558
379,100,79539,1,0,0:0:0:0:
269,224,79699,1,0,0:0:0:0:
379,100,79858,1,0,0:0:0:0:
269,224,80018,1,0,0:0:0:0:
238,96,80178,2,0,P|149:62|28:49,1,187.500007152558
58,48,80497,5,0,0:0:0:0:
143,249,80656,6,8,L|142:145,1,93.7500035762788
143,249,80816,6,8,L|85:151,1,93.7500035762788
143,249,80975,6,8,L|38:196,1,93.7500035762788
143,249,81135,6,8,L|33:267,1,93.7500035762788
143,249,81295,6,8,L|51:341,1,93.7500035762788
143,249,81454,6,8,L|133:364,1,93.7500035762788
143,249,81614,2,2,B|271:284|227:126|423:100|501:291,1,375.000014305115
425,303,82092,5,0,0:0:0:0:
425,303,82252,1,0,0:0:0:0:
460,140,82412,2,0,P|407:53|323:35,2,187.500007152558
82,340,82890,1,0,0:0:0:0:
257,291,83050,2,0,P|145:341|47:332,1,187.500007152558
155,53,83369,5,0,0:0:0:0:
43,177,83529,1,0,0:0:0:0:
170,296,83688,1,0,0:0:0:0:
142,162,83848,2,0,P|239:145|328:194,2,187.500007152558
408,136,84327,6,8,L|386:35,1,93.7500035762788
408,136,84486,6,8,L|323:68,1,93.7500035762788
408,136,84646,6,8,L|301:149,1,93.7500035762788
408,136,84805,6,8,L|328:229,1,93.7500035762788
408,136,84965,6,8,L|411:258,1,93.7500035762788
408,136,85124,2,8,L|489:231,1,93.7500035762788
408,136,85284,6,8,L|514:137,1,93.7500035762788
408,136,85444,6,8,L|479:60,1,93.7500035762788
408,136,85603,6,10,B|376:64|232:224|55:41,1,375.000014305115
65,51,86002,1,0,0:0:0:0:
65,51,86082,5,0,0:0:0:0:
41,87,86162,1,0,0:0:0:0:
30,118,86241,1,0,0:0:0:0:
37,153,86321,1,0,0:0:0:0:
59,181,86401,1,0,0:0:0:0:
89,203,86481,5,0,0:0:0:0:
116,239,86561,1,0,0:0:0:0:
120,275,86640,1,0,0:0:0:0:
103,315,86720,1,0,0:0:0:0:
270,239,86880,5,4,0:0:0:0:
269,342,87199,2,0,P|357:286|365:190,1,187.500007152558
302,91,87837,1,0,0:0:0:0:
128,94,87997,2,0,P|210:63|305:94,1,187.500007152558
228,164,88475,2,0,P|201:217|203:256,1,93.7500035762788
317,322,88795,1,0,0:0:0:0:
100,227,88954,1,0,0:0:0:0:
244,93,89114,2,0,P|309:104|332:90,2,93.7500035762788
429,47,89592,5,8,0:0:0:0:
449,326,89752,1,8,0:0:0:0:
237,278,89912,1,8,0:0:0:0:
410,60,90071,1,8,0:0:0:0:
368,70,90231,1,8,0:0:0:0:
390,202,90390,1,8,0:0:0:0:
208,260,90550,2,2,P|167:203|123:190,1,93.7500035762788
298,339,90869,5,8,0:0:0:0:
40,254,91029,1,8,0:0:0:0:
298,339,91188,1,8,0:0:0:0:
266,92,91348,1,8,0:0:0:0:
174,80,91507,2,2,L|274:93,2,93.7500035762788
448,336,91986,5,8,0:0:0:0:
448,336,92146,1,8,0:0:0:0:
416,248,92305,2,2,P|408:176|368:128,1,125
109,64,92624,5,8,0:0:0:0:
279,134,92784,1,8,0:0:0:0:
239,52,92944,2,2,P|192:104|191:180,1,125
111,290,93263,5,8,0:0:0:0:
305,279,93422,1,8,0:0:0:0:
206,334,93582,2,2,P|207:271|158:206,2,125
273,35,94061,1,8,0:0:0:0:
92,245,94220,1,8,0:0:0:0:
332,162,94380,5,0,0:0:0:0:
380,116,94460,1,0,0:0:0:0:
427,71,94539,1,0,0:0:0:0:
432,216,94858,5,2,0:0:0:0:
278,115,95178,5,0,0:0:0:0:
146,246,95337,1,0,0:0:0:0:
278,115,95497,1,0,0:0:0:0:
105,68,95656,2,0,P|169:108|305:108,1,187.500007152558
430,224,96135,5,0,0:0:0:0:
373,335,96295,2,0,L|440:206,1,125
443,116,96614,5,0,0:0:0:0:
376,73,96694,1,0,0:0:0:0:
303,46,96773,1,0,0:0:0:0:
230,38,96853,1,0,0:0:0:0:
156,57,96933,1,0,0:0:0:0:
268,313,97092,5,0,0:0:0:0:
333,120,97252,1,0,0:0:0:0:
355,316,97412,5,8,0:0:0:0:
248,123,97571,1,8,0:0:0:0:
423,258,97731,5,0,0:0:0:0:
189,192,97890,1,0,0:0:0:0:
90,336,98050,2,2,L|205:249,1,125
81,52,98369,5,8,0:0:0:0:
64,93,98529,1,8,0:0:0:0:
233,271,98688,5,0,0:0:0:0:
277,270,98848,1,0,0:0:0:0:
378,114,99007,5,0,0:0:0:0:
364,80,99167,1,0,0:0:0:0:
99,305,99327,5,0,0:0:0:0:
231,141,99486,1,0,0:0:0:0:
448,56,99646,5,8,0:0:0:0:
96,95,99805,1,8,0:0:0:0:
75,315,100124,5,8,0:0:0:0:
192,47,100284,1,8,0:0:0:0:
113,41,100603,5,8,0:0:0:0:
421,325,100763,1,8,0:0:0:0:
230,298,101082,6,8,P|302:274|326:226,1,125
429,93,101561,2,0,P|357:109|325:69,2,125
208,120,102039,5,0,0:0:0:0:
110,186,102199,2,0,P|110:244|157:297,1,125,8|0,0:0|0:0,0:0:0:0:
324,315,102678,1,8,0:0:0:0:
456,56,102837,1,8,0:0:0:0:
257,53,103156,5,8,0:0:0:0:
46,222,103316,1,8,0:0:0:0:
148,46,103635,5,0,0:0:0:0:
44,153,103795,1,0,0:0:0:0:
123,271,103954,1,0,0:0:0:0:
216,160,104114,2,2,P|288:168|336:216,2,125
355,66,104592,1,4,0:0:0:0:
256,192,104752,12,0,107146,0:0:0:0:
148,53,107305,5,0,0:0:0:0:
87,162,107465,1,0,0:0:0:0:
223,221,107624,2,0,P|303:261|359:221,1,125
333,271,107864,1,0,0:0:0:0:
335,233,107944,1,0,0:0:0:0:
328,80,108103,5,0,0:0:0:0:
415,63,108263,2,0,P|455:135|447:191,1,125
463,194,108502,1,0,0:0:0:0:
426,187,108582,1,0,0:0:0:0:
324,267,108741,1,0,0:0:0:0:
416,339,108901,2,0,P|376:283|320:267,1,125
256,339,109220,2,0,P|212:293|161:239,1,125
64,292,109539,5,0,0:0:0:0:
230,176,109699,1,0,0:0:0:0:
107,159,109859,2,0,P|65:97|69:40,1,125
156,89,110178,1,0,0:0:0:0:
445,159,110338,1,0,0:0:0:0:
403,51,110497,2,0,P|445:106|442:169,2,125
349,132,110975,1,0,0:0:0:0:
119,268,111136,2,0,P|163:226|237:195,1,125
324,167,111454,5,0,0:0:0:0:
417,221,111614,1,0,0:0:0:0:
399,319,111773,5,0,0:0:0:0:
372,297,111853,1,0,0:0:0:0:
372,342,111932,1,0,0:0:0:0:
341,296,112012,1,0,0:0:0:0:
340,343,112092,1,0,0:0:0:0:
312,294,112172,1,0,0:0:0:0:
310,343,112252,1,0,0:0:0:0:
180,337,112412,6,0,L|92:241,1,125
294,100,112731,1,0,0:0:0:0:
210,192,112891,2,0,L|306:88,1,125
444,49,113210,1,0,0:0:0:0:
434,240,113370,1,0,0:0:0:0:
444,49,113529,1,0,0:0:0:0:
264,140,113689,1,0,0:0:0:0:
348,343,113848,6,0,P|308:275|255:261,2,125
348,343,114327,1,0,0:0:0:0:
253,112,114487,1,0,0:0:0:0:
90,309,114646,1,0,0:0:0:0:
99,162,114806,2,0,L|235:258,1,125
320,295,115125,5,0,0:0:0:0:
352,286,115205,1,0,0:0:0:0:
328,257,115285,1,0,0:0:0:0:
392,64,115444,2,0,P|344:136|304:136,2,125
238,218,115923,1,0,0:0:0:0:
148,334,116082,2,0,P|97:286|91:227,1,125
307,323,116401,5,0,0:0:0:0:
358,277,116481,1,0,0:0:0:0:
403,228,116561,1,0,0:0:0:0:
327,151,116720,1,0,0:0:0:0:
192,72,116880,2,0,P|126:48|64:72,1,125
83,88,117119,1,0,0:0:0:0:
55,48,117199,1,0,0:0:0:0:
46,188,117358,5,0,0:0:0:0:
86,337,117518,1,0,0:0:0:0:
220,183,117678,5,0,0:0:0:0:
320,308,117837,1,0,0:0:0:0:
216,312,117997,2,0,P|312:320|328:288,1,125
312,224,118316,1,0,0:0:0:0:
384,168,118475,2,0,P|408:88|392:48,2,125
312,99,118954,1,0,0:0:0:0:
75,176,119114,1,0,0:0:0:0:
138,56,119273,2,0,P|194:112|194:168,1,125
221,325,119592,5,0,0:0:0:0:
227,282,119672,1,0,0:0:0:0:
260,304,119752,1,0,0:0:0:0:
66,141,119912,2,0,P|132:61|182:50,1,125
403,73,120231,5,0,0:0:0:0:
403,73,120390,2,0,P|446:128|467:193,2,125
439,271,120869,2,0,P|388:231|375:159,1,125
205,93,121188,5,0,0:0:0:0:
73,42,121348,1,0,0:0:0:0:
52,173,121507,1,0,0:0:0:0:
52,173,121667,2,0,P|95:226|116:293,1,125
184,336,121986,2,0,P|235:250|376:181,1,250
364,159,122385,1,0,0:0:0:0:
378,203,122465,1,0,0:0:0:0:
452,269,122624,5,0,0:0:0:0:
407,70,122784,1,0,0:0:0:0:
407,70,122944,2,0,P|335:54|287:86,2,125
354,164,123422,2,0,P|350:242|317:281,1,125
221,224,123741,1,0,0:0:0:0:
254,113,123901,2,0,P|192:112|114:66,1,125
135,85,124220,1,0,0:0:0:0:
124,327,124380,5,0,0:0:0:0:
43,230,124539,1,0,0:0:0:0:
265,227,124699,1,0,0:0:0:0:
146,228,124858,2,0,P|212:243|274:223,2,125
288,314,125337,1,0,0:0:0:0:
461,197,125497,1,0,0:0:0:0:
422,89,125656,1,0,0:0:0:0:
461,197,125816,2,0,P|461:133|413:85,1,125
182,61,126135,5,0,0:0:0:0:
274,78,126295,2,0,P|257:162|231:202,1,125
333,322,126614,1,0,0:0:0:0:
124,272,126773,2,2,B|76:224|100:192|92:120|36:104,1,187.500007152558
215,163,127252,5,8,0:0:0:0:
198,143,127332,1,8,0:0:0:0:
220,125,127412,5,8,0:0:0:0:
235,143,127491,1,8,0:0:0:0:
215,163,127571,1,8,0:0:0:0:
198,143,127651,1,8,0:0:0:0:
220,125,127731,1,8,0:0:0:0:
356,226,128050,5,8,0:0:0:0:
280,312,128210,2,2,L|184:224,1,125
368,240,128529,5,8,0:0:0:0:
240,272,128688,2,2,L|208:152,1,125
368,240,129007,5,8,0:0:0:0:
224,208,129167,2,2,L|272:88,1,125
368,240,129486,5,8,0:0:0:0:
248,152,129646,2,2,L|352:80,1,125
368,240,129965,5,8,0:0:0:0:
323,111,130124,2,2,L|451:142,2,125
442,234,130603,2,0,P|410:293|334:322,1,125
346,237,130922,2,0,P|271:230|228:180,1,125
314,162,131241,2,0,P|319:92|364:60,1,125
440,128,131561,1,0,0:0:0:0:
289,285,131720,5,0,0:0:0:0:
376,191,131880,1,0,0:0:0:0:
298,101,132039,2,0,P|227:89|187:52,1,125
87,132,132358,1,0,0:0:0:0:
129,95,132438,1,0,0:0:0:0:
112,112,132518,2,0,P|168:176|176:288,1,187.500007152558,0|4,0:0|0:0,0:0:0:0:
151,278,132917,1,0,0:0:0:0:
192,282,132997,1,0,0:0:0:0:
403,71,133156,6,2,P|356:69|310:131,1,125
384,143,133475,1,8,0:0:0:0:
89,164,133635,5,8,0:0:0:0:
186,173,133795,2,2,P|163:103|122:71,1,125
309,307,134114,5,8,0:0:0:0:
397,296,134273,2,2,P|354:241|303:221,1,125
117,234,134592,6,2,P|70:181|72:125,1,125
152,157,134912,1,8,0:0:0:0:
448,259,135071,5,8,0:0:0:0:
322,45,135230,1,8,0:0:0:0:
257,132,135390,5,0,0:0:0:0:
310,154,135550,1,0,0:0:0:0:
176,198,135710,5,8,0:0:0:0:
346,235,135869,1,8,0:0:0:0:
88,245,136029,5,8,0:0:0:0:
376,335,136188,1,8,0:0:0:0:
296,41,136348,2,2,P|392:65|464:193,1,250
345,243,136827,1,0,0:0:0:0:
345,285,136906,1,0,0:0:0:0:
344,268,136986,2,0,P|261:256|240:204,1,125
162,77,137305,1,0,0:0:0:0:
106,294,137465,5,0,0:0:0:0:
115,271,137545,1,0,0:0:0:0:
125,249,137624,1,0,0:0:0:0:
136,231,137704,1,0,0:0:0:0:
152,208,137784,2,2,B|192:144|360:136|416:176,1,281.250010728836,2|6,0:0|0:0,0:0:0:0:
256,192,138422,12,0,140018,0:0:0:0:
128,64,140178,6,2,B|307:38|193:205|416:133|363:176,1,250
166,220,140816,1,0,0:0:0:0:
136,225,140896,1,0,0:0:0:0:
162,250,140975,1,0,0:0:0:0:
316,321,141135,1,0,0:0:0:0:
464,338,141454,5,0,0:0:0:0:
363,44,141614,1,0,0:0:0:0:
96,142,141933,1,0,0:0:0:0:
106,111,142013,1,0,0:0:0:0:
130,132,142092,1,0,0:0:0:0:
293,142,142252,2,0,P|256:85|202:59,2,125
369,284,142731,6,0,L|335:251,1,31.25
260,304,143050,2,0,L|222:329,1,31.25
260,94,143289,5,0,0:0:0:0:
234,113,143369,1,8,0:0:0:0:
242,144,143449,1,8,0:0:0:0:
277,131,143529,1,8,0:0:0:0:
234,113,143608,1,8,0:0:0:0:
242,144,143688,1,8,0:0:0:0:
277,131,143768,1,0,0:0:0:0:
260,94,143848,2,0,P|316:134|380:134,1,125
448,120,144167,5,0,0:0:0:0:
304,72,144327,2,0,P|232:48|144:80,2,125
237,129,144805,1,0,0:0:0:0:
78,336,144965,1,0,0:0:0:0:
116,114,145284,6,0,L|86:142,1,31.25
226,223,145603,2,0,L|249:253,1,31.25
296,336,145763,1,8,0:0:0:0:
449,226,145922,1,8,0:0:0:0:
296,336,146082,1,8,0:0:0:0:
449,226,146241,1,8,0:0:0:0:
92,334,146561,6,0,L|67:284,1,31.25
235,164,146880,2,0,L|246:127,1,31.25
67,78,147039,5,8,0:0:0:0:
280,258,147199,1,8,0:0:0:0:
67,78,147358,1,8,0:0:0:0:
280,258,147518,1,8,0:0:0:0:
401,332,147837,2,2,B|465:268|465:212|433:132,1,187.500007152558
408,80,148316,6,8,P|344:48|280:48,1,125
342,193,148635,1,8,0:0:0:0:
117,94,148795,1,8,0:0:0:0:
112,259,148954,1,8,0:0:0:0:
322,142,149114,5,8,0:0:0:0:
76,64,149273,1,8,0:0:0:0:
133,293,149433,1,8,0:0:0:0:
290,102,149592,5,8,0:0:0:0:
36,39,149752,1,8,0:0:0:0:
157,322,149912,1,8,0:0:0:0:
388,234,150071,5,0,0:0:0:0:
406,205,150151,1,0,0:0:0:0:
416,176,150231,1,0,0:0:0:0:
416,144,150311,5,0,0:0:0:0:
400,112,150390,1,0,0:0:0:0:
376,96,150470,1,0,0:0:0:0:
355,124,150550,5,0,0:0:0:0:
339,151,150630,1,0,0:0:0:0:
326,177,150710,1,4,0:0:0:0:
75,38,150869,6,0,P|163:80|194:173,1,187.500007152558
194,159,151188,1,0,0:0:0:0:
84,292,151348,1,0,0:0:0:0:
286,333,151507,2,0,P|352:260|455:262,1,187.500007152558
271,157,151827,1,0,0:0:0:0:
307,149,151906,1,0,0:0:0:0:
296,188,151986,1,0,0:0:0:0:
440,320,152146,6,0,L|485:124,1,187.500007152558
367,238,152465,2,0,L|327:35,1,187.500007152558
443,62,152784,1,0,0:0:0:0:
150,96,152944,1,0,0:0:0:0:
111,319,153103,2,0,P|129:228|61:141,1,187.500007152558,0|0,0:0|0:0,0:0:0:0:
347,273,153422,6,8,L|268:213,1,93.7500035762788
347,273,153582,6,8,L|327:166,1,93.7500035762788
347,273,153741,6,8,L|404:180,1,93.7500035762788
347,273,153901,6,8,L|470:269,1,93.7500035762788
347,273,154061,6,8,L|437:355,1,93.7500035762788
347,273,154220,6,8,L|346:370,1,93.7500035762788
347,273,154380,6,8,L|260:343,1,93.7500035762788
347,273,154539,2,10,B|312:104|72:336|33:141,1,375.000014305115
140,50,155178,1,8,0:0:0:0:
333,145,155337,5,0,0:0:0:0:
315,180,155417,1,0,0:0:0:0:
301,209,155497,1,0,0:0:0:0:
141,185,155656,1,0,0:0:0:0:
159,157,155736,1,0,0:0:0:0:
178,133,155816,1,0,0:0:0:0:
106,48,155975,5,0,0:0:0:0:
55,296,156134,1,0,0:0:0:0:
337,66,156294,1,0,0:0:0:0:
263,335,156453,1,0,0:0:0:0:
210,256,156614,2,0,P|296:272|364:387,1,187.500007152558
447,53,156933,1,0,0:0:0:0:
440,106,157013,1,0,0:0:0:0:
444,79,157092,2,0,P|316:82|276:-42,1,187.500007152558
214,110,157412,5,0,0:0:0:0:
66,204,157571,1,0,0:0:0:0:
183,335,157731,2,0,P|140:243|55:203,1,187.500007152558
385,273,158050,1,0,0:0:0:0:
443,65,158210,1,0,0:0:0:0:
385,273,158369,1,0,0:0:0:0:
130,260,158529,6,8,L|65:186,1,93.7500035762788
130,260,158688,6,8,L|26:230,1,93.7500035762788
130,260,158848,6,8,L|38:303,1,93.7500035762788
130,260,159007,6,8,L|81:366,1,93.7500035762788
130,260,159167,6,8,L|161:378,1,93.7500035762788
130,260,159327,6,8,L|229:331,1,93.7500035762788
130,260,159486,6,8,L|264:251,1,93.7500035762788
130,260,159646,6,10,B|82:161|202:137|338:241|409:27,1,375.000014305115
434,197,160444,5,8,0:0:0:0:
425,220,160523,1,8,0:0:0:0:
418,239,160603,1,8,0:0:0:0:
410,261,160683,1,8,0:0:0:0:
403,278,160763,1,8,0:0:0:0:
331,337,160922,2,0,P|264:319|186:333,1,125
306,219,161241,6,0,P|369:203|419:157,2,93.7500035762788
321,105,161720,1,0,0:0:0:0:
141,62,161880,2,0,P|162:124|150:149,2,93.7500035762788,0|0|4,0:0|0:0|0:0,0:0:0:0:
51,224,162358,1,0,0:0:0:0:
174,232,162518,6,0,P|226:272|284:269,2,93.7500035762788
375,250,162997,1,0,0:0:0:0:
377,119,163156,2,0,P|330:76|296:63,2,93.7500035762788,0|0|4,0:0|0:0|0:0,0:0:0:0:
107,81,163635,5,8,0:0:0:0:
110,314,163795,1,8,0:0:0:0:
60,158,163954,5,8,0:0:0:0:
271,160,164114,1,8,0:0:0:0:
403,315,164273,2,0,L|406:184,1,125
429,190,164513,1,0,0:0:0:0:
389,187,164592,1,4,0:0:0:0:
203,50,164752,5,8,0:0:0:0:
437,127,164911,1,8,0:0:0:0:
352,46,165071,5,8,0:0:0:0:
316,272,165231,1,8,0:0:0:0:
175,304,165390,2,0,P|106:249|94:191,2,125
425,151,165869,5,8,0:0:0:0:
345,310,166029,1,8,0:0:0:0:
395,236,166188,2,2,L|284:140,1,125
301,155,166507,1,8,0:0:0:0:
232,310,166667,1,8,0:0:0:0:
268,237,166827,2,2,L|161:146,1,125
172,156,167146,5,8,0:0:0:0:
115,341,167305,1,8,0:0:0:0:
155,267,167465,2,2,L|36:153,1,125
265,47,167784,1,8,0:0:0:0:
422,127,167944,1,8,0:0:0:0:
306,126,168103,2,2,L|186:174,2,125
102,62,168582,6,0,L|75:200,1,125
222,318,168901,1,0,0:0:0:0:
221,133,169061,1,0,0:0:0:0:
405,148,169220,1,0,0:0:0:0:
406,309,169380,1,0,0:0:0:0:
303,217,169539,1,0,0:0:0:0:
128,304,169699,1,0,0:0:0:0:
151,278,169779,1,0,0:0:0:0:
117,263,169858,1,0,0:0:0:0:
328,224,170018,6,0,P|312:144|232:112,2,125
416,314,170497,1,8,0:0:0:0:
194,50,170816,1,4,0:0:0:0:
119,233,171135,5,8,0:0:0:0:
123,316,171295,2,2,P|59:284|38:233,1,125
104,144,171614,1,8,0:0:0:0:
104,144,171773,1,8,0:0:0:0:
152,64,171933,2,2,P|224:56|288:72,1,125
404,70,172252,5,8,0:0:0:0:
404,70,172412,1,8,0:0:0:0:
445,158,172571,2,2,P|381:158|333:198,1,125
409,235,172890,1,8,0:0:0:0:
219,343,173050,1,8,0:0:0:0:
54,311,173210,6,2,P|86:247|62:199,1,125
46,119,173688,1,2,0:0:0:0:
320,52,173848,1,2,0:0:0:0:
45,36,174167,5,2,0:0:0:0:
392,303,174327,1,2,0:0:0:0:
118,327,174646,5,2,0:0:0:0:
197,59,174805,1,2,0:0:0:0:
411,155,175124,6,2,P|403:91|355:51,1,125
284,100,175603,2,2,P|233:147|175:152,2,125
174,43,176082,1,8,0:0:0:0:
416,304,176241,2,2,P|344:248|264:264,1,125
232,336,176720,5,2,0:0:0:0:
70,80,176880,1,2,0:0:0:0:
238,230,177199,5,2,0:0:0:0:
171,297,177358,1,2,0:0:0:0:
253,325,177518,2,8,P|341:293|357:261,1,125
381,280,177757,1,8,0:0:0:0:
343,249,177837,1,8,0:0:0:0:
388,60,177997,1,8,0:0:0:0:
276,147,178156,1,4,0:0:0:0:
135,171,178316,6,2,P|127:83|183:59,2,125,2|2|6,0:0|0:0|0:0,0:0:0:0:
256,192,178795,12,0,181348,0:0:0:0:
104,104,181667,6,0,P|192:112|256:192,1,187.500007152558
128,224,182305,1,0,0:0:0:0:
208,328,182624,2,0,P|312:304|368:240,1,187.500007152558
440,328,183263,1,0,0:0:0:0:
432,128,183582,2,0,P|320:128|296:64,1,187.500007152558
377,72,184220,1,0,0:0:0:0:
221,51,184539,6,0,P|163:128|213:211,1,187.500007152558
249,284,185018,1,0,0:0:0:0:
224,313,185097,1,0,0:0:0:0:
263,318,185177,1,0,0:0:0:0:
422,129,185337,5,0,0:0:0:0:
363,253,185497,1,0,0:0:0:0:
232,312,185656,1,0,0:0:0:0:
232,312,185816,6,0,P|248:248|240:208,1,93.7500035762788
149,148,186135,2,0,P|125:108|133:60,1,93.7500035762788
439,56,186454,5,8,0:0:0:0:
440,298,186773,1,8,0:0:0:0:
284,57,187092,5,8,0:0:0:0:
288,302,187412,1,8,0:0:0:0:
131,55,187731,5,8,0:0:0:0:
129,306,188050,1,8,0:0:0:0:
74,312,188369,5,8,0:0:0:0:
79,55,188688,1,8,0:0:0:0:
288,208,189007,5,8,0:0:0:0:
368,144,189167,1,8,0:0:0:0:
304,64,189327,1,8,0:0:0:0:
304,64,189486,2,8,P|368:64|408:48,1,93.7500035762788
464,136,189805,6,8,P|448:184|408:232,1,93.7500035762788
320,169,190124,2,8,P|288:216|287:269,1,93.7500035762788
396,227,190444,1,8,0:0:0:0:
425,236,190523,1,8,0:0:0:0:
407,265,190603,1,8,0:0:0:0:
296,344,190763,1,8,0:0:0:0:
212,300,190922,2,8,P|172:258|171:212,1,93.7500035762788
168,224,191241,1,4,0:0:0:0:
104,128,191401,6,0,P|152:80|208:80,2,125
184,160,191880,1,0,0:0:0:0:
272,136,192039,1,0,0:0:0:0:
320,64,192199,1,0,0:0:0:0:
368,144,192358,2,0,P|432:120|488:128,2,125
440,208,192837,5,0,0:0:0:0:
464,296,192997,1,0,0:0:0:0:
376,272,193156,1,0,0:0:0:0:
281,46,193316,1,0,0:0:0:0:
377,105,193475,2,0,P|329:49|273:49,1,125
248,208,193795,2,0,P|184:200|152:144,1,125
200,48,194114,5,0,0:0:0:0:
72,192,194273,1,0,0:0:0:0:
200,336,194433,1,0,0:0:0:0:
418,313,194592,2,0,P|346:265|329:224,1,125
330,232,194912,1,0,0:0:0:0:
418,157,195071,1,0,0:0:0:0:
330,232,195231,1,0,0:0:0:0:
338,84,195390,6,0,P|268:62|202:76,2,125
272,144,195869,1,0,0:0:0:0:
208,216,196029,2,0,P|277:232|352:208,2,125
118,70,196507,1,8,0:0:0:0:
70,128,196587,1,8,0:0:0:0:
64,205,196667,1,8,0:0:0:0:
156,271,196827,6,2,P|204:219|274:183,1,125
249,288,197146,2,2,P|311:249|386:229,1,125
450,316,197465,2,2,P|451:254|424:190,2,125
306,201,197944,2,2,P|269:142|294:90,1,125
186,59,198263,5,8,0:0:0:0:
108,51,198342,1,8,0:0:0:0:
48,95,198422,1,8,0:0:0:0:
96,177,198582,2,2,P|184:170|202:133,1,125
132,98,198901,2,2,P|191:49|248:49,1,125
290,126,199220,2,2,P|370:93|407:68,2,125
266,97,199619,5,0,0:0:0:0:
296,151,199699,1,0,0:0:0:0:
407,266,199858,2,2,P|333:229|273:226,1,125
256,304,200178,2,2,P|208:232|208:176,1,125
280,144,200497,2,2,P|336:96|336:48,1,125
171,57,200816,2,2,P|101:48|33:55,2,125
175,95,201215,1,0,0:0:0:0:
201,62,201295,1,0,0:0:0:0:
301,306,201454,5,8,0:0:0:0:
361,274,201534,1,8,0:0:0:0:
397,215,201614,1,8,0:0:0:0:
394,98,201773,2,2,P|322:64|261:58,1,125
183,95,202092,2,2,P|125:136|72:115,1,125
110,310,202412,2,2,P|165:238|212:214,1,125
357,211,202731,1,8,0:0:0:0:
384,53,202890,5,8,0:0:0:0:
358,91,202970,1,8,0:0:0:0:
319,128,203050,1,8,0:0:0:0:
274,155,203130,1,0,0:0:0:0:
222,146,203210,1,0,0:0:0:0:
175,125,203289,1,0,0:0:0:0:
127,128,203369,5,0,0:0:0:0:
82,157,203449,1,0,0:0:0:0:
54,197,203529,1,0,0:0:0:0:
202,269,203688,1,8,0:0:0:0:
477,315,203848,2,2,P|444:251|379:235,1,125
242,181,204167,5,8,0:0:0:0:
266,155,204247,1,8,0:0:0:0:
278,186,204327,1,8,0:0:0:0:
448,80,204486,2,2,P|368:64|304:64,2,125
192,144,204965,1,8,0:0:0:0:
334,184,205124,2,2,P|356:256|350:309,1,125
72,224,205444,2,2,P|176:232|208:256,1,125
107,325,205763,5,8,0:0:0:0:
258,74,205922,1,0,0:0:0:0:
138,274,206082,1,8,0:0:0:0:
289,233,206241,2,2,P|345:192|368:133,1,125
440,56,206561,1,8,0:0:0:0:
168,252,206720,1,8,0:0:0:0:
424,304,206880,1,4,0:0:0:0:
136,57,216454,5,8,0:0:0:0:
98,58,216534,1,8,0:0:0:0:
114,86,216614,1,8,0:0:0:0:
79,180,216773,2,8,P|175:172|199:140,1,125
159,276,217092,1,8,0:0:0:0:
440,152,217252,5,8,0:0:0:0:
392,256,217412,2,8,P|352:184|312:160,1,125
160,88,217731,1,8,0:0:0:0:
376,282,217890,1,8,0:0:0:0:
379,251,217970,1,8,0:0:0:0:
411,266,218050,1,8,0:0:0:0:
112,152,218210,5,8,0:0:0:0:
360,72,218369,1,8,0:0:0:0:
224,256,218529,1,8,0:0:0:0:
360,248,218688,2,8,P|336:176|288:144,1,125
230,121,218928,1,8,0:0:0:0:
160,99,219007,1,8,0:0:0:0:
83,108,219087,1,8,0:0:0:0:
43,177,219167,1,8,0:0:0:0:
292,324,219327,5,8,0:0:0:0:
120,288,219646,1,8,0:0:0:0:
48,72,219805,1,8,0:0:0:0:
176,128,219965,1,8,0:0:0:0:
172,92,220045,1,8,0:0:0:0:
207,107,220124,1,8,0:0:0:0:
344,64,220284,2,8,P|400:96|416:152,1,125
336,152,220603,2,8,P|352:224|400:256,1,125
392,344,220922,5,8,0:0:0:0:
322,338,221002,1,8,0:0:0:0:
256,320,221082,1,8,0:0:0:0:
208,276,221162,1,8,0:0:0:0:
207,206,221241,1,8,0:0:0:0:
296,192,221401,2,8,P|280:128|224:112,1,125
176,192,221880,5,4,0:0:0:0:
176,56,222199,2,2,P|256:72|336:168,2,187.5
342,253,223475,2,2,P|246:204|199:136,2,187.5
240,56,224592,1,8,0:0:0:0:
301,312,224752,1,8,0:0:0:0:
478,198,224912,1,8,0:0:0:0:
419,97,225071,5,8,0:0:0:0:
417,138,225151,1,8,0:0:0:0:
379,113,225231,1,8,0:0:0:0:
264,152,225390,2,8,P|232:88|168:64,1,125
48,48,225710,1,8,0:0:0:0:
108,308,225869,1,8,0:0:0:0:
185,151,226029,1,4,0:0:0:0:
232,56,226188,5,8,0:0:0:0:
256,56,226268,1,8,0:0:0:0:
280,56,226348,1,8,0:0:0:0:
296,56,226428,1,8,0:0:0:0:
320,56,226507,1,8,0:0:0:0:
352,56,226587,1,8,0:0:0:0:
384,56,226667,1,8,0:0:0:0:
416,56,226747,1,8,0:0:0:0:
440,72,226827,5,8,0:0:0:0:
456,96,226906,1,8,0:0:0:0:
472,128,226986,1,8,0:0:0:0:
480,168,227066,1,8,0:0:0:0:
464,216,227146,1,8,0:0:0:0:
424,248,227225,1,8,0:0:0:0:
376,280,227305,1,4,0:0:0:0:
256,328,227465,6,0,P|288:264|297:144,1,187.500007152558
297,149,227784,1,0,0:0:0:0:
224,89,227944,1,0,0:0:0:0:
184,216,228103,2,0,P|106:151|85:44,1,187.500007152558
176,48,228422,1,0,0:0:0:0:
57,260,228582,1,0,0:0:0:0:
57,260,228741,6,0,P|121:332|226:336,1,187.500007152558
158,227,229061,2,0,P|235:192|339:223,1,187.500007152558
458,303,229380,1,0,0:0:0:0:
458,303,229460,1,0,0:0:0:0:
458,303,229539,2,0,P|455:231|406:122,2,187.500007152558
74,92,230018,5,8,0:0:0:0:
74,111,230098,1,8,0:0:0:0:
81,132,230178,1,8,0:0:0:0:
99,148,230257,1,8,0:0:0:0:
124,155,230337,1,8,0:0:0:0:
148,146,230417,5,8,0:0:0:0:
166,128,230497,1,8,0:0:0:0:
173,104,230577,1,8,0:0:0:0:
168,86,230656,1,8,0:0:0:0:
151,67,230736,1,8,0:0:0:0:
129,57,230816,1,8,0:0:0:0:
100,58,230896,1,8,0:0:0:0:
80,77,230975,6,2,B|224:152|96:304|336:336,1,375.000014305115,2|6,0:0|0:0,0:0:0:0:
339,235,231454,2,0,P|278:148|304:50,1,187.500007152558
390,117,231773,2,0,P|272:163|194:145,1,187.500007152558
215,153,232092,1,0,0:0:0:0:
289,72,232252,2,0,P|195:49|96:84,1,187.500007152558
53,344,232571,6,0,P|101:284|204:238,1,187.500007152558
206,216,232811,1,0,0:0:0:0:
221,253,232890,1,0,0:0:0:0:
168,345,233050,1,0,0:0:0:0:
42,179,233210,1,0,0:0:0:0:
216,179,233369,1,0,0:0:0:0:
356,200,233529,6,0,P|424:136|419:22,2,187.500007152558
239,36,234007,1,0,0:0:0:0:
220,42,234087,1,0,0:0:0:0:
205,48,234167,1,0,0:0:0:0:
189,57,234247,1,0,0:0:0:0:
173,69,234327,2,0,P|115:162|100:244,1,187.500007152558
330,276,234646,1,0,0:0:0:0:
79,304,234965,5,8,0:0:0:0:
85,344,235045,1,8,0:0:0:0:
48,339,235124,1,8,0:0:0:0:
132,233,235284,2,2,P|193:245|248:204,2,93.7500035762788
323,204,235603,1,8,0:0:0:0:
354,142,235683,1,8,0:0:0:0:
377,76,235763,1,8,0:0:0:0:
189,141,235922,6,2,P|150:97|125:39,2,93.7500035762788
260,80,236241,1,8,0:0:0:0:
329,88,236321,1,8,0:0:0:0:
399,103,236401,1,8,0:0:0:0:
454,146,236481,5,8,0:0:0:0:
467,214,236561,1,8,0:0:0:0:
443,280,236640,1,8,0:0:0:0:
393,329,236720,1,8,0:0:0:0:
307,268,236880,2,2,P|259:204|155:154,2,187.500007152558
307,268,237358,1,12,0:0:0:0:
139,323,237518,6,2,P|77:242|67:155,1,187.500007152558
189,45,237997,1,0,0:0:0:0:
336,134,238156,1,0,0:0:0:0:
243,301,238316,1,0,0:0:0:0:
193,179,238475,2,2,P|265:219|377:235,1,187.500007152558
435,46,238954,5,0,0:0:0:0:
303,51,239114,1,0,0:0:0:0:
383,163,239273,1,0,0:0:0:0:
259,166,239433,2,0,L|304:290,1,125
195,283,239752,2,2,P|147:333|91:339,2,125,2|2|6,0:0|0:0|0:0,0:0:0:0:
48,227,240231,5,8,0:0:0:0:
106,67,240390,1,8,0:0:0:0:
173,254,240550,5,0,0:0:0:0:
242,94,240710,1,0,0:0:0:0:
304,274,240869,5,8,0:0:0:0:
379,119,241029,1,8,0:0:0:0:
422,275,241188,5,12,0:0:0:0:
56,129,241348,1,8,0:0:0:0:
119,219,241507,2,8,P|207:227|271:267,1,125
239,242,241827,2,8,P|287:186|288:114,1,125
385,52,242146,1,8,0:0:0:0:
463,189,242305,1,8,0:0:0:0:
289,316,242465,5,8,0:0:0:0:
248,140,242624,1,8,0:0:0:0:
312,224,242784,2,2,P|248:224|192:256,1,125
128,235,243103,1,8,0:0:0:0:
330,282,243263,1,8,0:0:0:0:
224,296,243422,2,2,P|240:224|224:160,1,125
308,46,243741,5,8,0:0:0:0:
303,151,243901,1,8,0:0:0:0:
200,96,244061,2,2,P|272:48|320:48,1,125
457,266,244380,1,8,0:0:0:0:
317,159,244539,1,8,0:0:0:0:
440,176,244699,2,2,P|384:224|360:296,2,125,2|2|6,0:0|0:0|0:0,0:0:0:0:
411,115,245098,5,0,0:0:0:0:
368,56,245178,1,0,0:0:0:0:
236,184,245337,5,0,0:0:0:0:
126,299,245497,2,0,P|70:235|66:191,2,125
198,208,245975,2,0,L|334:240,1,125
183,127,246295,1,0,0:0:0:0:
422,332,246454,1,0,0:0:0:0:
81,242,246614,1,0,0:0:0:0:
207,57,246773,5,4,0:0:0:0:
74,327,247092,1,4,0:0:0:0:
472,40,247412,1,4,0:0:0:0:
454,210,247731,5,8,0:0:0:0:
472,181,247811,1,8,0:0:0:0:
463,136,247890,1,8,0:0:0:0:
430,164,247970,1,8,0:0:0:0:
440,160,248050,2,2,P|376:120|320:120,1,125
364,280,248369,5,8,0:0:0:0:
382,251,248449,1,8,0:0:0:0:
373,206,248528,1,8,0:0:0:0:
340,234,248608,1,8,0:0:0:0:
352,232,248688,2,2,P|280:208|232:200,1,125
185,342,249007,5,8,0:0:0:0:
203,313,249087,1,8,0:0:0:0:
194,268,249166,1,8,0:0:0:0:
158,307,249246,1,8,0:0:0:0:
183,309,249327,2,2,P|95:285|55:285,1,125
97,227,249646,5,8,0:0:0:0:
60,209,249725,1,8,0:0:0:0:
105,186,249805,1,8,0:0:0:0:
61,170,249885,1,8,0:0:0:0:
85,195,249965,2,2,P|85:131|109:67,2,125
168,288,250444,1,4,0:0:0:0:
256,336,250763,5,2,0:0:0:0:
440,48,250922,1,2,0:0:0:0:
448,280,251241,5,2,0:0:0:0:
182,55,251401,1,2,0:0:0:0:
416,67,251720,2,0,L|381:123,1,62.5
305,111,251880,2,0,L|324:201,1,62.5
168,225,252199,6,0,L|138:289,1,62.5
55,276,252358,2,0,L|62:344,1,62.5
432,320,252678,5,4,0:0:0:0:
121,60,252837,2,2,L|65:108,1,62.5
121,60,252997,2,2,L|161:108,1,62.5
207,258,253316,6,2,L|159:306,1,62.5
207,258,253475,2,2,L|247:306,1,62.5
460,270,253795,6,2,P|399:312|332:302,2,125
345,68,254273,1,8,0:0:0:0:
436,141,254433,1,8,0:0:0:0:
323,202,254592,1,8,0:0:0:0:
185,109,254752,1,8,0:0:0:0:
185,109,254912,2,2,P|114:108|71:52,2,125
392,64,255390,5,0,0:0:0:0:
424,48,255470,1,0,0:0:0:0:
418,85,255550,1,0,0:0:0:0:
360,152,255710,2,0,P|296:192|224:208,1,125
216,128,256029,2,0,P|152:160|128:208,1,125
62,318,256348,1,0,0:0:0:0:
133,306,256428,1,0,0:0:0:0:
192,268,256507,1,0,0:0:0:0:
288,336,256667,5,8,0:0:0:0:
425,204,256827,1,8,0:0:0:0:
290,209,256986,2,8,P|225:146|225:86,1,125
353,66,257305,1,8,0:0:0:0:
435,317,257465,1,8,0:0:0:0:
95,196,257624,1,4,0:0:0:0:
217,80,257944,6,0,P|290:55|345:57,1,125
328,136,258263,1,0,0:0:0:0:
312,232,258422,1,0,0:0:0:0:
280,280,258502,1,0,0:0:0:0:
240,312,258582,1,0,0:0:0:0:
120,232,258741,2,0,P|144:288|104:344,1,125
112,112,259061,6,0,P|216:136|248:112,1,125
286,55,259380,2,0,P|334:103|326:199,2,125
221,150,259858,1,0,0:0:0:0:
173,289,260018,1,0,0:0:0:0:
54,327,260178,2,0,L|182:287,1,125
464,344,260497,5,0,0:0:0:0:
452,175,260656,1,0,0:0:0:0:
302,323,260816,1,0,0:0:0:0:
344,200,260975,2,0,P|352:136|312:88,1,125
249,177,261295,1,0,0:0:0:0:
48,69,261454,1,0,0:0:0:0:
128,218,261614,2,0,P|175:304|172:347,1,125
146,48,261933,6,8,P|74:77|42:168,1,125
36,191,262172,1,8,0:0:0:0:
72,256,262252,1,8,0:0:0:0:
136,288,262332,1,8,0:0:0:0:
208,304,262412,1,8,0:0:0:0:
280,296,262492,1,8,0:0:0:0:
352,256,262572,5,8,0:0:0:0:
392,184,262651,1,8,0:0:0:0:
416,112,262731,1,8,0:0:0:0:
415,39,262811,2,0,L|357:73,3,62.5
258,117,263210,6,0,P|218:53|154:53,1,125
132,135,263529,2,0,P|97:214|57:230,1,125
160,50,263848,1,0,0:0:0:0:
43,175,264007,1,0,0:0:0:0:
136,336,264167,2,0,P|120:265|155:222,1,125
322,341,264486,1,0,0:0:0:0:
235,273,264646,2,0,P|312:308|321:363,1,125
224,61,264965,5,0,0:0:0:0:
299,50,265045,1,0,0:0:0:0:
372,57,265124,1,0,0:0:0:0:
480,128,265284,2,0,P|464:208|416:224,1,125
400,312,265603,1,0,0:0:0:0:
328,248,265763,1,0,0:0:0:0:
240,224,265922,2,0,P|196:270|112:240,1,125
164,193,266241,6,0,L|84:89,1,125,0|0,0:0|0:0,0:0:0:0:
87,93,266561,1,0,0:0:0:0:
87,93,266720,1,0,0:0:0:0:
256,175,266880,6,0,L|224:31,1,125
228,52,267199,1,0,0:0:0:0:
228,52,267358,1,0,0:0:0:0:
365,73,267518,6,8,L|415:122,4,62.5
354,89,267917,1,8,0:0:0:0:
352,115,267997,1,8,0:0:0:0:
356,140,268077,1,8,0:0:0:0:
362,157,268156,1,4,0:0:0:0:
445,308,268316,6,2,P|365:348|253:332,2,187.5
160,64,269646,1,0,0:0:0:0:
272,80,269806,1,0,0:0:0:0:
328,176,269966,1,0,0:0:0:0:
320,296,270125,1,0,0:0:0:0:
448,80,270497,1,4,0:0:0:0:
313,64,270975,6,2,P|319:120|326:128,1,62.5
242,150,271295,2,2,P|253:181|273:204,1,62.5
175,239,271614,2,2,P|198:272|222:288,1,62.5
110,309,271933,2,2,P|133:342|157:358,2,62.5
104,159,272465,1,4,0:0:0:0:
408,96,272837,5,0,0:0:0:0:
400,224,273156,1,0,0:0:0:0:
264,128,273529,1,0,0:0:0:0:
143,88,273848,2,2,P|103:144|121:208,1,125
394,153,274539,5,0,0:0:0:0:
407,297,274699,1,0,0:0:0:0:
206,339,275018,5,0,0:0:0:0:
80,250,275178,1,0,0:0:0:0:
216,192,275337,1,0,0:0:0:0:
322,203,275550,6,2,P|314:147|266:99,1,125
339,41,276295,2,2,P|390:103|435:105,1,125
352,288,276986,1,4,0:0:0:0:
104,208,277531,5,4,0:0:0:0:
256,192,277731,12,0,280603,0:0:0:0:
