osu file format v14

[General]
AudioFilename: audio.mp3
AudioLeadIn: 0
PreviewTime: 227362
Countdown: 0
SampleSet: Soft
StackLeniency: 0.4
Mode: 0
LetterboxInBreaks: 0
WidescreenStoryboard: 1

[Editor]
Bookmarks: 268213
DistanceSpacing: 1.6
BeatDivisor: 4
GridSize: 4
TimelineZoom: 1.7

[Metadata]
Title:R
TitleUnicode:R
Artist:Roselia
ArtistUnicode:Roselia
Creator:Doormat
Version:Normal
Source:バンドリ! ガールズバンドパーティ!
Tags:Mordred BanG Dream! Girls Band Party bandori garupa ガルパ ロゼリア full size minato yukina 湊友希那 aiba aina 相羽あいな hikawa sayo 氷川紗夜 kudou haruka 工藤晴香 imai lisa 今井リサ endou yurika 遠藤ゆりか nakashima yuki 中島由貴 udagawa ako 宇田川あこ sakuragawa megu 櫻川めぐ shirokane rinko 白金燐子 akesaka satomi 明坂聡美 shizaki kanon 志崎樺音 anime video game japanese
BeatmapID:1923402
BeatmapSetID:820180

[Difficulty]
HPDrainRate:3.5
CircleSize:3.5
OverallDifficulty:5
ApproachRate:5.5
SliderMultiplier:1.1
SliderTickRate:1

[Events]
//Background and Video events
0,0,"lisa.jpg",0,0
//Break Periods
2,43732,51982
2,107562,116450
2,181605,185386
2,207136,216024
//Storyboard Layer 0 (Background)
//Storyboard Layer 1 (Fail)
//Storyboard Layer 2 (Pass)
//Storyboard Layer 3 (Foreground)
//Storyboard Sound Samples

[TimingPoints]
1405,319.148936170213,4,2,1,50,1,0
1405,-111.111111111111,4,2,1,50,0,0
6511,-100,4,2,1,60,0,0
11617,-111.111111111111,4,2,1,60,0,0
12894,-100,4,2,1,60,0,0
13851,-100,4,2,1,70,0,0
14170,-100,4,2,1,70,0,0
14490,-100,4,2,1,60,0,0
16405,-100,4,2,1,70,0,0
16724,-100,4,2,1,70,0,0
17043,-100,4,2,1,60,0,0
18958,-100,4,2,1,70,0,0
19277,-100,4,2,1,70,0,0
19596,-100,4,2,1,60,0,0
20234,-100,4,2,1,70,0,0
20553,-100,4,2,1,70,0,0
20873,-100,4,2,1,60,0,0
21511,-100,4,2,1,70,0,0
21830,-100,4,2,1,70,0,0
22149,-100,4,2,1,60,0,0
22787,-100,4,2,1,70,0,0
23107,-100,4,2,1,70,0,0
23426,-100,4,2,1,60,0,0
24383,-100,4,2,1,70,0,0
33160,-100,4,2,1,80,0,0
43213,-100,4,2,1,60,0,0
43532,-100,4,2,1,40,0,0
53107,-100,4,2,1,60,0,0
53585,-100,4,2,1,70,0,0
66511,-111.111111111111,4,2,1,70,0,0
66830,-111.111111111111,4,2,1,40,0,0
68745,-111.111111111111,4,2,1,70,0,0
69064,-111.111111111111,4,2,1,70,0,0
69383,-111.111111111111,4,2,1,40,0,0
71298,-111.111111111111,4,2,1,70,0,0
71617,-111.111111111111,4,2,1,70,0,0
71936,-100,4,2,1,60,0,0
72575,-100,4,2,1,70,0,0
72894,-100,4,2,1,70,0,0
73213,-100,4,2,1,60,0,0
73851,-100,4,2,1,70,0,0
74170,-100,4,2,1,90,0,0
76724,-100,4,2,1,90,0,1
86857,-100,4,2,1,90,0,0
86936,-100,4,2,1,90,0,1
99702,-100,4,2,1,70,0,0
104649,-100,4,2,1,80,0,0
107362,-100,4,2,1,70,0,0
117575,-100,4,2,1,80,0,0
127628,-100,4,2,1,70,0,0
140553,-111.111111111111,4,2,1,70,0,0
142787,-111.111111111111,4,2,1,70,0,0
143107,-111.111111111111,4,2,1,70,0,0
145660,-100,4,2,1,70,0,0
146617,-100,4,2,1,70,0,0
146936,-100,4,2,1,70,0,0
147894,-100,4,2,1,70,0,0
148213,-100,4,2,1,80,0,0
150766,-100,4,2,1,90,0,1
160899,-100,4,2,1,90,0,0
160979,-100,4,2,1,90,0,1
173745,-100,4,2,1,70,0,0
178692,-100,4,2,1,80,0,0
181405,-100,4,2,1,50,0,0
186511,-100,4,2,1,60,0,0
190181,-100,4,2,1,70,0,0
191458,-100,4,2,1,80,0,1
206936,-100,4,2,1,60,0,0
217149,-100,4,2,1,60,0,0
222256,-111.111111111111,4,2,1,60,0,0
223532,-100,4,2,1,60,0,0
224490,-100,4,2,1,70,0,0
224809,-100,4,2,1,70,0,0
225128,-100,4,2,1,60,0,0
227043,-100,4,2,1,60,0,0
227362,-100,4,2,1,90,0,1
237495,-100,4,2,1,90,0,0
237575,-100,4,2,1,90,0,1
250341,-100,4,2,1,70,0,0
255287,-100,4,2,1,80,0,0
258000,-100,4,2,1,70,0,0
268213,329.67032967033,4,2,11,40,1,0
268213,-111.111111111111,4,2,11,40,0,0
268542,-111.111111111111,4,2,1,5,0,0
268625,-111.111111111111,4,2,1,40,0,0
268872,331.491712707182,4,2,12,40,1,0
269369,329.67032967033,4,2,13,40,1,0
269369,-111.111111111111,4,2,13,40,0,0
269698,-111.111111111111,4,2,1,5,0,0
269781,-111.111111111111,4,2,1,40,0,0
269863,333.333333333333,4,2,14,40,1,0
270196,-111.111111111111,4,2,13,40,0,0
270529,337.078651685393,4,2,14,40,1,0
270866,337.078651685393,4,2,11,40,1,0
270866,-111.111111111111,4,2,11,40,0,0
271203,-111.111111111111,4,2,1,5,0,0
271287,-111.111111111111,4,2,1,40,0,0
271540,344.827586206897,4,2,12,40,1,0
271540,-111.111111111111,4,2,12,40,0,0
272057,333.333333333333,4,2,13,40,1,0
272057,-111.111111111111,4,2,13,40,0,0
272390,-111.111111111111,4,2,1,5,0,0
272473,-111.111111111111,4,2,1,40,0,0
272557,-100,4,2,14,40,0,0
272890,337.078651685393,4,2,15,40,1,0
272890,-111.111111111111,4,2,15,40,0,0
273227,-100,4,2,16,40,0,0
273564,355.029585798817,4,2,17,40,1,0
273564,-111.111111111111,4,2,17,40,0,0
273919,333.333333333333,4,2,17,40,1,0
274252,357.142857142857,4,2,16,40,1,0
274252,-111.111111111111,4,2,16,40,0,0
274609,-111.111111111111,4,2,1,5,0,0
274698,-111.111111111111,4,2,1,40,0,0
274787,346.820809248555,4,2,16,40,1,0
274787,-111.111111111111,4,2,16,40,0,0
275133,337.078651685393,4,2,16,40,1,0
275301,333.333333333333,4,2,15,40,1,0
275301,-111.111111111111,4,2,15,40,0,0
275634,352.941176470588,4,2,18,40,1,0
275634,-111.111111111111,4,2,18,40,0,0
275986,-111.111111111111,4,2,13,40,0,0
276339,357.142857142857,4,2,13,40,1,0
276339,-111.111111111111,4,2,13,40,0,0
276696,-111.111111111111,4,2,1,5,0,0
276785,-111.111111111111,4,2,1,40,0,0
277053,400,4,2,19,40,1,0
277253,350.877192982456,4,2,19,40,1,0
277603,375,4,2,20,40,1,0
282103,-111.111111111111,4,2,1,5,0,0

[Colours]
Combo1 : 145,95,220
Combo2 : 240,40,45
Combo3 : 220,95,175
Combo4 : 179,13,17

[HitObjects]
396,280,1405,6,0,P|315:229|225:262,1,197.99999395752,4|0,0:0|0:0,0:0:0:0:
128,268,2362,1,2,0:3:0:0:
124,272,2522,2,0,B|140:219|140:219|117:128,1,148.49999546814,0|2,0:0|0:3,0:0:0:0:
200,72,3319,2,0,L|200:12,2,49.4999984893799,0|0|2,0:0|0:0|0:3,0:0:0:0:
284,128,3958,6,0,P|324:104|456:164,1,197.99999395752,4|0,0:0|0:0,0:0:0:0:
472,252,4915,1,2,0:3:0:0:
476,256,5075,2,0,B|428:248|428:248|404:272|404:272|324:260,1,148.49999546814,0|2,0:0|0:3,0:0:0:0:
248,224,5873,2,0,L|140:240,1,98.9999969787599,0|2,0:0|0:3,0:0:0:0:
64,308,6511,5,0,1:0:0:0:
68,312,6670,1,0,1:0:0:0:
372,360,7787,1,0,1:0:0:0:
376,356,7947,1,0,1:0:0:0:
424,52,9064,1,0,1:0:0:0:
420,48,9224,1,0,1:0:0:0:
116,0,10341,1,0,1:0:0:0:
112,4,10500,1,0,1:0:0:0:
63,307,11617,6,0,P|116:153|219:279,1,395.999987915039,6|6,0:0|0:0,0:0:0:0:
448,32,13851,2,0,P|420:33|394:26,1,55,0|0,1:2|0:0,0:0:0:0:
356,20,14170,5,6,1:2:0:0:
328,128,14490,1,2,0:0:0:0:
384,224,14809,1,2,0:0:0:0:
492,252,15128,1,2,0:0:0:0:
464,360,15447,2,0,L|348:372,2,110,2|2|2,0:0|0:0|0:0,0:0:0:0:
492,252,16405,2,0,P|484:216|488:184,1,55,0|0,1:2|0:0,0:0:0:0:
496,160,16724,5,6,1:2:0:0:
400,104,17043,1,2,0:0:0:0:
292,132,17362,1,2,0:0:0:0:
236,228,17681,1,2,0:0:0:0:
264,335,18000,2,0,L|376:316,2,110,2|2|2,0:0|0:0|0:0,0:0:0:0:
156,312,18958,2,0,P|133:296|106:291,1,55,0|0,1:2|0:0,0:0:0:0:
68,296,19277,5,6,1:2:0:0:
24,196,19596,1,2,0:0:0:0:
63,94,19915,1,2,0:0:0:0:
163,50,20234,2,0,P|204:72|232:72,1,55,0|0,1:2|0:0,0:0:0:0:
250,68,20553,5,6,1:2:0:0:
288,172,20873,1,2,0:0:0:0:
388,218,21192,1,2,0:0:0:0:
492,180,21511,2,0,P|484:140|492:112,1,55,0|0,1:2|0:0,0:0:0:0:
496,88,21830,5,6,1:2:0:0:
386,68,22149,1,2,0:0:0:0:
278,48,22468,1,2,0:0:0:0:
170,29,22787,2,0,P|140:36|108:36,1,55,0|0,1:2|0:0,0:0:0:0:
76,32,23107,5,6,1:2:0:0:
36,132,23426,1,2,0:0:0:0:
118,200,23745,2,0,L|180:184,1,55,2|8,0:0|3:0,0:0:0:0:
204,208,24064,2,0,L|257:194,1,55,8|8,3:0|3:0,0:0:0:0:
280,164,24383,6,0,P|270:217|295:265,1,110,6|8,0:0|0:0,0:0:0:0:
400,228,25022,1,2,0:0:0:0:
404,224,25181,2,0,L|458:230,1,55,0|8,0:0|0:0,0:0:0:0:
488,256,25500,2,0,P|497:309|473:356,1,110,2|0,0:0|0:0,0:0:0:0:
440,376,25979,1,8,0:0:0:0:
332,352,26298,2,0,L|204:372,1,110,2|8,0:0|0:0,0:0:0:0:
124,324,26936,5,2,0:0:0:0:
200,244,27256,1,8,0:0:0:0:
100,199,27574,1,2,0:0:0:0:
96,195,27734,2,0,L|104:132,1,55,0|8,0:0|0:0,0:0:0:0:
88,104,28053,2,0,P|134:121|199:85,1,110,2|0,0:0|0:0,0:0:0:0:
212,68,28532,1,12,0:0:0:0:
304,124,28851,2,0,L|376:108,1,55,8|8,3:0|3:0,0:0:0:0:
372,76,29170,2,0,L|444:60,1,55,8|8,3:0|3:0,0:0:0:0:
456,40,29490,6,0,P|449:94|450:149,1,110,6|8,0:0|0:0,0:0:0:0:
484,256,30128,2,0,P|430:266|378:283,1,110,2|8,0:0|0:0,0:0:0:0:
287,349,30766,2,0,P|260:301|227:257,1,110,2|8,0:0|0:0,0:0:0:0:
120,228,31405,1,2,0:0:0:0:
114,116,31724,1,8,0:0:0:0:
217,76,32043,6,0,P|264:96|332:96,1,110,2|8,0:0|0:0,0:0:0:0:
364,200,32681,1,2,0:0:0:0:
368,204,32841,2,0,P|341:211|316:221,1,55,2|8,0:0|0:0,0:0:0:0:
284,248,33160,1,6,0:0:0:0:
256,192,33319,12,6,35713,0:0:0:0:
164,48,36990,6,0,L|326:78,1,165,6|8,0:0|0:0,0:0:0:0:
404,160,37787,2,0,L|468:148,2,55,2|2|8,0:0|0:0|0:0,0:0:0:0:
368,176,38266,6,0,P|355:224|391:284,1,110,6|2,0:0|0:0,0:0:0:0:
412,300,38745,1,8,0:0:0:0:
324,368,39064,1,2,0:0:0:0:
320,372,39224,2,0,L|252:360,1,55,2|8,0:0|0:0,0:0:0:0:
240,332,39543,2,0,L|120:348,1,110,2|2,0:0|0:0,0:0:0:0:
100,324,40022,1,8,0:0:0:0:
152,228,40341,1,2,0:0:0:0:
156,224,40500,2,0,L|148:160,1,55,2|8,0:0|0:0,0:0:0:0:
159,132,40819,6,0,P|111:156|59:142,1,110,6|2,0:0|0:0,0:0:0:0:
24,128,41298,1,8,0:0:0:0:
44,20,41617,1,2,0:0:0:0:
48,16,41777,2,0,L|116:12,1,55,2|8,0:0|0:0,0:0:0:0:
136,32,42096,2,0,L|245:25,1,110,6|2,0:0|0:0,0:0:0:0:
280,44,42575,1,8,0:0:0:0:
224,139,42894,2,0,P|205:190|224:241,2,110,8|4|4,0:3|0:3|0:0,0:0:0:0:
240,84,53107,6,0,L|188:100,2,55,8|8|8,1:2|1:2|1:2,0:0:0:0:
260,52,53585,2,0,P|296:80|380:64,1,110,6|2,0:0|0:0,0:0:0:0:
392,60,54064,1,8,0:0:0:0:
396,64,54224,1,2,0:0:0:0:
500,104,54543,2,0,L|492:164,1,55,2|8,0:0|0:0,0:0:0:0:
388,192,55022,1,2,0:0:0:0:
384,188,55181,1,2,0:0:0:0:
280,220,55500,2,0,L|288:280,1,55,2|2,0:0|0:0,0:0:0:0:
196,336,55979,1,8,0:0:0:0:
192,340,56139,6,0,P|144:314|91:327,1,110,6|2,0:0|0:0,0:0:0:0:
60,348,56617,1,8,0:0:0:0:
28,244,56937,2,0,P|16:191|40:143,1,110,2|8,0:0|0:0,0:0:0:0:
56,108,57415,2,0,L|176:128,1,110,2|2,0:0|0:0,0:0:0:0:
200,112,57894,1,8,0:0:0:0:
284,184,58213,1,8,0:0:0:0:
288,188,58373,2,0,L|276:256,1,55,8|8,0:0|0:0,0:0:0:0:
252,272,58692,6,0,P|305:264|350:294,1,110,6|2,0:0|0:0,0:0:0:0:
376,324,59170,1,12,1:2:0:0:
380,320,59329,1,2,0:0:0:0:
488,292,59649,2,0,L|480:216,1,55,2|8,0:0|0:0,0:0:0:0:
512,132,60128,1,2,0:0:0:0:
508,128,60287,1,2,0:0:0:0:
456,32,60607,2,0,L|380:40,1,55,2|2,0:0|0:0,0:0:0:0:
308,104,61085,1,8,0:0:0:0:
304,108,61245,6,0,L|184:92,1,110,6|2,0:0|0:0,0:0:0:0:
168,64,61724,1,8,0:0:0:0:
71,114,62043,1,2,0:0:0:0:
90,221,62362,1,8,0:0:0:0:
199,236,62681,2,0,P|240:224|308:236,1,110,2|8,0:0|0:0,0:0:0:0:
400,288,63319,2,0,P|386:311|383:339,2,55,8|8|8,3:0|3:0|3:2,0:0:0:0:
436,272,63798,6,0,L|428:140,1,110,6|2,0:0|0:0,0:0:0:0:
440,124,64277,1,10,0:0:0:0:
348,64,64596,1,10,0:0:0:0:
240,86,64915,1,10,0:0:0:0:
180,178,65234,1,10,0:0:0:0:
202,285,65553,1,14,0:0:0:0:
142,377,65873,2,0,L|87:369,1,55,8|8,3:0|3:0,0:0:0:0:
80,332,66192,2,0,L|25:324,1,55,8|8,3:0|3:0,0:0:0:0:
0,296,66511,6,0,P|-16:202|51:134,1,197.99999395752,2|0,1:2|0:0,0:0:0:0:
144,196,67468,1,0,0:0:0:0:
148,200,67628,2,0,L|254:172,1,98.9999969787599,0|0,0:0|0:0,0:0:0:0:
268,200,68107,2,0,L|374:227,1,98.9999969787599,0|0,0:0|0:0,0:0:0:0:
412,136,68745,2,0,L|404:68,1,49.4999984893799,0|0,1:2|0:0,0:0:0:0:
412,52,69064,6,0,P|324:88|249:31,1,197.99999395752,0|0,1:0|0:0,0:0:0:0:
152,12,70022,1,0,0:0:0:0:
148,16,70181,2,0,P|150:72|136:120,1,98.9999969787599,0|0,0:0|0:0,0:0:0:0:
104,120,70660,2,0,P|101:176|116:224,1,98.9999969787599,0|0,0:0|0:0,0:0:0:0:
196,268,71298,2,0,L|188:332,1,49.4999984893799,0|0,1:2|0:0,0:0:0:0:
164,340,71617,5,0,1:0:0:0:
268,380,71936,1,2,0:0:0:0:
354,309,72256,1,2,0:0:0:0:
336,198,72575,2,0,L|348:144,1,55,0|0,1:2|0:0,0:0:0:0:
328,112,72894,1,0,1:0:0:0:
227,154,73213,1,2,0:0:0:0:
126,114,73532,1,2,0:0:0:0:
82,13,73851,2,0,L|20:24,1,55,0|0,1:2|0:0,0:0:0:0:
0,48,74170,6,0,P|21:99|20:154,1,110,6|2,1:2|0:0,0:0:0:0:
44,184,74649,2,0,P|22:234|23:289,1,110,6|2,1:2|0:0,0:0:0:0:
40,324,75128,2,0,P|94:324|145:303,1,110,6|2,1:2|0:0,0:0:0:0:
160,268,75607,2,0,P|214:267|265:288,1,110,6|2,1:2|0:0,0:0:0:0:
292,316,76085,2,0,L|304:256,2,55,8|8|8,3:0|3:0|3:0,0:0:0:0:
396,352,76724,6,0,L|512:320,1,110,6|8,0:0|1:2,0:0:0:0:
504,212,77362,1,2,0:0:0:0:
500,208,77522,2,0,L|444:196,1,55,0|8,0:0|1:2,0:0:0:0:
412,216,77841,2,0,P|381:171|387:117,1,110,2|0,0:0|0:0,0:0:0:0:
408,84,78319,1,8,1:2:0:0:
312,28,78639,1,2,0:0:0:0:
215,83,78958,1,8,1:2:0:0:
119,27,79277,6,0,P|65:43|0:48,1,110,2|8,0:0|1:2,0:0:0:0:
4,160,79915,2,0,P|31:160|57:167,1,55,2|0,0:0|0:0,0:0:0:0:
96,164,80234,1,8,1:2:0:0:
100,160,80394,2,0,P|84:211|101:263,1,110,2|0,0:0|0:0,0:0:0:0:
128,292,80873,1,8,1:2:0:0:
220,228,81192,2,0,L|336:248,1,110,2|2,0:0|0:0,0:0:0:0:
364,232,81670,1,12,1:2:0:0:
368,229,81830,6,0,P|352:270|384:336,1,110,2|8,0:0|1:2,0:0:0:0:
484,320,82468,1,2,0:0:0:0:
488,316,82628,2,0,L|496:248,1,55,0|8,0:0|1:2,0:0:0:0:
476,228,82947,2,0,L|452:108,1,110,2|0,0:0|0:0,0:0:0:0:
468,84,83426,1,8,1:2:0:0:
368,40,83745,1,2,0:0:0:0:
324,140,84064,1,8,1:2:0:0:
224,96,84383,6,0,P|192:72|116:72,1,110,2|8,0:0|1:2,0:0:0:0:
20,112,85022,2,0,L|36:184,1,55,2|0,0:0|0:0,0:0:0:0:
12,200,85341,1,12,1:2:0:0:
8,204,85500,2,0,P|62:202|107:231,1,110,2|0,0:0|3:0,0:0:0:0:
128,264,85979,2,0,L|180:246,1,55,8|8,3:2|3:0,0:0:0:0:
212,268,86298,2,0,L|264:250,1,55,8|8,3:0|3:0,0:0:0:0:
296,272,86617,2,0,L|348:254,1,55,8|8,3:0|3:0,0:0:0:0:
368,220,86936,5,6,0:0:0:0:
308,128,87256,2,0,P|291:76|308:25,1,110,12|2,1:2|0:0,0:0:0:0:
416,16,87894,2,0,L|488:32,1,55,8|0,1:2|0:0,0:0:0:0:
496,56,88213,1,2,0:0:0:0:
452,156,88531,2,0,P|435:207|451:258,1,110,8|2,1:2|0:0,0:0:0:0:
372,336,89170,2,0,L|308:344,1,55,8|0,1:2|3:0,0:0:0:0:
284,324,89490,5,2,3:2:0:0:
180,356,89809,1,8,1:2:0:0:
168,248,90128,2,0,L|179:193,1,55,2|0,0:0|0:0,0:0:0:0:
211,174,90447,1,8,1:2:0:0:
215,170,90607,2,0,L|193:60,1,110
219,34,91085,1,8,1:2:0:0:
326,62,91405,2,0,L|380:51,1,55,2|8,0:0|3:0,0:0:0:0:
412,72,91724,2,0,L|466:61,1,55,8|8,3:0|3:0,0:0:0:0:
496,84,92043,5,6,0:0:0:0:
436,176,92362,2,0,P|416:226|433:277,1,110,12|2,1:2|0:0,0:0:0:0:
368,364,93000,1,8,1:2:0:0:
284,292,93319,2,0,L|175:312,1,110,2|8,0:0|1:2,0:0:0:0:
124,212,93958,2,0,L|232:191,1,110,2|8,0:0|1:2,0:0:0:0:
268,204,94436,1,0,0:0:0:0:
272,208,94596,6,0,P|292:164|260:96,1,110,2|8,0:0|1:2,0:0:0:0:
192,32,95234,2,0,L|128:44,2,55,2|2|8,0:0|0:0|1:2,0:0:0:0:
212,0,95713,2,0,L|332:16,1,110,6|2,0:0|0:0,0:0:0:0:
360,16,96192,1,12,1:2:0:0:
456,68,96511,2,0,L|446:122,1,55,8|8,3:0|3:0,0:0:0:0:
412,140,96830,2,0,L|402:194,1,55,8|8,3:0|3:0,0:0:0:0:
420,228,97149,5,14,1:2:0:0:
496,308,97468,1,10,1:2:0:0:
416,384,97787,1,10,1:2:0:0:
340,304,98107,1,10,1:2:0:0:
260,380,98426,5,10,1:2:0:0:
184,300,98745,1,10,1:2:0:0:
264,224,99064,2,0,L|252:164,1,55,10|8,1:2|3:0,0:0:0:0:
216,156,99383,2,0,L|204:96,1,55,8|8,3:0|3:0,0:0:0:0:
224,68,99702,5,0,1:0:0:0:
496,232,102256,1,0,1:0:0:0:
280,364,103532,2,0,L|171:343,1,110,0|0,1:0|0:0,0:0:0:0:
100,260,104170,2,0,L|32:272,2,55,8|8|4,3:0|3:0|3:0,0:0:0:0:
136,244,104649,6,0,P|153:192|134:142,1,110,6|2,0:0|0:0,0:0:0:0:
104,120,105128,1,10,0:0:0:0:
164,24,105447,1,10,0:0:0:0:
277,27,105766,1,14,0:0:0:0:
330,126,106085,2,0,L|448:108,1,110,8|8,3:0|3:0,0:0:0:0:
480,211,106724,2,0,P|470:237|468:264,1,55,0|0,1:0|1:0,0:0:0:0:
440,292,107043,2,0,P|449:317|451:344,1,55,0|0,1:0|1:0,0:0:0:0:
428,376,107362,1,6,0:0:0:0:
236,76,117575,6,0,L|127:94,1,110,12|2,1:2|0:0,0:0:0:0:
92,80,118053,2,0,L|76:188,1,110,12|2,1:2|0:0,0:0:0:0:
51,218,118532,2,0,L|149:266,1,110,12|2,1:2|0:0,0:0:0:0:
169,299,119011,2,0,L|245:220,1,110,12|2,1:2|0:0,0:0:0:0:
283,211,119490,1,12,1:2:0:0:
385,250,119809,1,12,1:2:0:0:
346,352,120128,6,0,P|293:340|245:366,1,110,12|2,1:2|0:0,0:0:0:0:
212,384,120607,2,0,P|195:332|149:304,1,110,12|2,1:2|0:0,0:0:0:0:
117,283,121085,2,0,P|153:243|154:189,1,110,12|2,1:2|0:0,0:0:0:0:
156,150,121564,2,0,P|208:161|256:135,1,110,12|2,1:2|0:0,0:0:0:0:
290,118,122043,1,12,1:2:0:0:
359,205,122362,1,12,1:2:0:0:
446,135,122681,6,0,B|428:80|428:80|437:28,1,110,12|2,1:2|0:0,0:0:0:0:
400,16,123160,2,0,B|345:34|345:34|293:24,1,110,12|2,1:2|0:0,0:0:0:0:
264,48,123639,2,0,B|212:38|212:38|157:56,1,110,12|2,1:2|0:0,0:0:0:0:
128,80,124117,2,0,B|146:135|146:135|136:186,1,110,12|2,1:2|0:0,0:0:0:0:
108,212,124596,1,12,1:2:0:0:
204,268,124915,1,12,1:2:0:0:
286,194,125234,6,0,L|395:206,1,110,12|2,1:2|0:0,0:0:0:0:
420,236,125713,2,0,L|465:135,1,110,12|2,1:2|0:0,0:0:0:0:
501,121,126192,2,0,P|484:76|488:52,1,55,8|8,3:0|3:0,0:0:0:0:
488,32,126511,1,2,1:2:0:0:
284,112,127149,2,0,L|164:92,1,110,2|2,0:0|3:2,0:0:0:0:
148,68,127628,6,0,P|160:120|142:171,1,110,6|0,0:0|0:0,0:0:0:0:
108,188,128107,1,12,1:2:0:0:
104,192,128266,1,0,0:0:0:0:
160,288,128585,2,0,L|232:272,1,55,0|8,0:0|0:0,0:0:0:0:
308,220,129064,1,2,0:0:0:0:
312,224,129224,1,0,0:0:0:0:
372,316,129543,2,0,L|444:300,1,55,0|2,0:0|0:0,0:0:0:0:
500,224,130022,1,8,0:0:0:0:
504,220,130181,6,0,P|480:172|504:100,1,110,2|0,0:0|0:0,0:0:0:0:
512,88,130660,1,8,0:0:0:0:
420,24,130979,2,0,L|308:48,1,110,2|8,0:0|0:0,0:0:0:0:
276,32,131458,1,2,0:0:0:0:
184,92,131777,1,0,0:0:0:0:
180,96,131936,2,0,P|189:121|192:149,1,55,8|0,0:0|0:0,0:0:0:0:
220,176,132256,2,0,P|210:201|207:229,1,55,2|0,0:0|0:0,0:0:0:0:
224,264,132575,1,8,0:0:0:0:
228,268,132734,6,0,L|116:288,1,110,6|0,0:0|0:0,0:0:0:0:
92,316,133213,1,8,0:0:0:0:
88,312,133373,1,0,0:0:0:0:
40,212,133692,2,0,L|48:152,1,55,0|8,0:0|0:0,0:0:0:0:
104,64,134170,1,2,0:0:0:0:
108,68,134330,1,0,0:0:0:0:
200,128,134649,2,0,L|254:120,1,55,0|2,0:0|0:0,0:0:0:0:
336,48,135128,1,8,0:0:0:0:
340,44,135287,6,0,L|464:64,1,110,2|0,0:0|0:0,0:0:0:0:
472,92,135766,1,8,0:0:0:0:
428,192,136085,1,2,0:0:0:0:
384,292,136405,1,8,0:0:0:0:
275,281,136724,1,2,0:0:0:0:
251,174,137043,1,8,0:0:0:0:
227,67,137362,2,0,L|292:52,2,55,2|0|8,0:0|0:0|0:0,0:0:0:0:
192,52,137841,6,0,P|144:25|91:33,1,110,6|0,0:0|0:0,0:0:0:0:
60,56,138319,1,8,0:0:0:0:
104,156,138639,1,8,0:0:0:0:
39,244,138958,1,8,0:0:0:0:
83,344,139277,1,12,0:0:0:0:
191,355,139596,1,8,0:0:0:0:
255,266,139915,1,2,1:2:0:0:
259,262,140075,1,2,1:2:0:0:
263,258,140234,2,0,L|324:268,1,55,10|10,1:2|1:2,0:0:0:0:
343,287,140553,6,0,P|323:218|362:158,1,148.49999546814,6|2,1:2|0:0,0:0:0:0:
396,148,141192,1,8,0:0:0:0:
356,56,141511,1,2,0:0:0:0:
352,60,141670,1,2,0:0:0:0:
260,96,141990,2,0,L|148:80,1,98.9999969787599,8|2,0:0|0:0,0:0:0:0:
128,92,142468,2,0,P|134:68|131:43,2,49.4999984893799,8|8|0,0:0|0:0|1:2,0:0:0:0:
44,148,143107,6,0,P|16:188|48:288,1,148.49999546814,6|2,1:2|0:0,0:0:0:0:
67,296,143745,2,0,P|110:272|158:281,1,98.9999969787599,8|0,0:0|0:0,0:0:0:0:
240,224,144383,1,2,0:0:0:0:
244,220,144543,2,0,P|286:243|334:234,1,98.9999969787599,8|2,0:0|0:0,0:0:0:0:
368,244,145022,2,0,L|376:308,2,49.4999984893799,8|8|8,3:0|3:0|3:0,0:0:0:0:
448,168,145660,6,0,P|426:118|438:65,1,110,12|2,1:2|0:0,0:0:0:0:
408,40,146139,2,0,P|354:44|307:17,1,110,12|2,1:2|0:0,0:0:0:0:
273,38,146617,1,0,1:2:0:0:
228,136,146936,2,0,L|120:111,1,110,12|2,1:2|0:0,0:0:0:0:
92,84,147415,2,0,L|35:178,1,110,12|2,1:2|0:0,0:0:0:0:
0,197,147894,1,0,1:2:0:0:
32,296,148213,6,0,L|84:280,1,55,6|0,0:0|0:0,0:0:0:0:
108,312,148532,2,0,L|160:327,1,55,8|0,0:0|0:0,0:0:0:0:
192,352,148851,2,0,P|234:318|242:265,1,110,2|12,0:0|1:2,0:0:0:0:
272,240,149330,2,0,P|229:206|221:153,1,110,0|8,0:0|3:0,0:0:0:0:
240,120,149809,2,0,L|186:107,2,55,8|10|0,3:0|3:2|0:0,0:0:0:0:
316,40,150447,2,0,L|369:27,1,55,0|0,1:0|1:0,0:0:0:0:
404,7,150766,5,6,0:0:0:0:
488,76,151085,2,0,L|472:148,1,55,12|0,1:2|0:0,0:0:0:0:
444,152,151405,1,2,0:0:0:0:
440,156,151564,2,0,L|456:228,1,55,0|8,0:0|1:2,0:0:0:0:
444,248,151883,2,0,P|392:230|337:226,1,110,2|0,0:0|0:0,0:0:0:0:
300,240,152362,1,8,1:2:0:0:
248,144,152681,1,2,0:0:0:0:
140,163,153000,1,8,1:2:0:0:
124,270,153319,6,0,P|138:322|148:376,1,110,2|8,0:0|1:2,0:0:0:0:
260,384,153958,2,0,P|264:348|280:320,1,55,2|0,0:0|0:0,0:0:0:0:
296,300,154277,1,8,1:2:0:0:
300,296,154436,2,0,P|348:320|416:296,1,110,2|0,0:0|0:0,0:0:0:0:
432,284,154915,1,12,1:2:0:0:
388,184,155234,2,0,L|395:129,1,55,8|8,3:0|3:0,0:0:0:0:
428,108,155553,2,0,L|435:53,1,55,8|8,3:0|3:0,0:0:0:0:
416,20,155873,6,0,P|362:32|307:31,1,110,6|8,0:0|1:2,0:0:0:0:
208,76,156511,1,2,0:0:0:0:
204,80,156670,2,0,P|177:71|150:68,1,55,0|8,0:0|1:2,0:0:0:0:
116,88,156990,2,0,L|132:204,1,110,2|0,0:0|0:0,0:0:0:0:
108,228,157468,1,8,1:2:0:0:
180,312,157787,1,2,0:0:0:0:
282,269,158107,1,8,1:2:0:0:
273,158,158426,6,0,P|263:104|283:53,1,110,2|8,0:0|1:2,0:0:0:0:
392,76,159064,2,0,P|401:129|381:180,1,110,2|2,0:0|0:0,0:0:0:0:
396,216,159543,2,0,P|449:206|500:226,1,110,12|0,1:2|0:0,0:0:0:0:
512,264,160022,1,12,1:2:0:0:
464,364,160341,2,0,L|409:357,1,55,8|8,3:0|3:0,0:0:0:0:
380,380,160660,2,0,L|325:373,1,55,8|8,3:0|3:0,0:0:0:0:
300,344,160979,5,6,0:0:0:0:
356,248,161298,2,0,P|368:195|349:144,1,110,12|2,1:2|0:0,0:0:0:0:
240,144,161936,2,0,L|176:148,1,55,8|0,1:2|0:0,0:0:0:0:
152,168,162256,1,2,0:0:0:0:
52,120,162575,2,0,P|39:67|58:16,1,110,8|2,1:2|0:0,0:0:0:0:
168,15,163213,2,0,L|232:19,1,55,8|0,1:2|3:0,0:0:0:0:
256,39,163532,5,2,3:2:0:0:
360,8,163851,1,8,1:2:0:0:
438,82,164170,2,0,L|424:200,1,110,2|8,0:0|1:2,0:0:0:0:
396,216,164649,2,0,P|352:200|284:236,1,110,0|0,0:0|0:0,0:0:0:0:
280,256,165128,1,8,1:2:0:0:
175,222,165447,2,0,L|57:208,1,110,2|8,0:0|1:2,0:0:0:0:
50,244,165926,1,0,0:0:0:0:
46,248,166085,6,0,P|59:195|41:143,1,110,6|8,0:0|1:2,0:0:0:0:
116,60,166724,2,0,P|170:55|213:22,1,110,2|8,0:0|1:2,0:0:0:0:
316,67,167362,2,0,P|336:117|381:148,1,110,2|8,0:0|1:2,0:0:0:0:
370,259,168000,2,0,P|328:294|312:346,1,110,2|8,0:0|1:2,0:0:0:0:
203,370,168639,5,2,0:0:0:0:
156,268,168958,1,8,1:2:0:0:
109,166,169277,2,0,L|44:176,2,55,2|2|8,0:0|0:0|1:2,0:0:0:0:
127,131,169756,2,0,P|179:148|229:127,1,110,6|0,0:0|0:0,0:0:0:0:
252,96,170234,1,12,1:2:0:0:
320,180,170553,2,0,L|374:169,1,55,8|8,3:0|3:0,0:0:0:0:
412,164,170873,1,4,3:2:0:0:
450,263,171192,5,14,1:2:0:0:
383,346,171511,1,10,1:2:0:0:
277,329,171830,1,10,1:2:0:0:
238,229,172149,1,10,1:2:0:0:
306,145,172469,5,10,1:2:0:0:
267,45,172788,1,14,1:2:0:0:
162,27,173107,2,0,P|135:34|108:34,1,55,10|8,1:2|3:0,0:0:0:0:
88,68,173426,2,0,P|61:60|34:60,1,55,8|8,3:0|3:0,0:0:0:0:
4,84,173745,5,0,1:0:0:0:
250,295,176298,1,0,1:0:0:0:
322,51,177575,2,0,L|432:64,1,110,0|0,1:0|0:0,0:0:0:0:
472,168,178213,2,0,P|508:156|524:136,2,55,8|8|8,3:0|3:0|3:0,0:0:0:0:
455,204,178692,2,0,P|405:183|352:194,1,110,6|0,0:0|0:0,0:0:0:0:
324,220,179170,1,10,0:0:0:0:
284,116,179490,1,10,0:0:0:0:
180,156,179809,1,14,0:0:0:0:
220,260,180128,6,0,P|240:310|229:363,1,110,8|8,3:0|3:0,0:0:0:0:
120,372,180766,2,0,L|109:318,1,55,0|0,1:0|1:0,0:0:0:0:
76,300,181085,2,0,L|86:246,1,55,0|0,1:0|1:0,0:0:0:0:
68,212,181405,1,4,0:0:0:0:
124,360,186511,6,0,L|231:338,1,110,4|2,0:0|0:0,0:0:0:0:
216,228,187149,2,0,L|108:249,1,110,2|2,0:0|0:0,0:0:0:0:
36,164,187787,2,0,P|12:184|-4:216,2,55,2|0|2,0:0|0:0|0:0,0:0:0:0:
72,148,188266,1,0,0:0:0:0:
108,44,188585,2,0,L|172:52,1,55,6|0,0:0|0:0,0:0:0:0:
196,72,188905,6,0,P|251:14|330:24,1,165,6|2,0:0|0:0,0:0:0:0:
372,128,189702,2,0,L|428:120,2,55,2|0|0,0:0|0:0|0:0,0:0:0:0:
345,156,190181,2,0,P|336:208|371:262,1,110,2|2,1:2|0:0,0:0:0:0:
396,276,190660,1,2,0:0:0:0:
492,328,190979,2,0,L|484:388,2,55,2|8|8,0:0|0:0|0:0,0:0:0:0:
512,296,191458,6,0,P|504:244|500:172,1,110,6|0,0:0|0:0,0:0:0:0:
512,150,191936,1,8,1:2:0:0:
508,146,192096,1,0,0:0:0:0:
440,60,192415,1,0,0:0:0:0:
436,56,192575,2,0,L|380:76,1,55,8|0,1:2|0:0,0:0:0:0:
364,108,192894,2,0,L|308:94,1,55,2|0,0:0|0:0,0:0:0:0:
273,85,193213,1,8,1:2:0:0:
168,112,193532,2,0,P|160:85|168:56,2,55,2|0|8,0:0|0:0|1:2,0:0:0:0:
184,148,194011,6,0,P|184:201|147:240,1,110,6|0,0:0|0:0,0:0:0:0:
164,276,194490,2,0,L|240:268,1,55,8|0,1:2|0:0,0:0:0:0:
244,300,194809,1,2,0:0:0:0:
248,304,194968,1,0,0:0:0:0:
252,308,195128,2,0,L|328:300,1,55,8|0,1:2|0:0,0:0:0:0:
340,320,195447,1,2,0:0:0:0:
392,224,195766,1,12,1:2:0:0:
499,243,196085,2,0,L|504:304,2,55,2|2|8,0:0|0:0|1:2,0:0:0:0:
512,208,196564,6,0,P|501:154|496:99,1,110,6|0,0:0|0:0,0:0:0:0:
512,64,197043,1,2,1:2:0:0:
412,20,197362,1,2,1:2:0:0:
323,84,197681,1,2,1:2:0:0:
334,192,198000,1,2,1:2:0:0:
245,256,198319,1,2,1:2:0:0:
145,212,198639,1,2,1:2:0:0:
141,208,198798,2,0,L|84:220,1,55,0|2,0:0|1:2,0:0:0:0:
52,236,199117,6,0,P|62:182|67:127,1,110,6|0,0:0|0:0,0:0:0:0:
44,96,199596,1,10,1:2:0:0:
128,24,199915,1,10,1:2:0:0:
238,32,200234,1,10,1:2:0:0:
310,116,200553,1,10,1:2:0:0:
301,226,200873,1,14,1:2:0:0:
373,310,201192,1,8,1:2:0:0:
377,314,201351,2,0,L|436:300,1,55,2|10,0:0|1:2,0:0:0:0:
468,312,201670,6,0,P|485:260|475:207,1,110,6|0,0:0|0:0,0:0:0:0:
448,180,202149,1,12,1:2:0:0:
500,84,202468,1,2,0:0:0:0:
504,80,202628,2,0,L|496:12,1,55,0|8,0:0|1:2,0:0:0:0:
460,16,202947,2,0,P|416:47|363:42,1,110,0|0,0:0|0:0,0:0:0:0:
332,64,203426,2,0,P|288:32|235:37,1,110,8|2,1:2|0:0,0:0:0:0:
204,60,203905,1,2,0:0:0:0:
208,64,204064,1,8,1:2:0:0:
188,172,204383,6,0,L|295:195,1,110,12|2,1:2|0:0,0:0:0:0:
304,232,204862,2,0,L|411:208,1,110,12|2,1:2|0:0,0:0:0:0:
432,176,205341,1,2,0:0:0:0:
436,172,205500,2,0,P|428:220|460:272,1,110,12|0,1:2|0:0,0:0:0:0:
492,288,205979,1,12,1:2:0:0:
432,380,206298,2,0,L|312:360,2,110,2|4|6,0:0|0:3|0:0,0:0:0:0:
448,76,217149,5,0,1:0:0:0:
444,72,217309,1,0,1:0:0:0:
140,24,218426,1,0,1:0:0:0:
136,28,218585,1,0,1:0:0:0:
88,332,219702,1,0,1:0:0:0:
92,336,219862,1,0,1:0:0:0:
396,384,220979,1,0,1:0:0:0:
400,380,221139,1,0,1:0:0:0:
449,77,222256,6,0,P|396:231|293:105,1,395.999987915039,6|6,0:0|0:0,0:0:0:0:
104,36,224490,2,0,L|92:96,1,55,0|0,1:0|0:0,0:0:0:0:
64,116,224809,5,6,1:2:0:0:
148,188,225128,1,2,0:0:0:0:
258,179,225447,1,2,0:0:0:0:
330,95,225766,1,2,0:0:0:0:
440,86,226085,2,0,L|456:152,1,55,8|8,3:0|3:0,0:0:0:0:
428,168,226405,2,0,L|412:234,1,55,8|0,3:0|0:0,0:0:0:0:
440,250,226724,2,0,L|456:316,1,55,8|0,3:0|0:0,0:0:0:0:
428,332,227043,1,2,3:2:0:0:
324,296,227362,6,0,P|272:278|221:295,1,110,6|8,0:0|1:2,0:0:0:0:
124,348,228000,1,2,0:0:0:0:
120,352,228160,2,0,L|104:296,1,55,0|8,0:0|1:2,0:0:0:0:
76,272,228479,2,0,L|92:160,1,110,2|0,0:0|0:0,0:0:0:0:
68,132,228958,1,8,1:2:0:0:
148,56,229277,1,2,0:0:0:0:
253,87,229596,1,8,1:2:0:0:
277,193,229915,6,0,P|331:203|381:182,1,110,2|8,0:0|1:2,0:0:0:0:
468,252,230553,2,0,P|456:288|460:320,1,55,2|0,0:0|0:0,0:0:0:0:
472,340,230873,1,8,1:2:0:0:
476,344,231032,2,0,P|422:334|372:355,1,110,2|0,0:0|0:0,0:0:0:0:
344,380,231511,1,12,1:2:0:0:
288,284,231830,2,0,L|224:300,1,55,8|8,3:0|3:0,0:0:0:0:
204,276,232149,2,0,L|150:289,1,55,8|8,3:0|3:0,0:0:0:0:
128,320,232468,5,6,0:0:0:0:
60,236,232787,1,8,1:2:0:0:
118,145,233107,1,2,0:0:0:0:
122,141,233266,2,0,L|108:76,1,55,0|8,0:0|1:2,0:0:0:0:
80,64,233585,2,0,L|185:34,1,110,2|0,0:0|0:0,0:0:0:0:
216,12,234064,1,8,1:2:0:0:
314,65,234384,1,2,0:0:0:0:
318,175,234703,1,8,1:2:0:0:
224,232,235022,6,0,L|115:212,1,110,2|8,0:0|1:2,0:0:0:0:
116,324,235660,2,0,L|224:343,1,110,2|10,0:0|1:2,0:0:0:0:
316,284,236298,1,2,0:0:0:0:
413,333,236617,1,12,1:2:0:0:
504,273,236936,2,0,P|496:246|496:219,1,55,8|8,3:0|3:0,0:0:0:0:
464,200,237256,2,0,P|471:173|471:146,1,55,8|8,3:0|3:0,0:0:0:0:
452,112,237575,5,6,0:0:0:0:
348,144,237894,1,12,1:2:0:0:
268,69,238213,2,0,P|224:48|160:68,1,110,2|8,0:0|1:2,0:0:0:0:
136,88,238692,1,0,0:0:0:0:
140,92,238851,1,2,0:0:0:0:
204,184,239170,1,8,1:2:0:0:
156,285,239490,2,0,P|104:300|54:278,1,110,2|8,0:0|1:2,0:0:0:0:
32,248,239968,1,0,3:0:0:0:
28,252,240128,6,0,L|40:136,1,110,2|8,3:2|1:2,0:0:0:0:
88,44,240766,2,0,L|160:64,1,55,2|0,0:0|0:0,0:0:0:0:
164,88,241085,1,8,1:2:0:0:
168,92,241245,2,0,L|276:73,1,110,0|0,0:0|0:0,0:0:0:0:
304,48,241724,1,8,1:2:0:0:
400,104,242043,2,0,L|392:168,1,55,2|0,0:0|0:0,0:0:0:0:
364,184,242362,1,8,1:2:0:0:
360,188,242522,1,0,0:0:0:0:
356,192,242681,6,0,P|369:245|378:299,1,110,6|8,0:0|1:2,0:0:0:0:
268,304,243319,2,0,P|221:333|172:358,1,110,2|8,0:0|1:2,0:0:0:0:
134,254,243958,2,0,P|91:218|52:180,1,110,2|8,0:0|1:2,0:0:0:0:
139,111,244596,2,0,P|159:59|183:10,1,110,2|8,0:0|1:2,0:0:0:0:
220,24,245075,1,0,0:0:0:0:
224,28,245234,6,0,P|264:48|344:16,1,110,2|8,0:0|1:2,0:0:0:0:
388,124,245873,2,0,P|416:112|444:112,2,55,2|2|8,0:0|0:0|1:2,0:0:0:0:
360,152,246351,2,0,L|380:264,1,110,6|0,0:0|0:0,0:0:0:0:
364,296,246830,1,8,1:2:0:0:
264,252,247149,2,0,L|204:264,1,55,12|2,1:2|0:0,0:0:0:0:
184,292,247468,1,12,1:2:0:0:
100,220,247787,5,14,1:2:0:0:
120,111,248107,1,10,1:2:0:0:
224,76,248426,1,10,1:2:0:0:
308,144,248745,1,10,1:2:0:0:
412,106,249064,5,10,1:2:0:0:
496,177,249383,1,14,1:2:0:0:
476,286,249702,2,0,L|422:297,1,55,10|8,1:2|3:0,0:0:0:0:
392,272,250022,2,0,L|338:284,1,55,8|8,3:0|3:0,0:0:0:0:
312,312,250341,5,0,1:0:0:0:
132,16,252894,1,0,1:0:0:0:
60,260,254170,2,0,L|184:244,1,110,0|0,1:0|0:0,0:0:0:0:
272,284,254809,2,0,P|262:309|245:331,2,55,8|8|8,3:0|3:0|3:0,0:0:0:0:
308,268,255287,6,0,P|291:216|309:165,1,110,6|0,0:0|0:0,0:0:0:0:
340,144,255766,1,10,0:0:0:0:
268,60,256085,1,10,0:0:0:0:
157,51,256405,1,14,0:0:0:0:
73,123,256724,2,0,L|100:248,1,110,8|8,3:0|3:0,0:0:0:0:
180,304,257362,1,0,1:0:0:0:
184,300,257522,1,0,1:0:0:0:
188,296,257681,1,0,1:0:0:0:
272,224,258000,6,0,P|332:248|392:220,1,110,6|8,0:0|0:0,0:0:0:0:
440,148,258639,1,2,0:0:0:0:
444,144,258798,2,0,L|440:64,1,55,0|8,0:0|0:0,0:0:0:0:
452,52,259117,2,0,P|392:76|332:48,1,110,0|0,0:0|0:0,0:0:0:0:
324,36,259596,1,8,0:0:0:0:
240,108,259915,2,0,L|186:94,1,55,2|0,0:0|0:0,0:0:0:0:
160,124,260234,2,0,L|106:110,1,55,8|0,0:0|0:0,0:0:0:0:
79,139,260553,6,0,P|90:194|95:248,1,110,2|8,0:0|0:0,0:0:0:0:
200,280,261192,1,2,0:0:0:0:
204,284,261351,2,0,P|244:256|272:244,1,55,0|8,0:0|0:0,0:0:0:0:
284,236,261670,1,0,0:0:0:0:
288,240,261830,1,2,0:0:0:0:
356,152,262149,1,12,0:0:0:0:
460,189,262468,2,0,L|448:256,1,55,8|8,3:0|3:0,0:0:0:0:
476,272,262787,2,0,L|464:339,1,55,8|8,3:0|3:0,0:0:0:0:
432,344,263107,5,6,0:0:0:0:
332,300,263426,1,12,0:0:0:0:
243,365,263745,1,2,0:0:0:0:
239,369,263905,2,0,L|168:348,1,55,0|8,0:0|0:0,0:0:0:0:
168,320,264224,2,0,L|52:340,1,110,0|0,0:0|0:0,0:0:0:0:
28,316,264702,1,8,0:0:0:0:
76,216,265022,1,2,0:0:0:0:
13,124,265341,1,8,0:0:0:0:
61,24,265660,5,2,0:0:0:0:
65,20,265819,1,2,0:0:0:0:
69,16,265979,2,0,L|133:31,1,55,12|2,0:0|0:0,0:0:0:0:
140,64,266298,2,0,L|260:40,1,110,12|2,0:0|0:0,0:0:0:0:
256,80,266777,2,0,L|363:101,1,110,12|0,0:0|0:0,0:0:0:0:
392,76,267256,1,8,0:0:0:0:
476,148,267575,2,0,L|464:208,1,55,2|8,0:0|3:0,0:0:0:0:
428,212,267894,2,0,L|440:272,1,55,8|8,3:0|3:0,0:0:0:0:
455,296,268213,6,0,P|362:280|295:348,1,197.99999395752,2|2,3:2|0:0,0:0:0:0:
180,260,269369,2,0,P|229:207|227:135,1,148.49999546814,2|2,0:0|0:0,0:0:0:0:
188,40,270196,2,0,L|76:60,1,98.9999969787599,2|2,0:0|0:0,0:0:0:0:
32,128,270866,6,0,P|80:160|56:296,1,197.99999395752,2|2,0:0|0:0,0:0:0:0:
200,364,272057,2,0,B|252:340|252:340|288:360|288:360|352:332,1,148.49999546814,2|2,0:0|0:0,0:0:0:0:
424,300,272890,1,2,0:0:0:0:
424,192,273227,1,2,0:0:0:0:
364,120,273564,6,0,P|327:159|274:168,1,98.9999969787599,2|2,0:0|0:0,0:0:0:0:
248,84,274252,2,0,P|168:40|108:64,1,148.49999546814,2|2,0:0|0:0,0:0:0:0:
28,180,275301,1,2,0:0:0:0:
124,208,275634,1,2,0:0:0:0:
96,304,275986,1,2,0:0:0:0:
192,332,276339,6,0,P|280:301|290:208,1,197.99999395752,2|2,0:0|0:0,0:0:0:0:
192,80,277603,1,2,0:0:0:0:
256,192,277790,12,0,282103,0:0:0:0:
