osu file format v14

[General]
AudioFilename: audio.mp3
AudioLeadIn: 0
PreviewTime: 227362
Countdown: 0
SampleSet: Soft
StackLeniency: 0.4
Mode: 0
LetterboxInBreaks: 0
WidescreenStoryboard: 1

[Editor]
Bookmarks: 268213
DistanceSpacing: 1.6
BeatDivisor: 4
GridSize: 4
TimelineZoom: 1.7

[Metadata]
Title:R
TitleUnicode:R
Artist:Roselia
ArtistUnicode:Roselia
Creator:Doormat
Version:Easy
Source:バンドリ! ガールズバンドパーティ!
Tags:Mordred BanG Dream! Girls Band Party bandori garupa ガルパ ロゼリア full size minato yukina 湊友希那 aiba aina 相羽あいな hikawa sayo 氷川紗夜 kudou haruka 工藤晴香 imai lisa 今井リサ endou yurika 遠藤ゆりか nakashima yuki 中島由貴 udagawa ako 宇田川あこ sakuragawa megu 櫻川めぐ shirokane rinko 白金燐子 akesaka satomi 明坂聡美 shizaki kanon 志崎樺音 anime video game japanese
BeatmapID:1921332
BeatmapSetID:820180

[Difficulty]
HPDrainRate:2.5
CircleSize:3
OverallDifficulty:3
ApproachRate:3.5
SliderMultiplier:0.9
SliderTickRate:1

[Events]
//Background and Video events
0,0,"lisa.jpg",0,0
//Break Periods
2,43732,52205
2,107562,116195
2,181605,190078
2,207136,215769
//Storyboard Layer 0 (Background)
//Storyboard Layer 1 (Fail)
//Storyboard Layer 2 (Pass)
//Storyboard Layer 3 (Foreground)
//Storyboard Sound Samples

[TimingPoints]
1405,319.148936170213,4,2,1,50,1,0
1405,-100,4,2,1,50,0,0
6511,-100,4,2,1,60,0,0
11617,-100,4,2,1,60,0,0
12894,-100,4,2,1,60,0,0
13851,-100,4,2,1,70,0,0
14170,-100,4,2,1,70,0,0
14490,-100,4,2,1,60,0,0
16405,-100,4,2,1,70,0,0
16724,-100,4,2,1,70,0,0
17043,-100,4,2,1,60,0,0
18958,-100,4,2,1,70,0,0
19277,-100,4,2,1,70,0,0
19596,-100,4,2,1,60,0,0
20234,-100,4,2,1,70,0,0
20553,-100,4,2,1,70,0,0
20873,-100,4,2,1,60,0,0
21511,-100,4,2,1,70,0,0
21830,-100,4,2,1,70,0,0
22149,-100,4,2,1,60,0,0
22787,-100,4,2,1,70,0,0
23107,-100,4,2,1,70,0,0
23426,-100,4,2,1,60,0,0
24383,-100,4,2,1,70,0,0
33160,-100,4,2,1,80,0,0
43213,-100,4,2,1,60,0,0
43532,-100,4,2,1,40,0,0
53107,-100,4,2,1,60,0,0
53585,-100,4,2,1,70,0,0
66511,-100,4,2,1,70,0,0
66830,-100,4,2,1,40,0,0
68745,-100,4,2,1,70,0,0
69064,-100,4,2,1,70,0,0
69383,-100,4,2,1,40,0,0
71298,-100,4,2,1,70,0,0
71617,-100,4,2,1,70,0,0
71936,-100,4,2,1,60,0,0
72575,-100,4,2,1,70,0,0
72894,-100,4,2,1,70,0,0
73213,-100,4,2,1,60,0,0
73851,-100,4,2,1,70,0,0
74170,-100,4,2,1,90,0,0
76724,-100,4,2,1,90,0,1
86857,-100,4,2,1,90,0,0
86936,-100,4,2,1,90,0,1
99702,-100,4,2,1,70,0,0
104649,-100,4,2,1,80,0,0
107362,-100,4,2,1,70,0,0
117575,-100,4,2,1,80,0,0
127628,-100,4,2,1,70,0,0
140553,-100,4,2,1,70,0,0
142787,-100,4,2,1,70,0,0
143107,-100,4,2,1,70,0,0
145660,-100,4,2,1,70,0,0
146617,-100,4,2,1,70,0,0
146936,-100,4,2,1,70,0,0
147894,-100,4,2,1,70,0,0
148213,-100,4,2,1,80,0,0
150766,-100,4,2,1,90,0,1
160899,-100,4,2,1,90,0,0
160979,-100,4,2,1,90,0,1
173745,-100,4,2,1,70,0,0
178692,-100,4,2,1,80,0,0
181405,-100,4,2,1,50,0,0
186511,-100,4,2,1,60,0,0
191458,-100,4,2,1,80,0,1
206936,-100,4,2,1,60,0,0
217149,-100,4,2,1,60,0,0
222256,-100,4,2,1,60,0,0
223532,-100,4,2,1,60,0,0
224490,-100,4,2,1,70,0,0
224809,-100,4,2,1,70,0,0
225128,-100,4,2,1,60,0,0
227043,-100,4,2,1,60,0,0
227362,-100,4,2,1,90,0,1
237495,-100,4,2,1,90,0,0
237575,-100,4,2,1,90,0,1
250341,-100,4,2,1,70,0,0
255287,-100,4,2,1,80,0,0
258000,-100,4,2,1,70,0,0
268213,329.67032967033,4,2,11,40,1,0
268542,-100,4,2,1,5,0,0
268625,-100,4,2,1,40,0,0
268872,331.491712707182,4,2,12,40,1,0
269369,329.67032967033,4,2,13,40,1,0
269863,333.333333333333,4,2,14,40,1,0
270529,337.078651685393,4,2,14,40,1,0
270866,337.078651685393,4,2,11,40,1,0
271203,-100,4,2,1,5,0,0
271287,-100,4,2,1,40,0,0
271540,344.827586206897,4,2,12,40,1,0
271540,-100,4,2,12,40,0,0
272057,333.333333333333,4,2,13,40,1,0
272890,337.078651685393,4,2,15,40,1,0
273564,355.029585798817,4,2,17,40,1,0
273919,333.333333333333,4,2,17,40,1,0
274252,357.142857142857,4,2,16,40,1,0
274252,-100,4,2,16,40,0,0
274609,-100,4,2,1,5,0,0
274698,-100,4,2,1,40,0,0
274787,346.820809248555,4,2,16,40,1,0
275133,337.078651685393,4,2,16,40,1,0
275301,333.333333333333,4,2,15,40,1,0
275634,352.941176470588,4,2,18,40,1,0
275986,-100,4,2,13,40,0,0
276339,357.142857142857,4,2,13,40,1,0
276696,-100,4,2,1,5,0,0
276785,-100,4,2,1,40,0,0
277053,400,4,2,19,40,1,0
277253,350.877192982456,4,2,19,40,1,0
277603,375,4,2,20,40,1,0
282103,-100,4,2,1,5,0,0

[Colours]
Combo1 : 145,95,220
Combo2 : 240,40,45
Combo3 : 220,95,175
Combo4 : 179,13,17

[HitObjects]
115,308,1405,6,0,P|194:268|275:301,1,180,4|0,0:0|0:0,0:0:0:0:
404,340,2522,2,0,P|388:272|416:208,1,135,0|2,0:0|0:3,0:0:0:0:
496,180,3319,2,0,L|476:76,1,90,0|2,0:0|0:3,0:0:0:0:
416,28,3958,6,0,P|372:60|248:24,1,180,4|0,0:0|0:0,0:0:0:0:
136,96,5075,2,0,P|81:58|15:64,1,135,0|2,0:0|0:3,0:0:0:0:
0,152,5873,1,0,0:0:0:0:
128,272,6511,6,0,L|120:332,1,45,0|0,1:0|1:0,0:0:0:0:
336,320,7787,2,0,L|396:328,1,45,0|0,1:0|1:0,0:0:0:0:
384,112,9064,2,0,L|392:52,1,45,0|0,1:0|1:0,0:0:0:0:
176,64,10341,2,0,L|116:56,1,45,0|0,1:0|1:0,0:0:0:0:
128,271,11617,6,0,P|262:231|195:354,1,360,6|6,0:0|0:0,0:0:0:0:
420,260,13851,1,0,1:2:0:0:
496,212,14170,6,0,L|484:116,1,90,6|2,1:2|0:0,0:0:0:0:
428,52,14809,2,0,L|350:110,1,90,2|2,0:0|0:0,0:0:0:0:
280,152,15447,2,0,B|216:140|216:140|172:168|172:168|104:156,1,180,2|2,0:0|0:0,0:0:0:0:
24,128,16405,1,0,1:2:0:0:
12,216,16724,6,0,P|26:258|32:303,1,90,6|2,1:2|0:0,0:0:0:0:
96,364,17362,2,0,P|125:329|161:302,1,90,2|2,0:0|0:0,0:0:0:0:
204,224,18000,2,0,B|248:252|296:224|296:224|336:200|384:224,1,180,2|2,0:0|0:0,0:0:0:0:
448,276,18958,1,0,1:2:0:0:
496,199,19277,6,0,P|506:115|432:71,1,180,6|2,1:2|0:0,0:0:0:0:
352,112,20234,1,0,1:2:0:0:
271,71,20553,2,0,P|197:114|207:199,1,180,6|2,1:2|0:0,0:0:0:0:
268,268,21511,1,0,1:2:0:0:
329,337,21830,5,6,1:2:0:0:
398,275,22149,2,0,L|486:291,2,90,2|2|0,0:0|0:0|1:2,0:0:0:0:
336,206,23107,1,6,1:2:0:0:
274,137,23426,2,0,L|185:153,2,90,2|2|8,0:0|0:0|3:0,0:0:0:0:
364,117,24383,6,0,L|376:13,1,90,6|8,0:0|0:0,0:0:0:0:
290,0,25022,2,0,P|234:35|169:21,2,135,2|2|8,0:0|0:0|0:0,0:0:0:0:
374,27,26298,2,0,L|364:117,1,90,2|8,0:0|0:0,0:0:0:0:
372,208,26936,5,2,0:0:0:0:
288,176,27256,1,8,0:0:0:0:
256,260,27575,2,0,P|228:284|120:280,2,135,2|2|12,0:0|0:0|0:0,0:0:0:0:
288,176,28851,2,0,P|272:148|280:72,1,90,8|8,3:0|3:0,0:0:0:0:
220,16,29490,6,0,L|131:1,1,90,6|8,0:0|0:0,0:0:0:0:
104,88,30128,2,0,L|15:102,1,90,2|8,0:0|0:0,0:0:0:0:
0,192,30766,2,0,P|40:256|134:244,1,180,2|2,0:0|0:0,0:0:0:0:
200,184,31724,1,8,0:0:0:0:
261,250,32043,6,0,L|348:228,1,90,2|8,0:0|0:0,0:0:0:0:
436,204,32681,1,2,0:0:0:0:
428,340,33160,1,6,0:0:0:0:
256,192,33319,12,6,36990,0:0:0:0:
16,252,38266,6,0,L|28:112,1,135,6|8,0:0|0:0,0:0:0:0:
36,28,39064,1,2,0:0:0:0:
172,48,39544,2,0,L|184:188,1,135,2|8,0:0|0:0,0:0:0:0:
192,272,40341,1,2,0:0:0:0:
324,252,40819,6,0,P|356:196|328:116,1,135,6|8,0:0|0:0,0:0:0:0:
284,60,41617,1,2,0:0:0:0:
180,148,42096,2,0,L|46:125,1,135,6|8,0:0|0:0,0:0:0:0:
9,209,42894,2,0,L|204:239,1,180,8|4,0:3|0:0,0:0:0:0:
260,96,53585,6,0,L|404:112,1,135,6|8,0:0|0:0,0:0:0:0:
484,92,54383,2,0,L|494:184,1,90,2|8,0:0|0:0,0:0:0:0:
420,232,55022,2,0,L|409:324,1,90,2|8,0:0|0:0,0:0:0:0:
324,352,55660,1,2,0:0:0:0:
276,224,56139,6,0,L|132:236,1,135,6|8,0:0|0:0,0:0:0:0:
94,160,56936,2,0,P|108:96|116:20,2,135,2|2|8,0:0|0:0|0:0,0:0:0:0:
24,216,58213,1,8,0:0:0:0:
88,336,58692,6,0,P|128:312|216:324,1,135,6|12,0:0|1:2,0:0:0:0:
292,368,59490,2,0,L|392:340,1,90,2|8,0:0|0:0,0:0:0:0:
468,360,60128,2,0,L|472:256,1,90,2|8,0:0|0:0,0:0:0:0:
504,184,60766,1,2,0:0:0:0:
452,60,61245,6,0,P|389:80|326:58,1,135,6|8,0:0|0:0,0:0:0:0:
248,16,62043,1,2,0:0:0:0:
160,12,62362,1,8,0:0:0:0:
99,79,62681,2,0,P|112:122|103:166,1,90,2|8,0:0|0:0,0:0:0:0:
176,219,63319,2,0,P|148:284|172:352,1,135,8|6,3:0|0:0,0:0:0:0:
288,292,64277,5,10,0:0:0:0:
356,352,64596,2,0,L|456:324,1,90,10|10,0:0|0:0,0:0:0:0:
492,252,65234,1,10,0:0:0:0:
435,181,65553,1,14,0:0:0:0:
350,213,65873,2,0,L|250:185,1,90,8|8,3:0|3:0,0:0:0:0:
176,160,66511,5,2,1:2:0:0:
440,44,68745,2,0,L|460:144,1,90,0|0,1:2|1:0,0:0:0:0:
72,340,71298,2,0,L|52:240,1,90,0|0,1:2|1:0,0:0:0:0:
56,160,71936,5,2,0:0:0:0:
144,184,72256,1,2,0:0:0:0:
232,208,72575,2,0,L|328:188,1,90,0|0,1:2|1:0,0:0:0:0:
400,228,73213,1,2,0:0:0:0:
472,172,73532,2,0,L|452:76,1,90,2|0,0:0|1:2,0:0:0:0:
388,20,74170,6,0,P|340:48|256:24,1,135,6|6,1:2|1:2,0:0:0:0:
132,64,75128,2,0,P|180:91|201:176,1,135,6|6,1:2|1:2,0:0:0:0:
112,260,76085,2,0,L|26:234,1,90,8|8,3:0|3:0,0:0:0:0:
1,320,76724,6,0,L|86:345,1,90,6|8,0:0|1:2,0:0:0:0:
176,320,77362,2,0,P|199:258|172:196,2,135,2|2|8,0:0|0:0|1:2,0:0:0:0:
252,372,78639,2,0,L|338:346,1,90,2|8,0:0|1:2,0:0:0:0:
368,260,79277,5,2,0:0:0:0:
454,289,79596,1,8,1:2:0:0:
483,202,79915,2,0,P|496:164|468:64,2,135,2|2|8,0:0|0:0|1:2,0:0:0:0:
397,173,81192,1,2,0:0:0:0:
300,268,81670,6,0,P|240:288|164:244,1,135,12|8,1:2|1:2,0:0:0:0:
92,232,82468,2,0,L|76:372,2,135,2|2|8,0:0|0:0|1:2,0:0:0:0:
32,164,83745,2,0,L|44:56,1,90,2|8,0:0|1:2,0:0:0:0:
104,12,84383,6,0,P|178:56|268:44,1,180,2|2,0:0|0:0,0:0:0:0:
344,0,85341,1,12,1:2:0:0:
432,28,85660,2,0,L|421:117,1,90,2|8,3:2|3:2,0:0:0:0:
332,132,86298,2,0,L|342:221,1,90,8|8,3:0|3:0,0:0:0:0:
413,278,86936,5,6,0:0:0:0:
352,344,87256,2,0,P|270:374|196:329,1,180,12|8,1:2|1:2,0:0:0:0:
152,252,88213,1,2,0:0:0:0:
240,224,88532,2,0,P|284:149|254:68,1,180,8|8,1:2|1:2,0:0:0:0:
176,20,89490,6,0,L|80:36,1,90,2|8,3:2|1:2,0:0:0:0:
8,76,90128,2,0,L|22:165,1,90,2|8,0:0|1:2,0:0:0:0:
100,208,90766,2,0,P|179:171|262:200,1,180,2|2,0:0|0:0,0:0:0:0:
332,260,91724,1,8,3:0:0:0:
412,216,92043,6,0,L|424:120,1,90,6|12,0:0|1:2,0:0:0:0:
448,40,92681,2,0,L|352:28,1,90,2|8,0:0|1:2,0:0:0:0:
272,4,93319,2,0,L|260:100,1,90,2|8,0:0|1:2,0:0:0:0:
236,180,93958,2,0,L|332:192,1,90,2|8,0:0|1:2,0:0:0:0:
384,260,94596,5,2,0:0:0:0:
354,346,94915,1,8,1:2:0:0:
266,363,95234,2,0,P|216:340|128:364,2,135,2|6|12,0:0|0:0|1:2,0:0:0:0:
354,346,96511,2,0,P|392:360|444:348,1,90,8|8,3:0|3:0,0:0:0:0:
512,296,97149,5,14,1:2:0:0:
480,212,97468,1,10,1:2:0:0:
448,128,97787,2,0,L|344:152,1,90,10|10,1:2|1:2,0:0:0:0:
288,204,98426,5,10,1:2:0:0:
256,120,98745,1,10,1:2:0:0:
224,36,99064,2,0,L|137:16,1,90,10|8,1:2|3:0,0:0:0:0:
64,72,99702,5,0,1:0:0:0:
460,100,102256,1,0,1:0:0:0:
420,368,103532,2,0,P|343:327|267:367,1,180,0|8,1:0|3:0,0:0:0:0:
132,344,104649,6,0,L|104:204,1,135,6|10,0:0|0:0,0:0:0:0:
52,136,105447,1,10,0:0:0:0:
90,51,105767,1,14,0:0:0:0:
182,42,106085,2,0,P|240:52|240:236,1,270,8|0,3:0|1:0,0:0:0:0:
184,284,107362,1,6,0:0:0:0:
300,172,117575,6,0,P|266:114|280:50,1,135,12|12,1:2|1:2,0:0:0:0:
414,30,118532,2,0,P|447:87|433:151,1,135,12|12,1:2|1:2,0:0:0:0:
300,172,119490,2,0,L|204:148,1,90,12|12,1:2|1:2,0:0:0:0:
144,208,120128,6,0,P|178:266|164:330,1,135,12|12,1:2|1:2,0:0:0:0:
30,350,121085,2,0,P|-3:293|11:229,1,135,12|12,1:2|1:2,0:0:0:0:
144,208,122043,2,0,L|231:186,1,90,12|12,1:2|1:2,0:0:0:0:
280,112,122681,5,12,1:2:0:0:
412,140,123160,1,12,1:2:0:0:
384,272,123639,1,12,1:2:0:0:
252,244,124117,1,12,1:2:0:0:
280,112,124596,2,0,P|292:68|276:20,1,90,12|12,1:2|1:2,0:0:0:0:
368,4,125234,6,0,L|508:24,1,135,12|12,1:2|1:2,0:0:0:0:
464,152,126192,2,0,L|374:139,1,90,8|2,3:0|1:2,0:0:0:0:
72,56,127628,6,0,L|92:200,1,135,6|12,0:0|1:2,0:0:0:0:
172,228,128426,2,0,L|196:132,1,90,2|8,0:0|0:0,0:0:0:0:
168,56,129064,2,0,P|212:52|252:71,1,90,2|8,0:0|0:0,0:0:0:0:
308,140,129702,2,0,P|352:143|392:124,1,90,2|8,0:0|0:0,0:0:0:0:
428,44,130341,5,2,0:0:0:0:
492,108,130660,1,8,0:0:0:0:
460,192,130979,2,0,P|448:232|472:328,2,135,2|2|8,0:0|0:0|0:0,0:0:0:0:
492,108,132256,1,2,0:0:0:0:
360,140,132734,6,0,L|216:116,1,135,6|8,0:0|0:0,0:0:0:0:
180,40,133532,2,0,L|80:64,1,90,2|8,0:0|0:0,0:0:0:0:
12,24,134170,2,0,P|4:68|17:110,1,90,2|8,0:0|0:0,0:0:0:0:
100,152,134809,2,0,P|112:188|96:256,1,90,2|8,0:0|0:0,0:0:0:0:
48,308,135447,5,2,0:0:0:0:
136,324,135766,2,0,L|236:304,2,90,8|2|8,0:0|0:0|0:0,0:0:0:0:
48,308,136724,2,0,P|28:272|36:208,1,90,2|8,0:0|0:0,0:0:0:0:
107,176,137362,2,0,P|145:121|134:57,1,135,2|6,0:0|0:0,0:0:0:0:
264,16,138319,5,8,0:0:0:0:
296,100,138639,2,0,L|384:86,1,90,8|8,0:0|0:0,0:0:0:0:
404,176,139277,2,0,L|316:190,1,90,12|8,0:0|0:0,0:0:0:0:
268,268,139915,1,2,1:2:0:0:
177,266,140234,1,10,1:2:0:0:
133,186,140553,6,0,L|140:88,1,90,6|0,1:2|0:0,0:0:0:0:
192,24,141192,2,0,P|244:48|320:16,1,135,8|2,0:0|0:0,0:0:0:0:
376,88,141990,2,0,P|436:62|497:86,1,135,8|8,0:0|0:0,0:0:0:0:
500,176,142787,1,0,1:2:0:0:
502,265,143107,6,0,B|432:248|432:248|404:272|404:272|316:252,1,180,6|8,1:2|0:0,0:0:0:0:
272,192,144064,1,0,0:0:0:0:
204,248,144383,2,0,L|208:308,1,45,2|8,0:0|0:0,0:0:0:0:
76,332,145022,2,0,L|70:242,1,90,8|8,3:0|3:0,0:0:0:0:
112,164,145660,6,0,P|46:154|-7:191,2,135,12|12|0,1:2|1:2|1:2,0:0:0:0:
180,104,146936,2,0,P|245:113|299:76,2,135,12|12|0,1:2|1:2|1:2,0:0:0:0:
112,164,148213,6,0,L|125:253,2,90,6|8|2,0:0|0:0|0:0,0:0:0:0:
32,120,149170,1,12,1:2:0:0:
84,44,149490,2,0,B|132:64|176:40|176:40|232:64|232:64|276:24|348:32,1,270,10|0,3:2|1:0,0:0:0:0:
416,76,150766,6,0,P|409:120|407:165,1,90,6|12,0:0|1:2,0:0:0:0:
340,228,151405,2,0,P|288:188|216:200,2,135,2|2|8,0:0|0:0|1:2,0:0:0:0:
424,260,152681,2,0,P|431:304|432:349,1,90,2|8,0:0|1:2,0:0:0:0:
348,372,153319,5,2,0:0:0:0:
260,371,153639,1,8,1:2:0:0:
175,348,153958,2,0,L|32:368,2,135,2|2|12,0:0|0:0|1:2,0:0:0:0:
216,268,155234,2,0,P|196:232|204:176,1,90,8|8,3:0|3:0,0:0:0:0:
288,168,155873,6,0,P|308:132|300:76,1,90,6|8,0:0|1:2,0:0:0:0:
247,12,156511,2,0,P|320:-4|374:26,2,135,2|2|8,0:0|0:0|1:2,0:0:0:0:
168,52,157787,2,0,P|123:56|84:35,1,90,2|8,0:0|1:2,0:0:0:0:
0,68,158426,5,2,0:0:0:0:
16,156,158745,1,8,1:2:0:0:
32,244,159064,2,0,L|8:388,2,135,2|12|12,0:0|1:2|1:2,0:0:0:0:
116,212,160341,2,0,L|212:240,1,90,8|8,3:0|3:0,0:0:0:0:
268,176,160979,5,6,0:0:0:0:
333,114,161298,2,0,P|418:86|500:140,1,180,12|8,1:2|1:2,0:0:0:0:
500,220,162256,1,2,0:0:0:0:
507,311,162575,2,0,P|421:338|340:285,1,180,8|8,1:2|1:2,0:0:0:0:
300,220,163532,6,0,L|212:242,1,90,2|8,3:2|1:2,0:0:0:0:
200,152,164170,2,0,L|112:130,1,90,2|8,0:0|1:2,0:0:0:0:
84,44,164809,1,2,0:0:0:0:
164,4,165128,2,0,L|252:26,1,90,8|2,1:2|0:0,0:0:0:0:
340,4,165766,1,8,1:2:0:0:
408,64,166085,6,0,P|399:108|396:153,1,90,6|8,0:0|1:2,0:0:0:0:
420,240,166724,2,0,P|375:246|331:256,1,90,2|8,0:0|1:2,0:0:0:0:
256,305,167362,2,0,P|236:264|213:226,1,90,2|8,0:0|1:2,0:0:0:0:
142,169,168000,2,0,P|174:137|203:103,1,90,2|8,0:0|1:2,0:0:0:0:
140,40,168639,6,0,P|96:27|52:19,1,90,2|8,0:0|1:2,0:0:0:0:
0,92,169277,2,0,P|0:156|16:232,2,135,2|6|12,0:0|0:0|1:2,0:0:0:0:
51,19,170553,2,0,P|94:31|139:40,1,90,8|4,3:0|3:2,0:0:0:0:
224,8,171192,5,14,1:2:0:0:
312,32,171511,1,10,1:2:0:0:
400,56,171830,2,0,L|384:152,1,90,10|10,1:2|1:2,0:0:0:0:
320,208,172468,5,10,1:2:0:0:
232,232,172787,1,14,1:2:0:0:
144,256,173106,2,0,L|160:352,1,90,10|8,1:2|3:0,0:0:0:0:
240,384,173745,5,0,1:0:0:0:
340,0,176298,1,0,1:0:0:0:
68,16,177575,2,0,P|28:52|60:172,1,180,0|8,1:0|3:0,0:0:0:0:
168,104,178692,6,0,L|316:120,1,135,6|10,0:0|0:0,0:0:0:0:
356,192,179490,1,10,0:0:0:0:
302,266,179809,1,14,0:0:0:0:
353,339,180128,2,0,P|474:354|500:232,1,270,8|0,3:0|1:0,0:0:0:0:
440,164,181405,1,4,0:0:0:0:
288,16,191458,6,0,P|248:28|144:28,1,135,6|8,0:0|1:2,0:0:0:0:
144,120,192256,2,0,P|188:123|230:139,1,90,2|8,0:0|1:2,0:0:0:0:
280,216,192894,1,2,0:0:0:0:
356,166,193213,1,8,1:2:0:0:
405,242,193532,2,0,P|400:288|392:380,1,135,2|6,0:0|0:0,0:0:0:0:
264,332,194490,5,8,1:2:0:0:
188,380,194809,2,0,L|92:356,1,90,2|8,0:0|1:2,0:0:0:0:
28,304,195447,2,0,L|71:225,1,90,2|12,0:0|1:2,0:0:0:0:
36,144,196085,1,2,0:0:0:0:
140,60,196564,6,0,P|204:72|280:76,1,135,6|2,0:0|1:2,0:0:0:0:
356,36,197362,1,2,1:2:0:0:
419,101,197681,1,2,1:2:0:0:
375,181,198000,2,0,L|392:276,1,90,2|2,1:2|1:2,0:0:0:0:
352,352,198639,1,2,1:2:0:0:
236,280,199117,6,0,L|88:300,1,135,6|10,0:0|1:2,0:0:0:0:
24,248,199915,1,10,1:2:0:0:
74,169,200234,1,10,1:2:0:0:
124,90,200553,2,0,L|228:75,1,90,10|14,1:2|1:2,0:0:0:0:
292,124,201192,1,8,1:2:0:0:
396,36,201670,6,0,P|406:102|422:168,1,135,6|12,0:0|1:2,0:0:0:0:
380,248,202468,2,0,P|428:260|500:208,2,135,2|2|8,0:0|0:0|1:2,0:0:0:0:
292,268,203745,2,0,L|205:292,1,90,2|8,0:0|1:2,0:0:0:0:
124,256,204383,6,0,P|143:191|148:124,1,135,12|12,1:2|1:2,0:0:0:0:
288,12,205500,2,0,P|334:61|389:98,1,135,12|12,1:2|1:2,0:0:0:0:
472,136,206298,2,0,B|460:208|460:208|488:236|488:236|476:312,1,180,2|6,0:0|0:0,0:0:0:0:
384,112,217149,6,0,L|392:52,1,45,0|0,1:0|1:0,0:0:0:0:
176,64,218426,2,0,L|116:56,1,45,0|0,1:0|1:0,0:0:0:0:
128,272,219702,2,0,L|120:332,1,45,0|0,1:0|1:0,0:0:0:0:
336,320,220979,2,0,L|396:328,1,45,0|0,1:0|1:0,0:0:0:0:
383,112,222256,6,0,P|316:8|212:156,1,360,6|6,0:0|0:0,0:0:0:0:
436,292,224490,1,0,1:0:0:0:
376,360,224809,6,0,L|288:338,1,90,6|2,1:2|0:0,0:0:0:0:
244,260,225447,2,0,L|156:281,1,90,2|2,0:0|0:0,0:0:0:0:
68,264,226085,2,0,B|76:188|20:160|20:160|72:124|72:124|68:76|88:36,1,270,8|2,3:0|3:2,0:0:0:0:
176,36,227362,6,0,P|216:55|260:51,1,90,6|8,0:0|1:2,0:0:0:0:
324,112,228000,2,0,P|372:80|456:88,2,135,2|2|8,0:0|0:0|1:2,0:0:0:0:
340,200,229277,2,0,L|251:217,1,90,2|8,0:0|1:2,0:0:0:0:
168,180,229915,5,2,0:0:0:0:
152,268,230234,1,8,1:2:0:0:
136,355,230553,2,0,P|72:374|11:348,2,135,2|2|12,0:0|0:0|1:2,0:0:0:0:
228,352,231830,2,0,L|316:369,1,90,8|8,3:0|3:0,0:0:0:0:
404,348,232468,6,0,L|398:258,1,90,6|8,0:0|1:2,0:0:0:0:
452,184,233107,2,0,P|388:166|324:200,2,135,2|2|8,0:0|0:0|1:2,0:0:0:0:
512,116,234383,2,0,L|506:26,1,90,2|8,0:0|1:2,0:0:0:0:
416,16,235022,5,2,0:0:0:0:
336,52,235341,1,8,1:2:0:0:
256,88,235660,2,0,P|192:105|132:77,2,135,2|2|12,0:0|0:0|1:2,0:0:0:0:
300,168,236936,2,0,P|277:206|278:251,1,90,8|8,3:0|3:0,0:0:0:0:
356,296,237575,5,6,0:0:0:0:
280,344,237894,2,0,P|196:369|126:318,1,180,12|8,1:2|1:2,0:0:0:0:
72,248,238851,1,2,0:0:0:0:
160,236,239170,2,0,P|199:158|161:80,1,180,8|8,1:2|1:2,0:0:0:0:
208,4,240128,6,0,P|252:11|296:8,1,90,2|8,3:2|1:2,0:0:0:0:
328,92,240766,2,0,P|372:88|416:96,1,90,2|8,0:0|1:2,0:0:0:0:
496,136,241405,1,2,0:0:0:0:
432,200,241724,2,0,L|456:300,1,90,8|2,1:2|0:0,0:0:0:0:
404,364,242362,1,8,1:2:0:0:
327,315,242681,6,0,P|284:304|241:311,1,90,6|8,0:0|1:2,0:0:0:0:
152,328,243319,2,0,P|150:283|129:243,1,90,2|8,0:0|1:2,0:0:0:0:
86,164,243958,2,0,P|127:148|158:116,1,90,2|8,0:0|1:2,0:0:0:0:
221,50,244596,2,0,P|248:84|288:104,1,90,2|8,0:0|1:2,0:0:0:0:
380,100,245234,5,2,0:0:0:0:
368,189,245553,1,8,1:2:0:0:
356,278,245873,2,0,P|421:303|481:274,2,135,2|6|8,0:0|0:0|1:2,0:0:0:0:
264,292,247149,2,0,P|216:284|175:303,1,90,12|12,1:2|1:2,0:0:0:0:
124,372,247787,5,14,1:2:0:0:
68,300,248107,1,10,1:2:0:0:
12,228,248426,2,0,P|20:196|32:132,1,90,10|10,1:2|1:2,0:0:0:0:
108,92,249064,5,10,1:2:0:0:
164,164,249384,1,14,1:2:0:0:
220,236,249702,2,0,P|252:228|316:216,1,90,10|8,1:2|3:0,0:0:0:0:
396,240,250341,5,0,1:0:0:0:
20,112,252894,1,0,1:0:0:0:
84,376,254170,2,0,P|128:340|248:360,1,180,0|8,1:0|3:0,0:0:0:0:
380,352,255287,6,0,L|401:218,1,135,6|10,0:0|0:0,0:0:0:0:
480,176,256085,1,10,0:0:0:0:
482,86,256404,1,14,0:0:0:0:
405,39,256724,2,0,B|316:60|316:60|232:32|232:32|140:52,1,270,8|0,3:0|1:0,0:0:0:0:
72,104,258000,6,0,P|87:146|88:191,1,90,6|8,0:0|0:0,0:0:0:0:
168,232,258639,2,0,P|219:192|282:209,2,135,2|2|8,0:0|0:0|0:0,0:0:0:0:
92,280,259915,2,0,L|0:268,1,90,2|8,0:0|0:0,0:0:0:0:
8,360,260553,6,0,L|100:372,1,90,2|8,0:0|0:0,0:0:0:0:
180,340,261192,2,0,L|168:192,2,135,2|2|12,0:0|0:0|0:0,0:0:0:0:
268,364,262468,1,8,3:0:0:0:
356,344,262787,1,8,3:0:0:0:
444,324,263107,6,0,P|464:280|456:232,1,90,6|12,0:0|0:0,0:0:0:0:
396,176,263745,2,0,P|371:114|395:52,2,135,2|2|8,0:0|0:0|0:0,0:0:0:0:
352,256,265022,2,0,L|263:238,1,90,2|8,0:0|0:0,0:0:0:0:
176,264,265660,5,2,0:0:0:0:
150,176,265979,1,12,0:0:0:0:
124,88,266298,2,0,P|92:72|-4:100,2,135,12|12|8,0:0|0:0|0:0,0:0:0:0:
200,40,267575,2,0,P|236:56|292:40,1,90,2|8,0:0|3:0,0:0:0:0:
364,84,268213,6,0,B|347:154|347:154|371:182|371:182|351:270,1,180,2|2,3:2|0:0,0:0:0:0:
256,340,269369,1,2,0:0:0:0:
80,152,270866,6,0,B|124:180|172:152|172:152|212:128|260:152,1,180,2|2,0:0|0:0,0:0:0:0:
288,280,272057,1,2,0:0:0:0:
480,24,273564,6,0,P|432:36|384:12,1,90,2|2,0:0|0:0,0:0:0:0:
320,56,274252,2,0,L|340:196,1,135,2|2,0:0|0:0,0:0:0:0:
236,280,275301,1,2,0:0:0:0:
204,196,275634,2,0,L|108:208,1,90,2|2,0:0|0:0,0:0:0:0:
56,136,276339,6,0,P|95:59|180:59,1,180,2|2,0:0|0:0,0:0:0:0:
292,136,277603,1,2,0:0:0:0:
256,192,277790,12,0,282103,0:0:0:0:
