osu file format v14

[General]
AudioFilename: audio.mp3
AudioLeadIn: 0
PreviewTime: 222045
Countdown: 1
SampleSet: None
StackLeniency: 0.7
Mode: 1
LetterboxInBreaks: 0
WidescreenStoryboard: 0

[Editor]
Bookmarks: 45378,89656,118267,132490,223045
DistanceSpacing: 0.1
BeatDivisor: 4
GridSize: 32
TimelineZoom: 1.8

[Metadata]
Title:Opera of the wasteland
TitleUnicode:Opera of the wasteland
Artist:Roselia
ArtistUnicode:Roselia
Creator:Bara-
Version:waste
Source:
Tags:
BeatmapID:1583054
BeatmapSetID:751968

[Difficulty]
HPDrainRate:3
CircleSize:2
OverallDifficulty:8
ApproachRate:6
SliderMultiplier:1.40134932289129
SliderTickRate:1

[Events]
//Background and Video events
//Break Periods
//Storyboard Layer 0 (Background)
//Storyboard Layer 1 (Fail)
//Storyboard Layer 2 (Pass)
//Storyboard Layer 3 (Foreground)
//Storyboard Sound Samples

[TimingPoints]
934,444.444444444444,4,3,1,40,1,0
15156,-50,4,3,1,60,0,0
16934.5408351951,222.222222222222,4,3,1,70,1,0
31378,-133.333333333333,4,3,1,60,0,0
59675,-153.846153846153,4,3,1,60,0,0
73823,-66.6666666666667,4,3,1,70,0,0
75490,-95.2380952380952,4,3,1,80,0,1
103934,-100,4,3,1,70,0,0
146767,-133.333333333333,4,3,1,70,0,0
160934,-66.6666666666667,4,3,1,70,0,0
162601,-95.2380952380952,4,3,1,80,0,1
191156,-100,4,3,1,70,0,0
205378,-100,4,3,1,70,0,0
223045,-133.333333333333,4,3,1,70,0,0
239045,-90.9090909090909,4,3,1,80,0,1
260378,-90.9090909090909,4,3,1,70,0,0
274712,-90.9090909090909,4,3,1,90,0,1
277267,-90.9090909090909,4,3,1,70,0,0

[HitObjects]
256,192,933,5,12,0:0:0:0:
256,192,1822,1,0,0:0:0:0:
256,192,2156,1,0,0:0:0:0:
256,192,2489,1,0,0:0:0:0:
256,192,2711,1,8,0:0:0:0:
256,192,3378,1,0,0:0:0:0:
256,192,3489,1,0,0:0:0:0:
256,192,3600,1,0,0:0:0:0:
256,192,4045,1,8,0:0:0:0:
256,192,4489,1,8,0:0:0:0:
256,192,5156,1,0,0:0:0:0:
256,192,5267,1,0,0:0:0:0:
256,192,5378,1,8,0:0:0:0:
256,192,5822,1,0,0:0:0:0:
256,192,6267,1,8,0:0:0:0:
256,192,7156,1,0,0:0:0:0:
256,192,7489,1,0,0:0:0:0:
256,192,7822,1,0,0:0:0:0:
256,192,8045,1,12,0:0:0:0:
256,192,8711,1,8,0:0:0:0:
256,192,8822,1,8,0:0:0:0:
256,192,8933,1,8,0:0:0:0:
256,192,9267,1,0,0:0:0:0:
256,192,9600,1,0,0:0:0:0:
256,192,9711,1,0,0:0:0:0:
256,192,9822,1,8,0:0:0:0:
256,192,10156,1,8,0:0:0:0:
256,192,10489,1,8,0:0:0:0:
256,192,10600,1,8,0:0:0:0:
256,192,10711,1,8,0:0:0:0:
256,192,11156,1,8,0:0:0:0:
256,192,11211,1,8,0:0:0:0:
256,192,11267,1,0,0:0:0:0:
256,192,11322,1,0,0:0:0:0:
256,192,11378,1,8,0:0:0:0:
256,192,11489,1,8,0:0:0:0:
256,192,11600,1,8,0:0:0:0:
256,192,12267,1,8,0:0:0:0:
256,192,12378,1,8,0:0:0:0:
256,192,12489,1,8,0:0:0:0:
256,192,13156,1,0,0:0:0:0:
256,192,13267,1,0,0:0:0:0:
256,192,13378,1,0,0:0:0:0:
256,192,14045,1,8,0:0:0:0:
256,192,14156,1,8,0:0:0:0:
256,192,14267,1,8,0:0:0:0:
256,192,15156,1,4,0:0:0:0:
256,192,15267,1,4,0:0:0:0:
256,192,15378,1,4,0:0:0:0:
256,192,15489,1,4,0:0:0:0:
256,192,15822,1,4,0:0:0:0:
256,192,15933,1,4,0:0:0:0:
256,192,16045,1,4,0:0:0:0:
256,192,16156,1,4,0:0:0:0:
256,192,16489,1,12,0:0:0:0:
256,192,16600,1,4,0:0:0:0:
256,192,16711,1,4,0:0:0:0:
256,192,16822,1,12,0:0:0:0:
256,192,17045,1,0,0:0:0:0:
256,192,17101,1,0,0:0:0:0:
256,192,17156,1,8,0:0:0:0:
256,192,17267,1,8,0:0:0:0:
256,192,17378,1,0,0:0:0:0:
256,192,17490,1,0,0:0:0:0:
256,192,17545,1,8,0:0:0:0:
256,192,17601,1,8,0:0:0:0:
256,192,17712,1,8,0:0:0:0:
256,192,17823,1,0,0:0:0:0:
256,192,17934,1,0,0:0:0:0:
256,192,17990,1,0,0:0:0:0:
256,192,18045,1,8,0:0:0:0:
256,192,18156,1,0,0:0:0:0:
256,192,18267,1,0,0:0:0:0:
256,192,18323,1,0,0:0:0:0:
256,192,18378,1,8,0:0:0:0:
256,192,18434,1,0,0:0:0:0:
256,192,18490,1,8,0:0:0:0:
256,192,18600,1,12,0:0:0:0:
256,192,18712,1,0,0:0:0:0:
256,192,18823,1,0,0:0:0:0:
256,192,18878,1,0,0:0:0:0:
256,192,18934,1,8,0:0:0:0:
256,192,19045,1,0,0:0:0:0:
256,192,19156,1,8,0:0:0:0:
256,192,19267,1,0,0:0:0:0:
256,192,19323,1,0,0:0:0:0:
256,192,19378,1,8,0:0:0:0:
256,192,19490,1,8,0:0:0:0:
256,192,19545,1,0,0:0:0:0:
256,192,19601,1,0,0:0:0:0:
256,192,19712,1,0,0:0:0:0:
256,192,19767,1,0,0:0:0:0:
256,192,19823,1,8,0:0:0:0:
256,192,19934,1,0,0:0:0:0:
256,192,20045,1,8,0:0:0:0:
256,192,20156,1,8,0:0:0:0:
256,192,20267,1,8,0:0:0:0:
256,192,20378,1,12,0:0:0:0:
256,192,20601,1,0,0:0:0:0:
256,192,20656,1,0,0:0:0:0:
256,192,20712,1,8,0:0:0:0:
256,192,20823,1,0,0:0:0:0:
256,192,20933,1,0,0:0:0:0:
256,192,21045,1,8,0:0:0:0:
256,192,21156,1,8,0:0:0:0:
256,192,21212,1,0,0:0:0:0:
256,192,21267,1,0,0:0:0:0:
256,192,21323,1,8,0:0:0:0:
256,192,21378,1,8,0:0:0:0:
256,192,21490,1,0,0:0:0:0:
256,192,21545,1,0,0:0:0:0:
256,192,21601,1,8,0:0:0:0:
256,192,21712,1,0,0:0:0:0:
256,192,21823,1,8,0:0:0:0:
256,192,21934,1,8,0:0:0:0:
256,192,22045,1,8,0:0:0:0:
256,192,22156,1,12,0:0:0:0:
256,192,22378,1,0,0:0:0:0:
256,192,22434,1,0,0:0:0:0:
256,192,22490,1,8,0:0:0:0:
256,192,22601,1,0,0:0:0:0:
256,192,22712,1,8,0:0:0:0:
256,192,22823,1,0,0:0:0:0:
256,192,22878,1,0,0:0:0:0:
256,192,22934,1,8,0:0:0:0:
256,192,23045,1,0,0:0:0:0:
256,192,23156,1,8,0:0:0:0:
256,192,23267,1,0,0:0:0:0:
256,192,23378,1,8,0:0:0:0:
256,192,23490,1,0,0:0:0:0:
256,192,23601,1,8,0:0:0:0:
256,192,23656,1,8,0:0:0:0:
256,192,23712,1,0,0:0:0:0:
256,192,23767,1,0,0:0:0:0:
256,192,23823,1,8,0:0:0:0:
256,192,23878,1,8,0:0:0:0:
256,192,23934,1,4,0:0:0:0:
256,192,24156,1,0,0:0:0:0:
256,192,24212,1,0,0:0:0:0:
256,192,24268,1,8,0:0:0:0:
256,192,24378,1,0,0:0:0:0:
256,192,24434,1,8,0:0:0:0:
256,192,24490,1,8,0:0:0:0:
256,192,24601,1,0,0:0:0:0:
256,192,24712,1,8,0:0:0:0:
256,192,24767,1,0,0:0:0:0:
256,192,24823,1,8,0:0:0:0:
256,192,24934,1,0,0:0:0:0:
256,192,25045,1,0,0:0:0:0:
256,192,25101,1,0,0:0:0:0:
256,192,25156,1,8,0:0:0:0:
256,192,25267,1,0,0:0:0:0:
256,192,25378,1,8,0:0:0:0:
256,192,25490,1,8,0:0:0:0:
256,192,25601,1,8,0:0:0:0:
256,192,25712,1,12,0:0:0:0:
256,192,25934,1,0,0:0:0:0:
256,192,25990,1,0,0:0:0:0:
256,192,26045,1,8,0:0:0:0:
256,192,26267,1,0,0:0:0:0:
256,192,26378,1,0,0:0:0:0:
256,192,26490,1,8,0:0:0:0:
256,192,26601,1,0,0:0:0:0:
256,192,26711,1,0,0:0:0:0:
256,192,26823,1,0,0:0:0:0:
256,192,26934,1,8,0:0:0:0:
256,192,27156,1,8,0:0:0:0:
256,192,27267,1,8,0:0:0:0:
256,192,27378,1,8,0:0:0:0:
256,192,27490,1,12,0:0:0:0:
256,192,27712,1,0,0:0:0:0:
256,192,27767,1,0,0:0:0:0:
256,192,27823,1,8,0:0:0:0:
256,192,28045,1,0,0:0:0:0:
256,192,28156,1,0,0:0:0:0:
256,192,28267,1,8,0:0:0:0:
256,192,28490,1,0,0:0:0:0:
256,192,28712,1,8,0:0:0:0:
256,192,28934,1,0,0:0:0:0:
256,192,29045,1,0,0:0:0:0:
256,192,29156,1,8,0:0:0:0:
256,192,29267,1,12,0:0:0:0:
256,192,29490,1,0,0:0:0:0:
256,192,29601,1,8,0:0:0:0:
256,192,29656,1,0,0:0:0:0:
256,192,29712,1,0,0:0:0:0:
256,192,29767,1,0,0:0:0:0:
256,192,29823,1,0,0:0:0:0:
256,192,29934,1,8,0:0:0:0:
256,192,30045,1,0,0:0:0:0:
256,192,30156,1,0,0:0:0:0:
256,192,30267,1,8,0:0:0:0:
256,192,30378,1,0,0:0:0:0:
256,192,30490,1,0,0:0:0:0:
256,192,30601,1,0,0:0:0:0:
256,192,30712,1,8,0:0:0:0:
256,192,30823,1,8,0:0:0:0:
256,192,30934,1,8,0:0:0:0:
256,192,31045,1,8,0:0:0:0:
256,192,31156,1,4,0:0:0:0:
256,192,31490,1,0,0:0:0:0:
256,192,31823,1,0,0:0:0:0:
256,192,32267,1,0,0:0:0:0:
256,192,32490,1,0,0:0:0:0:
256,192,32712,1,0,0:0:0:0:
256,192,32934,1,8,0:0:0:0:
256,192,33267,1,0,0:0:0:0:
256,192,33601,1,0,0:0:0:0:
256,192,33823,1,0,0:0:0:0:
256,192,34157,1,0,0:0:0:0:
256,192,34490,1,0,0:0:0:0:
256,192,34711,1,8,0:0:0:0:
256,192,35156,1,0,0:0:0:0:
256,192,35379,1,0,0:0:0:0:
256,192,35822,1,0,0:0:0:0:
256,192,36267,1,0,0:0:0:0:
256,192,36490,1,8,0:0:0:0:
256,192,36823,1,0,0:0:0:0:
256,192,37156,1,0,0:0:0:0:
256,192,37378,1,8,0:0:0:0:
256,192,38156,1,0,0:0:0:0:
256,192,38212,1,0,0:0:0:0:
256,192,38267,1,8,0:0:0:0:
256,192,38601,1,0,0:0:0:0:
256,192,38934,1,0,0:0:0:0:
256,192,39379,1,0,0:0:0:0:
256,192,39601,1,0,0:0:0:0:
256,192,39823,1,0,0:0:0:0:
256,192,39934,1,0,0:0:0:0:
256,192,39990,1,0,0:0:0:0:
256,192,40045,1,8,0:0:0:0:
256,192,40378,1,0,0:0:0:0:
256,192,40712,1,0,0:0:0:0:
256,192,40934,1,0,0:0:0:0:
256,192,41156,1,0,0:0:0:0:
256,192,41378,1,0,0:0:0:0:
256,192,41823,1,8,0:0:0:0:
256,192,42156,1,0,0:0:0:0:
256,192,42490,1,0,0:0:0:0:
256,192,42934,1,0,0:0:0:0:
256,192,43156,1,0,0:0:0:0:
256,192,43378,1,0,0:0:0:0:
256,192,43601,1,8,0:0:0:0:
256,192,43935,1,0,0:0:0:0:
256,192,44267,1,0,0:0:0:0:
256,192,44490,1,0,0:0:0:0:
256,192,44934,1,0,0:0:0:0:
256,192,45156,1,0,0:0:0:0:
256,192,45212,1,0,0:0:0:0:
256,192,45267,1,0,0:0:0:0:
256,192,45323,1,0,0:0:0:0:
256,192,45378,1,12,0:0:0:0:
256,192,45711,1,12,0:0:0:0:
256,192,46045,1,12,0:0:0:0:
256,192,46490,1,0,0:0:0:0:
256,192,46712,1,8,0:0:0:0:
256,192,46934,1,8,0:0:0:0:
256,192,47156,1,12,0:0:0:0:
256,192,47490,1,12,0:0:0:0:
256,192,47823,1,12,0:0:0:0:
256,192,48045,1,0,0:0:0:0:
256,192,48378,1,0,0:0:0:0:
256,192,48490,1,8,0:0:0:0:
256,192,48712,1,0,0:0:0:0:
256,192,48823,1,0,0:0:0:0:
256,192,48878,1,0,0:0:0:0:
256,192,48934,1,12,0:0:0:0:
256,192,49268,1,12,0:0:0:0:
256,192,49601,1,12,0:0:0:0:
256,192,50045,1,0,0:0:0:0:
256,192,50267,1,8,0:0:0:0:
256,192,50490,1,8,0:0:0:0:
256,192,50712,1,12,0:0:0:0:
256,192,51045,1,12,0:0:0:0:
256,192,51378,1,12,0:0:0:0:
256,192,51823,1,8,0:0:0:0:
256,192,52045,1,8,0:0:0:0:
256,192,52156,1,0,0:0:0:0:
256,192,52267,1,0,0:0:0:0:
256,192,52378,1,8,0:0:0:0:
256,192,52490,1,12,0:0:0:0:
256,192,52823,1,12,0:0:0:0:
256,192,53157,1,12,0:0:0:0:
256,192,53602,1,0,0:0:0:0:
256,192,53824,1,8,0:0:0:0:
256,192,54046,1,8,0:0:0:0:
256,192,54268,1,12,0:0:0:0:
256,192,54602,1,12,0:0:0:0:
256,192,54935,1,12,0:0:0:0:
256,192,55157,1,0,0:0:0:0:
256,192,55490,1,0,0:0:0:0:
256,192,55602,1,8,0:0:0:0:
256,192,55824,1,0,0:0:0:0:
256,192,55935,1,0,0:0:0:0:
256,192,55990,1,0,0:0:0:0:
256,192,56046,1,12,0:0:0:0:
256,192,56378,1,12,0:0:0:0:
256,192,56713,1,12,0:0:0:0:
256,192,57157,1,0,0:0:0:0:
256,192,57379,1,8,0:0:0:0:
256,192,57602,1,8,0:0:0:0:
256,192,57824,1,12,0:0:0:0:
256,192,58157,1,12,0:0:0:0:
256,192,58490,1,12,0:0:0:0:
256,192,58712,1,8,0:0:0:0:
256,192,58823,1,0,0:0:0:0:
256,192,58878,1,0,0:0:0:0:
256,192,58935,1,8,0:0:0:0:
256,192,59045,1,0,0:0:0:0:
256,192,59101,1,0,0:0:0:0:
256,192,59157,1,8,0:0:0:0:
256,192,59268,1,0,0:0:0:0:
256,192,59323,1,0,0:0:0:0:
256,192,59379,1,0,0:0:0:0:
256,192,59490,1,0,0:0:0:0:
256,192,59602,1,12,0:0:0:0:
256,192,60045,1,0,0:0:0:0:
256,192,60193,1,0,0:0:0:0:
256,192,60341,1,0,0:0:0:0:
256,192,60490,1,12,0:0:0:0:
256,192,60934,1,0,0:0:0:0:
256,192,61082,1,0,0:0:0:0:
256,192,61230,1,0,0:0:0:0:
256,192,61378,1,12,0:0:0:0:
256,192,61823,1,0,0:0:0:0:
256,192,61971,1,0,0:0:0:0:
256,192,62119,1,0,0:0:0:0:
256,192,62267,1,12,0:0:0:0:
256,192,62564,1,8,0:0:0:0:
256,192,62712,1,8,0:0:0:0:
256,192,62860,1,0,0:0:0:0:
256,192,63008,1,0,0:0:0:0:
256,192,63156,1,12,0:0:0:0:
256,192,63601,1,0,0:0:0:0:
256,192,63749,1,0,0:0:0:0:
256,192,63897,1,0,0:0:0:0:
256,192,64045,1,12,0:0:0:0:
256,192,64490,1,0,0:0:0:0:
256,192,64638,1,0,0:0:0:0:
256,192,64786,1,0,0:0:0:0:
256,192,64934,1,12,0:0:0:0:
256,192,65378,1,0,0:0:0:0:
256,192,65527,1,0,0:0:0:0:
256,192,65675,1,0,0:0:0:0:
256,192,65823,1,12,0:0:0:0:
256,192,66119,1,8,0:0:0:0:
256,192,66267,1,8,0:0:0:0:
256,192,66416,1,0,0:0:0:0:
256,192,66564,1,0,0:0:0:0:
256,192,66712,1,12,0:0:0:0:
256,192,67156,1,0,0:0:0:0:
256,192,67304,1,0,0:0:0:0:
256,192,67453,1,0,0:0:0:0:
256,192,67601,1,12,0:0:0:0:
256,192,68045,1,0,0:0:0:0:
256,192,68193,1,0,0:0:0:0:
256,192,68341,1,0,0:0:0:0:
256,192,68490,1,12,0:0:0:0:
256,192,68786,1,8,0:0:0:0:
256,192,68934,1,8,0:0:0:0:
256,192,69082,1,0,0:0:0:0:
256,192,69230,1,0,0:0:0:0:
256,192,69378,1,12,0:0:0:0:
256,192,69675,1,8,0:0:0:0:
256,192,69823,1,8,0:0:0:0:
256,192,69971,1,0,0:0:0:0:
256,192,70119,1,0,0:0:0:0:
256,192,70267,1,12,0:0:0:0:
256,192,70712,1,0,0:0:0:0:
256,192,70860,1,0,0:0:0:0:
256,192,71008,1,0,0:0:0:0:
256,192,71156,1,12,0:0:0:0:
256,192,71453,1,8,0:0:0:0:
256,192,71601,1,8,0:0:0:0:
256,192,71749,1,0,0:0:0:0:
256,192,71897,1,0,0:0:0:0:
256,192,72045,1,12,0:0:0:0:
256,192,73823,1,4,0:0:0:0:
256,192,73934,1,4,0:0:0:0:
256,192,74156,1,12,0:0:0:0:
256,192,74267,1,12,0:0:0:0:
256,192,74490,1,4,0:0:0:0:
256,192,74601,1,4,0:0:0:0:
256,192,74823,1,12,0:0:0:0:
256,192,74934,1,12,0:0:0:0:
256,192,75156,1,4,0:0:0:0:
256,192,75490,1,12,0:0:0:0:
256,192,75712,1,0,0:0:0:0:
256,192,75767,1,0,0:0:0:0:
256,192,75823,1,8,0:0:0:0:
256,192,75934,1,0,0:0:0:0:
256,192,75990,1,8,0:0:0:0:
256,192,76046,1,0,0:0:0:0:
256,192,76156,1,8,0:0:0:0:
256,192,76268,1,8,0:0:0:0:
256,192,76323,1,0,0:0:0:0:
256,192,76378,1,0,0:0:0:0:
256,192,76490,1,0,0:0:0:0:
256,192,76601,1,0,0:0:0:0:
256,192,76656,1,8,0:0:0:0:
256,192,76712,1,8,0:0:0:0:
256,192,76823,1,8,0:0:0:0:
256,192,76934,1,0,0:0:0:0:
256,192,77045,1,0,0:0:0:0:
256,192,77101,1,8,0:0:0:0:
256,192,77156,1,8,0:0:0:0:
256,192,77267,1,12,0:0:0:0:
256,192,77490,1,0,0:0:0:0:
256,192,77601,1,8,0:0:0:0:
256,192,77712,1,8,0:0:0:0:
256,192,77767,1,0,0:0:0:0:
256,192,77823,1,0,0:0:0:0:
256,192,77934,1,8,0:0:0:0:
256,192,78045,1,8,0:0:0:0:
256,192,78156,1,0,0:0:0:0:
256,192,78267,1,0,0:0:0:0:
256,192,78378,1,0,0:0:0:0:
256,192,78490,1,8,0:0:0:0:
256,192,78601,1,8,0:0:0:0:
256,192,78712,1,0,0:0:0:0:
256,192,78767,1,8,0:0:0:0:
256,192,78823,1,0,0:0:0:0:
256,192,78934,1,8,0:0:0:0:
256,192,79045,1,12,0:0:0:0:
256,192,79267,1,0,0:0:0:0:
256,192,79378,1,8,0:0:0:0:
256,192,79490,1,8,0:0:0:0:
256,192,79600,1,0,0:0:0:0:
256,192,79712,1,0,0:0:0:0:
256,192,79823,1,8,0:0:0:0:
256,192,79934,1,0,0:0:0:0:
256,192,79990,1,8,0:0:0:0:
256,192,80045,1,0,0:0:0:0:
256,192,80156,1,0,0:0:0:0:
256,192,80267,1,8,0:0:0:0:
256,192,80378,1,0,0:0:0:0:
256,192,80434,1,8,0:0:0:0:
256,192,80490,1,0,0:0:0:0:
256,192,80601,1,0,0:0:0:0:
256,192,80656,1,0,0:0:0:0:
256,192,80712,1,8,0:0:0:0:
256,192,80823,1,12,0:0:0:0:
256,192,81045,1,0,0:0:0:0:
256,192,81101,1,0,0:0:0:0:
256,192,81156,1,8,0:0:0:0:
256,192,81267,1,0,0:0:0:0:
256,192,81323,1,0,0:0:0:0:
256,192,81379,1,8,0:0:0:0:
256,192,81490,1,0,0:0:0:0:
256,192,81545,1,0,0:0:0:0:
256,192,81601,1,8,0:0:0:0:
256,192,81712,1,0,0:0:0:0:
256,192,81767,1,0,0:0:0:0:
256,192,81823,1,8,0:0:0:0:
256,192,81934,1,0,0:0:0:0:
256,192,81990,1,0,0:0:0:0:
256,192,82046,1,8,0:0:0:0:
256,192,82156,1,0,0:0:0:0:
256,192,82212,1,0,0:0:0:0:
256,192,82268,1,8,0:0:0:0:
256,192,82379,1,8,0:0:0:0:
256,192,82435,1,8,0:0:0:0:
256,192,82490,1,8,0:0:0:0:
256,192,82601,1,12,0:0:0:0:
256,192,82823,1,0,0:0:0:0:
256,192,82934,1,8,0:0:0:0:
256,192,83045,1,0,0:0:0:0:
256,192,83101,1,8,0:0:0:0:
256,192,83156,1,0,0:0:0:0:
256,192,83267,1,0,0:0:0:0:
256,192,83378,1,8,0:0:0:0:
256,192,83490,1,8,0:0:0:0:
256,192,83545,1,0,0:0:0:0:
256,192,83601,1,0,0:0:0:0:
256,192,83712,1,0,0:0:0:0:
256,192,83823,1,8,0:0:0:0:
256,192,83934,1,0,0:0:0:0:
256,192,83990,1,0,0:0:0:0:
256,192,84045,1,8,0:0:0:0:
256,192,84156,1,0,0:0:0:0:
256,192,84212,1,0,0:0:0:0:
256,192,84267,1,8,0:0:0:0:
256,192,84378,1,12,0:0:0:0:
256,192,84601,1,0,0:0:0:0:
256,192,84712,1,8,0:0:0:0:
256,192,84823,1,8,0:0:0:0:
256,192,84878,1,0,0:0:0:0:
256,192,84934,1,0,0:0:0:0:
256,192,85045,1,0,0:0:0:0:
256,192,85101,1,0,0:0:0:0:
256,192,85156,1,8,0:0:0:0:
256,192,85267,1,8,0:0:0:0:
256,192,85323,1,0,0:0:0:0:
256,192,85378,1,0,0:0:0:0:
256,192,85490,1,0,0:0:0:0:
256,192,85545,1,0,0:0:0:0:
256,192,85601,1,8,0:0:0:0:
256,192,85712,1,8,0:0:0:0:
256,192,85767,1,0,0:0:0:0:
256,192,85823,1,0,0:0:0:0:
256,192,85934,1,0,0:0:0:0:
256,192,85990,1,0,0:0:0:0:
256,192,86045,1,8,0:0:0:0:
256,192,86156,1,12,0:0:0:0:
256,192,86378,1,0,0:0:0:0:
256,192,86490,1,8,0:0:0:0:
256,192,86601,1,0,0:0:0:0:
256,192,86656,1,0,0:0:0:0:
256,192,86712,1,8,0:0:0:0:
256,192,86823,1,0,0:0:0:0:
256,192,86934,1,8,0:0:0:0:
256,192,86990,1,0,0:0:0:0:
256,192,87045,1,0,0:0:0:0:
256,192,87156,1,8,0:0:0:0:
256,192,87267,1,8,0:0:0:0:
256,192,87378,1,8,0:0:0:0:
256,192,87489,1,0,0:0:0:0:
256,192,87545,1,0,0:0:0:0:
256,192,87601,1,8,0:0:0:0:
256,192,87712,1,0,0:0:0:0:
256,192,87823,1,8,0:0:0:0:
256,192,87934,1,12,0:0:0:0:
256,192,88156,1,0,0:0:0:0:
256,192,88212,1,0,0:0:0:0:
256,192,88267,1,8,0:0:0:0:
256,192,88378,1,0,0:0:0:0:
256,192,88490,1,8,0:0:0:0:
256,192,88600,1,0,0:0:0:0:
256,192,88656,1,8,0:0:0:0:
256,192,88712,1,8,0:0:0:0:
256,192,88823,1,8,0:0:0:0:
256,192,88934,1,0,0:0:0:0:
256,192,89045,1,8,0:0:0:0:
256,192,89156,1,8,0:0:0:0:
256,192,89267,1,0,0:0:0:0:
256,192,89378,1,8,0:0:0:0:
256,192,89434,1,8,0:0:0:0:
256,192,89490,1,0,0:0:0:0:
256,192,89545,1,0,0:0:0:0:
256,192,89601,1,8,0:0:0:0:
256,192,89712,1,12,0:0:0:0:
256,192,89934,1,0,0:0:0:0:
256,192,89989,1,0,0:0:0:0:
256,192,90045,1,8,0:0:0:0:
256,192,90156,1,0,0:0:0:0:
256,192,90212,1,8,0:0:0:0:
256,192,90268,1,0,0:0:0:0:
256,192,90378,1,8,0:0:0:0:
256,192,90490,1,8,0:0:0:0:
256,192,90545,1,0,0:0:0:0:
256,192,90600,1,0,0:0:0:0:
256,192,90712,1,0,0:0:0:0:
256,192,90823,1,0,0:0:0:0:
256,192,90878,1,8,0:0:0:0:
256,192,90934,1,8,0:0:0:0:
256,192,91045,1,8,0:0:0:0:
256,192,91156,1,0,0:0:0:0:
256,192,91267,1,0,0:0:0:0:
256,192,91323,1,8,0:0:0:0:
256,192,91378,1,8,0:0:0:0:
256,192,91489,1,12,0:0:0:0:
256,192,91712,1,0,0:0:0:0:
256,192,91823,1,8,0:0:0:0:
256,192,91934,1,8,0:0:0:0:
256,192,91989,1,0,0:0:0:0:
256,192,92045,1,0,0:0:0:0:
256,192,92156,1,8,0:0:0:0:
256,192,92267,1,8,0:0:0:0:
256,192,92378,1,0,0:0:0:0:
256,192,92489,1,0,0:0:0:0:
256,192,92600,1,0,0:0:0:0:
256,192,92712,1,8,0:0:0:0:
256,192,92823,1,8,0:0:0:0:
256,192,92934,1,0,0:0:0:0:
256,192,92989,1,8,0:0:0:0:
256,192,93045,1,0,0:0:0:0:
256,192,93156,1,8,0:0:0:0:
256,192,93267,1,12,0:0:0:0:
256,192,93489,1,0,0:0:0:0:
256,192,93600,1,8,0:0:0:0:
256,192,93712,1,8,0:0:0:0:
256,192,93822,1,0,0:0:0:0:
256,192,93934,1,0,0:0:0:0:
256,192,94045,1,8,0:0:0:0:
256,192,94156,1,0,0:0:0:0:
256,192,94212,1,8,0:0:0:0:
256,192,94267,1,0,0:0:0:0:
256,192,94378,1,0,0:0:0:0:
256,192,94489,1,8,0:0:0:0:
256,192,94600,1,0,0:0:0:0:
256,192,94656,1,8,0:0:0:0:
256,192,94712,1,0,0:0:0:0:
256,192,94823,1,0,0:0:0:0:
256,192,94878,1,0,0:0:0:0:
256,192,94934,1,8,0:0:0:0:
256,192,95045,1,12,0:0:0:0:
256,192,95267,1,0,0:0:0:0:
256,192,95323,1,0,0:0:0:0:
256,192,95378,1,8,0:0:0:0:
256,192,95489,1,0,0:0:0:0:
256,192,95545,1,0,0:0:0:0:
256,192,95601,1,8,0:0:0:0:
256,192,95712,1,0,0:0:0:0:
256,192,95767,1,0,0:0:0:0:
256,192,95823,1,8,0:0:0:0:
256,192,95934,1,0,0:0:0:0:
256,192,95989,1,0,0:0:0:0:
256,192,96045,1,8,0:0:0:0:
256,192,96156,1,0,0:0:0:0:
256,192,96212,1,0,0:0:0:0:
256,192,96268,1,8,0:0:0:0:
256,192,96378,1,0,0:0:0:0:
256,192,96434,1,0,0:0:0:0:
256,192,96490,1,8,0:0:0:0:
256,192,96601,1,8,0:0:0:0:
256,192,96657,1,8,0:0:0:0:
256,192,96712,1,8,0:0:0:0:
256,192,96823,1,12,0:0:0:0:
256,192,97045,1,0,0:0:0:0:
256,192,97156,1,8,0:0:0:0:
256,192,97267,1,0,0:0:0:0:
256,192,97323,1,8,0:0:0:0:
256,192,97378,1,0,0:0:0:0:
256,192,97489,1,0,0:0:0:0:
256,192,97600,1,8,0:0:0:0:
256,192,97656,1,0,0:0:0:0:
256,192,97712,1,8,0:0:0:0:
256,192,97767,1,0,0:0:0:0:
256,192,97823,1,0,0:0:0:0:
256,192,97934,1,0,0:0:0:0:
256,192,98045,1,8,0:0:0:0:
256,192,98156,1,0,0:0:0:0:
256,192,98212,1,0,0:0:0:0:
256,192,98267,1,8,0:0:0:0:
256,192,98378,1,0,0:0:0:0:
256,192,98434,1,0,0:0:0:0:
256,192,98489,1,8,0:0:0:0:
256,192,98600,1,12,0:0:0:0:
256,192,98823,1,0,0:0:0:0:
256,192,98934,1,8,0:0:0:0:
256,192,99045,1,8,0:0:0:0:
256,192,99100,1,0,0:0:0:0:
256,192,99156,1,0,0:0:0:0:
256,192,99267,1,0,0:0:0:0:
256,192,99378,1,8,0:0:0:0:
256,192,99434,1,0,0:0:0:0:
256,192,99489,1,8,0:0:0:0:
256,192,99545,1,0,0:0:0:0:
256,192,99600,1,0,0:0:0:0:
256,192,99712,1,0,0:0:0:0:
256,192,99767,1,0,0:0:0:0:
256,192,99823,1,8,0:0:0:0:
256,192,99934,1,8,0:0:0:0:
256,192,99989,1,0,0:0:0:0:
256,192,100045,1,0,0:0:0:0:
256,192,100156,1,0,0:0:0:0:
256,192,100212,1,0,0:0:0:0:
256,192,100267,1,8,0:0:0:0:
256,192,100378,1,12,0:0:0:0:
256,192,100600,1,0,0:0:0:0:
256,192,100712,1,8,0:0:0:0:
256,192,100823,1,0,0:0:0:0:
256,192,100878,1,0,0:0:0:0:
256,192,100934,1,8,0:0:0:0:
256,192,101045,1,0,0:0:0:0:
256,192,101156,1,8,0:0:0:0:
256,192,101212,1,0,0:0:0:0:
256,192,101267,1,0,0:0:0:0:
256,192,101378,1,8,0:0:0:0:
256,192,101489,1,8,0:0:0:0:
256,192,101600,1,8,0:0:0:0:
256,192,101711,1,0,0:0:0:0:
256,192,101767,1,0,0:0:0:0:
256,192,101823,1,8,0:0:0:0:
256,192,101934,1,0,0:0:0:0:
256,192,102045,1,8,0:0:0:0:
256,192,102156,1,12,0:0:0:0:
256,192,102378,1,0,0:0:0:0:
256,192,102434,1,0,0:0:0:0:
256,192,102489,1,8,0:0:0:0:
256,192,102600,1,0,0:0:0:0:
256,192,102712,1,8,0:0:0:0:
256,192,102822,1,0,0:0:0:0:
256,192,102878,1,8,0:0:0:0:
256,192,102934,1,8,0:0:0:0:
256,192,103045,1,8,0:0:0:0:
256,192,103156,1,0,0:0:0:0:
256,192,103267,1,8,0:0:0:0:
256,192,103378,1,8,0:0:0:0:
256,192,103489,1,0,0:0:0:0:
256,192,103600,1,8,0:0:0:0:
256,192,103656,1,8,0:0:0:0:
256,192,103712,1,0,0:0:0:0:
256,192,103767,1,0,0:0:0:0:
256,192,103823,1,8,0:0:0:0:
256,192,103934,1,12,0:0:0:0:
256,192,104156,1,0,0:0:0:0:
256,192,104212,1,0,0:0:0:0:
256,192,104267,1,8,0:0:0:0:
256,192,104378,1,8,0:0:0:0:
256,192,104489,1,0,0:0:0:0:
256,192,104601,1,0,0:0:0:0:
256,192,104656,1,8,0:0:0:0:
256,192,104712,1,8,0:0:0:0:
256,192,104823,1,8,0:0:0:0:
256,192,104934,1,0,0:0:0:0:
256,192,105045,1,0,0:0:0:0:
256,192,105101,1,0,0:0:0:0:
256,192,105156,1,8,0:0:0:0:
256,192,105267,1,0,0:0:0:0:
256,192,105378,1,0,0:0:0:0:
256,192,105434,1,0,0:0:0:0:
256,192,105489,1,8,0:0:0:0:
256,192,105545,1,0,0:0:0:0:
256,192,105601,1,8,0:0:0:0:
256,192,105711,1,12,0:0:0:0:
256,192,105823,1,0,0:0:0:0:
256,192,105934,1,0,0:0:0:0:
256,192,105989,1,0,0:0:0:0:
256,192,106045,1,8,0:0:0:0:
256,192,106156,1,0,0:0:0:0:
256,192,106267,1,8,0:0:0:0:
256,192,106378,1,0,0:0:0:0:
256,192,106434,1,0,0:0:0:0:
256,192,106489,1,8,0:0:0:0:
256,192,106601,1,8,0:0:0:0:
256,192,106656,1,0,0:0:0:0:
256,192,106712,1,0,0:0:0:0:
256,192,106823,1,0,0:0:0:0:
256,192,106878,1,0,0:0:0:0:
256,192,106934,1,8,0:0:0:0:
256,192,107045,1,0,0:0:0:0:
256,192,107156,1,8,0:0:0:0:
256,192,107267,1,8,0:0:0:0:
256,192,107378,1,8,0:0:0:0:
256,192,107489,1,12,0:0:0:0:
256,192,107712,1,0,0:0:0:0:
256,192,107767,1,0,0:0:0:0:
256,192,107823,1,8,0:0:0:0:
256,192,107934,1,0,0:0:0:0:
256,192,108044,1,0,0:0:0:0:
256,192,108156,1,8,0:0:0:0:
256,192,108267,1,8,0:0:0:0:
256,192,108323,1,0,0:0:0:0:
256,192,108378,1,0,0:0:0:0:
256,192,108434,1,8,0:0:0:0:
256,192,108489,1,8,0:0:0:0:
256,192,108601,1,0,0:0:0:0:
256,192,108656,1,0,0:0:0:0:
256,192,108712,1,8,0:0:0:0:
256,192,108823,1,0,0:0:0:0:
256,192,108934,1,8,0:0:0:0:
256,192,109045,1,8,0:0:0:0:
256,192,109156,1,8,0:0:0:0:
256,192,109267,1,12,0:0:0:0:
256,192,109489,1,0,0:0:0:0:
256,192,109545,1,0,0:0:0:0:
256,192,109601,1,8,0:0:0:0:
256,192,109712,1,0,0:0:0:0:
256,192,109823,1,8,0:0:0:0:
256,192,109934,1,0,0:0:0:0:
256,192,109989,1,0,0:0:0:0:
256,192,110045,1,8,0:0:0:0:
256,192,110156,1,0,0:0:0:0:
256,192,110267,1,8,0:0:0:0:
256,192,110378,1,0,0:0:0:0:
256,192,110489,1,8,0:0:0:0:
256,192,110601,1,0,0:0:0:0:
256,192,110712,1,8,0:0:0:0:
256,192,110767,1,8,0:0:0:0:
256,192,110823,1,0,0:0:0:0:
256,192,110878,1,0,0:0:0:0:
256,192,110934,1,8,0:0:0:0:
256,192,110989,1,8,0:0:0:0:
256,192,111045,1,4,0:0:0:0:
256,192,111267,1,0,0:0:0:0:
256,192,111323,1,0,0:0:0:0:
256,192,111379,1,8,0:0:0:0:
256,192,111489,1,0,0:0:0:0:
256,192,111545,1,8,0:0:0:0:
256,192,111601,1,8,0:0:0:0:
256,192,111712,1,0,0:0:0:0:
256,192,111823,1,8,0:0:0:0:
256,192,111878,1,0,0:0:0:0:
256,192,111934,1,8,0:0:0:0:
256,192,112045,1,0,0:0:0:0:
256,192,112156,1,0,0:0:0:0:
256,192,112212,1,0,0:0:0:0:
256,192,112267,1,8,0:0:0:0:
256,192,112378,1,0,0:0:0:0:
256,192,112489,1,8,0:0:0:0:
256,192,112601,1,8,0:0:0:0:
256,192,112712,1,8,0:0:0:0:
256,192,112823,1,12,0:0:0:0:
256,192,113045,1,0,0:0:0:0:
256,192,113101,1,0,0:0:0:0:
256,192,113156,1,8,0:0:0:0:
256,192,113378,1,0,0:0:0:0:
256,192,113489,1,0,0:0:0:0:
256,192,113601,1,8,0:0:0:0:
256,192,113712,1,0,0:0:0:0:
256,192,113822,1,0,0:0:0:0:
256,192,113934,1,0,0:0:0:0:
256,192,114045,1,8,0:0:0:0:
256,192,114267,1,8,0:0:0:0:
256,192,114378,1,8,0:0:0:0:
256,192,114489,1,8,0:0:0:0:
256,192,114601,1,12,0:0:0:0:
256,192,114823,1,0,0:0:0:0:
256,192,114878,1,0,0:0:0:0:
256,192,114934,1,8,0:0:0:0:
256,192,115156,1,0,0:0:0:0:
256,192,115267,1,0,0:0:0:0:
256,192,115378,1,8,0:0:0:0:
256,192,115601,1,0,0:0:0:0:
256,192,115823,1,8,0:0:0:0:
256,192,116045,1,0,0:0:0:0:
256,192,116156,1,0,0:0:0:0:
256,192,116267,1,8,0:0:0:0:
256,192,116378,1,12,0:0:0:0:
256,192,116601,1,0,0:0:0:0:
256,192,116712,1,8,0:0:0:0:
256,192,116767,1,0,0:0:0:0:
256,192,116823,1,0,0:0:0:0:
256,192,116878,1,0,0:0:0:0:
256,192,116934,1,0,0:0:0:0:
256,192,117045,1,8,0:0:0:0:
256,192,117156,1,0,0:0:0:0:
256,192,117267,1,0,0:0:0:0:
256,192,117378,1,8,0:0:0:0:
256,192,117489,1,0,0:0:0:0:
256,192,117601,1,0,0:0:0:0:
256,192,117712,1,0,0:0:0:0:
256,192,117823,1,8,0:0:0:0:
256,192,117934,1,8,0:0:0:0:
256,192,118045,1,8,0:0:0:0:
256,192,118156,1,0,0:0:0:0:
256,192,118267,1,12,0:0:0:0:
256,192,118378,1,8,0:0:0:0:
256,192,118490,1,8,0:0:0:0:
256,192,118601,1,8,0:0:0:0:
256,192,118934,1,8,0:0:0:0:
256,192,119045,1,8,0:0:0:0:
256,192,119156,1,8,0:0:0:0:
256,192,119267,1,8,0:0:0:0:
256,192,119601,1,8,0:0:0:0:
256,192,119712,1,8,0:0:0:0:
256,192,119823,1,8,0:0:0:0:
256,192,119934,1,0,0:0:0:0:
256,192,119990,1,0,0:0:0:0:
256,192,120045,1,8,0:0:0:0:
256,192,120156,1,8,0:0:0:0:
256,192,120267,1,8,0:0:0:0:
256,192,120378,1,8,0:0:0:0:
256,192,120712,1,8,0:0:0:0:
256,192,120823,1,8,0:0:0:0:
256,192,120934,1,8,0:0:0:0:
256,192,121045,1,8,0:0:0:0:
256,192,121378,1,8,0:0:0:0:
256,192,121490,1,8,0:0:0:0:
256,192,121601,1,8,0:0:0:0:
256,192,121712,1,0,0:0:0:0:
256,192,121767,1,0,0:0:0:0:
256,192,121823,1,8,0:0:0:0:
256,192,121934,1,8,0:0:0:0:
256,192,122045,1,8,0:0:0:0:
256,192,122156,1,8,0:0:0:0:
256,192,122489,1,8,0:0:0:0:
256,192,122600,1,8,0:0:0:0:
256,192,122711,1,8,0:0:0:0:
256,192,122822,1,8,0:0:0:0:
256,192,123156,1,8,0:0:0:0:
256,192,123267,1,8,0:0:0:0:
256,192,123378,1,8,0:0:0:0:
256,192,123490,1,0,0:0:0:0:
256,192,123545,1,0,0:0:0:0:
256,192,123601,1,8,0:0:0:0:
256,192,123712,1,8,0:0:0:0:
256,192,123823,1,8,0:0:0:0:
256,192,123934,1,8,0:0:0:0:
256,192,124267,1,8,0:0:0:0:
256,192,124378,1,8,0:0:0:0:
256,192,124490,1,8,0:0:0:0:
256,192,124601,1,8,0:0:0:0:
256,192,124934,1,0,0:0:0:0:
256,192,125045,1,0,0:0:0:0:
256,192,125156,1,0,0:0:0:0:
256,192,125267,1,0,0:0:0:0:
256,192,125378,1,12,0:0:0:0:
256,192,125489,1,8,0:0:0:0:
256,192,125601,1,8,0:0:0:0:
256,192,125712,1,8,0:0:0:0:
256,192,126045,1,8,0:0:0:0:
256,192,126156,1,8,0:0:0:0:
256,192,126267,1,8,0:0:0:0:
256,192,126378,1,8,0:0:0:0:
256,192,126712,1,8,0:0:0:0:
256,192,126823,1,8,0:0:0:0:
256,192,126934,1,8,0:0:0:0:
256,192,127045,1,0,0:0:0:0:
256,192,127101,1,0,0:0:0:0:
256,192,127156,1,8,0:0:0:0:
256,192,127267,1,8,0:0:0:0:
256,192,127378,1,8,0:0:0:0:
256,192,127489,1,8,0:0:0:0:
256,192,127823,1,8,0:0:0:0:
256,192,127934,1,8,0:0:0:0:
256,192,128045,1,8,0:0:0:0:
256,192,128156,1,8,0:0:0:0:
256,192,128489,1,8,0:0:0:0:
256,192,128601,1,8,0:0:0:0:
256,192,128712,1,8,0:0:0:0:
256,192,128823,1,0,0:0:0:0:
256,192,128878,1,0,0:0:0:0:
256,192,128934,1,8,0:0:0:0:
256,192,129045,1,8,0:0:0:0:
256,192,129156,1,8,0:0:0:0:
256,192,129267,1,8,0:0:0:0:
256,192,129600,1,8,0:0:0:0:
256,192,129711,1,8,0:0:0:0:
256,192,129822,1,8,0:0:0:0:
256,192,129933,1,8,0:0:0:0:
256,192,130267,1,8,0:0:0:0:
256,192,130378,1,8,0:0:0:0:
256,192,130489,1,8,0:0:0:0:
256,192,130601,1,0,0:0:0:0:
256,192,130656,1,0,0:0:0:0:
256,192,130712,1,8,0:0:0:0:
256,192,130823,1,8,0:0:0:0:
256,192,130934,1,8,0:0:0:0:
256,192,131045,1,8,0:0:0:0:
256,192,131378,1,8,0:0:0:0:
256,192,131601,1,8,0:0:0:0:
256,192,132490,1,12,0:0:0:0:
256,192,132601,1,0,0:0:0:0:
256,192,132712,1,8,0:0:0:0:
256,192,132823,1,0,0:0:0:0:
256,192,132934,1,0,0:0:0:0:
256,192,133045,1,0,0:0:0:0:
256,192,133156,1,8,0:0:0:0:
256,192,133267,1,0,0:0:0:0:
256,192,133378,1,0,0:0:0:0:
256,192,133490,1,0,0:0:0:0:
256,192,133601,1,8,0:0:0:0:
256,192,133712,1,0,0:0:0:0:
256,192,133823,1,0,0:0:0:0:
256,192,133934,1,8,0:0:0:0:
256,192,134045,1,8,0:0:0:0:
256,192,134156,1,0,0:0:0:0:
256,192,134267,1,8,0:0:0:0:
256,192,134378,1,0,0:0:0:0:
256,192,134490,1,8,0:0:0:0:
256,192,134601,1,8,0:0:0:0:
256,192,134712,1,0,0:0:0:0:
256,192,134823,1,8,0:0:0:0:
256,192,134934,1,8,0:0:0:0:
256,192,135045,1,0,0:0:0:0:
256,192,135156,1,8,0:0:0:0:
256,192,135267,1,0,0:0:0:0:
256,192,135378,1,8,0:0:0:0:
256,192,135490,1,8,0:0:0:0:
256,192,135601,1,0,0:0:0:0:
256,192,135712,1,0,0:0:0:0:
256,192,135823,1,8,0:0:0:0:
256,192,135934,1,0,0:0:0:0:
256,192,136045,1,8,0:0:0:0:
256,192,136156,1,0,0:0:0:0:
256,192,136267,1,8,0:0:0:0:
256,192,136378,1,0,0:0:0:0:
256,192,136490,1,0,0:0:0:0:
256,192,136601,1,0,0:0:0:0:
256,192,136712,1,8,0:0:0:0:
256,192,136823,1,0,0:0:0:0:
256,192,136934,1,0,0:0:0:0:
256,192,137045,1,0,0:0:0:0:
256,192,137156,1,8,0:0:0:0:
256,192,137267,1,0,0:0:0:0:
256,192,137378,1,0,0:0:0:0:
256,192,137490,1,0,0:0:0:0:
256,192,137601,1,8,0:0:0:0:
256,192,137712,1,0,0:0:0:0:
256,192,137823,1,8,0:0:0:0:
256,192,137934,1,0,0:0:0:0:
256,192,138045,1,8,0:0:0:0:
256,192,138156,1,8,0:0:0:0:
256,192,138267,1,0,0:0:0:0:
256,192,138378,1,8,0:0:0:0:
256,192,138490,1,8,0:0:0:0:
256,192,138601,1,0,0:0:0:0:
256,192,138712,1,8,0:0:0:0:
256,192,138823,1,0,0:0:0:0:
256,192,138934,1,8,0:0:0:0:
256,192,139045,1,8,0:0:0:0:
256,192,139156,1,0,0:0:0:0:
256,192,139267,1,8,0:0:0:0:
256,192,139378,1,8,0:0:0:0:
256,192,139490,1,8,0:0:0:0:
256,192,139601,1,12,0:0:0:0:
256,192,139712,1,0,0:0:0:0:
256,192,139823,1,8,0:0:0:0:
256,192,139934,1,0,0:0:0:0:
256,192,140045,1,0,0:0:0:0:
256,192,140156,1,0,0:0:0:0:
256,192,140267,1,8,0:0:0:0:
256,192,140378,1,0,0:0:0:0:
256,192,140489,1,0,0:0:0:0:
256,192,140601,1,0,0:0:0:0:
256,192,140712,1,8,0:0:0:0:
256,192,140823,1,0,0:0:0:0:
256,192,140934,1,0,0:0:0:0:
256,192,141045,1,8,0:0:0:0:
256,192,141156,1,8,0:0:0:0:
256,192,141267,1,0,0:0:0:0:
256,192,141378,1,8,0:0:0:0:
256,192,141489,1,0,0:0:0:0:
256,192,141601,1,8,0:0:0:0:
256,192,141712,1,8,0:0:0:0:
256,192,141823,1,0,0:0:0:0:
256,192,141934,1,8,0:0:0:0:
256,192,142045,1,8,0:0:0:0:
256,192,142156,1,0,0:0:0:0:
256,192,142267,1,8,0:0:0:0:
256,192,142378,1,0,0:0:0:0:
256,192,142489,1,8,0:0:0:0:
256,192,142601,1,8,0:0:0:0:
256,192,142712,1,0,0:0:0:0:
256,192,142823,1,0,0:0:0:0:
256,192,142934,1,8,0:0:0:0:
256,192,143045,1,0,0:0:0:0:
256,192,143156,1,8,0:0:0:0:
256,192,143267,1,0,0:0:0:0:
256,192,143378,1,8,0:0:0:0:
256,192,143489,1,0,0:0:0:0:
256,192,143601,1,0,0:0:0:0:
256,192,143712,1,0,0:0:0:0:
256,192,143823,1,8,0:0:0:0:
256,192,143934,1,0,0:0:0:0:
256,192,144045,1,0,0:0:0:0:
256,192,144156,1,0,0:0:0:0:
256,192,144267,1,8,0:0:0:0:
256,192,144378,1,0,0:0:0:0:
256,192,144489,1,8,0:0:0:0:
256,192,144601,1,0,0:0:0:0:
256,192,144712,1,8,0:0:0:0:
256,192,144823,1,0,0:0:0:0:
256,192,144934,1,8,0:0:0:0:
256,192,145045,1,0,0:0:0:0:
256,192,145156,1,8,0:0:0:0:
256,192,145267,1,8,0:0:0:0:
256,192,145378,1,0,0:0:0:0:
256,192,145489,1,8,0:0:0:0:
256,192,145601,1,8,0:0:0:0:
256,192,145712,1,0,0:0:0:0:
256,192,145823,1,8,0:0:0:0:
256,192,145934,1,0,0:0:0:0:
256,192,146045,1,8,0:0:0:0:
256,192,146156,1,8,0:0:0:0:
256,192,146267,1,0,0:0:0:0:
256,192,146378,1,8,0:0:0:0:
256,192,146489,1,8,0:0:0:0:
256,192,146601,1,8,0:0:0:0:
256,192,146712,1,12,0:0:0:0:
256,192,147045,1,0,0:0:0:0:
256,192,147378,1,0,0:0:0:0:
256,192,147601,1,12,0:0:0:0:
256,192,148045,1,0,0:0:0:0:
256,192,148267,1,0,0:0:0:0:
256,192,148490,1,12,0:0:0:0:
256,192,148823,1,0,0:0:0:0:
256,192,149156,1,0,0:0:0:0:
256,192,149378,1,12,0:0:0:0:
256,192,149823,1,0,0:0:0:0:
256,192,150045,1,0,0:0:0:0:
256,192,150267,1,12,0:0:0:0:
256,192,150601,1,0,0:0:0:0:
256,192,150934,1,0,0:0:0:0:
256,192,151378,1,0,0:0:0:0:
256,192,151601,1,0,0:0:0:0:
256,192,151749,1,0,0:0:0:0:
256,192,151823,1,0,0:0:0:0:
256,192,151897,1,0,0:0:0:0:
256,192,151971,1,0,0:0:0:0:
256,192,152045,1,0,0:0:0:0:
256,192,152341,1,0,0:0:0:0:
256,192,152638,1,0,0:0:0:0:
256,192,152934,1,0,0:0:0:0:
256,192,153378,1,0,0:0:0:0:
256,192,153601,1,0,0:0:0:0:
256,192,153675,1,0,0:0:0:0:
256,192,153749,1,0,0:0:0:0:
256,192,153823,1,12,0:0:0:0:
256,192,154712,1,12,0:0:0:0:
256,192,155601,1,12,0:0:0:0:
256,192,156490,1,12,0:0:0:0:
256,192,157378,1,12,0:0:0:0:
256,192,159156,1,12,0:0:0:0:
256,192,160934,1,4,0:0:0:0:
256,192,161045,1,4,0:0:0:0:
256,192,161267,1,12,0:0:0:0:
256,192,161378,1,12,0:0:0:0:
256,192,161601,1,4,0:0:0:0:
256,192,161712,1,4,0:0:0:0:
256,192,161934,1,12,0:0:0:0:
256,192,162045,1,12,0:0:0:0:
256,192,162267,1,8,0:0:0:0:
256,192,162323,1,0,0:0:0:0:
256,192,162378,1,0,0:0:0:0:
256,192,162434,1,8,0:0:0:0:
256,192,162490,1,0,0:0:0:0:
256,192,162545,1,8,0:0:0:0:
256,192,162601,1,8,0:0:0:0:
256,192,162823,1,0,0:0:0:0:
256,192,162878,1,0,0:0:0:0:
256,192,162934,1,8,0:0:0:0:
256,192,163045,1,0,0:0:0:0:
256,192,163101,1,8,0:0:0:0:
256,192,163157,1,0,0:0:0:0:
256,192,163267,1,8,0:0:0:0:
256,192,163379,1,8,0:0:0:0:
256,192,163434,1,0,0:0:0:0:
256,192,163489,1,0,0:0:0:0:
256,192,163601,1,0,0:0:0:0:
256,192,163712,1,0,0:0:0:0:
256,192,163767,1,8,0:0:0:0:
256,192,163823,1,8,0:0:0:0:
256,192,163934,1,8,0:0:0:0:
256,192,164045,1,0,0:0:0:0:
256,192,164156,1,0,0:0:0:0:
256,192,164212,1,8,0:0:0:0:
256,192,164267,1,8,0:0:0:0:
256,192,164378,1,12,0:0:0:0:
256,192,164601,1,0,0:0:0:0:
256,192,164712,1,8,0:0:0:0:
256,192,164823,1,8,0:0:0:0:
256,192,164878,1,0,0:0:0:0:
256,192,164934,1,0,0:0:0:0:
256,192,165045,1,8,0:0:0:0:
256,192,165156,1,8,0:0:0:0:
256,192,165267,1,0,0:0:0:0:
256,192,165378,1,0,0:0:0:0:
256,192,165489,1,0,0:0:0:0:
256,192,165601,1,8,0:0:0:0:
256,192,165712,1,8,0:0:0:0:
256,192,165823,1,0,0:0:0:0:
256,192,165878,1,8,0:0:0:0:
256,192,165934,1,0,0:0:0:0:
256,192,166045,1,8,0:0:0:0:
256,192,166156,1,12,0:0:0:0:
256,192,166378,1,0,0:0:0:0:
256,192,166489,1,8,0:0:0:0:
256,192,166601,1,8,0:0:0:0:
256,192,166711,1,0,0:0:0:0:
256,192,166823,1,0,0:0:0:0:
256,192,166934,1,8,0:0:0:0:
256,192,167045,1,0,0:0:0:0:
256,192,167101,1,8,0:0:0:0:
256,192,167156,1,0,0:0:0:0:
256,192,167267,1,0,0:0:0:0:
256,192,167378,1,8,0:0:0:0:
256,192,167489,1,0,0:0:0:0:
256,192,167545,1,8,0:0:0:0:
256,192,167601,1,0,0:0:0:0:
256,192,167712,1,0,0:0:0:0:
256,192,167767,1,0,0:0:0:0:
256,192,167823,1,8,0:0:0:0:
256,192,167934,1,12,0:0:0:0:
256,192,168156,1,0,0:0:0:0:
256,192,168212,1,0,0:0:0:0:
256,192,168267,1,8,0:0:0:0:
256,192,168378,1,0,0:0:0:0:
256,192,168434,1,0,0:0:0:0:
256,192,168490,1,8,0:0:0:0:
256,192,168601,1,0,0:0:0:0:
256,192,168656,1,0,0:0:0:0:
256,192,168712,1,8,0:0:0:0:
256,192,168823,1,0,0:0:0:0:
256,192,168878,1,0,0:0:0:0:
256,192,168934,1,8,0:0:0:0:
256,192,169045,1,0,0:0:0:0:
256,192,169101,1,0,0:0:0:0:
256,192,169157,1,8,0:0:0:0:
256,192,169267,1,0,0:0:0:0:
256,192,169323,1,0,0:0:0:0:
256,192,169379,1,8,0:0:0:0:
256,192,169490,1,8,0:0:0:0:
256,192,169546,1,8,0:0:0:0:
256,192,169601,1,8,0:0:0:0:
256,192,169712,1,12,0:0:0:0:
256,192,169934,1,0,0:0:0:0:
256,192,170045,1,8,0:0:0:0:
256,192,170156,1,0,0:0:0:0:
256,192,170212,1,8,0:0:0:0:
256,192,170267,1,0,0:0:0:0:
256,192,170378,1,0,0:0:0:0:
256,192,170489,1,8,0:0:0:0:
256,192,170601,1,8,0:0:0:0:
256,192,170656,1,0,0:0:0:0:
256,192,170712,1,0,0:0:0:0:
256,192,170823,1,0,0:0:0:0:
256,192,170934,1,8,0:0:0:0:
256,192,171045,1,0,0:0:0:0:
256,192,171101,1,0,0:0:0:0:
256,192,171156,1,8,0:0:0:0:
256,192,171267,1,0,0:0:0:0:
256,192,171323,1,0,0:0:0:0:
256,192,171378,1,8,0:0:0:0:
256,192,171489,1,12,0:0:0:0:
256,192,171712,1,0,0:0:0:0:
256,192,171823,1,8,0:0:0:0:
256,192,171934,1,8,0:0:0:0:
256,192,171989,1,0,0:0:0:0:
256,192,172045,1,0,0:0:0:0:
256,192,172156,1,0,0:0:0:0:
256,192,172212,1,0,0:0:0:0:
256,192,172267,1,8,0:0:0:0:
256,192,172378,1,8,0:0:0:0:
256,192,172434,1,0,0:0:0:0:
256,192,172489,1,0,0:0:0:0:
256,192,172601,1,0,0:0:0:0:
256,192,172656,1,0,0:0:0:0:
256,192,172712,1,8,0:0:0:0:
256,192,172823,1,8,0:0:0:0:
256,192,172878,1,0,0:0:0:0:
256,192,172934,1,0,0:0:0:0:
256,192,173045,1,0,0:0:0:0:
256,192,173101,1,0,0:0:0:0:
256,192,173156,1,8,0:0:0:0:
256,192,173267,1,12,0:0:0:0:
256,192,173489,1,0,0:0:0:0:
256,192,173601,1,8,0:0:0:0:
256,192,173712,1,0,0:0:0:0:
256,192,173767,1,0,0:0:0:0:
256,192,173823,1,8,0:0:0:0:
256,192,173934,1,0,0:0:0:0:
256,192,174045,1,8,0:0:0:0:
256,192,174101,1,0,0:0:0:0:
256,192,174156,1,0,0:0:0:0:
256,192,174267,1,8,0:0:0:0:
256,192,174378,1,8,0:0:0:0:
256,192,174489,1,8,0:0:0:0:
256,192,174600,1,0,0:0:0:0:
256,192,174656,1,0,0:0:0:0:
256,192,174712,1,8,0:0:0:0:
256,192,174823,1,0,0:0:0:0:
256,192,174934,1,8,0:0:0:0:
256,192,175045,1,12,0:0:0:0:
256,192,175267,1,0,0:0:0:0:
256,192,175323,1,0,0:0:0:0:
256,192,175378,1,8,0:0:0:0:
256,192,175489,1,0,0:0:0:0:
256,192,175601,1,8,0:0:0:0:
256,192,175711,1,0,0:0:0:0:
256,192,175767,1,8,0:0:0:0:
256,192,175823,1,8,0:0:0:0:
256,192,175934,1,8,0:0:0:0:
256,192,176045,1,0,0:0:0:0:
256,192,176156,1,8,0:0:0:0:
256,192,176267,1,8,0:0:0:0:
256,192,176378,1,0,0:0:0:0:
256,192,176489,1,8,0:0:0:0:
256,192,176545,1,8,0:0:0:0:
256,192,176601,1,0,0:0:0:0:
256,192,176656,1,0,0:0:0:0:
256,192,176712,1,8,0:0:0:0:
256,192,176823,1,12,0:0:0:0:
256,192,177045,1,0,0:0:0:0:
256,192,177100,1,0,0:0:0:0:
256,192,177156,1,8,0:0:0:0:
256,192,177267,1,0,0:0:0:0:
256,192,177323,1,8,0:0:0:0:
256,192,177379,1,0,0:0:0:0:
256,192,177489,1,8,0:0:0:0:
256,192,177601,1,8,0:0:0:0:
256,192,177656,1,0,0:0:0:0:
256,192,177711,1,0,0:0:0:0:
256,192,177823,1,0,0:0:0:0:
256,192,177934,1,0,0:0:0:0:
256,192,177989,1,8,0:0:0:0:
256,192,178045,1,8,0:0:0:0:
256,192,178156,1,8,0:0:0:0:
256,192,178267,1,0,0:0:0:0:
256,192,178378,1,0,0:0:0:0:
256,192,178434,1,8,0:0:0:0:
256,192,178489,1,8,0:0:0:0:
256,192,178600,1,12,0:0:0:0:
256,192,178823,1,0,0:0:0:0:
256,192,178934,1,8,0:0:0:0:
256,192,179045,1,8,0:0:0:0:
256,192,179100,1,0,0:0:0:0:
256,192,179156,1,0,0:0:0:0:
256,192,179267,1,8,0:0:0:0:
256,192,179378,1,8,0:0:0:0:
256,192,179489,1,0,0:0:0:0:
256,192,179600,1,0,0:0:0:0:
256,192,179711,1,0,0:0:0:0:
256,192,179823,1,8,0:0:0:0:
256,192,179934,1,8,0:0:0:0:
256,192,180045,1,0,0:0:0:0:
256,192,180100,1,8,0:0:0:0:
256,192,180156,1,0,0:0:0:0:
256,192,180267,1,8,0:0:0:0:
256,192,180378,1,12,0:0:0:0:
256,192,180600,1,0,0:0:0:0:
256,192,180711,1,8,0:0:0:0:
256,192,180823,1,8,0:0:0:0:
256,192,180933,1,0,0:0:0:0:
256,192,181045,1,0,0:0:0:0:
256,192,181156,1,8,0:0:0:0:
256,192,181267,1,0,0:0:0:0:
256,192,181323,1,8,0:0:0:0:
256,192,181378,1,0,0:0:0:0:
256,192,181489,1,0,0:0:0:0:
256,192,181600,1,8,0:0:0:0:
256,192,181711,1,0,0:0:0:0:
256,192,181767,1,8,0:0:0:0:
256,192,181823,1,0,0:0:0:0:
256,192,181934,1,0,0:0:0:0:
256,192,181989,1,0,0:0:0:0:
256,192,182045,1,8,0:0:0:0:
256,192,182156,1,12,0:0:0:0:
256,192,182378,1,0,0:0:0:0:
256,192,182434,1,0,0:0:0:0:
256,192,182489,1,8,0:0:0:0:
256,192,182600,1,0,0:0:0:0:
256,192,182656,1,0,0:0:0:0:
256,192,182712,1,8,0:0:0:0:
256,192,182823,1,0,0:0:0:0:
256,192,182878,1,0,0:0:0:0:
256,192,182934,1,8,0:0:0:0:
256,192,183045,1,0,0:0:0:0:
256,192,183100,1,0,0:0:0:0:
256,192,183156,1,8,0:0:0:0:
256,192,183267,1,0,0:0:0:0:
256,192,183323,1,0,0:0:0:0:
256,192,183379,1,8,0:0:0:0:
256,192,183489,1,0,0:0:0:0:
256,192,183545,1,0,0:0:0:0:
256,192,183601,1,8,0:0:0:0:
256,192,183712,1,8,0:0:0:0:
256,192,183768,1,8,0:0:0:0:
256,192,183823,1,8,0:0:0:0:
256,192,183934,1,12,0:0:0:0:
256,192,184156,1,0,0:0:0:0:
256,192,184267,1,8,0:0:0:0:
256,192,184378,1,0,0:0:0:0:
256,192,184434,1,8,0:0:0:0:
256,192,184489,1,0,0:0:0:0:
256,192,184600,1,0,0:0:0:0:
256,192,184711,1,8,0:0:0:0:
256,192,184767,1,0,0:0:0:0:
256,192,184823,1,8,0:0:0:0:
256,192,184878,1,0,0:0:0:0:
256,192,184934,1,0,0:0:0:0:
256,192,185045,1,0,0:0:0:0:
256,192,185156,1,8,0:0:0:0:
256,192,185267,1,0,0:0:0:0:
256,192,185323,1,0,0:0:0:0:
256,192,185378,1,8,0:0:0:0:
256,192,185489,1,0,0:0:0:0:
256,192,185545,1,0,0:0:0:0:
256,192,185600,1,8,0:0:0:0:
256,192,185711,1,12,0:0:0:0:
256,192,185934,1,0,0:0:0:0:
256,192,186045,1,8,0:0:0:0:
256,192,186156,1,8,0:0:0:0:
256,192,186211,1,0,0:0:0:0:
256,192,186267,1,0,0:0:0:0:
256,192,186378,1,0,0:0:0:0:
256,192,186489,1,8,0:0:0:0:
256,192,186545,1,0,0:0:0:0:
256,192,186600,1,8,0:0:0:0:
256,192,186656,1,0,0:0:0:0:
256,192,186711,1,0,0:0:0:0:
256,192,186823,1,0,0:0:0:0:
256,192,186878,1,0,0:0:0:0:
256,192,186934,1,8,0:0:0:0:
256,192,187045,1,8,0:0:0:0:
256,192,187100,1,0,0:0:0:0:
256,192,187156,1,0,0:0:0:0:
256,192,187267,1,0,0:0:0:0:
256,192,187323,1,0,0:0:0:0:
256,192,187378,1,8,0:0:0:0:
256,192,187489,1,12,0:0:0:0:
256,192,187711,1,0,0:0:0:0:
256,192,187823,1,8,0:0:0:0:
256,192,187934,1,0,0:0:0:0:
256,192,187989,1,0,0:0:0:0:
256,192,188045,1,8,0:0:0:0:
256,192,188156,1,0,0:0:0:0:
256,192,188267,1,8,0:0:0:0:
256,192,188323,1,0,0:0:0:0:
256,192,188378,1,0,0:0:0:0:
256,192,188489,1,8,0:0:0:0:
256,192,188600,1,8,0:0:0:0:
256,192,188711,1,8,0:0:0:0:
256,192,188822,1,0,0:0:0:0:
256,192,188878,1,0,0:0:0:0:
256,192,188934,1,8,0:0:0:0:
256,192,189045,1,0,0:0:0:0:
256,192,189156,1,8,0:0:0:0:
256,192,189267,1,12,0:0:0:0:
256,192,189489,1,0,0:0:0:0:
256,192,189545,1,0,0:0:0:0:
256,192,189600,1,8,0:0:0:0:
256,192,189711,1,0,0:0:0:0:
256,192,189823,1,8,0:0:0:0:
256,192,189933,1,0,0:0:0:0:
256,192,189989,1,8,0:0:0:0:
256,192,190045,1,8,0:0:0:0:
256,192,190156,1,8,0:0:0:0:
256,192,190267,1,0,0:0:0:0:
256,192,190378,1,8,0:0:0:0:
256,192,190489,1,8,0:0:0:0:
256,192,190600,1,0,0:0:0:0:
256,192,190711,1,8,0:0:0:0:
256,192,190767,1,8,0:0:0:0:
256,192,190823,1,0,0:0:0:0:
256,192,190878,1,0,0:0:0:0:
256,192,190934,1,8,0:0:0:0:
256,192,191156,1,12,0:0:0:0:
256,192,192045,1,0,0:0:0:0:
256,192,192934,1,8,0:0:0:0:
256,192,193267,1,0,0:0:0:0:
256,192,193601,1,0,0:0:0:0:
256,192,193823,1,0,0:0:0:0:
256,192,194156,1,0,0:0:0:0:
256,192,194490,1,0,0:0:0:0:
256,192,194712,1,12,0:0:0:0:
256,192,195378,1,0,0:0:0:0:
256,192,195490,1,0,0:0:0:0:
256,192,195601,1,8,0:0:0:0:
256,192,196490,1,12,0:0:0:0:
256,192,196823,1,0,0:0:0:0:
256,192,197156,1,0,0:0:0:0:
256,192,197378,1,0,0:0:0:0:
256,192,197712,1,0,0:0:0:0:
256,192,198045,1,0,0:0:0:0:
256,192,198267,1,12,0:0:0:0:
256,192,198601,1,0,0:0:0:0:
256,192,198712,1,8,0:0:0:0:
256,192,198934,1,0,0:0:0:0:
256,192,199156,1,0,0:0:0:0:
256,192,199267,1,8,0:0:0:0:
256,192,199490,1,8,0:0:0:0:
256,192,199601,1,0,0:0:0:0:
256,192,199823,1,0,0:0:0:0:
256,192,199934,1,0,0:0:0:0:
256,192,200045,1,12,0:0:0:0:
256,192,200378,1,0,0:0:0:0:
256,192,200490,1,8,0:0:0:0:
256,192,200712,1,0,0:0:0:0:
256,192,200934,1,0,0:0:0:0:
256,192,201045,1,8,0:0:0:0:
256,192,201267,1,0,0:0:0:0:
256,192,201378,1,8,0:0:0:0:
256,192,201490,1,0,0:0:0:0:
256,192,201601,1,8,0:0:0:0:
256,192,201712,1,0,0:0:0:0:
256,192,201823,1,12,0:0:0:0:
256,192,202156,1,0,0:0:0:0:
256,192,202267,1,8,0:0:0:0:
256,192,202490,1,0,0:0:0:0:
256,192,202712,1,0,0:0:0:0:
256,192,202823,1,8,0:0:0:0:
256,192,203045,1,0,0:0:0:0:
256,192,203156,1,8,0:0:0:0:
256,192,203267,1,8,0:0:0:0:
256,192,203378,1,8,0:0:0:0:
256,192,203601,1,4,0:0:0:0:
256,192,203897,1,4,0:0:0:0:
256,192,204193,1,4,0:0:0:0:
256,192,204490,1,12,0:0:0:0:
256,192,204786,1,12,0:0:0:0:
256,192,205082,1,12,0:0:0:0:
256,192,205378,1,12,0:0:0:0:
256,192,205490,1,0,0:0:0:0:
256,192,205601,1,8,0:0:0:0:
256,192,205712,1,0,0:0:0:0:
256,192,205823,1,0,0:0:0:0:
256,192,205934,1,0,0:0:0:0:
256,192,206045,1,8,0:0:0:0:
256,192,206156,1,0,0:0:0:0:
256,192,206267,1,0,0:0:0:0:
256,192,206379,1,0,0:0:0:0:
256,192,206490,1,8,0:0:0:0:
256,192,206601,1,0,0:0:0:0:
256,192,206712,1,0,0:0:0:0:
256,192,206823,1,0,0:0:0:0:
256,192,206934,1,8,0:0:0:0:
256,192,207045,1,12,0:0:0:0:
256,192,207268,1,0,0:0:0:0:
256,192,207379,1,8,0:0:0:0:
256,192,207490,1,0,0:0:0:0:
256,192,207601,1,0,0:0:0:0:
256,192,207712,1,0,0:0:0:0:
256,192,207823,1,8,0:0:0:0:
256,192,207934,1,0,0:0:0:0:
256,192,208045,1,0,0:0:0:0:
256,192,208157,1,0,0:0:0:0:
256,192,208268,1,8,0:0:0:0:
256,192,208379,1,0,0:0:0:0:
256,192,208490,1,0,0:0:0:0:
256,192,208601,1,0,0:0:0:0:
256,192,208712,1,8,0:0:0:0:
256,192,208823,1,12,0:0:0:0:
256,192,209045,1,0,0:0:0:0:
256,192,209156,1,8,0:0:0:0:
256,192,209267,1,0,0:0:0:0:
256,192,209323,1,8,0:0:0:0:
256,192,209378,1,0,0:0:0:0:
256,192,209489,1,0,0:0:0:0:
256,192,209600,1,8,0:0:0:0:
256,192,209711,1,4,0:0:0:0:
256,192,209934,1,0,0:0:0:0:
256,192,210045,1,8,0:0:0:0:
256,192,210156,1,0,0:0:0:0:
256,192,210212,1,8,0:0:0:0:
256,192,210267,1,0,0:0:0:0:
256,192,210378,1,0,0:0:0:0:
256,192,210489,1,8,0:0:0:0:
256,192,210600,1,12,0:0:0:0:
256,192,210823,1,0,0:0:0:0:
256,192,210934,1,8,0:0:0:0:
256,192,211045,1,0,0:0:0:0:
256,192,211156,1,0,0:0:0:0:
256,192,211267,1,8,0:0:0:0:
256,192,211378,1,0,0:0:0:0:
256,192,211489,1,8,0:0:0:0:
256,192,211600,1,8,0:0:0:0:
256,192,211656,1,0,0:0:0:0:
256,192,211712,1,0,0:0:0:0:
256,192,211767,1,0,0:0:0:0:
256,192,211823,1,0,0:0:0:0:
256,192,211934,1,0,0:0:0:0:
256,192,212045,1,0,0:0:0:0:
256,192,212156,1,0,0:0:0:0:
256,192,212267,1,0,0:0:0:0:
256,192,212378,1,12,0:0:0:0:
256,192,212601,1,0,0:0:0:0:
256,192,212712,1,8,0:0:0:0:
256,192,212823,1,0,0:0:0:0:
256,192,212934,1,8,0:0:0:0:
256,192,213045,1,8,0:0:0:0:
256,192,213156,1,8,0:0:0:0:
256,192,213267,1,8,0:0:0:0:
256,192,213378,1,0,0:0:0:0:
256,192,213490,1,0,0:0:0:0:
256,192,213601,1,8,0:0:0:0:
256,192,213712,1,0,0:0:0:0:
256,192,213823,1,0,0:0:0:0:
256,192,213934,1,0,0:0:0:0:
256,192,214045,1,8,0:0:0:0:
256,192,214156,1,12,0:0:0:0:
256,192,214378,1,0,0:0:0:0:
256,192,214489,1,8,0:0:0:0:
256,192,214600,1,0,0:0:0:0:
256,192,214711,1,0,0:0:0:0:
256,192,214822,1,8,0:0:0:0:
256,192,214933,1,8,0:0:0:0:
256,192,215044,1,0,0:0:0:0:
256,192,215155,1,0,0:0:0:0:
256,192,215267,1,0,0:0:0:0:
256,192,215378,1,8,0:0:0:0:
256,192,215489,1,8,0:0:0:0:
256,192,215600,1,0,0:0:0:0:
256,192,215711,1,8,0:0:0:0:
256,192,215822,1,8,0:0:0:0:
256,192,215933,1,8,0:0:0:0:
256,192,215990,1,0,0:0:0:0:
256,192,216045,1,0,0:0:0:0:
256,192,216156,1,8,0:0:0:0:
256,192,216267,1,8,0:0:0:0:
256,192,216378,1,0,0:0:0:0:
256,192,216489,1,8,0:0:0:0:
256,192,216545,1,0,0:0:0:0:
256,192,216600,1,0,0:0:0:0:
256,192,216711,1,8,0:0:0:0:
256,192,216822,1,0,0:0:0:0:
256,192,216933,1,0,0:0:0:0:
256,192,217045,1,8,0:0:0:0:
256,192,217156,1,8,0:0:0:0:
256,192,217212,1,8,0:0:0:0:
256,192,217267,1,0,0:0:0:0:
256,192,217378,1,0,0:0:0:0:
256,192,217489,1,0,0:0:0:0:
256,192,217600,1,8,0:0:0:0:
256,192,217711,1,12,0:0:0:0:
256,192,217934,1,8,0:0:0:0:
256,192,218045,1,8,0:0:0:0:
256,192,218156,1,0,0:0:0:0:
256,192,218267,1,0,0:0:0:0:
256,192,218378,1,8,0:0:0:0:
256,192,218489,1,8,0:0:0:0:
256,192,218600,1,0,0:0:0:0:
256,192,218711,1,8,0:0:0:0:
256,192,218823,1,0,0:0:0:0:
256,192,218934,1,8,0:0:0:0:
256,192,219045,1,0,0:0:0:0:
256,192,219156,1,8,0:0:0:0:
256,192,219267,1,8,0:0:0:0:
256,192,219378,1,8,0:0:0:0:
256,192,219489,1,12,0:0:0:0:
256,192,219712,1,0,0:0:0:0:
256,192,219823,1,8,0:0:0:0:
256,192,219934,1,0,0:0:0:0:
256,192,219990,1,0,0:0:0:0:
256,192,220045,1,8,0:0:0:0:
256,192,220156,1,0,0:0:0:0:
256,192,220267,1,8,0:0:0:0:
256,192,220378,1,0,0:0:0:0:
256,192,220434,1,0,0:0:0:0:
256,192,220489,1,8,0:0:0:0:
256,192,220601,1,0,0:0:0:0:
256,192,220712,1,8,0:0:0:0:
256,192,220823,1,0,0:0:0:0:
256,192,220878,1,0,0:0:0:0:
256,192,220934,1,8,0:0:0:0:
256,192,220990,1,0,0:0:0:0:
256,192,221045,1,0,0:0:0:0:
256,192,221156,1,8,0:0:0:0:
256,192,221267,1,12,0:0:0:0:
256,192,223045,1,4,0:0:0:0:
256,192,224045,1,0,0:0:0:0:
256,192,224489,1,0,0:0:0:0:
256,192,224823,1,4,0:0:0:0:
256,192,225601,1,0,0:0:0:0:
256,192,225823,1,0,0:0:0:0:
256,192,226267,1,0,0:0:0:0:
256,192,226601,1,4,0:0:0:0:
256,192,227378,1,0,0:0:0:0:
256,192,227601,1,0,0:0:0:0:
256,192,228045,1,0,0:0:0:0:
256,192,228378,1,4,0:0:0:0:
256,192,228934,1,0,0:0:0:0:
256,192,229378,1,0,0:0:0:0:
256,192,229823,1,0,0:0:0:0:
256,192,230156,1,4,0:0:0:0:
256,192,230490,1,0,0:0:0:0:
256,192,230564,1,0,0:0:0:0:
256,192,230638,1,0,0:0:0:0:
256,192,230712,1,8,0:0:0:0:
256,192,230934,1,0,0:0:0:0:
256,192,231008,1,0,0:0:0:0:
256,192,231082,1,0,0:0:0:0:
256,192,231156,1,8,0:0:0:0:
256,192,231378,1,0,0:0:0:0:
256,192,231452,1,0,0:0:0:0:
256,192,231526,1,0,0:0:0:0:
256,192,231600,1,8,0:0:0:0:
256,192,231675,1,0,0:0:0:0:
256,192,231749,1,0,0:0:0:0:
256,192,231823,1,8,0:0:0:0:
256,192,231897,1,0,0:0:0:0:
256,192,231971,1,0,0:0:0:0:
256,192,232045,1,12,0:0:0:0:
256,192,232267,1,0,0:0:0:0:
256,192,232341,1,0,0:0:0:0:
256,192,232415,1,0,0:0:0:0:
256,192,232489,1,8,0:0:0:0:
256,192,232711,1,0,0:0:0:0:
256,192,232785,1,0,0:0:0:0:
256,192,232859,1,0,0:0:0:0:
256,192,232933,1,8,0:0:0:0:
256,192,233155,1,0,0:0:0:0:
256,192,233229,1,0,0:0:0:0:
256,192,233303,1,0,0:0:0:0:
256,192,233377,1,8,0:0:0:0:
256,192,233452,1,0,0:0:0:0:
256,192,233526,1,0,0:0:0:0:
256,192,233600,1,8,0:0:0:0:
256,192,233674,1,0,0:0:0:0:
256,192,233748,1,0,0:0:0:0:
256,192,233822,1,12,0:0:0:0:
256,192,234045,1,0,0:0:0:0:
256,192,234119,1,0,0:0:0:0:
256,192,234193,1,0,0:0:0:0:
256,192,234267,1,8,0:0:0:0:
256,192,234489,1,0,0:0:0:0:
256,192,234563,1,0,0:0:0:0:
256,192,234637,1,0,0:0:0:0:
256,192,234711,1,8,0:0:0:0:
256,192,234933,1,0,0:0:0:0:
256,192,235007,1,0,0:0:0:0:
256,192,235081,1,0,0:0:0:0:
256,192,235155,1,8,0:0:0:0:
256,192,235230,1,0,0:0:0:0:
256,192,235304,1,0,0:0:0:0:
256,192,235378,1,8,0:0:0:0:
256,192,235490,1,0,0:0:0:0:
256,192,235600,1,12,0:0:0:0:
256,192,235712,1,0,0:0:0:0:
256,192,235823,1,12,0:0:0:0:
256,192,235934,1,0,0:0:0:0:
256,192,236045,1,12,0:0:0:0:
256,192,236156,1,0,0:0:0:0:
256,192,236267,1,12,0:0:0:0:
256,192,236378,1,0,0:0:0:0:
256,192,236490,1,12,0:0:0:0:
256,192,236601,1,0,0:0:0:0:
256,192,236711,1,0,0:0:0:0:
256,192,236785,1,0,0:0:0:0:
256,192,236859,1,0,0:0:0:0:
256,192,236933,1,8,0:0:0:0:
256,192,237008,1,0,0:0:0:0:
256,192,237082,1,0,0:0:0:0:
256,192,237156,1,8,0:0:0:0:
256,192,237230,1,0,0:0:0:0:
256,192,237304,1,0,0:0:0:0:
256,192,237378,1,0,0:0:0:0:
256,192,238712,1,4,0:0:0:0:
256,192,239045,1,12,0:0:0:0:
256,192,239267,1,0,0:0:0:0:
256,192,239322,1,0,0:0:0:0:
256,192,239378,1,8,0:0:0:0:
256,192,239489,1,0,0:0:0:0:
256,192,239545,1,8,0:0:0:0:
256,192,239601,1,0,0:0:0:0:
256,192,239711,1,8,0:0:0:0:
256,192,239767,1,0,0:0:0:0:
256,192,239823,1,8,0:0:0:0:
256,192,239878,1,0,0:0:0:0:
256,192,239933,1,0,0:0:0:0:
256,192,240045,1,0,0:0:0:0:
256,192,240156,1,0,0:0:0:0:
256,192,240211,1,8,0:0:0:0:
256,192,240267,1,8,0:0:0:0:
256,192,240378,1,8,0:0:0:0:
256,192,240434,1,0,0:0:0:0:
256,192,240489,1,0,0:0:0:0:
256,192,240600,1,0,0:0:0:0:
256,192,240656,1,8,0:0:0:0:
256,192,240711,1,8,0:0:0:0:
256,192,240822,1,12,0:0:0:0:
256,192,241045,1,0,0:0:0:0:
256,192,241156,1,8,0:0:0:0:
256,192,241267,1,8,0:0:0:0:
256,192,241322,1,0,0:0:0:0:
256,192,241378,1,0,0:0:0:0:
256,192,241489,1,8,0:0:0:0:
256,192,241545,1,0,0:0:0:0:
256,192,241600,1,8,0:0:0:0:
256,192,241656,1,0,0:0:0:0:
256,192,241711,1,0,0:0:0:0:
256,192,241822,1,0,0:0:0:0:
256,192,241878,1,0,0:0:0:0:
256,192,241933,1,0,0:0:0:0:
256,192,241990,1,0,0:0:0:0:
256,192,242045,1,8,0:0:0:0:
256,192,242156,1,8,0:0:0:0:
256,192,242267,1,0,0:0:0:0:
256,192,242322,1,8,0:0:0:0:
256,192,242378,1,0,0:0:0:0:
256,192,242489,1,8,0:0:0:0:
256,192,242600,1,12,0:0:0:0:
256,192,242822,1,0,0:0:0:0:
256,192,242933,1,8,0:0:0:0:
256,192,242990,1,0,0:0:0:0:
256,192,243045,1,8,0:0:0:0:
256,192,243101,1,0,0:0:0:0:
256,192,243155,1,0,0:0:0:0:
256,192,243267,1,0,0:0:0:0:
256,192,243323,1,0,0:0:0:0:
256,192,243378,1,8,0:0:0:0:
256,192,243489,1,0,0:0:0:0:
256,192,243545,1,8,0:0:0:0:
256,192,243600,1,0,0:0:0:0:
256,192,243656,1,0,0:0:0:0:
256,192,243711,1,0,0:0:0:0:
256,192,243822,1,8,0:0:0:0:
256,192,243933,1,0,0:0:0:0:
256,192,243989,1,8,0:0:0:0:
256,192,244045,1,0,0:0:0:0:
256,192,244156,1,0,0:0:0:0:
256,192,244211,1,0,0:0:0:0:
256,192,244267,1,8,0:0:0:0:
256,192,244378,1,12,0:0:0:0:
256,192,244600,1,0,0:0:0:0:
256,192,244656,1,0,0:0:0:0:
256,192,244711,1,8,0:0:0:0:
256,192,244822,1,0,0:0:0:0:
256,192,244878,1,0,0:0:0:0:
256,192,244934,1,8,0:0:0:0:
256,192,245045,1,0,0:0:0:0:
256,192,245100,1,0,0:0:0:0:
256,192,245156,1,8,0:0:0:0:
256,192,245267,1,0,0:0:0:0:
256,192,245322,1,0,0:0:0:0:
256,192,245378,1,8,0:0:0:0:
256,192,245489,1,8,0:0:0:0:
256,192,245545,1,8,0:0:0:0:
256,192,245601,1,8,0:0:0:0:
256,192,245711,1,8,0:0:0:0:
256,192,245823,1,8,0:0:0:0:
256,192,245934,1,8,0:0:0:0:
256,192,245990,1,8,0:0:0:0:
256,192,246045,1,8,0:0:0:0:
256,192,246156,1,12,0:0:0:0:
256,192,246378,1,0,0:0:0:0:
256,192,246489,1,8,0:0:0:0:
256,192,246600,1,0,0:0:0:0:
256,192,246656,1,8,0:0:0:0:
256,192,246711,1,8,0:0:0:0:
256,192,246767,1,0,0:0:0:0:
256,192,246822,1,0,0:0:0:0:
256,192,246933,1,8,0:0:0:0:
256,192,247045,1,12,0:0:0:0:
256,192,247267,1,0,0:0:0:0:
256,192,247378,1,8,0:0:0:0:
256,192,247489,1,0,0:0:0:0:
256,192,247545,1,0,0:0:0:0:
256,192,247600,1,8,0:0:0:0:
256,192,247711,1,0,0:0:0:0:
256,192,247767,1,0,0:0:0:0:
256,192,247822,1,8,0:0:0:0:
256,192,247933,1,12,0:0:0:0:
256,192,248156,1,0,0:0:0:0:
256,192,248267,1,8,0:0:0:0:
256,192,248378,1,8,0:0:0:0:
256,192,248433,1,0,0:0:0:0:
256,192,248489,1,0,0:0:0:0:
256,192,248600,1,0,0:0:0:0:
256,192,248656,1,0,0:0:0:0:
256,192,248711,1,8,0:0:0:0:
256,192,248822,1,12,0:0:0:0:
256,192,249045,1,0,0:0:0:0:
256,192,249100,1,0,0:0:0:0:
256,192,249156,1,8,0:0:0:0:
256,192,249267,1,8,0:0:0:0:
256,192,249322,1,0,0:0:0:0:
256,192,249378,1,0,0:0:0:0:
256,192,249489,1,0,0:0:0:0:
256,192,249545,1,0,0:0:0:0:
256,192,249600,1,8,0:0:0:0:
256,192,249711,1,12,0:0:0:0:
256,192,249933,1,0,0:0:0:0:
256,192,250045,1,8,0:0:0:0:
256,192,250156,1,0,0:0:0:0:
256,192,250211,1,0,0:0:0:0:
256,192,250267,1,8,0:0:0:0:
256,192,250378,1,0,0:0:0:0:
256,192,250489,1,8,0:0:0:0:
256,192,250600,1,12,0:0:0:0:
256,192,250822,1,8,0:0:0:0:
256,192,250933,1,8,0:0:0:0:
256,192,251044,1,0,0:0:0:0:
256,192,251100,1,0,0:0:0:0:
256,192,251156,1,8,0:0:0:0:
256,192,251267,1,0,0:0:0:0:
256,192,251378,1,8,0:0:0:0:
256,192,251489,1,12,0:0:0:0:
256,192,251711,1,0,0:0:0:0:
256,192,251767,1,0,0:0:0:0:
256,192,251822,1,8,0:0:0:0:
256,192,251933,1,0,0:0:0:0:
256,192,252045,1,8,0:0:0:0:
256,192,252155,1,0,0:0:0:0:
256,192,252211,1,8,0:0:0:0:
256,192,252267,1,8,0:0:0:0:
256,192,252378,1,8,0:0:0:0:
256,192,252489,1,0,0:0:0:0:
256,192,252600,1,8,0:0:0:0:
256,192,252711,1,8,0:0:0:0:
256,192,252822,1,0,0:0:0:0:
256,192,252933,1,8,0:0:0:0:
256,192,252989,1,8,0:0:0:0:
256,192,253045,1,0,0:0:0:0:
256,192,253100,1,0,0:0:0:0:
256,192,253156,1,8,0:0:0:0:
256,192,253267,1,12,0:0:0:0:
256,192,253490,1,0,0:0:0:0:
256,192,253601,1,8,0:0:0:0:
256,192,253712,1,0,0:0:0:0:
256,192,253768,1,8,0:0:0:0:
256,192,253823,1,8,0:0:0:0:
256,192,253879,1,0,0:0:0:0:
256,192,253934,1,0,0:0:0:0:
256,192,254045,1,8,0:0:0:0:
256,192,254157,1,12,0:0:0:0:
256,192,254379,1,0,0:0:0:0:
256,192,254490,1,8,0:0:0:0:
256,192,254601,1,0,0:0:0:0:
256,192,254657,1,0,0:0:0:0:
256,192,254712,1,8,0:0:0:0:
256,192,254823,1,0,0:0:0:0:
256,192,254879,1,0,0:0:0:0:
256,192,254934,1,8,0:0:0:0:
256,192,255045,1,12,0:0:0:0:
256,192,255268,1,0,0:0:0:0:
256,192,255379,1,8,0:0:0:0:
256,192,255490,1,8,0:0:0:0:
256,192,255545,1,0,0:0:0:0:
256,192,255601,1,0,0:0:0:0:
256,192,255712,1,0,0:0:0:0:
256,192,255768,1,0,0:0:0:0:
256,192,255823,1,8,0:0:0:0:
256,192,255934,1,12,0:0:0:0:
256,192,256157,1,0,0:0:0:0:
256,192,256212,1,0,0:0:0:0:
256,192,256268,1,8,0:0:0:0:
256,192,256379,1,8,0:0:0:0:
256,192,256490,1,0,0:0:0:0:
256,192,256545,1,0,0:0:0:0:
256,192,256601,1,0,0:0:0:0:
256,192,256657,1,0,0:0:0:0:
256,192,256712,1,8,0:0:0:0:
256,192,256823,1,12,0:0:0:0:
256,192,257045,1,0,0:0:0:0:
256,192,257157,1,8,0:0:0:0:
256,192,257268,1,0,0:0:0:0:
256,192,257323,1,0,0:0:0:0:
256,192,257379,1,8,0:0:0:0:
256,192,257490,1,0,0:0:0:0:
256,192,257601,1,8,0:0:0:0:
256,192,257712,1,12,0:0:0:0:
256,192,257934,1,8,0:0:0:0:
256,192,258045,1,8,0:0:0:0:
256,192,258156,1,0,0:0:0:0:
256,192,258212,1,0,0:0:0:0:
256,192,258268,1,8,0:0:0:0:
256,192,258323,1,0,0:0:0:0:
256,192,258379,1,0,0:0:0:0:
256,192,258434,1,0,0:0:0:0:
256,192,258490,1,8,0:0:0:0:
256,192,258601,1,12,0:0:0:0:
256,192,260045,1,0,0:0:0:0:
256,192,260378,1,12,0:0:0:0:
256,192,260601,1,0,0:0:0:0:
256,192,260657,1,0,0:0:0:0:
256,192,260712,1,8,0:0:0:0:
256,192,260767,1,0,0:0:0:0:
256,192,260823,1,8,0:0:0:0:
256,192,260934,1,0,0:0:0:0:
256,192,261046,1,0,0:0:0:0:
256,192,261101,1,8,0:0:0:0:
256,192,261157,1,8,0:0:0:0:
256,192,261268,1,8,0:0:0:0:
256,192,261379,1,0,0:0:0:0:
256,192,261434,1,0,0:0:0:0:
256,192,261490,1,0,0:0:0:0:
256,192,261546,1,0,0:0:0:0:
256,192,261601,1,8,0:0:0:0:
256,192,261712,1,0,0:0:0:0:
256,192,261823,1,0,0:0:0:0:
256,192,261879,1,0,0:0:0:0:
256,192,261934,1,8,0:0:0:0:
256,192,261990,1,0,0:0:0:0:
256,192,262046,1,8,0:0:0:0:
256,192,262156,1,12,0:0:0:0:
256,192,262268,1,0,0:0:0:0:
256,192,262379,1,0,0:0:0:0:
256,192,262434,1,0,0:0:0:0:
256,192,262490,1,8,0:0:0:0:
256,192,262601,1,0,0:0:0:0:
256,192,262712,1,8,0:0:0:0:
256,192,262767,1,0,0:0:0:0:
256,192,262823,1,0,0:0:0:0:
256,192,262879,1,0,0:0:0:0:
256,192,262934,1,8,0:0:0:0:
256,192,263046,1,8,0:0:0:0:
256,192,263101,1,0,0:0:0:0:
256,192,263157,1,0,0:0:0:0:
256,192,263268,1,0,0:0:0:0:
256,192,263323,1,0,0:0:0:0:
256,192,263379,1,8,0:0:0:0:
256,192,263490,1,0,0:0:0:0:
256,192,263601,1,8,0:0:0:0:
256,192,263656,1,0,0:0:0:0:
256,192,263712,1,8,0:0:0:0:
256,192,263767,1,0,0:0:0:0:
256,192,263823,1,8,0:0:0:0:
256,192,263934,1,12,0:0:0:0:
256,192,264157,1,0,0:0:0:0:
256,192,264212,1,0,0:0:0:0:
256,192,264268,1,8,0:0:0:0:
256,192,264379,1,0,0:0:0:0:
256,192,264489,1,0,0:0:0:0:
256,192,264601,1,8,0:0:0:0:
256,192,264656,1,0,0:0:0:0:
256,192,264712,1,8,0:0:0:0:
256,192,264768,1,0,0:0:0:0:
256,192,264823,1,0,0:0:0:0:
256,192,264879,1,8,0:0:0:0:
256,192,264934,1,8,0:0:0:0:
256,192,265046,1,0,0:0:0:0:
256,192,265101,1,0,0:0:0:0:
256,192,265157,1,8,0:0:0:0:
256,192,265268,1,0,0:0:0:0:
256,192,265379,1,8,0:0:0:0:
256,192,265434,1,0,0:0:0:0:
256,192,265490,1,8,0:0:0:0:
256,192,265545,1,0,0:0:0:0:
256,192,265601,1,8,0:0:0:0:
256,192,265712,1,12,0:0:0:0:
256,192,265934,1,0,0:0:0:0:
256,192,265990,1,0,0:0:0:0:
256,192,266046,1,8,0:0:0:0:
256,192,266157,1,0,0:0:0:0:
256,192,266268,1,8,0:0:0:0:
256,192,266323,1,0,0:0:0:0:
256,192,266379,1,0,0:0:0:0:
256,192,266434,1,0,0:0:0:0:
256,192,266490,1,8,0:0:0:0:
256,192,266601,1,0,0:0:0:0:
256,192,266712,1,8,0:0:0:0:
256,192,266767,1,8,0:0:0:0:
256,192,266823,1,8,0:0:0:0:
256,192,266934,1,8,0:0:0:0:
256,192,267046,1,8,0:0:0:0:
256,192,267157,1,8,0:0:0:0:
256,192,267212,1,8,0:0:0:0:
256,192,267268,1,0,0:0:0:0:
256,192,267323,1,0,0:0:0:0:
256,192,267379,1,8,0:0:0:0:
256,192,267434,1,8,0:0:0:0:
256,192,267490,1,4,0:0:0:0:
256,192,267712,1,0,0:0:0:0:
256,192,267768,1,0,0:0:0:0:
256,192,267824,1,8,0:0:0:0:
256,192,267934,1,0,0:0:0:0:
256,192,267990,1,8,0:0:0:0:
256,192,268046,1,8,0:0:0:0:
256,192,268101,1,0,0:0:0:0:
256,192,268157,1,0,0:0:0:0:
256,192,268268,1,8,0:0:0:0:
256,192,268323,1,0,0:0:0:0:
256,192,268379,1,8,0:0:0:0:
256,192,268490,1,0,0:0:0:0:
256,192,268601,1,0,0:0:0:0:
256,192,268657,1,0,0:0:0:0:
256,192,268712,1,8,0:0:0:0:
256,192,268823,1,0,0:0:0:0:
256,192,268934,1,8,0:0:0:0:
256,192,268990,1,0,0:0:0:0:
256,192,269045,1,8,0:0:0:0:
256,192,269101,1,0,0:0:0:0:
256,192,269157,1,8,0:0:0:0:
256,192,269268,1,12,0:0:0:0:
256,192,269490,1,0,0:0:0:0:
256,192,269546,1,0,0:0:0:0:
256,192,269601,1,8,0:0:0:0:
256,192,269823,1,0,0:0:0:0:
256,192,269934,1,0,0:0:0:0:
256,192,270046,1,8,0:0:0:0:
256,192,270157,1,0,0:0:0:0:
256,192,270267,1,0,0:0:0:0:
256,192,270379,1,0,0:0:0:0:
256,192,270490,1,8,0:0:0:0:
256,192,270712,1,8,0:0:0:0:
256,192,270823,1,8,0:0:0:0:
256,192,270934,1,8,0:0:0:0:
256,192,271046,1,12,0:0:0:0:
256,192,271268,1,0,0:0:0:0:
256,192,271323,1,0,0:0:0:0:
256,192,271379,1,8,0:0:0:0:
256,192,271601,1,0,0:0:0:0:
256,192,271712,1,0,0:0:0:0:
256,192,271823,1,8,0:0:0:0:
256,192,272046,1,0,0:0:0:0:
256,192,272268,1,8,0:0:0:0:
256,192,272490,1,0,0:0:0:0:
256,192,272601,1,0,0:0:0:0:
256,192,272712,1,8,0:0:0:0:
256,192,272823,1,12,0:0:0:0:
256,192,273046,1,0,0:0:0:0:
256,192,273157,1,8,0:0:0:0:
256,192,273212,1,0,0:0:0:0:
256,192,273268,1,0,0:0:0:0:
256,192,273323,1,0,0:0:0:0:
256,192,273379,1,0,0:0:0:0:
256,192,273490,1,8,0:0:0:0:
256,192,273601,1,0,0:0:0:0:
256,192,273712,1,0,0:0:0:0:
256,192,273823,1,8,0:0:0:0:
256,192,273935,1,0,0:0:0:0:
256,192,274046,1,0,0:0:0:0:
256,192,274157,1,0,0:0:0:0:
256,192,274268,1,8,0:0:0:0:
256,192,274379,1,8,0:0:0:0:
256,192,274490,1,8,0:0:0:0:
256,192,274601,1,0,0:0:0:0:
256,192,274712,1,12,0:0:0:0:
256,192,274823,1,12,0:0:0:0:
256,192,275046,1,12,0:0:0:0:
256,192,275156,1,12,0:0:0:0:
256,192,275378,1,12,0:0:0:0:
256,192,275490,1,12,0:0:0:0:
256,192,275712,1,12,0:0:0:0:
256,192,275823,1,12,0:0:0:0:
256,192,276045,1,4,0:0:0:0:
256,192,276267,1,4,0:0:0:0:
256,192,276490,1,12,0:0:0:0:
256,192,276601,1,12,0:0:0:0:
256,192,276823,1,12,0:0:0:0:
256,192,276934,1,12,0:0:0:0:
256,192,277101,12,12,277157,0:0:0:0:
256,192,277212,12,12,277268,0:0:0:0:
