osu file format v14

[General]
AudioFilename: audio.mp3
AudioLeadIn: 0
PreviewTime: 77203
Countdown: 0
SampleSet: None
StackLeniency: 0.4
Mode: 0
LetterboxInBreaks: 0
WidescreenStoryboard: 1

[Editor]
Bookmarks: 3648,10759,17870,19203,19536,26759,33870,48092,62314,74759,85314,92425,97203,99647
DistanceSpacing: 0.7
BeatDivisor: 4
GridSize: 16
TimelineZoom: 1.5

[Metadata]
Title:Opera of the wasteland
TitleUnicode:Opera of the wasteland
Artist:Roselia
ArtistUnicode:Roselia
Creator:Antares-
Version:Insane
Source:バンドリ! ガールズバンドパーティ!
Tags:BanG Dream! bandori Girls Band Party! ガルパ Garupa Anfang Minato Yukina 湊友希 Aiba Aina Aiai 相羽あいな
BeatmapID:1872916
BeatmapSetID:895396

[Difficulty]
HPDrainRate:5
CircleSize:4
OverallDifficulty:8
ApproachRate:9
SliderMultiplier:2.99999990463257
SliderTickRate:1

[Events]
//Background and Video events
0,0,".yukina.png",0,0
//Break Periods
//Storyboard Layer 0 (Background)
//Storyboard Layer 1 (Fail)
//Storyboard Layer 2 (Pass)
//Storyboard Layer 3 (Foreground)
//Storyboard Sound Samples

[TimingPoints]
3648,444.444444444444,4,2,2,40,1,0
3648,-333.333333333333,4,2,2,40,0,0
17870,-142.857142857143,4,2,1,55,0,0
19203,-100,4,2,1,55,0,0
19536,-100,4,2,1,75,0,0
33870,-333.333333333333,4,2,1,50,0,0
48092,-125,4,2,1,65,0,0
48759,-250,4,2,1,65,0,0
49092,-250,4,2,1,5,0,0
49203,-125,4,2,1,65,0,0
50536,-250,4,2,1,65,0,0
50869,-250,4,2,1,5,0,0
50980,-125,4,2,1,65,0,0
52314,-250,4,2,1,65,0,0
52647,-250,4,2,1,5,0,0
52759,-125,4,2,1,65,0,0
54092,-250,4,2,1,65,0,0
54425,-250,4,2,1,5,0,0
54536,-125,4,2,1,65,0,0
55870,-250,4,2,1,65,0,0
56203,-250,4,2,1,5,0,0
56314,-125,4,2,1,65,0,0
57647,-250,4,2,1,65,0,0
57980,-250,4,2,1,5,0,0
58092,-125,4,2,1,65,0,0
59425,-250,4,2,1,65,0,0
59758,-250,4,2,1,5,0,0
59869,-125,4,2,1,65,0,0
61425,-250,4,2,1,65,0,0
61758,-250,4,2,1,5,0,0
61869,-125,4,2,1,65,0,0
62314,-166.666666666667,4,3,1,65,0,0
74870,-166.666666666667,4,2,1,45,0,0
76314,-100,4,2,1,20,0,0
76536,-100,4,2,1,80,0,0
77870,-166.666666666667,4,2,1,60,0,0
78092,-166.666666666667,4,2,1,5,0,0
78203,-90.9090909090909,4,2,1,80,0,1
104870,-100,4,2,1,80,0,0

[Colours]
Combo1 : 121,92,235
Combo2 : 217,198,255
Combo3 : 172,99,239
Combo4 : 0,232,232
SliderBorder : 90,241,255

[HitObjects]
75,62,3648,6,0,P|108:106|103:198,1,134.999991588593,2|0,0:2|0:0,0:0:0:0:
166,229,4536,2,0,P|182:190|185:155,2,67.4999957942964,2|2|2,0:2|0:2|0:2,0:0:0:0:
112,300,5425,6,0,P|158:270|203:273,1,89.9999943923952,2|0,0:2|0:0,0:0:0:0:
197,342,6092,2,0,L|160:341,2,22.4999985980988,2|0|0,0:0|0:0|0:0,0:0:0:0:
294,308,6759,1,2,0:2:0:0:
394,355,7203,6,0,P|427:308|429:229,1,134.999991588593,2|0,0:2|0:0,0:0:0:0:
444,217,7981,1,0,0:0:0:0:
455,230,8092,2,0,P|474:193|470:149,1,67.4999957942964,2|0,0:2|0:0,0:0:0:0:
504,164,8536,2,0,P|494:123|463:92,1,67.4999957942964,2|0,0:2|0:0,0:0:0:0:
500,87,8981,6,0,P|460:65|366:80,1,134.999991588593,2|0,0:2|0:0,0:0:0:0:
375,160,9870,2,0,P|412:138|447:134,2,67.4999957942964,2|2|2,0:2|0:2|0:2,0:0:0:0:
322,215,10759,6,0,L|225:211,1,89.9999943923952,2|0,0:2|0:0,0:0:0:0:
175,144,11425,1,2,0:2:0:0:
175,144,11647,2,0,P|197:197|174:278,1,134.999991588593,2|0,0:2|0:0,0:0:0:0:
155,360,12536,6,0,L|252:343,1,89.9999943923952,2|0,0:2|0:0,0:0:0:0:
300,287,13203,1,2,0:2:0:0:
300,287,13425,2,0,P|276:252|279:209,2,67.4999957942964,2|0|0,0:2|0:0|0:0,0:0:0:0:
348,230,14314,6,0,L|451:222,1,89.9999943923952,2|0,0:2|0:0,0:0:0:0:
491,167,14981,1,2,0:2:0:0:
491,167,15203,2,0,P|446:127|427:57,1,134.999991588593,2|0,0:2|0:0,0:0:0:0:
405,44,15981,1,0,0:0:0:0:
383,62,16092,6,0,P|334:75|287:65,1,89.9999943923952,2|0,0:2|0:0,0:0:0:0:
212,37,16759,1,2,0:2:0:0:
212,37,16981,2,0,P|151:22|73:46,1,134.999991588593,2|0,0:2|0:0,0:0:0:0:
22,144,17870,6,0,L|93:137,1,52.4999967288972,8|8,0:1|0:2,0:0:0:0:
108,153,18092,2,0,L|56:159,1,52.4999967288972,8|0,0:2|0:3,0:0:0:0:
207,193,18536,6,0,L|278:200,1,52.4999967288972,8|8,0:1|0:2,0:0:0:0:
293,183,18758,2,0,L|241:178,1,52.4999967288972,8|0,0:2|0:0,0:0:0:0:
403,139,19203,5,8,0:2:0:0:
415,119,19314,1,8,0:2:0:0:
414,95,19425,1,8,0:2:0:0:
387,126,19536,6,0,B|369:164|389:198|389:198|406:233|392:270,1,149.999995231629,8|0,0:2|0:0,0:0:0:0:
286,293,19870,2,0,P|324:240|323:206,1,74.9999976158143,8|0,0:1|0:0,0:0:0:0:
185,196,20092,1,8,0:2:0:0:
185,196,20203,1,0,0:0:0:0:
185,196,20314,2,0,P|238:227|273:221,1,74.9999976158143,8|0,0:1|0:0,0:0:0:0:
276,81,20536,2,0,L|233:172,1,74.9999976158143
166,285,20759,6,0,P|115:298|80:292,1,74.9999976158143,8|0,0:1|0:0,0:0:0:0:
18,131,20981,2,0,P|63:115|104:124,1,74.9999976158143,0|0,0:2|0:0,0:0:0:0:
185,196,21203,1,8,0:1:0:0:
156,178,21314,6,0,P|126:101|177:21,1,149.999995231629,8|0,0:2|0:0,0:0:0:0:
27,0,21647,2,0,P|57:61|49:117,1,74.9999976158143,8|0,0:1|0:0,0:0:0:0:
12,240,21870,2,0,P|28:211|108:199,1,74.9999976158143,8|0,0:2|0:0,0:0:0:0:
185,196,22092,5,8,0:1:0:0:
214,205,22203,1,0,0:0:0:0:
244,200,22314,2,0,L|333:202,1,74.9999976158143,8|0,0:2|0:0,0:0:0:0:
365,122,22536,2,0,L|290:120,1,74.9999976158143,8|0,0:1|0:0,0:0:0:0:
413,190,22759,5,8,0:2:0:0:
446,159,22870,1,8,0:2:0:0:
454,114,22981,1,8,0:1:0:0:
434,73,23092,6,0,L|460:241,1,149.999995231629,8|0,0:2|0:0,0:0:0:0:
424,264,23425,2,0,L|409:166,1,74.9999976158143,8|0,0:1|0:0,0:0:0:0:
356,56,23647,1,8,0:2:0:0:
356,56,23759,1,0,0:0:0:0:
356,56,23870,2,0,P|300:38|264:52,1,74.9999976158143,8|0,0:1|0:0,0:0:0:0:
256,175,24092,2,0,P|287:154|304:121,1,74.9999976158143,8|0,0:2|0:0,0:0:0:0:
204,34,24314,6,0,P|216:91|246:115,1,74.9999976158143,8|0,0:1|0:0,0:0:0:0:
148,234,24536,2,0,P|135:176|105:152,1,74.9999976158143,8|0,0:2|0:0,0:0:0:0:
64,223,24759,1,8,0:1:0:0:
81,252,24870,6,0,L|261:270,1,149.999995231629,8|0,0:2|0:0,0:0:0:0:
287,354,25203,2,0,P|232:344|191:374,1,74.9999976158143,8|0,0:1|0:0,0:0:0:0:
332,289,25425,2,0,P|367:300|403:292,1,74.9999976158143,8|0,0:2|0:0,0:0:0:0:
501,368,25647,2,0,P|446:358|405:388,1,74.9999976158143,8|0,0:1|0:0,0:0:0:0:
465,242,25870,5,8,0:2:0:0:
473,196,25981,1,8,0:2:0:0:
479,152,26092,1,8,0:1:0:0:
486,107,26203,1,8,0:1:0:0:
493,62,26314,2,0,L|532:52,4,37.4999988079071,8|0|0|0|0,0:2|0:0|0:0|0:0|0:0,0:0:0:0:
452,47,26647,6,0,B|408:34|374:52|374:52|341:70|295:56,1,149.999995231629,8|0,0:2|0:0,0:0:0:0:
228,17,26981,2,0,P|220:83|248:121,1,74.9999976158143,8|0,0:2|0:0,0:0:0:0:
137,104,27203,2,0,P|173:159|219:170,1,74.9999976158143,8|0,0:2|0:0,0:0:0:0:
192,246,27425,2,0,P|154:245|122:227,1,74.9999976158143,8|0,0:2|0:0,0:0:0:0:
192,331,27647,2,0,P|253:304|272:261,1,74.9999976158143,8|0,0:2|0:0,0:0:0:0:
330,231,27870,2,0,P|336:267|359:296,1,74.9999976158143,8|0,0:2|0:0,0:0:0:0:
399,176,28092,5,8,0:2:0:0:
362,149,28203,1,8,0:1:0:0:
317,141,28314,1,8,0:1:0:0:
277,162,28425,6,8,P|317:103|312:-6,1,149.999995231629,8|8,0:2|0:0,0:0:0:0:
433,3,28759,2,0,P|403:64|425:108,1,74.9999976158143,8|0,0:2|0:0,0:0:0:0:
454,220,28981,2,0,P|413:179|370:179,1,74.9999976158143,8|0,0:2|0:0,0:0:0:0:
311,247,29203,2,0,L|409:249,1,74.9999976158143,8|0,0:2|0:0,0:0:0:0:
219,84,29425,2,0,P|184:97|163:128,1,74.9999976158143,8|0,0:2|0:0,0:0:0:0:
241,166,29647,2,0,L|315:167,1,74.9999976158143,8|0,0:2|0:0,0:0:0:0:
426,42,29870,5,8,0:2:0:0:
382,28,29981,1,8,0:1:0:0:
338,37,30092,1,8,0:1:0:0:
304,67,30203,6,0,L|469:67,1,149.999995231629,8|0,0:2|0:0,0:0:0:0:
496,102,30536,2,0,L|420:103,1,74.9999976158143,8|0,0:2|0:0,0:0:0:0:
367,182,30759,2,0,L|442:182,1,74.9999976158143,8|0,0:2|0:0,0:0:0:0:
397,266,30981,2,0,L|321:267,1,74.9999976158143,8|0,0:2|0:0,0:0:0:0:
223,143,31203,2,0,L|297:142,1,74.9999976158143,8|0,0:2|0:0,0:0:0:0:
252,226,31425,2,0,L|176:227,1,74.9999976158143,8|0,0:2|0:0,0:0:0:0:
56,176,31647,6,0,P|88:205|94:263,1,74.9999976158143,8|0,0:2|0:0,0:0:0:0:
13,292,31870,1,8,0:1:0:0:
13,292,31981,2,0,P|99:260|168:297,1,149.999995231629,8|0,0:2|0:0,0:0:0:0:
272,327,32314,5,8,0:1:0:0:
250,359,32425,2,0,P|212:367|131:339,1,74.9999976158143,8|0,0:2|0:0,0:0:0:0:
149,279,32647,1,8,0:2:0:0:
171,247,32759,2,0,P|209:239|290:267,1,74.9999976158143,8|0,0:1|0:0,0:0:0:0:
372,301,32981,5,8,0:2:0:0:
416,302,33092,1,8,0:1:0:0:
449,271,33203,1,8,0:1:0:0:
446,226,33314,1,8,0:1:0:0:
417,191,33425,5,8,0:2:0:0:
415,158,33536,1,8,0:2:0:0:
426,141,33647,1,8,0:2:0:0:
441,133,33759,1,8,0:2:0:0:
453,132,33870,6,0,P|501:77|491:7,1,134.999991588593
419,54,34981,6,0,L|362:57,1,44.9999971961976
356,73,35425,2,0,P|289:56|221:78,1,134.999991588593
196,142,36314,5,0,0:0:0:0:
152,81,36536,2,0,P|158:45|179:15,2,67.4999957942964
117,151,37425,6,0,P|74:163|24:148,1,89.9999943923952,8|0,0:2|0:0,0:0:0:0:
89,202,38092,2,0,P|136:183|192:196,1,89.9999943923952
174,187,38981,5,0,0:0:0:0:
228,242,39203,2,0,P|280:256|323:241,1,89.9999943923952,8|0,0:2|0:0,0:0:0:0:
397,254,39870,6,0,P|370:293|281:327,1,134.999991588593
335,285,40981,6,0,P|273:305|199:270,1,134.999991588593,8|0,0:2|0:0,0:0:0:0:
274,199,42092,6,0,L|337:192,1,44.9999971961976
338,174,42536,2,0,P|295:143|205:144,1,134.999991588593,8|0,0:2|0:0,0:0:0:0:
167,197,43425,5,0,0:0:0:0:
134,265,43647,2,0,P|94:211|110:148,1,134.999991588593
156,93,44536,6,0,P|118:78|73:89,2,67.4999957942964,8|0|0,0:2|0:0|0:0,0:0:0:0:
251,140,45647,6,0,L|314:138,1,44.9999971961976
314,121,46092,2,0,B|368:117|368:117|379:155|323:195|343:249,1,179.99998878479,8|0,0:2|0:0,0:0:0:0:
342,247,47203,5,8,0:2:0:0:
427,188,47647,1,8,0:2:0:0:
342,247,48092,6,0,P|276:262|211:235,1,119.999996185303,8|0,0:1|0:0,0:0:0:0:
251,220,48425,2,0,P|193:204|136:219,1,119.999996185303,8|0,0:1|0:0,0:0:0:0:
162,242,48759,6,0,B|121:258|121:258|53:243,1,89.9999971389771,8|0,0:2|0:0,0:0:0:0:
53,244,49203,5,8,0:2:0:0:
14,179,49425,1,8,0:1:0:0:
18,103,49647,1,8,0:2:0:0:
70,47,49870,6,0,P|137:30|195:45,1,119.999996185303,8|0,0:1|0:0,0:0:0:0:
159,65,50203,2,0,P|226:82|284:67,1,119.999996185303,8|0,0:1|0:0,0:0:0:0:
246,40,50536,6,0,B|293:28|293:28|345:40,1,89.9999971389771,8|0,0:2|0:0,0:0:0:0:
347,74,50981,5,8,0:2:0:0:
347,74,51092,2,0,P|418:95|485:70,1,119.999996185303,8|0,0:2|0:0,0:0:0:0:
478,58,51425,1,8,0:2:0:0:
443,168,51647,6,0,P|415:225|427:306,1,119.999996185303,8|0,0:1|0:0,0:0:0:0:
450,344,51981,2,0,P|382:311|323:324,1,119.999996185303,8|0,0:1|0:0,0:0:0:0:
368,346,52314,6,0,B|320:353|320:353|254:331,1,89.9999971389771,8|0,0:2|0:0,0:0:0:0:
252,329,52759,5,8,0:2:0:0:
326,273,52981,1,8,0:1:0:0:
241,242,53203,1,8,0:2:0:0:
252,329,53425,6,0,P|188:347|130:332,1,119.999996185303,8|0,0:1|0:0,0:0:0:0:
174,322,53759,2,0,P|110:295|81:237,1,119.999996185303,8|0,0:1|0:0,0:0:0:0:
122,265,54092,6,0,B|95:213|95:213|103:177,1,89.9999971389771,8|0,0:2|0:0,0:0:0:0:
158,118,54536,6,0,P|186:161|185:192,1,59.9999980926514,8|0,0:2|0:0,0:0:0:0:
258,165,54759,2,0,P|243:214|218:233,1,59.9999980926514,8|0,0:2|0:0,0:0:0:0:
286,273,54981,2,0,P|238:293|208:286,1,59.9999980926514,8|0,0:2|0:0,0:0:0:0:
291,368,55203,6,0,P|340:336|417:336,1,119.999996185303,8|0,0:1|0:0,0:0:0:0:
388,361,55536,2,0,P|448:345|485:268,1,119.999996185303,8|0,0:1|0:0,0:0:0:0:
458,295,55870,6,0,B|439:252|439:252|449:201,1,89.9999971389771,8|0,0:2|0:0,0:0:0:0:
455,187,56314,5,8,0:2:0:0:
420,114,56536,1,8,0:1:0:0:
352,69,56758,1,8,0:2:0:0:
288,116,56981,6,0,P|225:130|171:116,1,119.999996185303,8|0,0:1|0:0,0:0:0:0:
201,92,57314,2,0,P|129:73|74:92,1,119.999996185303,8|0,0:1|0:0,0:0:0:0:
76,108,57647,6,0,B|102:147|102:147|92:198,1,89.9999971389771,8|0,0:2|0:0,0:0:0:0:
90,213,58092,5,8,0:2:0:0:
145,271,58314,1,8,0:1:0:0:
227,256,58536,1,0,0:2:0:0:
278,321,58759,6,0,P|336:341|405:330,1,119.999996185303,8|0,0:1|0:0,0:0:0:0:
356,314,59092,2,0,P|416:302|470:258,1,119.999996185303,8|0,0:1|0:0,0:0:0:0:
427,268,59425,6,0,B|454:226|454:226|446:180,1,89.9999971389771,8|0,0:2|0:0,0:0:0:0:
429,168,59870,5,8,0:2:0:0:
358,104,60092,1,8,0:1:0:0:
337,199,60314,1,8,0:2:0:0:
255,127,60536,6,0,P|190:109|122:128,1,119.999996185303,8|0,0:1|0:0,0:0:0:0:
175,133,60870,2,0,P|111:160|82:218,1,119.999996185303,8|0,0:1|0:0,0:0:0:0:
98,231,61203,1,8,0:2:0:0:
92,314,61425,6,0,B|139:315|139:315|186:267,1,89.9999971389771,8|0,0:2|0:0,0:0:0:0:
255,287,61870,6,0,P|251:257|235:233,1,59.9999980926514,8|0,0:2|0:0,0:0:0:0:
289,179,62092,2,0,P|241:159|211:166,1,59.9999980926514,8|0,0:2|0:0,0:0:0:0:
169,284,62314,6,0,L|312:292,1,119.999992523194,8|0,0:1|0:0,0:0:0:0:
378,313,62759,2,0,L|325:376,2,59.9999962615968,8|8|8,0:1|0:2|0:2,0:0:0:0:
458,347,63203,6,0,P|458:277|392:226,1,119.999992523194,8|0,0:1|0:0,0:0:0:0:
378,171,63647,2,0,P|426:154|453:160,2,59.9999962615968,8|8|8,0:1|0:2|0:2,0:0:0:0:
321,237,64092,6,0,P|255:243|204:215,1,119.999992523194,8|0,0:1|0:0,0:0:0:0:
161,146,64536,2,0,P|170:106|158:76,2,59.9999962615968,8|8|8,0:1|0:2|0:2,0:0:0:0:
91,116,64981,1,8,0:1:0:0:
91,116,65277,5,8,0:2:0:0:
80,137,65425,1,8,0:1:0:0:
92,159,65573,1,8,0:2:0:0:
86,182,65722,1,8,0:2:0:0:
103,203,65870,6,0,P|167:218|233:188,1,119.999992523194,8|0,0:1|0:0,0:0:0:0:
261,130,66314,2,0,P|293:165|299:204,2,59.9999962615968,8|8|8,0:1|0:2|0:2,0:0:0:0:
333,82,66759,2,0,P|365:47|371:8,2,59.9999962615968,8|8|8,0:1|0:2|0:2,0:0:0:0:
407,126,67203,2,0,P|439:161|445:200,2,59.9999962615968,8|8|8,0:1|0:2|0:2,0:0:0:0:
511,212,67647,6,0,P|464:249|436:250,1,59.9999962615968,8|0,0:1|0:0,0:0:0:0:
492,315,67944,2,0,P|432:313|410:295,1,59.9999962615968,8|0,0:1|0:0,0:0:0:0:
412,384,68240,2,0,P|367:344|361:316,1,59.9999962615968,8|0,0:1|0:0,0:0:0:0:
367,270,68536,6,0,P|305:252|245:270,1,119.999992523194,8|0,0:1|0:0,0:0:0:0:
193,320,68981,2,0,P|218:342|266:348,2,59.9999962615968,8|8|8,0:1|0:2|0:2,0:0:0:0:
140,250,69425,6,0,P|116:193|134:128,1,119.999992523194,8|0,0:1|0:0,0:0:0:0:
193,89,69870,2,0,L|206:148,2,59.9999962615968,8|8|8,0:1|0:2|0:2,0:0:0:0:
131,31,70314,6,0,P|192:5|260:29,1,119.999992523194,8|0,0:1|0:0,0:0:0:0:
298,70,70759,2,0,P|346:83|380:73,2,59.9999962615968,8|8|8,0:1|0:2|0:2,0:0:0:0:
405,20,71203,6,0,L|381:153,1,119.999992523194,8|0,0:1|0:0,0:0:0:0:
448,197,71647,2,0,L|462:125,2,59.9999962615968,8|8|8,0:1|0:2|0:2,0:0:0:0:
401,263,72092,1,8,0:1:0:0:
401,263,72388,5,8,0:2:0:0:
380,278,72536,1,8,0:1:0:0:
354,279,72685,1,8,0:2:0:0:
331,267,72833,1,8,0:2:0:0:
313,248,72981,6,0,P|245:217|188:235,1,119.999992523194,8|0,0:1|0:0,0:0:0:0:
131,276,73425,2,0,P|117:236|128:190,2,59.9999962615968,8|8|8,0:1|0:2|0:2,0:0:0:0:
148,359,73870,2,0,P|90:353|71:337,1,59.9999962615968,8|0,0:1|0:2,0:0:0:0:
18,290,74166,5,8,0:2:0:0:
12,248,74314,1,8,0:1:0:0:
9,206,74462,1,8,0:2:0:0:
5,164,74610,1,8,0:2:0:0:
26,127,74759,5,8,0:1:0:0:
256,192,74870,12,0,76314,0:0:0:0:
498,199,76536,5,8,0:1:0:0:
494,221,76647,1,8,0:1:0:0:
405,174,76869,5,8,0:1:0:0:
401,152,76980,1,8,0:1:0:0:
306,197,77202,5,8,0:1:0:0:
302,219,77313,1,8,0:1:0:0:
212,172,77535,5,8,0:1:0:0:
208,150,77646,1,8,0:1:0:0:
122,197,77870,6,0,B|96:203|75:193|75:193|52:182|26:189,1,89.9999943923952,8|0,0:2|0:0,0:0:0:0:
0,167,78203,6,0,B|37:141|82:165|82:165|125:185|177:159,1,164.999999790192,8|0,0:2|0:0,0:0:0:0:
170,8,78536,2,0,P|136:30|120:68,1,82.4999998950959,8|0,0:1|0:0,0:0:0:0:
158,167,78759,5,8,0:2:0:0:
182,201,78870,1,0,0:0:0:0:
206,235,78981,2,0,L|288:242,1,82.4999998950959,8|0,0:1|0:0,0:0:0:0:
373,164,79203,2,0,L|290:156,1,82.4999998950959,8|0,0:2|0:0,0:0:0:0:
374,77,79425,2,0,L|457:85,1,82.4999998950959,8|0,0:1|0:0,0:0:0:0:
450,213,79647,5,8,0:2:0:0:
431,268,79759,1,8,0:2:0:0:
412,323,79870,1,8,0:1:0:0:
334,271,79981,6,0,L|152:268,1,164.999999790192,8|0,0:2|0:0,0:0:0:0:
302,347,80314,2,0,L|344:247,1,82.4999998950959,8|0,0:1|0:0,0:0:0:0:
346,123,80536,5,8,0:2:0:0:
309,102,80647,1,0,0:0:0:0:
267,114,80759,2,0,L|235:190,1,82.4999998950959,8|0,0:1|0:0,0:0:0:0:
133,210,80981,2,0,L|164:133,1,82.4999998950959,8|0,0:2|0:0,0:0:0:0:
62,152,81203,2,0,L|30:228,1,82.4999998950959,8|0,0:1|0:0,0:0:0:0:
46,360,81425,5,8,0:2:0:0:
103,348,81537,1,8,0:2:0:0:
160,336,81647,1,8,0:1:0:0:
243,311,81759,6,0,L|78:305,1,164.999999790192,8|0,0:2|0:0,0:0:0:0:
0,264,82092,2,0,P|21:240|66:220,1,82.4999998950959,8|0,0:1|0:0,0:0:0:0:
243,231,82315,5,8,0:2:0:0:
285,242,82425,1,0,0:0:0:0:
326,232,82536,2,0,L|354:136,1,82.4999998950959,8|0,0:1|0:0,0:0:0:0:
282,68,82759,2,0,L|258:147,1,82.4999998950959,8|0,0:2|0:0,0:0:0:0:
179,85,82981,2,0,L|207:-11,1,82.4999998950959,8|0,0:1|0:0,0:0:0:0:
30,71,83203,5,8,0:2:0:0:
41,126,83315,1,8,0:2:0:0:
52,183,83426,1,8,0:1:0:0:
130,242,83537,6,0,L|185:63,1,164.999999790192,8|0,0:2|0:0,0:0:0:0:
216,226,83870,2,0,L|191:304,1,82.4999998950959,8|0,0:1|0:0,0:0:0:0:
408,290,84092,5,8,0:2:0:0:
413,249,84203,1,0,0:0:0:0:
383,218,84315,2,0,L|300:223,1,82.4999998950959,8|0,0:1|0:0,0:0:0:0:
300,384,84536,2,0,L|324:305,1,82.4999998950959,8|0,0:2|0:0,0:0:0:0:
240,147,84759,2,0,L|215:227,1,82.4999998950959,8|0,0:1|0:0,0:0:0:0:
483,256,84981,5,8,0:1:0:0:
511,180,85092,1,8,0:1:0:0:
494,98,85203,1,8,0:1:0:0:
427,49,85314,6,0,B|383:30|338:49|338:49|302:65|250:45,1,164.999999790192,8|0,0:2|0:0,0:0:0:0:
211,120,85647,2,0,P|261:140|305:139,1,82.4999998950959,8|0,0:1|0:0,0:0:0:0:
129,45,85870,5,8,0:2:0:0:
87,56,85981,1,0,0:2:0:0:
59,91,86092,2,0,L|50:184,1,82.4999998950959,8|0,0:1|0:0,0:0:0:0:
130,234,86314,2,0,L|137:151,1,82.4999998950959,8|0,0:2|0:0,0:0:0:0:
225,221,86536,2,0,L|216:314,1,82.4999998950959,8|0,0:1|0:0,0:0:0:0:
362,202,86758,5,8,2:2:0:0:
382,147,86870,1,8,2:2:0:0:
402,92,86981,1,8,2:1:0:0:
301,129,87092,6,0,B|249:153|214:133|214:133|171:109|125:135,1,164.999999790192,8|0,0:2|0:0,0:0:0:0:
88,217,87425,2,0,L|185:197,1,82.4999998950959,8|0,0:1|0:0,0:0:0:0:
136,39,87647,5,8,0:2:0:0:
93,36,87759,1,0,0:2:0:0:
59,60,87870,2,0,L|29:155,1,82.4999998950959,8|0,0:1|0:0,0:0:0:0:
168,200,88092,2,0,L|143:121,1,82.4999998950959,8|0,0:2|0:0,0:0:0:0:
65,233,88314,2,0,L|35:328,1,82.4999998950959,8|0,0:1|0:0,0:0:0:0:
161,344,88536,5,8,0:2:0:0:
218,343,88647,1,8,0:2:0:0:
276,343,88759,1,8,0:1:0:0:
347,318,88870,6,0,L|164:320,1,164.999999790192,8|0,0:2|0:0,0:0:0:0:
219,247,89203,2,0,L|322:246,1,82.4999998950959,8|0,0:1|0:0,0:0:0:0:
434,174,89425,5,8,0:2:0:0:
450,136,89536,1,0,0:2:0:0:
447,96,89647,2,0,L|364:96,1,82.4999998950959,8|0,0:1|0:0,0:0:0:0:
278,170,89870,2,0,L|360:169,1,82.4999998950959,8|0,0:2|0:0,0:0:0:0:
301,246,90092,2,0,L|218:246,1,82.4999998950959,8|0,0:1|0:0,0:0:0:0:
60,220,90314,5,8,0:2:0:0:
77,165,90425,1,8,0:2:0:0:
94,110,90536,1,8,0:1:0:0:
172,144,90647,6,0,L|254:143,1,82.4999998950959,8|0,0:2|0:0,0:0:0:0:
411,218,90870,1,8,0:2:0:0:
383,245,90981,2,0,L|300:245,1,82.4999998950959,8|0,0:1|0:0,0:0:0:0:
254,143,91203,2,0,P|262:108|317:69,1,82.4999998950959,8|0,0:2|0:0,0:0:0:0:
490,224,91425,2,0,P|455:230|395:206,1,82.4999998950959,8|0,0:1|0:0,0:0:0:0:
252,67,91647,5,8,0:2:0:0:
286,44,91759,1,8,0:2:0:0:
327,42,91870,1,8,0:1:0:0:
363,60,91981,1,8,0:2:0:0:
384,95,92092,5,8,0:1:0:0:
436,110,92203,1,8,0:1:0:0:
489,81,92314,1,8,0:1:0:0:
512,16,92425,6,0,B|531:56|513:94|513:94|495:138|512:175,1,164.999999790192
501,289,92759,2,0,P|467:246|409:233,1,82.4999998950959,8|0,0:1|0:0,0:0:0:0:
263,322,92981,5,8,0:2:0:0:
304,320,93092,1,0,0:2:0:0:
345,318,93203,2,0,L|427:313,1,82.4999998950959,8|0,0:1|0:0,0:0:0:0:
364,237,93425,2,0,L|281:241,1,82.4999998950959,8|0,0:2|0:0,0:0:0:0:
230,164,93647,2,0,L|312:159,1,82.4999998950959,8|0,0:1|0:0,0:0:0:0:
179,96,93870,5,8,0:2:0:0:
149,145,93981,1,8,0:2:0:0:
157,202,94092,1,8,0:1:0:0:
203,276,94203,6,0,B|154:301|112:275|112:275|67:258|24:281,1,164.999999790192,8|0,0:2|0:0,0:0:0:0:
221,358,94536,2,0,P|280:310|288:263,1,82.4999998950959,8|0,0:1|0:0,0:0:0:0:
299,162,94759,5,8,0:2:0:0:
324,194,94870,1,0,0:0:0:0:
349,226,94981,2,0,L|441:221,1,82.4999998950959,8|0,0:1|0:0,0:0:0:0:
477,143,95203,2,0,L|394:147,1,82.4999998950959,8|0,0:2|0:0,0:0:0:0:
427,68,95425,2,0,L|519:63,1,82.4999998950959,8|0,0:1|0:0,0:0:0:0:
343,3,95647,5,8,0:2:0:0:
287,20,95759,1,8,0:2:0:0:
231,37,95870,1,8,0:1:0:0:
276,106,95981,6,0,L|226:287,1,164.999999790192,8|0,0:2|0:0,0:0:0:0:
225,374,96314,2,0,P|276:349|330:362,1,82.4999998950959,8|0,0:1|0:0,0:0:0:0:
485,303,96536,5,8,0:2:0:0:
443,306,96647,1,0,0:0:0:0:
410,280,96759,2,0,L|433:185,1,82.4999998950959,8|0,0:1|0:0,0:0:0:0:
364,131,96981,2,0,L|344:211,1,82.4999998950959,8|0,0:2|0:0,0:0:0:0:
273,144,97203,2,0,L|292:63,1,82.4999998950959,8|0,0:1|0:0,0:0:0:0:
138,12,97425,5,8,0:2:0:0:
151,68,97536,1,8,0:2:0:0:
164,124,97647,1,8,0:1:0:0:
208,203,97759,6,0,P|172:214|77:140,1,164.999999790192,8|0,0:2|0:0,0:0:0:0:
7,128,98092,2,0,P|11:175|28:212,1,82.4999998950959,8|0,0:1|0:0,0:0:0:0:
110,275,98314,2,0,P|154:286|192:284,1,82.4999998950959,8|0,0:2|0:0,0:0:0:0:
286,206,98536,6,0,L|324:130,1,82.4999998950959,8|0,0:1|0:0,0:0:0:0:
372,215,98759,2,0,L|335:288,1,82.4999998950959,8|0,0:2|0:0,0:0:0:0:
382,372,98981,2,0,L|418:298,1,82.4999998950959,8|0,0:1|0:0,0:0:0:0:
474,169,99203,6,0,P|487:124|476:88,1,82.4999998950959,8|0,0:2|0:0,0:0:0:0:
360,49,99425,1,8,0:1:0:0:
275,82,99536,2,0,P|342:138|437:101,1,164.999999790192,8|0,0:2|0:0,0:0:0:0:
239,180,99870,2,0,L|135:179,1,82.4999998950959,8|0,0:1|0:0,0:0:0:0:
111,269,100092,5,8,0:2:0:0:
148,252,100203,1,8,0:2:0:0:
189,255,100314,1,8,0:1:0:0:
225,273,100425,2,0,P|257:275|303:249,1,82.4999998950959,8|0,0:2|0:0,0:0:0:0:
340,152,100647,1,8,0:2:0:0:
355,112,100759,2,0,L|355:194,1,82.4999998950959,8|0,0:1|0:0,0:0:0:0:
448,308,100981,6,0,L|448:225,1,82.4999998950959,8|0,0:2|0:0,0:0:0:0:
410,40,101203,1,8,0:1:0:0:
493,77,101314,2,0,P|432:128|354:111,1,164.999999790192,8|0,0:2|0:0,0:0:0:0:
243,22,101647,2,0,L|255:120,1,82.4999998950959,8|0,0:1|0:0,0:0:0:0:
209,252,101870,5,8,0:2:0:0:
183,220,101980,1,8,0:2:0:0:
143,208,102091,1,8,0:1:0:0:
104,220,102202,2,0,L|97:138,1,82.4999998950959,8|0,0:2|0:0,0:0:0:0:
154,36,102425,1,8,0:2:0:0:
175,0,102536,2,0,L|181:82,1,82.4999998950959,8|0,0:1|0:0,0:0:0:0:
249,165,102759,6,0,P|278:129|334:117,1,82.4999998950959,8|0,0:2|0:0,0:0:0:0:
476,183,102980,1,8,0:1:0:0:
463,94,103092,2,0,P|401:133|407:241,1,164.999999790192,8|0,0:2|0:0,0:0:0:0:
402,335,103425,2,0,P|360:309|299:315,1,82.4999998950959,8|0,0:1|0:0,0:0:0:0:
216,331,103647,5,8,0:2:0:0:
179,349,103758,1,8,0:2:0:0:
137,348,103870,1,8,0:1:0:0:
100,328,103981,2,0,P|49:320|15:333,1,82.4999998950959,8|0,0:2|0:0,0:0:0:0:
72,216,104203,5,8,0:2:0:0:
115,238,104314,1,8,0:1:0:0:
164,234,104425,1,8,0:2:0:0:
202,202,104536,1,8,0:2:0:0:
221,156,104647,1,8,0:1:0:0:
277,126,104759,1,8,0:1:0:0:
337,142,104870,1,8,0:1:0:0:
57,295,106314,5,8,0:1:0:0:
53,273,106759,5,8,0:1:0:0:
57,295,106870,1,8,0:1:0:0:
146,248,107092,5,8,0:1:0:0:
150,226,107203,1,8,0:1:0:0:
245,271,107425,5,8,0:1:0:0:
249,293,107536,1,8,0:1:0:0:
339,246,107758,5,8,0:1:0:0:
343,224,107869,1,8,0:1:0:0:
429,271,108092,5,8,0:1:0:0:
361,336,108314,5,8,0:1:0:0:
339,246,108536,5,8,0:1:0:0:
343,224,108647,1,8,0:1:0:0:
453,145,108870,5,8,0:1:0:0:
457,167,108981,1,8,0:1:0:0:
347,113,109203,5,8,0:1:0:0:
357,70,109314,1,8,0:1:0:0:
