osu file format v14

[General]
AudioFilename: audio.mp3
AudioLeadIn: 0
PreviewTime: 77203
Countdown: 0
SampleSet: None
StackLeniency: 0.6
Mode: 0
LetterboxInBreaks: 0
WidescreenStoryboard: 1

[Editor]
Bookmarks: 3648,10759,17870,19203,19536,33870,48092,62314,74759,85314,92425,99647
DistanceSpacing: 1.1
BeatDivisor: 3
GridSize: 16
TimelineZoom: 1.8

[Metadata]
Title:Opera of the wasteland
TitleUnicode:Opera of the wasteland
Artist:Roselia
ArtistUnicode:Roselia
Creator:Antares-
Version:Hard
Source:バンドリ! ガールズバンドパーティ!
Tags:BanG Dream! bandori Girls Band Party! ガルパ Garupa Anfang Minato Yukina 湊友希 Aiba Aina Aiai 相羽あいな
BeatmapID:1875255
BeatmapSetID:895396

[Difficulty]
HPDrainRate:4.5
CircleSize:3
OverallDifficulty:6
ApproachRate:7.5
SliderMultiplier:2.09999990463257
SliderTickRate:1

[Events]
//Background and Video events
0,0,".yukina.png",0,0
//Break Periods
//Storyboard Layer 0 (Background)
//Storyboard Layer 1 (Fail)
//Storyboard Layer 2 (Pass)
//Storyboard Layer 3 (Foreground)
//Storyboard Sound Samples

[TimingPoints]
3648,444.444444444444,4,2,2,40,1,0
3648,-200,4,2,2,40,0,0
17870,-142.857142857143,4,2,1,55,0,0
19203,-100,4,2,1,55,0,0
19536,-100,4,2,1,75,0,0
33870,-200,4,2,1,50,0,0
48092,-142.857142857143,4,2,1,65,0,0
62314,-142.857142857143,4,3,1,65,0,0
74870,-142.857142857143,4,2,1,45,0,0
76092,-100,4,2,1,20,0,0
76536,-100,4,2,1,80,0,0
78203,-90.9090909090909,4,2,1,80,0,1
104870,-100,4,2,1,80,0,0

[Colours]
Combo1 : 121,92,235
Combo2 : 217,198,255
Combo3 : 172,99,239
Combo4 : 0,232,232
SliderBorder : 90,241,255

[HitObjects]
34,56,3648,6,0,P|74:37|181:58,1,157.499992847443,2|0,0:2|0:0,0:0:0:0:
219,126,4536,2,0,P|255:86|258:46,2,78.7499964237214,2|2|2,0:2|0:2|0:2,0:0:0:0:
139,126,5425,6,0,P|119:178|141:284,1,157.499992847443,2|0,0:0|0:0,0:0:0:0:
159,294,6203,1,0,0:0:0:0:
155,276,6314,1,2,0:2:0:0:
296,246,6759,1,2,0:2:0:0:
431,299,7203,6,0,P|458:253|448:147,1,157.499992847443,2|0,0:0|0:0,0:0:0:0:
424,141,7981,1,0,0:0:0:0:
428,159,8092,1,2,0:2:0:0:
296,105,8536,1,2,0:2:0:0:
177,178,8981,6,0,P|92:205|24:177,1,157.499992847443,2|0,0:2|0:0,0:0:0:0:
0,105,9870,2,0,P|42:100|81:117,2,78.7499964237214,2|2|2,0:2|0:2|0:2,0:0:0:0:
30,182,10759,6,0,L|50:299,1,104.999995231629,2|0,0:2|0:0,0:0:0:0:
82,364,11425,1,2,0:2:0:0:
82,364,11647,2,0,P|81:299|159:230,1,157.499992847443,2|0,0:2|0:0,0:0:0:0:
222,258,12536,6,0,P|170:224|149:166,1,104.999995231629,2|0,0:2|0:0,0:0:0:0:
111,119,13203,1,2,0:2:0:0:
111,119,13425,2,0,P|163:108|198:122,2,78.7499964237214,2|2|2,0:2|0:2|0:2,0:0:0:0:
151,186,14314,6,0,L|128:293,1,104.999995231629,2|0,0:2|0:0,0:0:0:0:
85,361,14981,1,2,0:2:0:0:
85,361,15203,2,0,P|161:318|240:335,1,157.499992847443,2|0,0:2|0:0,0:0:0:0:
298,367,16092,6,0,P|258:311|259:266,1,104.999995231629,2|0,0:2|0:0,0:0:0:0:
297,209,16759,1,2,0:2:0:0:
297,209,16981,2,0,P|246:258|154:257,1,157.499992847443,2|0,0:2|0:0,0:0:0:0:
84,275,17870,6,0,B|77:236|77:236|102:209|102:209|96:167,1,110.249991628647,8|8,0:2|0:2,0:0:0:0:
191,118,18536,2,0,B|197:157|197:157|230:173|230:173|237:206,1,110.249991628647,8|8,0:2|0:2,0:0:0:0:
198,341,19203,5,8,0:1:0:0:
198,341,19536,6,0,P|253:356|326:330,1,104.999995231629,8|0,0:2|0:0,0:0:0:0:
311,323,19870,1,8,0:1:0:0:
271,226,20092,2,0,P|255:175|271:117,1,104.999995231629,8|8,0:2|0:1,0:0:0:0:
350,65,20536,1,8,0:2:0:0:
360,169,20759,1,8,0:1:0:0:
265,125,20981,2,0,P|203:109|151:122,1,104.999995231629,8|8,0:2|0:1,0:0:0:0:
144,135,21314,6,0,P|169:183|156:246,1,104.999995231629,8|0,0:2|0:0,0:0:0:0:
138,246,21647,1,8,0:1:0:0:
226,295,21870,2,0,L|330:299,1,104.999995231629,8|8,0:2|0:1,0:0:0:0:
391,212,22314,2,0,L|286:207,1,104.999995231629,8|8,0:2|0:1,0:0:0:0:
270,187,22647,1,8,0:2:0:0:
270,187,22759,2,0,P|311:127|312:84,1,104.999995231629,8|8,0:2|0:1,0:2:0:0:
293,76,23092,6,0,L|174:80,1,104.999995231629,8|0,0:2|0:0,0:0:0:0:
164,60,23425,1,8,0:1:0:0:
110,153,23647,2,0,P|95:202|109:253,1,104.999995231629,8|8,0:2|0:1,0:0:0:0:
133,268,23981,1,8,0:2:0:0:
133,268,24092,2,0,P|192:248|241:262,1,104.999995231629,8|8,0:2|0:1,0:0:0:0:
327,304,24536,2,0,P|386:323|447:299,1,104.999995231629,8|8,0:2|0:1,0:0:0:0:
447,292,24870,6,0,P|408:254|407:183,1,104.999995231629,8|0,0:2|0:0,0:0:0:0:
419,186,25203,1,8,0:1:0:0:
328,134,25425,2,0,L|223:131,1,104.999995231629,8|8,0:2|0:1,0:0:0:0:
173,223,25870,2,0,L|277:225,1,104.999995231629,8|8,0:2|0:1,0:0:0:0:
343,305,26314,1,8,0:2:0:0:
316,297,26425,1,8,0:2:0:0:
291,307,26536,1,8,0:2:0:0:
271,324,26647,6,0,P|200:340|111:313,1,157.499992847443,8|8,0:2|0:2,0:0:0:0:
20,312,27203,2,0,P|41:258|22:198,1,104.999995231629,8|8,0:2|0:2,0:0:0:0:
107,135,27647,2,0,P|119:209|160:244,1,104.999995231629,8|8,0:2|0:2,0:0:0:0:
207,151,28092,2,0,P|235:107|237:56,1,104.999995231629,8|8,0:2|0:1,0:0:0:0:
212,35,28425,6,0,P|284:73|363:50,1,157.499992847443,8|8,0:2|0:2,0:0:0:0:
460,54,28981,2,0,P|453:102|390:152,1,104.999995231629,8|8,0:2|0:2,0:0:0:0:
436,245,29425,2,0,P|387:246|327:193,1,104.999995231629,8|8,0:2|0:2,0:0:0:0:
243,256,29870,2,0,P|233:208|275:139,1,104.999995231629,8|8,0:2|0:1,0:0:0:0:
279,148,30203,6,0,P|199:123|125:146,1,157.499992847443,8|8,0:2|0:2,0:0:0:0:
60,221,30759,2,0,P|31:178|29:124,1,104.999995231629,8|8,0:2|0:2,0:0:0:0:
130,142,31203,2,0,P|159:185|160:238,1,104.999995231629,8|8,0:2|0:2,0:0:0:0:
120,340,31647,2,0,L|197:339,1,52.4999976158143,8|0,0:2|0:0,0:0:0:0:
200,366,31870,1,8,0:1:0:0:
200,366,31981,6,0,P|242:328|256:262,1,104.999995231629,8|8,0:2|0:2,0:0:0:0:
228,265,32314,2,0,P|285:249|331:262,1,104.999995231629,8|8,0:1|0:2,0:0:0:0:
343,291,32647,2,0,P|392:305|442:290,1,104.999995231629,8|0,0:2|0:0,0:0:0:0:
458,261,32981,2,0,L|440:188,1,52.4999976158143,8|0,0:2|0:0,0:0:0:0:
472,186,33203,2,0,L|454:113,1,52.4999976158143,8|0,0:2|0:0,0:0:0:0:
490,108,33425,5,8,0:0:0:0:
466,96,33536,1,8,0:0:0:0:
439,93,33647,1,8,0:1:0:0:
412,99,33759,1,8,0:1:0:0:
390,114,33870,6,0,B|324:153|266:117|266:117|197:72|127:84|98:118|101:187|163:217|212:181,1,419.999980926514
208,184,36314,5,0,0:0:0:0:
170,97,36536,2,0,P|124:140|124:231,1,157.499992847443
175,316,37425,6,0,B|246:247|422:317|422:317|381:216|381:216|438:221|470:199|495:160|493:114,1,524.999976158143
397,120,39870,2,0,B|355:132|320:114|320:114|283:96|237:115,1,157.499992847443
243,112,40981,6,0,B|289:164|315:197|336:292|278:366|216:382|139:361|162:248|229:220,1,419.999980926514
209,232,43425,5,0,0:0:0:0:
174,148,43647,2,0,P|145:169|141:292,1,157.499992847443
184,356,44536,6,0,B|239:318|294:344|294:344|354:371|409:356|448:329|466:276|490:209|483:126|395:159|362:167|364:210|373:239,1,524.999976158143
372,238,47203,5,0,0:0:0:0:
266,213,47647,1,0,0:0:0:0:
162,179,48092,6,0,P|106:166|33:195,2,110.249991628647,8|8|8,0:1|0:1|0:1,0:0:0:0:
162,179,49203,5,8,0:2:0:0:
247,217,49425,1,8,0:1:0:0:
328,183,49647,1,8,0:2:0:0:
403,228,49870,6,0,P|462:247|523:222,2,110.249991628647,8|8|8,0:1|0:1|0:1,0:0:0:0:
459,157,50759,2,0,P|482:117|480:76,1,73.4999944190981,8|0,0:2|0:0,0:0:0:0:
422,25,51203,2,0,P|399:67|399:107,1,73.4999944190981,8|0,0:2|0:0,0:0:0:0:
344,162,51647,6,0,P|295:124|225:127,2,110.249991628647,8|8|8,0:1|0:1|0:1,0:0:0:0:
344,162,52759,5,8,0:2:0:0:
265,209,52981,2,0,L|257:307,1,73.4999944190981,8|8,0:1|0:2,0:0:0:0:
317,348,53425,6,0,P|252:317|204:331,2,110.249991628647,8|8|8,0:1|0:1|0:1,0:0:0:0:
330,357,54314,1,8,0:1:0:0:
406,299,54536,1,8,0:2:0:0:
313,243,54759,1,8,0:1:0:0:
409,186,54981,1,8,0:2:0:0:
299,139,55203,6,0,P|248:123|182:140,2,110.249991628647,8|8|8,0:1|0:1|0:1,0:0:0:0:
299,139,56314,5,8,0:2:0:0:
364,211,56536,2,0,P|388:175|391:124,1,73.4999944190981,8|8,0:1|0:2,0:0:0:0:
427,66,56981,6,0,P|472:112|473:178,2,110.249991628647,8|8|8,0:1|0:1|0:1,0:0:0:0:
344,33,57870,2,0,L|268:28,1,73.4999944190981,8|0,0:2|0:0,0:0:0:0:
228,105,58314,2,0,L|301:109,1,73.4999944190981,8|0,0:2|0:0,0:0:0:0:
381,146,58759,6,0,P|334:192|281:196,2,110.249991628647,8|8|8,0:1|0:1|0:1,0:0:0:0:
381,146,59870,5,8,0:2:0:0:
432,226,60092,1,8,0:1:0:0:
414,312,60314,1,8,0:2:0:0:
337,355,60536,6,0,P|281:368|223:353,2,110.249991628647,8|8|8,0:1|0:1|0:1,0:0:0:0:
414,312,61425,2,0,P|387:282|346:266,1,73.4999944190981,8|0,0:2|0:0,0:0:0:0:
318,181,61870,2,0,P|355:183|385:163,1,73.4999944190981,8|0,0:2|0:0,0:0:0:0:
435,90,62314,6,0,P|470:140|459:207,1,97.9999925587975,8|0,0:1|0:0,0:0:0:0:
435,214,62759,2,0,L|431:159,3,48.9999962793988,8|8|8|8,0:1|0:2|0:2|0:1,0:0:0:0:
288,89,63647,2,0,P|241:76|181:93,1,97.9999925587975,8|8,0:1|0:2,0:0:0:0:
201,37,64092,6,0,P|145:62|122:121,1,97.9999925587975,8|0,0:1|0:0,0:0:0:0:
84,84,64536,2,0,P|83:115|92:133,3,48.9999962793988,8|8|8|8,0:1|0:2|0:2|0:1,0:0:0:0:
187,180,65277,2,0,L|242:184,1,48.9999962793988,8|8,0:2|0:2,0:0:0:0:
272,223,65573,2,0,L|213:218,1,48.9999962793988,8|8,0:2|0:2,0:0:0:0:
189,261,65870,6,0,P|173:319|195:362,1,97.9999925587975,8|0,0:1|0:0,0:0:0:0:
237,369,66314,2,0,L|252:322,1,48.9999962793988,8|0,0:1|0:0,0:0:0:0:
285,280,66610,2,0,L|300:327,1,48.9999962793988,8|0,0:1|0:0,0:0:0:0:
342,359,66907,2,0,L|357:312,1,48.9999962793988,8|0,0:1|0:0,0:0:0:0:
393,281,67203,2,0,P|442:268|491:283,1,97.9999925587975,8|0,0:1|0:0,0:0:0:0:
512,235,67647,5,8,0:1:0:0:
462,141,67944,1,8,0:2:0:0:
504,41,68240,1,8,0:2:0:0:
399,68,68536,2,0,L|288:74,1,97.9999925587975,8|8,0:1|0:2,0:0:0:0:
264,113,68981,2,0,L|321:111,2,48.9999962793988,8|8|8,0:1|0:2|0:2,0:0:0:0:
238,160,69425,6,0,P|186:173|140:160,1,97.9999925587975,8|8,0:1|0:2,0:0:0:0:
97,134,69870,2,0,L|98:197,3,48.9999962793988,8|8|8|8,0:1|0:2|0:2|0:1,0:0:0:0:
191,50,70759,2,0,P|243:37|289:50,1,97.9999925587975,8|8,0:1|0:2,0:0:0:0:
308,96,71203,6,0,P|368:111|410:95,1,97.9999925587975,8|8,0:1|0:2,0:0:0:0:
450,78,71647,2,0,L|444:132,3,48.9999962793988,8|8|8|8,0:1|0:2|0:2|0:1,0:0:0:0:
403,226,72388,2,0,L|396:274,1,48.9999962793988,8|8,0:2|0:2,0:0:0:0:
354,308,72685,2,0,L|360:259,1,48.9999962793988,8|8,0:2|0:2,0:0:0:0:
339,209,72981,6,0,P|290:188|233:206,1,97.9999925587975,8|8,0:1|0:2,0:0:0:0:
212,237,73425,2,0,L|274:241,3,48.9999962793988,8|8|8|8,0:1|0:2|0:2|0:1,0:0:0:0:
318,149,74166,2,0,L|342:84,1,48.9999962793988,8|8,0:2|0:1,0:0:0:0:
386,84,74462,2,0,L|364:148,1,48.9999962793988,8|8,0:2|0:1,0:0:0:0:
377,213,74759,5,8,0:1:0:0:
256,192,74870,12,0,76092,0:0:0:0:
345,184,76536,6,0,L|355:255,1,52.4999976158143,8|8,0:1|0:1,0:0:0:0:
251,291,76870,2,0,L|258:239,1,52.4999976158143,8|8,0:1|0:1,0:0:0:0:
158,189,77203,2,0,L|168:260,1,52.4999976158143,8|8,0:1|0:1,0:0:0:0:
64,296,77536,2,0,L|71:244,1,52.4999976158143,8|8,0:1|0:1,0:0:0:0:
40,145,77870,1,8,0:1:0:0:
40,145,78203,6,0,P|96:126|166:145,1,115.499998279572,8|0,0:2|0:0,0:0:0:0:
160,164,78536,1,8,0:1:0:0:
257,101,78759,1,8,0:2:0:0:
284,91,78870,1,8,0:2:0:0:
310,101,78981,1,8,0:1:0:0:
385,188,79203,2,0,P|420:138|419:72,1,115.499998279572,8|8,0:2|0:1,0:0:0:0:
509,17,79647,2,0,L|514:103,1,57.7499991397858,8|0,0:2|0:0,0:0:0:0:
505,111,79870,1,8,0:1:0:0:
505,111,79981,6,0,L|512:243,1,115.499998279572,8|0,0:2|0:0,0:0:0:0:
492,248,80314,1,8,0:1:0:0:
386,209,80536,1,8,0:2:0:0:
358,199,80647,1,8,0:2:0:0:
330,206,80759,1,8,0:1:0:0:
224,248,80981,2,0,L|89:237,1,115.499998279572,8|8,0:2|0:1,0:0:0:0:
22,314,81425,2,0,L|137:323,1,115.499998279572,8|8,0:2|0:1,0:0:0:0:
163,337,81759,6,0,P|205:305|219:217,1,115.499998279572,8|0,0:2|0:0,0:0:0:0:
238,222,82092,2,0,P|254:276|299:311,1,115.499998279572,8|8,0:1|0:2,0:0:0:0:
409,344,82536,1,8,0:1:0:0:
332,229,82759,2,0,P|323:172|349:121,1,115.499998279572,8|8,0:2|0:1,0:0:0:0:
308,13,83203,2,0,P|276:60|223:81,1,115.499998279572,8|8,0:2|0:1,0:0:0:0:
206,57,83536,6,0,B|171:45|142:60|142:60|111:74|76:60,1,115.499998279572,8|0,0:2|0:0,0:0:0:0:
72,45,83870,1,8,0:1:0:0:
50,158,84092,2,0,L|43:228,1,57.7499991397858,8|0,0:2|0:0,0:0:0:0:
70,226,84314,2,0,L|63:296,1,57.7499991397858,8|0,0:1|0:0,0:0:0:0:
81,306,84536,2,0,P|135:324|197:309,1,115.499998279572,8|8,0:2|0:1,0:0:0:0:
285,247,84981,1,8,0:2:0:0:
310,235,85092,1,8,0:1:0:0:
339,240,85203,1,8,0:1:0:0:
363,254,85314,6,0,P|429:275|502:251,1,115.499998279572,8|0,0:2|0:0,0:0:0:0:
486,241,85647,1,8,0:1:0:0:
432,142,85870,1,8,0:2:0:0:
418,116,85981,1,8,0:2:0:0:
428,89,86092,1,8,0:1:0:0:
338,15,86314,2,0,P|277:-1|192:23,1,115.499998279572,8|8,0:2|0:1,0:0:0:0:
133,76,86759,2,0,P|105:82|74:74,1,57.7499991397858,8|0,0:2|0:2,0:0:0:0:
50,63,86981,1,8,0:1:0:0:
50,63,87092,6,0,L|60:207,1,115.499998279572,8|0,0:2|0:0,0:0:0:0:
79,198,87425,1,8,0:1:0:0:
190,151,87647,1,8,0:2:0:0:
217,141,87759,1,8,0:2:0:0:
244,149,87870,1,8,0:1:0:0:
307,247,88092,2,0,P|372:273|442:259,1,115.499998279572,8|8,0:2|0:1,0:0:0:0:
497,181,88536,2,0,P|506:147|499:110,1,57.7499991397858,8|0,0:2|0:2,0:0:0:0:
481,107,88759,1,8,0:1:0:0:
481,107,88870,6,0,L|356:93,1,115.499998279572,8|0,0:2|0:0,0:0:0:0:
343,111,89203,1,8,0:1:0:0:
244,51,89425,1,8,0:2:0:0:
217,40,89536,1,8,0:2:0:0:
188,50,89647,1,8,0:1:0:0:
105,127,89870,2,0,L|83:255,1,115.499998279572,8|8,0:2|0:1,0:0:0:0:
172,314,90314,2,0,L|191:200,1,115.499998279572,8|8,0:2|0:1,0:0:0:0:
215,183,90647,6,0,P|277:156|349:174,1,115.499998279572,8|0,0:2|0:0,0:0:0:0:
329,188,90981,2,0,P|396:192|457:150,1,115.499998279572,8|8,0:1|0:2,0:0:0:0:
484,70,91425,2,0,L|400:68,1,57.7499991397858,8|0,0:1|0:0,0:0:0:0:
405,89,91647,2,0,L|304:87,1,57.7499991397858,8|0,0:2|0:0,0:0:0:0:
334,62,91870,2,0,L|233:60,1,57.7499991397858,8|0,0:1|0:0,0:0:0:0:
254,81,92092,1,8,0:1:0:0:
226,89,92203,1,8,0:1:0:0:
197,87,92314,1,8,0:1:0:0:
172,71,92425,6,0,P|99:52|34:83,1,115.499998279572,8|0,0:2|0:0,0:0:0:0:
50,89,92759,1,8,0:1:0:0:
111,189,92981,1,8,0:2:0:0:
121,215,93092,1,8,0:2:0:0:
113,242,93203,1,8,0:1:0:0:
47,334,93425,2,0,P|99:356|165:342,1,115.499998279572,8|8,0:2|0:1,0:0:0:0:
256,284,93870,2,0,P|288:267|325:270,1,57.7499991397858,8|0,0:2|0:0,0:0:0:0:
341,285,94092,1,8,0:1:0:0:
341,285,94203,6,0,P|386:220|380:154,1,115.499998279572,8|0,0:2|0:0,0:0:0:0:
365,171,94536,1,8,0:1:0:0:
250,194,94759,1,8,0:2:0:0:
223,206,94870,1,8,0:2:0:0:
195,197,94981,1,8,0:1:0:0:
98,130,95203,2,0,P|36:113|-21:128,1,115.499998279572,8|8,0:2|0:1,0:0:0:0:
33,18,95647,2,0,P|95:35|152:20,1,115.499998279572,8|8,0:2|0:1,0:0:0:0:
168,41,95981,6,0,P|235:25|296:41,1,115.499998279572,8|0,0:2|0:0,0:0:0:0:
301,53,96314,1,8,0:1:0:0:
247,155,96536,1,8,0:2:0:0:
235,181,96647,1,8,0:2:0:0:
243,208,96759,1,8,0:1:0:0:
346,266,96981,2,0,P|411:282|466:268,1,115.499998279572,8|8,0:2|0:1,0:0:0:0:
512,174,97425,2,0,P|453:159|396:175,1,115.499998279572,8|8,0:2|0:1,0:0:0:0:
386,149,97759,6,0,P|330:164|275:150,1,115.499998279572,8|0,0:2|0:0,0:0:0:0:
247,155,98092,2,0,P|294:213|292:265,1,115.499998279572,8|8,0:1|0:2,0:0:0:0:
217,332,98536,2,0,L|133:334,1,57.7499991397858,8|0,0:1|0:0,0:0:0:0:
145,308,98758,2,0,L|44:310,1,57.7499991397858,8|0,0:2|0:0,0:0:0:0:
78,281,98981,2,0,L|-23:283,1,57.7499991397858,8|0,0:1|0:0,0:0:0:0:
5,257,99203,1,8,0:1:0:0:
1,229,99314,1,8,0:1:0:0:
8,202,99425,1,8,0:1:0:0:
29,180,99536,6,0,P|61:120|54:48,1,115.499998279572,8|0,0:2|0:0,0:0:0:0:
38,55,99870,1,8,0:1:0:0:
145,94,100092,2,0,L|273:90,1,115.499998279572,8|8,0:2|0:1,0:0:0:0:
279,69,100425,1,8,0:2:0:0:
279,69,100536,2,0,L|407:65,1,115.499998279572,8|8,0:2|0:1,0:0:0:0:
468,151,100981,2,0,L|390:154,1,57.7499991397858,8|0,0:2|0:0,0:0:0:0:
381,169,101203,1,8,0:1:0:0:
381,169,101314,6,0,P|415:238|396:290,1,115.499998279572,8|0,0:2|0:0,0:0:0:0:
379,282,101647,1,8,0:1:0:0:
275,235,101870,2,0,L|160:243,1,115.499998279572,8|8,0:2|0:1,0:0:0:0:
146,272,102203,1,8,0:2:0:0:
146,272,102314,2,0,L|31:280,1,115.499998279572,8|8,0:2|0:1,0:0:0:0:
2,172,102759,2,0,L|16:116,1,57.7499991397858,8|0,0:2|0:0,0:0:0:0:
5,94,102981,1,8,0:1:0:0:
5,94,103092,6,0,P|81:74|136:91,1,115.499998279572,8|0,0:2|0:0,0:0:0:0:
127,108,103425,1,8,0:1:0:0:
224,47,103647,2,0,P|243:111|223:170,1,115.499998279572,8|8,0:2|0:1,0:0:0:0:
205,154,103981,2,0,P|186:218|206:277,1,115.499998279572,8|8,0:2|0:2,0:0:0:0:
175,288,104314,2,0,L|114:279,1,57.7499991397858,8|0,0:1|0:0,0:0:0:0:
101,303,104536,2,0,L|43:296,1,57.7499991397858,8|0,0:1|0:0,0:0:0:0:
21,312,104759,2,0,P|2:286|4:256,1,57.7499991397858,8|8,0:1|0:1,0:0:0:0:
2,261,106314,5,8,0:2:0:0:
2,261,106759,6,0,L|9:313,1,52.4999976158143,8|8,0:1|0:1,0:0:0:0:
96,368,107092,2,0,L|103:316,1,52.4999976158143,8|8,0:1|0:1,0:0:0:0:
189,266,107425,2,0,L|196:318,1,52.4999976158143,8|8,0:1|0:1,0:0:0:0:
283,373,107759,2,0,L|290:321,1,52.4999976158143,8|8,0:1|0:1,0:0:0:0:
359,242,108092,6,0,P|418:218|478:243,1,104.999995231629,8|8,0:1|0:1,0:0:0:0:
508,136,108536,6,0,L|447:116,1,52.4999976158143,8|8,0:1|0:1,0:0:0:0:
374,55,108870,2,0,L|425:44,1,52.4999976158143,8|8,0:1|0:1,0:0:0:0:
369,144,109203,2,0,L|319:127,1,52.4999976158143,8|8,0:1|0:1,0:0:0:0:
