osu file format v14

[General]
AudioFilename: audio.mp3
AudioLeadIn: 0
PreviewTime: 77203
Countdown: 0
SampleSet: Soft
StackLeniency: 0.4
Mode: 0
LetterboxInBreaks: 0
WidescreenStoryboard: 1

[Editor]
Bookmarks: 3648,10759,17870,19203,19536,33870,48092,62314,74759,85314,92425,99647
DistanceSpacing: 0.1
BeatDivisor: 4
GridSize: 8
TimelineZoom: 1.5

[Metadata]
Title:Opera of the wasteland
TitleUnicode:Opera of the wasteland
Artist:Roselia
ArtistUnicode:Roselia
Creator:Antares-
Version:Expert
Source:バンドリ! ガールズバンドパーティ!
Tags:BanG Dream! bandori Girls Band Party! ガルパ Garupa Anfang Minato Yukina 湊友希 Aiba Aina Aiai 相羽あいな
BeatmapID:1872193
BeatmapSetID:895396

[Difficulty]
HPDrainRate:5
CircleSize:3.6
OverallDifficulty:8.8
ApproachRate:9.4
SliderMultiplier:3.59999990463257
SliderTickRate:1

[Events]
//Background and Video events
0,0,".yukina.png",0,0
//Break Periods
//Storyboard Layer 0 (Background)
//Storyboard Layer 1 (Fail)
//Storyboard Layer 2 (Pass)
//Storyboard Layer 3 (Foreground)
//Storyboard Sound Samples

[TimingPoints]
3648,444.444444444444,4,2,2,40,1,0
3648,-400,4,2,2,40,0,0
4314,-400,4,2,2,5,0,0
4536,-400,4,2,2,40,0,0
5425,-250,4,2,2,40,0,0
5870,-250,4,2,2,5,0,0
6092,-250,4,2,2,40,0,0
7647,-250,4,2,2,5,0,0
7869,-250,4,2,2,40,0,0
8981,-400,4,2,2,40,0,0
9647,-400,4,2,2,5,0,0
9869,-400,4,2,2,40,0,0
10759,-312.5,4,2,2,40,0,0
17870,-100,4,2,1,55,0,0
19536,-100,4,2,1,75,0,0
26647,-125,4,2,1,75,0,0
33870,-400,4,2,1,50,0,0
48092,-125,4,2,1,65,0,0
48759,-250,4,2,1,65,0,0
49092,-250,4,2,1,5,0,0
49203,-125,4,2,1,65,0,0
50536,-250,4,2,1,65,0,0
50869,-250,4,2,1,5,0,0
50980,-125,4,2,1,65,0,0
52314,-250,4,2,1,65,0,0
52647,-250,4,2,1,5,0,0
52759,-125,4,2,1,65,0,0
55870,-250,4,2,1,65,0,0
56203,-250,4,2,1,5,0,0
56314,-125,4,2,1,65,0,0
57647,-250,4,2,1,65,0,0
57980,-250,4,2,1,5,0,0
58091,-125,4,2,1,65,0,0
59425,-250,4,2,1,65,0,0
59758,-250,4,2,1,5,0,0
59869,-125,4,2,1,65,0,0
61425,-250,4,2,1,65,0,0
61758,-250,4,2,1,5,0,0
61870,-125,4,2,1,65,0,0
62314,-166.666666666667,4,3,1,65,0,0
74870,-166.666666666667,4,2,1,45,0,0
76314,-100,4,2,1,20,0,0
76536,-100,4,2,1,80,0,0
77870,-500,4,2,1,60,0,0
78092,-500,4,2,1,5,0,0
78203,-80,4,2,1,80,0,1
101314,-74.0740740740741,4,2,1,80,0,1
103092,-68.9655172413793,4,2,1,80,0,1
104870,-100,4,2,1,80,0,0

[Colours]
Combo1 : 121,92,235
Combo2 : 217,198,255
Combo3 : 172,99,239
Combo4 : 0,232,232
SliderBorder : 90,241,255

[HitObjects]
482,37,3648,6,0,P|437:63|417:151,1,134.999996423721,2|0,0:2|0:0,0:0:0:0:
329,78,4536,2,0,L|246:86,2,67.4999982118607,2|2|2,0:0|0:0|0:0,0:0:0:0:
301,180,5425,6,0,P|231:162|164:185,1,143.999996185303,2|0,0:0|0:0,0:0:0:0:
64,241,6092,1,2,0:0:0:0:
47,234,6203,1,0,0:0:0:0:
36,219,6314,1,2,0:0:0:0:
33,201,6759,1,2,0:0:0:0:
37,183,7203,6,0,P|127:156|193:178,1,143.999996185303,2|0,0:0|0:0,0:0:0:0:
270,241,7870,1,2,0:0:0:0:
287,234,7981,1,0,0:0:0:0:
298,219,8092,1,2,0:0:0:0:
304,203,8536,1,2,0:0:0:0:
295,186,8981,6,0,P|361:194|441:174,1,134.999996423721,2|0,0:0|0:0,0:0:0:0:
474,255,9870,2,0,L|451:333,2,67.4999982118607,2|2|2,0:0|0:0|0:0,0:0:0:0:
499,155,10759,6,0,P|438:117|376:115,1,115.199996948242,2|0,0:0|0:0,0:0:0:0:
247,145,11425,2,0,L|296:154,1,28.7999992370606,2|0,0:0|0:0,0:0:0:0:
305,143,11647,2,0,P|236:132|147:181,1,172.799995422363,2|0,0:0|0:0,0:0:0:0:
194,299,12536,6,0,B|227:255|227:255|222:204,2,86.3999977111817,2|0|2,0:0|0:0|0:0,0:0:0:0:
133,350,13425,2,0,P|171:376|230:372,2,86.3999977111817,2|2|2,0:0|0:0|0:0,0:0:0:0:
48,264,14314,6,0,P|13:199|28:135,1,115.199996948242,2|0,0:0|0:0,0:0:0:0:
112,89,14981,2,0,L|106:125,1,28.7999992370606,2|0,0:0|0:0,0:0:0:0:
126,147,15203,2,0,P|133:102|190:57,1,115.199996948242,2|0,0:0|0:0,0:0:0:0:
352,102,15870,1,2,0:0:0:0:
345,119,15981,1,0,0:0:0:0:
330,130,16092,6,0,L|205:136,1,115.199996948242,2|0,0:0|0:0,0:0:0:0:
189,260,16759,2,0,L|203:214,1,28.7999992370606,2|0,0:0|0:0,0:0:0:0:
237,214,16981,2,0,P|217:287|293:365,1,172.799995422363,2|0,0:0|0:0,0:0:0:0:
403,243,17870,5,8,0:2:0:0:
375,261,17981,1,0,0:0:0:0:
341,251,18092,1,8,0:2:0:0:
311,270,18203,1,8,0:2:0:0:
191,126,18536,5,8,0:2:0:0:
220,143,18647,1,0,0:0:0:0:
252,134,18758,1,8,0:2:0:0:
282,151,18870,1,8,0:2:0:0:
472,47,19203,5,8,0:2:0:0:
438,64,19314,1,8,0:2:0:0:
399,61,19425,1,8,0:2:0:0:
371,36,19536,6,0,B|344:84|370:123|370:123|397:164|369:221,1,179.999995231629,8|0,0:2|0:0,0:0:0:0:
431,283,19870,2,0,P|456:249|464:181,1,89.9999976158143,8|0,0:1|0:0,0:0:0:0:
371,36,20092,5,8,0:2:0:0:
309,21,20203,1,0,0:0:0:0:
253,50,20314,2,0,L|220:152,1,89.9999976158143,8|0,0:1|0:0,0:0:0:0:
284,226,20536,2,0,L|311:140,1,89.9999976158143,8|0,0:2|0:0,0:0:0:0:
142,160,20759,2,0,L|109:262,1,89.9999976158143,8|0,0:1|0:0,0:0:0:0:
168,341,20981,6,0,P|200:308|248:302,1,89.9999976158143,8|0,0:2|0:0,0:0:0:0:
369,248,21203,1,8,0:1:0:0:
402,333,21314,6,0,B|448:313|458:269|458:269|481:335|538:365,1,179.999995231629,8|0,0:2|0:0,0:0:0:0:
464,107,21647,2,0,L|429:207,1,89.9999976158143,8|0,0:1|0:0,0:0:0:0:
284,226,21870,5,0,0:0:0:0:
259,167,21981,1,0,0:0:0:0:
275,105,22092,2,0,L|304:20,1,89.9999976158143,8|0,0:1|0:0,0:0:0:0:
132,45,22314,2,0,L|102:129,1,89.9999976158143,8|0,0:2|0:0,0:0:0:0:
176,153,22536,2,0,L|146:237,1,89.9999976158143,8|0,0:1|0:0,0:0:0:0:
148,345,22759,6,0,P|217:307|266:322,1,89.9999976158143,8|0,0:2|0:0,0:0:0:0:
396,320,22981,1,8,0:1:0:0:
325,374,23092,6,0,P|309:315|401:231,1,179.999995231629,8|0,0:2|0:0,0:0:0:0:
481,140,23425,2,0,P|404:153|364:130,1,89.9999976158143,8|0,0:1|0:0,0:0:0:0:
258,46,23647,5,8,0:2:0:0:
321,43,23759,1,0,0:0:0:0:
383,40,23870,2,0,L|272:91,1,89.9999976158143,8|0,0:1|0:0,0:0:0:0:
293,165,24092,2,0,L|174:195,1,89.9999976158143,8|0,0:2|0:0,0:0:0:0:
200,277,24314,2,0,L|78:286,1,89.9999976158143,8|0,0:1|0:0,0:0:0:0:
45,165,24536,6,0,P|27:126|23:72,1,89.9999976158143,8|0,0:2|0:0,0:0:0:0:
183,75,24759,1,8,0:1:0:0:
191,163,24870,6,0,P|107:119|116:27,1,179.999995231629,8|0,0:2|0:0,0:0:0:0:
275,162,25203,2,0,P|264:203|224:238,1,89.9999976158143,8|0,0:1|0:0,0:0:0:0:
162,349,25425,5,8,0:2:0:0:
222,333,25536,1,0,0:2:0:0:
283,347,25647,2,0,P|350:358|394:345,1,89.9999976158143,8|0,0:1|0:0,0:0:0:0:
509,214,25870,5,8,0:2:0:0:
437,169,25981,1,8,0:2:0:0:
360,166,26092,1,8,0:1:0:0:
287,201,26203,1,8,0:2:0:0:
208,179,26314,2,0,L|191:126,4,44.9999988079071,8|0|8|0|8,0:2|0:0|0:2|0:0|0:1,0:0:0:0:
151,96,26647,6,0,L|195:247,1,143.999996185303,8|0,0:2|0:0,0:0:0:0:
130,307,26981,2,0,L|102:214,1,71.9999980926514,8|0,0:2|0:0,0:0:0:0:
161,67,27203,2,0,L|181:135,1,71.9999980926514,8|0,0:2|0:0,0:0:0:0:
175,30,27425,2,0,L|195:99,1,71.9999980926514,8|0,0:2|0:0,0:0:0:0:
312,240,27647,2,0,L|291:171,1,71.9999980926514,8|0,0:2|0:0,0:0:0:0:
339,25,27870,2,0,L|359:93,1,71.9999980926514,8|0,0:2|0:0,0:0:0:0:
397,256,28092,5,8,0:2:0:0:
357,315,28203,1,8,0:1:0:0:
285,320,28314,1,8,0:1:0:0:
201,263,28425,6,0,B|160:248|123:272|123:272|85:291|36:283,1,143.999996185303,8|0,0:2|0:0,0:0:0:0:
21,200,28759,2,0,P|72:207|111:188,1,71.9999980926514,8|0,0:2|0:0,0:0:0:0:
222,25,28981,2,0,P|171:18|132:37,1,71.9999980926514,8|0,0:2|0:0,0:0:0:0:
189,98,29203,2,0,P|240:105|279:86,1,71.9999980926514,8|0,0:2|0:0,0:0:0:0:
414,101,29425,2,0,P|382:141|379:184,1,71.9999980926514,8|0,0:2|0:0,0:0:0:0:
457,166,29647,2,0,P|488:125|491:82,1,71.9999980926514,8|0,0:2|0:0,0:0:0:0:
303,31,29870,5,8,0:2:0:0:
289,102,29981,1,8,0:1:0:0:
275,172,30092,1,8,0:1:0:0:
227,262,30203,6,0,P|169:278|80:252,1,143.999996185303,8|0,0:2|0:0,0:0:0:0:
152,122,30536,2,0,L|134:214,1,71.9999980926514,8|0,0:2|0:0,0:0:0:0:
240,332,30759,2,0,L|226:261,1,71.9999980926514,8|0,0:2|0:0,0:0:0:0:
120,86,30981,2,0,L|106:156,1,71.9999980926514,8|0,0:2|0:0,0:0:0:0:
213,368,31203,2,0,L|199:297,1,71.9999980926514,8|0,0:2|0:0,0:0:0:0:
94,59,31425,2,0,L|80:129,1,71.9999980926514,8|0,0:2|0:0,0:0:0:0:
119,239,31647,6,0,P|146:211|191:202,1,71.9999980926514,8|0,0:2|0:0,0:0:0:0:
327,215,31870,1,8,0:1:0:0:
365,350,31981,2,0,P|313:296|303:200,1,143.999996185303,8|0,0:2|0:0,0:0:0:0:
369,15,32314,5,8,0:1:0:0:
341,90,32425,1,8,0:2:0:0:
381,157,32536,1,8,0:1:0:0:
327,215,32647,2,0,P|242:237|161:210,1,143.999996185303,8|0,0:1|0:0,0:0:0:0:
64,73,32981,5,8,0:1:0:0:
116,34,33092,1,8,0:1:0:0:
180,34,33203,1,8,0:1:0:0:
228,76,33314,1,8,0:1:0:0:
257,106,33425,1,8,0:1:0:0:
290,119,33536,1,8,0:2:0:0:
317,112,33647,1,8,0:2:0:0:
335,100,33759,1,8,0:2:0:0:
342,89,33870,6,0,B|379:63|425:88|425:88|463:107|518:83,1,179.999995231629
494,192,34981,5,0,0:0:0:0:
463,238,35203,1,0,0:0:0:0:
414,265,35425,2,0,B|380:280|350:264|350:264|318:248|279:266,1,134.999996423721,8|0,0:2|0:0,0:0:0:0:
283,263,36314,5,0,0:0:0:0:
221,202,36536,2,0,L|231:129,2,67.4999982118607
185,278,37425,6,0,L|175:344,1,67.4999982118607
194,378,37870,1,0,0:0:0:0:
273,329,38092,6,0,L|282:262,1,67.4999982118607
316,257,38536,2,0,L|325:190,1,67.4999982118607
350,164,38981,1,0,0:0:0:0:
405,96,39203,6,0,P|352:77|309:87,1,89.9999976158143,8|0,0:2|0:0,0:0:0:0:
256,134,39870,2,0,P|204:147|128:113,1,134.999996423721
196,180,40981,6,0,P|133:167|71:72,1,179.999995231629,8|0,0:2|0:0,0:0:0:0:
184,65,42092,5,0,0:0:0:0:
232,31,42314,1,0,0:0:0:0:
287,10,42536,2,0,B|329:-6|362:9|362:9|397:23|439:11,1,134.999996423721,8|0,0:2|0:0,0:0:0:0:
411,102,43425,5,0,0:0:0:0:
355,176,43647,2,0,P|320:127|320:80,1,89.9999976158143
251,180,44536,6,0,L|151:167,2,89.9999976158143,8|0|0,0:2|0:0|0:0,0:0:0:0:
251,180,45647,5,0,0:0:0:0:
290,259,45870,1,0,0:0:0:0:
245,328,46092,2,0,B|226:339|226:339|277:365|341:345,1,134.999996423721,8|0,0:2|0:0,0:0:0:0:
447,297,47203,5,8,0:2:0:0:
395,166,47647,1,8,0:2:0:0:
372,342,48092,6,0,P|306:352|231:330,1,143.999996185303,8|0,0:1|0:0,0:0:0:0:
190,265,48425,2,0,P|247:307|317:322,1,143.999996185303,8|0,0:1|0:0,0:0:0:0:
397,221,48759,6,0,B|366:246|366:246|281:231,1,107.999997138977,8|0,0:2|0:0,0:0:0:0:
177,71,49203,5,8,0:2:0:0:
264,83,49425,1,8,0:1:0:0:
351,95,49647,1,8,0:2:0:0:
490,83,49870,6,0,P|424:73|349:95,1,143.999996185303,8|0,0:1|0:0,0:0:0:0:
432,210,50203,2,0,P|474:152|489:82,1,143.999996185303,8|0,0:1|0:0,0:0:0:0:
243,167,50536,6,0,B|274:192|274:192|359:177,1,107.999997138977,8|0,0:2|0:0,0:0:0:0:
317,289,50981,5,8,0:2:0:0:
317,289,51092,2,0,P|248:278|174:308,1,143.999996185303
171,329,51425,1,8,0:2:0:0:
80,282,51647,6,0,P|59:213|69:142,1,143.999996185303,8|0,0:1|0:0,0:0:0:0:
105,102,51980,2,0,P|83:170|90:241,1,143.999996185303,8|0,0:1|0:0,0:0:0:0:
182,177,52314,6,0,B|212:203|212:203|286:199,1,107.999997138977,8|0,0:2|0:0,0:0:0:0:
444,129,52759,5,8,0:2:0:0:
372,46,52981,1,8,0:1:0:0:
265,126,53203,2,0,L|350:122,1,71.9999980926514,8|0,0:2|0:0,0:0:0:0:
487,250,53425,6,0,P|388:217|329:239,1,143.999996185303,8|0,0:1|0:0,0:0:0:0:
296,297,53759,2,0,P|353:255|424:250,1,143.999996185303,8|0,0:1|0:0,0:0:0:0:
474,353,54092,6,0,L|404:340,1,72,8|0,0:2|0:0,0:0:0:0:
282,212,54314,2,0,L|353:226,1,72,8|0,0:2|0:0,0:0:0:0:
503,335,54536,2,0,L|433:322,1,72,8|0,0:2|0:0,0:0:0:0:
254,231,54759,2,0,L|325:245,1,72,8|0,0:2|0:0,0:0:0:0:
228,361,54981,5,8,0:1:0:0:
145,378,55092,1,8,0:1:0:0:
64,357,55203,6,0,P|28:274|50:200,1,143.999996185303,8|0,0:1|0:0,0:0:0:0:
10,90,55536,2,0,P|46:173|24:247,1,143.999996185303,8|0,0:1|0:0,0:0:0:0:
137,152,55870,6,0,L|157:46,1,108,8|0,0:2|0:0,0:0:0:0:
286,12,56314,5,8,0:2:0:0:
268,99,56536,1,8,0:1:0:0:
250,186,56759,1,8,0:2:0:0:
203,275,56981,6,0,P|242:229|334:217,1,143.999996185303,8|0,0:1|0:0,0:0:0:0:
453,195,57314,2,0,P|379:227|294:192,1,143.999996185303,8|0,0:1|0:0,0:0:0:0:
478,128,57647,6,0,L|498:234,1,108,8|0,0:2|0:0,0:0:0:0:
443,318,58092,5,8,0:2:0:0:
354,247,58314,1,8,0:1:0:0:
252,243,58536,1,8,0:2:0:0:
12,179,58759,6,0,P|77:235|159:236,1,143.999996185303,8|0,0:1|0:0,0:0:0:0:
126,106,59092,2,0,P|45:134|3:204,1,143.999996185303,8|0,0:1|0:0,0:0:0:0:
132,241,59425,6,0,L|253:241,1,108,8|0,0:2|0:0,0:0:0:0:
420,227,59870,5,8,2:2:0:0:
340,179,60092,1,8,2:1:0:0:
261,131,60314,1,8,2:2:0:0:
331,39,60536,6,0,P|351:121|332:193,1,143.999996185303,8|0,0:1|0:0,0:0:0:0:
269,270,60870,2,0,P|249:188|268:116,1,143.999996185303,8|0,0:1|0:0,0:0:0:0:
152,240,61203,2,0,L|103:297,1,71.9999980926514,8|0,0:2|0:0,0:0:0:0:
0,167,61425,6,0,L|123:166,1,108,8|0,0:2|0:0,0:0:0:0:
260,130,61870,6,0,L|188:130,1,72,8|0,0:2|0:0,0:0:0:0:
127,48,62092,2,0,L|199:48,1,72,8|0,0:2|0:0,0:0:0:0:
344,73,62314,6,0,P|358:148|320:226,1,143.999991790772,8|0,0:1|0:0,0:0:0:0:
182,297,62759,5,8,0:1:0:0:
270,276,62907,1,8,0:2:0:0:
244,363,63055,1,8,0:2:0:0:
80,266,63203,6,0,P|143:219|233:214,1,143.999991790772,8|0,0:1|0:0,0:0:0:0:
359,256,63647,5,8,0:1:0:0:
333,342,63795,1,8,0:2:0:0:
270,276,63943,1,8,0:2:0:0:
436,183,64092,6,0,P|445:261|404:341,1,143.999991790772,8|0,0:1|0:0,0:0:0:0:
270,276,64536,5,8,0:1:0:0:
207,210,64684,1,8,0:2:0:0:
296,189,64832,1,8,0:2:0:0:
258,227,64981,5,8,0:1:0:0:
258,227,65277,5,8,0:2:0:0:
281,114,65425,1,8,0:1:0:0:
378,53,65573,1,8,0:2:0:0:
492,49,65722,1,8,0:2:0:0:
483,187,65870,6,0,L|320:185,1,143.999991790772,8|0,0:1|0:0,0:0:0:0:
296,343,66314,5,8,0:1:0:0:
373,301,66462,1,8,0:2:0:0:
397,218,66610,1,8,0:2:0:0:
286,98,66759,6,0,P|242:163|264:267,1,143.999991790772,8|0,0:1|0:0,0:0:0:0:
104,370,67203,5,8,0:1:0:0:
128,286,67351,1,8,0:2:0:0:
99,201,67499,1,8,0:2:0:0:
129,100,67647,6,0,P|173:65|214:64,1,71.9999958953859,8|0,0:1|0:0,0:0:0:0:
279,155,67944,2,0,L|193:149,1,71.9999958953859,8|0,0:2|0:0,0:0:0:0:
301,64,68240,2,0,P|336:77|362:102,1,71.9999958953859,8|0,0:2|0:0,0:0:0:0:
443,61,68536,5,8,0:1:0:0:
429,297,68833,1,0,0:0:0:0:
454,206,68981,1,8,0:1:0:0:
318,360,69277,1,8,0:2:0:0:
266,277,69425,6,0,P|173:255|99:287,1,143.999991790772,8|0,0:1|0:0,0:0:0:0:
17,154,69870,5,8,0:1:0:0:
102,175,70018,1,8,0:2:0:0:
185,150,70166,1,8,0:2:0:0:
268,52,70314,6,0,P|339:29|428:55,1,143.999991790772,8|0,0:1|0:0,0:0:0:0:
353,154,70759,5,8,0:1:0:0:
268,175,70907,1,8,0:2:0:0:
185,150,71055,1,8,0:2:0:0:
21,43,71203,6,0,P|73:118|45:209,1,143.999991790772,8|0,0:1|0:0,0:0:0:0:
5,342,71647,5,8,0:1:0:0:
86,312,71796,1,8,0:2:0:0:
167,341,71944,1,8,0:2:0:0:
155,256,72092,5,8,0:1:0:0:
155,256,72388,5,8,0:2:0:0:
271,305,72536,1,8,0:1:0:0:
395,288,72685,1,8,0:2:0:0:
476,192,72833,1,8,0:2:0:0:
485,67,72981,6,0,L|337:53,1,143.999991790772,8|0,0:1|0:0,0:0:0:0:
148,124,73425,5,8,0:1:0:0:
227,161,73573,1,8,0:2:0:0:
311,143,73722,1,8,0:2:0:0:
180,47,73870,6,0,P|137:42|95:57,1,71.9999958953859,8|8,0:1|0:2,0:0:0:0:
40,136,74166,5,8,0:1:0:0:
41,245,74314,1,8,0:1:0:0:
143,346,74462,1,8,0:2:0:0:
326,339,74610,1,8,0:2:0:0:
452,147,74759,5,8,0:1:0:0:
256,192,74870,12,0,76314,0:0:0:0:
392,30,76536,5,8,0:1:0:0:
419,105,76647,1,8,0:1:0:0:
281,187,76870,5,8,0:1:0:0:
309,110,76981,1,8,0:1:0:0:
166,27,77203,5,8,0:1:0:0:
194,103,77314,1,8,0:1:0:0:
37,165,77536,5,8,0:1:0:0:
73,90,77647,1,8,0:1:0:0:
73,90,77870,6,0,P|69:107|74:125,1,35.9999990463257,8|0,0:2|0:0,0:0:0:0:
74,125,78203,6,0,P|147:70|124:153,1,224.999994039536,8|0,0:2|0:0,0:0:0:0:
87,224,78536,2,0,P|152:234|207:201,1,112.499997019768,8|0,0:1|0:0,0:0:0:0:
496,39,78759,5,8,0:2:0:0:
438,108,78870,1,0,0:0:0:0:
359,69,78981,2,0,L|237:82,1,112.499997019768,8|0,0:1|0:0,0:0:0:0:
188,218,79203,2,0,L|303:206,1,112.499997019768,8|0,0:2|0:0,0:0:0:0:
276,1,79425,2,0,L|150:13,1,112.499997019768,8|0,0:1|0:0,0:0:0:0:
82,172,79647,5,8,0:2:0:0:
66,284,79759,1,8,0:2:0:0:
141,367,79870,1,8,0:1:0:0:
253,372,79981,6,0,L|476:328,1,224.999994039536,8|0,0:2|0:0,0:0:0:0:
377,216,80314,2,0,P|340:298|362:345,1,112.499997019768,8|0,0:1|0:0,0:0:0:0:
243,54,80536,5,8,0:2:0:0:
304,123,80647,1,0,0:0:0:0:
248,191,80759,2,0,P|154:204|120:187,1,112.499997019768,8|0,0:1|0:0,0:0:0:0:
57,384,80981,2,0,P|92:296|124:275,1,112.499997019768,8|0,0:2|0:0,0:0:0:0:
0,125,81203,2,0,P|58:199|60:237,1,112.499997019768,8|0,0:1|0:0,0:0:0:0:
155,372,81425,5,8,0:2:0:0:
255,320,81536,1,8,0:2:0:0:
354,267,81647,1,8,0:1:0:0:
477,287,81759,6,0,L|248:320,1,224.999994039536,8|0,0:2|0:0,0:0:0:0:
160,250,82092,2,0,L|282:234,1,112.499997019768,8|0,0:1|0:0,0:0:0:0:
55,356,82314,5,8,0:2:0:0:
17,272,82425,1,0,0:0:0:0:
80,208,82536,2,0,P|107:139|91:74,1,112.499997019768,8|0,0:1|0:0,0:0:0:0:
334,23,82759,2,0,P|307:92|323:157,1,112.499997019768,8|0,0:2|0:0,0:0:0:0:
433,237,82981,2,0,P|460:168|444:103,1,112.499997019768,8|0,0:1|0:0,0:0:0:0:
276,77,83203,5,8,0:2:0:0:
166,50,83314,1,8,0:2:0:0:
61,89,83425,1,8,0:1:0:0:
0,0,83536,6,0,L|230:16,1,224.999994039536,8|0,0:2|0:0,0:0:0:0:
130,165,83870,2,0,P|77:134|61:77,1,112.499997019768,8|0,0:1|0:0,0:0:0:0:
288,96,84092,6,0,L|400:103,1,112.499997019768,8|0,0:2|0:0,0:0:0:0:
464,143,84314,2,0,L|351:135,1,112.499997019768,8|0,0:1|0:0,0:0:0:0:
195,200,84536,6,0,L|82:207,1,112.499997019768,8|0,0:2|0:0,0:0:0:0:
18,245,84758,2,0,L|130:237,1,112.499997019768,8|0,0:1|0:0,0:0:0:0:
420,232,84981,5,8,0:1:0:0:
370,339,85092,1,8,0:1:0:0:
260,377,85203,1,8,0:1:0:0:
272,222,85314,6,0,L|509:193,1,224.999994039536,8|0,0:2|0:0,0:0:0:0:
247,143,85647,2,0,P|189:205|208:271,1,112.499997019768,8|0,0:1|0:0,0:0:0:0:
370,339,85870,5,8,0:2:0:0:
418,263,85981,1,0,0:0:0:0:
466,187,86092,2,0,L|448:68,1,112.499997019768,8|0,0:1|0:0,0:0:0:0:
297,0,86314,2,0,L|314:114,1,112.499997019768,8|0,0:2|0:0,0:0:0:0:
334,260,86536,2,0,L|222:249,1,112.499997019768,8|0,0:1|0:0,0:0:0:0:
11,118,86758,5,8,0:2:0:0:
99,49,86870,1,8,0:2:0:0:
206,84,86981,1,8,0:1:0:0:
297,0,87092,6,0,L|72:12,1,224.999994039536,8|0,0:2|0:0,0:0:0:0:
173,183,87425,2,0,P|210:101|188:54,1,112.499997019768,8|0,0:1|0:0,0:0:0:0:
14,279,87647,5,8,0:2:0:0:
75,350,87758,1,0,0:0:0:0:
147,295,87870,2,0,L|266:283,1,112.499997019768,8|0,0:1|0:0,0:0:0:0:
421,236,88092,2,0,P|333:201|312:169,1,112.499997019768,8|0,0:2|0:0,0:0:0:0:
496,48,88314,2,0,L|491:174,1,112.499997019768,8|0,0:1|0:0,0:0:0:0:
371,325,88536,5,8,0:2:0:0:
259,310,88647,1,8,0:2:0:0:
147,295,88759,1,8,0:1:0:0:
35,332,88870,6,0,L|270:308,1,224.999994039536,8|0,0:2|0:0,0:0:0:0:
329,209,89203,2,0,L|206:223,1,112.499997019768,8|0,0:1|0:0,0:0:0:0:
61,148,89425,5,8,0:2:0:0:
98,66,89536,1,0,0:0:0:0:
179,104,89647,2,0,P|235:124|300:108,1,112.499997019768,8|0,0:1|0:0,0:0:0:0:
261,320,89870,2,0,P|250:261|203:213,1,112.499997019768,8|0,0:2|0:0,0:0:0:0:
410,157,90092,2,0,P|364:195|346:259,1,112.499997019768,8|0,0:1|0:0,0:0:0:0:
477,273,90314,5,8,0:2:0:0:
512,166,90425,1,8,0:2:0:0:
474,57,90536,1,8,0:1:0:0:
410,157,90647,6,0,B|348:186|299:160|299:160|256:133|192:160,1,224.999994039536,8|0,0:2|0:0,0:0:0:0:
139,242,90981,2,0,P|200:261|270:224,1,112.499997019768,8|0,0:1|0:0,0:0:0:0:
313,61,91203,5,8,0:2:0:0:
228,31,91314,1,8,0:2:0:0:
242,119,91425,1,8,0:1:0:0:
326,148,91536,1,8,0:2:0:0:
405,54,91647,5,8,0:2:0:0:
313,61,91759,1,8,0:2:0:0:
242,119,91870,1,8,0:1:0:0:
227,209,91981,1,8,0:2:0:0:
331,296,92092,5,8,0:1:0:0:
244,247,92203,1,8,0:1:0:0:
140,252,92314,1,8,0:1:0:0:
85,338,92425,6,0,L|129:94,1,224.999994039536,8|0,0:2|0:0,0:0:0:0:
52,35,92759,2,0,L|31:165,1,112.499997019768,8|0,0:1|0:0,0:0:0:0:
85,338,92981,5,8,0:2:0:0:
160,384,93092,1,0,0:0:0:0:
232,330,93203,2,0,L|343:318,1,112.499997019768,8|0,0:1|0:0,0:0:0:0:
279,99,93425,2,0,L|232:204,1,112.499997019768,8|0,0:2|0:0,0:0:0:0:
393,240,93647,2,0,L|504:229,1,112.499997019768,8|0,0:1|0:0,0:0:0:0:
221,3,93870,5,8,0:2:0:0:
175,105,93981,1,8,0:2:0:0:
129,207,94092,1,8,0:1:0:0:
24,133,94203,6,0,L|274:119,1,224.999994039536,8|0,0:2|0:0,0:0:0:0:
393,240,94536,2,0,P|305:216|258:238,1,112.499997019768,8|0,0:1|0:0,0:0:0:0:
96,321,94758,5,8,0:2:0:0:
178,371,94869,1,0,0:0:0:0:
266,331,94981,2,0,L|289:208,1,112.499997019768,8|0,0:1|0:0,0:0:0:0:
279,81,95203,2,0,P|229:107|174:103,1,112.499997019768,8|0,0:2|0:0,0:0:0:0:
0,152,95425,2,0,P|47:181|72:231,1,112.499997019768,8|0,0:1|0:0,0:0:0:0:
178,371,95647,5,8,0:2:0:0:
270,310,95758,1,8,0:2:0:0:
375,349,95869,1,8,0:1:0:0:
481,311,95981,6,0,L|191:357,1,224.999994039536,8|0,0:2|0:0,0:0:0:0:
399,240,96314,2,0,L|523:220,1,112.499997019768,8|0,0:1|0:0,0:0:0:0:
385,87,96536,5,8,0:2:0:0:
311,139,96647,1,0,0:0:0:0:
241,88,96759,2,0,L|119:77,1,112.499997019768,8|0,0:1|0:0,0:0:0:0:
0,187,96981,2,0,P|49:173|112:197,1,112.499997019768,8|0,0:2|0:0,0:0:0:0:
98,359,97203,2,0,P|61:323|50:256,1,112.499997019768,8|0,0:1|0:0,0:0:0:0:
128,77,97425,5,8,0:2:0:0:
239,61,97536,1,8,0:2:0:0:
340,108,97647,1,8,0:1:0:0:
372,219,97758,6,0,P|389:82|458:-15,1,224.999994039536,8|0,0:2|0:0,0:0:0:0:
441,276,98092,2,0,P|390:306|316:288,1,112.499997019768,8|0,0:1|0:0,0:0:0:0:
152,182,98314,2,0,P|126:128|143:40,1,112.499997019768,8|0,0:2|0:0,0:0:0:0:
405,113,98536,6,0,L|367:218,1,112.499997019768,8|0,0:1|0:0,0:0:0:0:
286,47,98759,2,0,L|396:26,1,112.499997019768,8|0,0:1|0:0,0:0:0:0:
293,187,98981,2,0,L|220:101,1,112.499997019768,8|0,2:1|2:0,2:0:0:0:
244,265,99203,6,0,P|297:279|350:261,1,112.499997019768,8|0,2:2|2:0,2:0:0:0:
220,101,99425,1,8,0:1:0:0:
163,25,99536,2,0,P|124:86|141:152,1,112.499997019768,8|0,0:2|0:0,0:0:0:0:
244,265,99759,1,8,0:2:0:0:
166,308,99870,2,0,L|39:286,1,112.499997019768,8|0,0:1|0:0,0:0:0:0:
28,108,100092,5,8,0:2:0:0:
126,123,100203,1,8,0:2:0:0:
225,137,100314,1,8,0:1:0:0:
304,86,100425,2,0,P|239:41|185:53,1,112.499997019768,8|0,0:2|0:0,0:0:0:0:
267,215,100647,5,8,0:2:0:0:
324,283,100759,2,0,L|449:305,1,112.499997019768,8|0,0:1|0:0,0:0:0:0:
414,105,100981,2,0,L|303:85,1,112.499997019768,8|0,0:1|0:0,0:0:0:0:
121,268,101203,5,8,0:1:0:0:
157,376,101314,2,0,P|208:343|230:255,1,121.499997244835,8|0,0:1|0:0,0:0:0:0:
303,85,101536,5,0,0:0:0:0:
271,0,101647,2,0,P|221:42|212:98,1,121.499997244835,8|0,0:1|0:0,0:0:0:0:
327,349,101870,5,8,0:2:0:0:
396,259,101981,1,8,0:2:0:0:
467,171,102092,1,8,0:1:0:0:
445,78,102203,2,0,P|385:121|381:208,1,121.499997244835,8|0,0:2|0:0,0:0:0:0:
423,353,102425,5,8,0:2:0:0:
492,289,102536,2,0,L|465:163,1,121.499997244835,8|0,0:1|0:0,0:0:0:0:
351,28,102759,2,0,P|280:39|220:11,1,121.499997244835,8|0,0:2|0:0,0:0:0:0:
48,129,102981,5,8,0:1:0:0:
95,20,103092,2,0,P|154:70|165:134,1,130.500000525475,8|0,0:1|0:0,0:0:0:0:
161,313,103314,5,0,0:0:0:0:
69,317,103425,2,0,P|111:236|182:222,1,130.500000525475,8|0,0:1|0:0,0:0:0:0:
395,349,103647,5,8,0:2:0:0:
278,330,103759,1,8,0:2:0:0:
161,313,103869,1,8,0:1:0:0:
226,218,103981,2,0,P|274:278|277:334,1,130.500000525475,8|0,0:2|0:0,0:0:0:0:
69,317,104203,5,8,0:2:0:0:
226,218,104314,2,0,L|372:243,1,130.500000525475,8|0,0:1|0:0,0:0:0:0:
499,136,104536,5,8,0:2:0:0:
385,69,104647,1,8,0:2:0:0:
254,52,104759,1,8,0:2:0:0:
127,94,104870,1,8,0:2:0:0:
127,94,105425,5,8,0:2:0:0:
251,165,105870,5,8,0:2:0:0:
65,202,106314,5,8,0:1:0:0:
92,277,106759,5,8,0:1:0:0:
65,202,106870,1,8,0:1:0:0:
201,328,107092,5,8,0:1:0:0:
126,355,107203,1,8,0:1:0:0:
250,222,107425,5,8,0:1:0:0:
277,297,107536,1,8,0:1:0:0:
141,174,107759,5,8,0:1:0:0:
216,147,107870,1,8,0:1:0:0:
65,202,108092,5,8,0:1:0:0:
294,118,108314,1,8,0:1:0:0:
141,174,108536,5,8,0:1:0:0:
216,147,108647,1,8,0:1:0:0:
332,276,108870,5,8,0:1:0:0:
257,249,108981,1,8,0:1:0:0:
380,172,109203,5,8,0:1:0:0:
477,136,109314,1,8,0:1:0:0:
