osu file format v14

[General]
AudioFilename: audio.mp3
AudioLeadIn: 0
PreviewTime: 77203
Countdown: 0
SampleSet: Soft
StackLeniency: 0.8
Mode: 0
LetterboxInBreaks: 0
WidescreenStoryboard: 1

[Editor]
Bookmarks: 3648,10759,17870,19203,19536,33870,48092,62314,74759,85314,92425,97425,99647
DistanceSpacing: 1
BeatDivisor: 4
GridSize: 16
TimelineZoom: 1.8

[Metadata]
Title:Opera of the wasteland
TitleUnicode:Opera of the wasteland
Artist:Roselia
ArtistUnicode:Roselia
Creator:Antares-
Version:Advanced
Source:バンドリ! ガールズバンドパーティ!
Tags:BanG Dream! bandori Girls Band Party! ガルパ Garupa Anfang Minato Yukina 湊友希 Aiba Aina Aiai 相羽あいな
BeatmapID:1905143
BeatmapSetID:895396

[Difficulty]
HPDrainRate:4
CircleSize:3.6
OverallDifficulty:4
ApproachRate:5.5
SliderMultiplier:1.59999990463257
SliderTickRate:1

[Events]
//Background and Video events
0,0,".yukina.png",0,0
//Break Periods
2,34070,46078
//Storyboard Layer 0 (Background)
//Storyboard Layer 1 (Fail)
//Storyboard Layer 2 (Pass)
//Storyboard Layer 3 (Foreground)
//Storyboard Layer 4 (Overlay)
//Storyboard Sound Samples

[TimingPoints]
3648,444.444444444444,4,2,2,40,1,0
3648,-111.111111111111,4,2,2,40,0,0
16092,-90.9090909090909,4,2,1,55,0,0
19203,-90.9090909090909,4,2,1,55,0,0
19536,-90.9090909090909,4,2,1,75,0,0
33870,-111.111111111111,4,2,1,50,0,0
48092,-111.111111111111,4,2,1,65,0,0
62314,-111.111111111111,4,3,1,65,0,0
74759,-111.111111111111,4,2,1,45,0,0
76314,-111.111111111111,4,2,1,20,0,0
76536,-90.9090909090909,4,2,1,80,0,0
78203,-90.9090909090909,4,2,1,80,0,1
104870,-100,4,2,1,80,0,0

[Colours]
Combo1 : 121,92,235
Combo2 : 217,198,255
Combo3 : 172,99,239
Combo4 : 0,232,232
SliderBorder : 90,241,255

[HitObjects]
90,67,3648,6,0,P|170:47|269:143,1,215.999980533601,2|0,0:2|0:0,0:0:0:0:
308,192,4536,2,0,P|341:146|334:91,2,107.9999902668,2|0|0,0:2|0:0|0:0,0:0:0:0:
234,212,5425,6,0,P|279:265|363:246,1,143.9999870224,2|0,0:2|0:0,0:0:0:0:
422,229,6092,1,2,0:2:0:0:
408,310,6314,2,0,P|363:338|249:336,1,143.9999870224,2|0,0:2|0:0,0:0:0:0:
309,197,7203,6,0,B|331:155|321:85|321:85|250:185|151:142,1,287.999974044801,2|2,0:2|0:2,0:0:0:0:
97,62,8536,1,0,0:0:0:0:
27,151,8981,6,0,B|8:221|63:268|63:268|10:255|-31:298,1,215.999980533601,2|0,0:2|0:0,0:0:0:0:
37,343,9870,2,0,P|98:338|132:304,2,107.9999902668,2|0|0,0:0|0:0|0:0,0:0:0:0:
62,267,10759,6,0,L|89:113,1,143.9999870224,2|0,0:0|0:0,0:0:0:0:
121,54,11425,1,2,0:0:0:0:
164,118,11647,2,0,P|248:142|322:110,1,143.9999870224,2|0,0:0|0:0,0:0:0:0:
451,98,12536,6,0,P|443:168|335:262,1,215.999980533601,2|0,0:0|0:0,0:0:0:0:
274,302,13425,2,0,P|263:250|296:196,2,107.9999902668,2|0|2,0:0|0:0|0:0,0:0:0:0:
339,260,14314,6,0,P|391:204|389:122,1,143.9999870224,2|0,0:0|0:0,0:0:0:0:
352,73,14981,1,2,0:0:0:0:
281,110,15203,2,0,P|205:132|98:39,1,215.999980533601,2|0,0:0|0:0,0:0:0:0:
33,116,16092,5,8,0:1:0:0:
256,192,16314,12,0,17870,0:0:0:0:
195,313,19203,5,8,0:2:0:0:
195,313,19536,2,0,L|338:300,1,131.999996160507,8|8,0:2|0:1,0:0:0:0:
385,235,20092,2,0,P|332:215|289:227,1,87.9999974403381,8|8,0:0|0:1,0:0:0:0:
215,201,20536,2,0,P|232:161|272:136,1,87.9999974403381,8|8,0:0|0:1,0:0:0:0:
325,69,20981,2,0,P|268:47|216:67,1,87.9999974403381,8|8,0:0|0:1,0:0:0:0:
223,69,21314,6,0,P|156:87|91:69,1,131.999996160507,8|8,0:0|0:1,0:0:0:0:
8,50,21870,1,8,0:2:0:0:
38,132,22092,2,0,P|50:177|26:244,2,87.9999974403381,8|8|8,0:1|0:2|0:1,0:0:0:0:
92,67,22759,2,0,P|140:55|191:68,1,87.9999974403381,8|8,0:2|0:1,0:0:0:0:
199,78,23092,6,0,P|263:90|325:69,1,131.999996160507,8|8,0:2|0:1,0:0:0:0:
395,16,23647,2,0,P|436:-1|489:11,1,87.9999974403381,8|8,0:0|0:1,0:0:0:0:
443,83,24091,2,0,P|405:104|387:144,1,87.9999974403381,8|8,0:0|0:1,0:0:0:0:
436,218,24536,2,0,P|392:233|326:209,1,87.9999974403381,8|8,0:0|0:1,0:0:0:0:
333,205,24869,6,0,P|266:187|201:205,1,131.999996160507,8|8,0:0|0:1,0:0:0:0:
127,246,25425,2,0,P|115:202|129:156,1,87.9999974403381,8|8,0:2|0:1,0:0:0:0:
157,79,25870,1,8,0:2:0:0:
242,106,26092,1,8,0:1:0:0:
316,68,26314,2,0,L|403:67,1,87.9999974403381,8|8,0:1|0:1,0:0:0:0:
417,41,26647,6,0,P|467:66|489:160,1,131.999996160507,8|8,0:2|0:2,0:0:0:0:
448,283,27425,1,8,0:2:0:0:
373,323,27647,2,0,L|276:312,1,87.9999974403381,8|8,0:2|0:2,0:0:0:0:
238,240,28092,2,0,L|147:228,1,87.9999974403381,8|8,0:2|0:2,0:0:0:0:
145,199,28425,6,0,P|104:200|38:272,1,131.999996160507,8|8,0:2|0:2,0:0:0:0:
55,346,28981,1,8,0:2:0:0:
210,377,29425,1,8,0:2:0:0:
365,344,29870,2,0,P|392:310|395:240,1,87.9999974403381,8|8,0:2|0:2,0:0:0:0:
422,251,30203,6,0,L|269:230,1,131.999996160507,8|8,0:2|0:2,0:0:0:0:
208,214,30759,2,0,P|243:163|278:150,2,87.9999974403381,8|8|8,0:2|0:2|0:2,0:0:0:0:
223,300,31425,1,8,0:2:0:0:
145,269,31647,2,0,P|124:224|130:182,1,87.9999974403381,8|8,0:2|0:2,0:0:0:0:
128,163,31981,6,0,P|68:137|-4:153,1,131.999996160507,8|8,0:2|0:2,0:0:0:0:
2,64,32536,2,0,P|47:54|94:59,1,87.9999974403381,8|8,0:2|0:2,0:0:0:0:
172,83,32981,2,0,P|217:93|264:88,1,87.9999974403381,8|8,0:2|0:2,0:0:0:0:
338,53,33425,1,8,0:2:0:0:
417,28,33647,1,8,0:2:0:0:
499,60,33870,5,8,0:1:0:0:
373,179,47203,5,8,0:2:0:0:
254,231,47647,1,8,0:2:0:0:
134,180,48092,6,0,P|78:167|13:188,2,107.9999902668,8|8|8,0:1|0:1|0:1,0:0:0:0:
189,314,49203,2,0,P|239:333|331:308,1,143.9999870224,8|8,0:1|0:2,0:0:0:0:
381,256,49870,6,0,L|498:261,2,107.9999902668,8|8|8,0:1|0:1|0:1,0:0:0:0:
331,194,50759,2,0,L|356:114,1,71.9999935112002,8|0,0:2|0:0,0:0:0:0:
284,85,51203,2,0,L|262:153,1,71.9999935112002,8|0,0:2|0:0,0:0:0:0:
212,215,51647,6,0,P|151:226|84:189,2,107.9999902668,8|8|8,0:1|0:1|0:1,0:0:0:0:
284,85,52759,2,0,P|363:64|431:86,1,143.9999870224,8|8,0:1|0:2,0:0:0:0:
468,142,53425,6,0,L|483:257,2,107.9999902668,8|8|8,0:1|0:1|0:1,0:0:0:0:
409,91,54314,2,0,P|368:78|329:84,1,71.9999935112002,8|0,0:2|0:0,0:0:0:0:
263,58,54759,2,0,P|217:85|198:124,1,71.9999935112002,8|0,0:2|0:0,0:0:0:0:
172,170,55203,6,0,P|113:181|52:162,2,107.9999902668,8|8|8,0:1|0:1|0:1,0:0:0:0:
283,261,56314,2,0,P|318:179|303:110,1,143.9999870224,8|8,0:1|0:2,0:0:0:0:
356,58,56981,6,0,P|389:106|398:156,2,107.9999902668,8|8|8,0:1|0:1|0:1,0:0:0:0:
279,36,57870,2,0,L|203:31,1,71.9999935112002,8|0,0:2|0:0,0:0:0:0:
177,104,58314,2,0,L|106:116,1,71.9999935112002,8|0,0:2|0:0,0:0:0:0:
45,167,58759,6,0,P|23:221|26:275,2,107.9999902668,8|8|8,0:1|0:1|0:1,0:0:0:0:
177,104,59870,2,0,P|245:83|323:102,1,143.9999870224,8|8,0:1|0:2,0:0:0:0:
378,144,60536,6,0,P|394:92|372:41,2,107.9999902668,8|8|8,0:1|0:1|0:1,0:0:0:0:
416,213,61425,2,0,P|377:224|332:207,1,71.9999935112002,8|0,0:2|0:0,0:0:0:0:
318,291,61870,2,0,P|284:268|268:222,1,71.9999935112002,8|0,0:2|0:0,0:0:0:0:
220,179,62314,6,0,B|148:162|148:162|78:182,2,143.9999870224,8|8|8,0:1|0:2|0:1,0:0:0:0:
347,216,63647,2,0,L|428:236,1,71.9999935112002,8|0,0:2|0:0,0:0:0:0:
481,187,64092,6,0,B|506:117|506:117|489:45,2,143.9999870224,8|8|8,0:1|0:2|0:1,0:0:0:0:
373,258,65425,2,0,L|275:233,1,71.9999935112002,8|0,0:2|0:0,0:0:0:0:
252,179,65870,6,0,B|207:227|236:286|236:286|146:189|68:202|-3:247|-21:302|4:368|81:338|114:300,1,503.999954578402
181,342,67647,6,0,P|234:367|276:356,2,95.999991348267,8|0|0,0:1|0:0|0:0,0:0:0:0:
79,371,68536,1,8,0:1:0:0:
124,249,68981,1,8,0:1:0:0:
43,147,69425,6,0,B|13:72|13:72|36:-16,2,143.9999870224,8|8|8,0:1|0:2|0:1,0:0:0:0:
124,249,70759,2,0,L|214:241,1,71.9999935112002,8|0,0:2|0:0,0:0:0:0:
211,165,71203,6,0,P|271:219|259:293,1,143.9999870224,8|8,0:1|0:2,0:0:0:0:
222,342,71870,2,0,P|287:309|431:359,1,215.999980533601,8|8,0:1|0:2,0:0:0:0:
485,234,72981,6,0,B|508:157|508:157|489:90,2,143.9999870224,8|8|8,0:1|0:2|0:1,0:0:0:0:
405,245,74092,2,0,P|369:248|323:230,1,71.9999935112002,8|8,0:2|0:2,0:0:0:0:
379,170,74536,6,0,B|334:147|272:141|209:197|209:197|105:267|22:240|-36:175|-38:135|15:97|55:104|82:117|110:139,1,575.999948089602,8|0,0:1|0:0,0:0:0:0:
159,75,76536,6,0,P|97:40|32:33,1,131.999996160507,8|8,0:1|0:1,0:0:0:0:
0,149,77203,2,0,P|11:233|53:300,1,131.999996160507,8|8,0:1|0:1,0:0:0:0:
155,310,77870,1,8,0:2:0:0:
155,310,78203,6,0,P|207:326|285:298,1,131.999996160507,8|8,0:2|0:1,0:0:0:0:
345,246,78759,2,0,P|395:232|449:245,1,87.9999974403381,8|8,0:2|0:1,0:0:0:0:
444,323,79203,2,0,P|394:337|341:320,1,87.9999974403381,8|8,0:2|0:1,0:0:0:0:
278,303,79647,1,8,0:2:0:0:
213,368,79870,1,8,0:1:0:0:
213,368,79981,6,0,P|188:304|213:240,1,131.999996160507,8|8,0:2|0:1,0:0:0:0:
254,172,80536,2,0,P|274:124|265:72,1,87.9999974403381,8|8,0:2|0:1,0:0:0:0:
256,66,80870,1,0,0:0:0:0:
235,49,80981,2,0,P|287:27|335:42,1,87.9999974403381,8|8,0:2|0:1,0:0:0:0:
375,95,81425,2,0,P|418:107|458:95,1,87.9999974403381,8|8,0:2|0:1,0:0:0:0:
476,75,81759,6,0,P|498:161|468:219,1,131.999996160507,8|8,0:2|0:1,0:0:0:0:
427,266,82314,2,0,P|377:278|324:264,1,87.9999974403381,8|8,0:2|0:1,0:0:0:0:
286,199,82759,2,0,P|250:261|259:310,1,87.9999974403381,8|8,0:2|0:1,0:0:0:0:
220,358,83203,1,8,0:2:0:0:
145,309,83425,1,8,0:1:0:0:
145,309,83536,6,0,P|118:241|142:165,1,131.999996160507,8|8,0:2|0:1,0:0:0:0:
187,119,84092,1,8,0:2:0:0:
267,83,84314,1,8,0:1:0:0:
350,110,84536,1,8,0:2:0:0:
393,187,84759,1,8,0:1:0:0:
353,267,84981,2,0,P|401:276|451:256,1,87.9999974403381,8|8,0:1|0:1,0:0:0:0:
438,293,85314,6,0,P|487:253|506:181,1,131.999996160507,8|8,0:2|0:1,0:0:0:0:
455,116,85870,2,0,P|406:104|356:115,1,87.9999974403381,8|8,0:2|0:1,0:0:0:0:
307,172,86314,1,8,0:2:0:0:
219,171,86536,1,8,0:1:0:0:
156,107,86759,2,0,L|68:104,1,87.9999974403381,8|8,0:2|0:1,0:0:0:0:
41,116,87092,6,0,P|23:178|48:238,1,131.999996160507,8|8,0:2|0:1,0:0:0:0:
111,300,87647,2,0,P|156:315|214:302,1,87.9999974403381,8|8,0:2|0:1,0:0:0:0:
221,304,87981,1,0,0:0:0:0:
244,314,88092,2,0,P|251:275|221:220,1,87.9999974403381,8|8,0:2|0:1,0:0:0:0:
185,159,88536,2,0,P|198:117|231:88,1,87.9999974403381,8|8,0:2|0:1,0:0:0:0:
255,103,88870,6,0,P|341:125|399:95,1,131.999996160507,8|8,0:2|0:1,0:0:0:0:
426,37,89425,2,0,P|460:75|462:130,1,87.9999974403381,8|8,0:2|0:1,0:0:0:0:
440,194,89870,2,0,L|329:215,1,87.9999974403381,8|8,0:2|0:1,0:0:0:0:
280,161,90314,1,8,0:2:0:0:
193,144,90536,1,8,0:1:0:0:
193,144,90647,6,0,P|182:208|208:267,1,131.999996160507,8|8,0:2|0:1,0:0:0:0:
271,329,91203,1,8,0:2:0:0:
355,303,91425,1,8,0:1:0:0:
439,326,91647,2,0,P|475:269|472:232,1,87.9999974403381,8|8,0:2|0:1,0:0:0:0:
457,230,91981,1,0,0:0:0:0:
443,206,92092,2,0,L|438:115,1,87.9999974403381,8|8,0:1|0:1,0:0:0:0:
444,91,92425,6,0,P|394:60|307:70,1,131.999996160507,8|8,0:2|0:1,0:0:0:0:
236,91,92981,2,0,P|193:98|152:82,1,87.9999974403381,8|8,0:2|0:1,0:0:0:0:
76,38,93425,2,0,P|61:77|71:124,1,87.9999974403381,8|8,0:2|0:1,0:0:0:0:
87,141,93759,1,0,0:0:0:0:
106,157,93870,2,0,P|120:206|102:261,1,87.9999974403381,8|8,0:2|0:1,0:0:0:0:
109,270,94203,6,0,P|166:242|246:261,1,131.999996160507,8|8,0:2|0:1,0:0:0:0:
272,331,94759,2,0,P|310:297|316:236,1,87.9999974403381,8|8,0:2|0:1,0:0:0:0:
359,184,95203,2,0,P|397:218|403:279,1,87.9999974403381,8|8,0:2|0:1,0:0:0:0:
476,305,95647,1,8,0:2:0:0:
511,221,95870,1,8,0:1:0:0:
511,221,95981,6,0,L|490:78,1,131.999996160507,8|8,0:2|0:1,0:0:0:0:
431,26,96536,2,0,P|374:8|323:16,1,87.9999974403381,8|8,0:2|0:1,0:0:0:0:
260,45,96981,2,0,P|209:60|160:43,1,87.9999974403381,8|8,0:2|0:1,0:0:0:0:
155,33,97314,1,0,0:0:0:0:
135,16,97425,2,0,P|85:4|36:21,1,87.9999974403381,8|8,0:2|0:1,0:0:0:0:
37,35,97759,6,0,P|62:79|45:174,1,131.999996160507,8|8,0:2|0:1,0:0:0:0:
48,245,98314,2,0,P|104:231|136:189,1,87.9999974403381,8|8,0:2|0:1,0:0:0:0:
161,130,98759,1,8,0:2:0:0:
230,184,98981,1,8,0:1:0:0:
281,116,99203,2,0,L|394:107,1,87.9999974403381,8|8,0:2|0:1,0:0:0:0:
390,125,99536,6,0,P|418:190|397:265,1,131.999996160507,8|8,0:2|0:1,0:0:0:0:
352,317,100092,2,0,P|306:333|258:320,1,87.9999974403381,8|8,0:2|0:1,0:0:0:0:
258,297,100425,2,0,P|194:281|122:298,1,131.999996160507,8|8,0:2|0:1,0:0:0:0:
56,342,100981,2,0,P|43:294|59:242,1,87.9999974403381,8|8,0:2|0:1,0:0:0:0:
62,232,101314,6,0,P|127:197|151:129,1,131.999996160507,8|8,0:2|0:1,0:0:0:0:
192,68,101870,2,0,P|246:55|288:67,1,87.9999974403381,8|8,0:2|0:1,0:0:0:0:
277,91,102203,2,0,P|338:106|410:90,1,131.999996160507,8|8,0:2|0:1,0:0:0:0:
489,69,102759,2,0,P|490:112|470:151,1,87.9999974403381,8|8,0:2|0:1,0:0:0:0:
463,179,103092,6,0,P|397:176|342:211,1,131.999996160507,8|8,0:2|0:1,0:0:0:0:
280,273,103647,2,0,P|236:284|189:274,1,87.9999974403381,8|8,0:2|0:1,0:0:0:0:
206,252,103981,2,0,P|155:240|103:255,1,87.9999974403381,8|8,0:2|0:2,0:0:0:0:
98,269,104314,1,8,0:1:0:0:
54,192,104536,1,8,0:1:0:0:
94,113,104759,2,0,L|106:56,1,43.9999987201691,8|8,0:1|0:1,0:0:0:0:
54,192,106314,5,8,0:2:0:0:
198,261,106759,6,0,L|331:241,1,119.999992847443,8|8,0:1|0:1,0:0:0:0:
379,141,107425,2,0,L|260:158,1,119.999992847443,8|8,0:1|0:1,0:0:0:0:
164,85,108092,2,0,L|256:67,1,79.9999952316285,8|8,0:1|0:1,0:0:0:0:
314,35,108536,2,0,L|447:55,1,119.999992847443,8|8,0:1|0:1,0:0:0:0:
512,140,109203,6,0,L|444:130,1,39.9999976158142,8|8,0:1|0:1,0:0:0:0:
