osu file format v14

[General]
AudioFilename: audio.mp3
AudioLeadIn: 0
PreviewTime: 81276
Countdown: 0
SampleSet: Soft
StackLeniency: 0.2
Mode: 0
LetterboxInBreaks: 0
WidescreenStoryboard: 1

[Editor]
DistanceSpacing: 0.8
BeatDivisor: 3
GridSize: 4
TimelineZoom: 2.799999

[Metadata]
Title:ONENESS
TitleUnicode:ONENESS
Artist:Roselia
ArtistUnicode:Roselia
Creator:Underdogs
Version:One and Only [ -Scarlet- ]
Source:バンドリ!ガールズバンドパーティ!
Tags:[ -Scarlet- ] Determination Symphony BanG Dream! Garupa Bandori ロゼリア ガルパ Girls Band Party! 湊友希那 Minato Yukina 相羽あいな Aiba Aina 宇田川あこ Udagawa Ako 櫻川めぐ Sakuragawa Megu 白金燐子 Shirokane Rinko 明坂聡美 Akesaka Satomi 氷川紗夜 Hikawa Sayo 工藤晴香 Kudou Haruka 今井リサ Imai Risa 遠藤ゆりか Endou Yurika
BeatmapID:1588910
BeatmapSetID:419257

[Difficulty]
HPDrainRate:6
CircleSize:3.5
OverallDifficulty:9
ApproachRate:9.6
SliderMultiplier:3
SliderTickRate:1

[Events]
//Background and Video events
0,0,"yukina besto.jpg",0,0
//Break Periods
//Storyboard Layer 0 (Background)
//Storyboard Layer 1 (Fail)
//Storyboard Layer 2 (Pass)
//Storyboard Layer 3 (Foreground)
//Storyboard Sound Samples

[TimingPoints]
515,600,4,2,3,60,1,0
515,-100,4,2,3,60,0,0
4715,-66.6666666666667,4,2,3,60,0,0
5315,-100,4,2,3,60,0,0
14915,-125,4,2,3,60,0,0
16115,-71.4285714285714,4,2,3,60,0,0
17315,652.173913043478,4,2,3,60,1,0
17315,-125,4,2,3,60,0,0
17804,-125,4,2,3,5,0,0
17967,714.285714285714,4,2,3,60,1,0
17967,-125,4,2,3,40,0,0
18679,-100,4,2,3,30,0,0
18681,869.565217391304,4,2,3,60,1,0
19550,1157.18418514947,4,2,3,40,1,0
20418,-100,4,2,3,5,0,0
20707,315.789473684211,4,2,3,80,1,0
20707,-166.666666666667,4,2,3,80,0,0
23075,-125,4,2,3,80,0,0
23588,-125,4,2,3,5,0,0
23864,-125,4,2,3,80,0,0
23904,-125,4,2,3,5,0,0
24180,-125,4,2,3,80,0,0
24220,-125,4,2,3,5,0,0
24338,-125,4,2,3,80,0,0
25285,-200,4,2,3,80,0,0
25601,-125,4,2,3,80,0,0
28641,-125,4,2,3,5,0,0
28917,-125,4,2,3,80,0,0
28957,-125,4,2,3,5,0,0
29233,-125,4,2,3,80,0,0
29272,-125,4,2,3,5,0,0
29391,-125,4,2,3,80,0,0
29549,-100,4,2,1,80,0,0
38746,-100,4,2,1,5,0,0
39022,-100,4,2,1,80,0,0
39062,-100,4,2,1,5,0,0
39338,-100,4,2,1,80,0,0
39378,-100,4,2,1,5,0,0
39496,-100,4,2,1,80,0,0
45496,-333,4,2,1,80,0,0
45970,-166.666666666667,4,2,2,70,0,0
49601,-100,4,2,2,70,0,0
50075,-125,4,2,2,70,0,0
53075,-100,4,2,1,70,0,0
53233,-125,4,2,1,70,0,0
53391,-125,4,2,2,70,0,0
53549,-200,4,2,3,40,0,0
53707,-200,4,2,3,5,0,0
54654,-125,4,2,1,75,0,0
55443,-125,4,2,1,50,0,0
55601,-125,4,2,1,60,0,0
55759,-125,4,2,1,70,0,0
56075,-111.111111111111,4,2,1,70,0,0
63338,-200,4,2,1,70,0,0
63654,-111.111111111111,4,2,1,70,0,0
65233,-76.9230769230769,4,2,1,70,0,0
66180,-200,4,2,3,70,0,0
68707,-142.857142857143,4,2,3,70,0,0
70601,-133.333333333333,4,2,3,45,0,0
71233,-125,4,2,1,70,0,0
72496,-100,4,2,1,70,0,0
73759,-83.3333333333333,4,2,1,70,0,0
75022,-71.4285714285714,4,2,1,70,0,0
76285,-100,4,2,1,70,0,0
81338,-100,4,2,1,80,0,1
87338,-83.3333333333333,4,2,1,80,0,1
87654,-100,4,2,1,80,0,1
88601,-83.3333333333333,4,2,1,80,0,1
88917,-100,4,2,1,80,0,1
90022,-83.3333333333333,4,2,1,80,0,1
90654,-100,4,2,1,80,0,1
99022,-100,4,2,3,80,0,0
101075,-100,4,2,1,80,0,0
106443,-100,4,2,1,80,0,0
111022,-100,4,2,1,60,0,0
111654,-100,4,2,1,80,0,0
117891,-100,4,2,1,5,0,0

[Colours]
Combo1 : 26,26,255
Combo2 : 0,255,255
Combo3 : 255,98,255
Combo4 : 255,102,28

[HitObjects]
72,144,515,6,0,B|40:104|88:52|88:52|176:60|196:132|140:224,1,300,0|2,0:0|0:0,0:0:0:0:
344,328,1715,2,0,P|416:332|424:264,2,150,0|0|2,0:0|0:0|0:0,0:0:0:0:
268,256,2615,1,0,0:0:0:0:
268,256,2915,6,0,L|96:280,2,150,0|0|2,0:0|0:0|0:0,0:0:0:0:
308,92,4115,6,0,B|320:20|388:8|440:28|440:28|400:116,1,225
384,168,4715,2,0,P|448:280|472:144,1,337.500012874604,2|0,0:0|0:0,0:0:0:0:
308,92,5315,6,0,B|152:48|168:196|-8:84,1,300,0|2,0:0|0:0,0:0:0:0:
435,318,6515,1,0,0:0:0:0:
328,344,6815,6,0,B|292:268|352:208|352:208|452:236|432:348,1,300,0|2,0:0|0:0,0:0:0:0:
48,344,7715,5,0,0:0:0:0:
96,260,8015,1,0,0:0:0:0:
192,240,8315,1,2,0:0:0:0:
264,308,8615,1,0,0:0:0:0:
264,308,8915,5,0,0:0:0:0:
196,204,9215,1,0,0:0:0:0:
72,224,9515,1,2,0:0:0:0:
48,344,9815,1,0,0:0:0:0:
264,308,10115,5,0,0:0:0:0:
312,112,10715,6,0,P|292:48|372:32,1,150,2|0,0:0|0:0,0:0:0:0:
440,252,11315,2,0,B|388:220|400:156|400:156|368:216|276:208,2,225,0|2|0,0:0|0:0|0:0,0:0:0:0:
96,216,12515,6,0,B|-8:160|12:40|144:20|192:96|120:152,1,300,0|2,0:0|0:0,0:0:0:0:
392,336,13715,6,0,B|424:328|456:348|456:348|456:296|420:252|420:252|340:240|280:312,1,300,0|2,0:0|0:0,0:0:0:0:
60,328,14915,6,0,P|92:336|128:256,2,120,0|0|2,0:0|0:0|0:0,0:0:0:0:
260,72,15815,1,0,0:0:0:0:
260,72,16115,6,0,B|280:32|280:32|212:32|180:96|244:184,1,209.999993591309,2|0,0:0|0:0,0:0:0:0:
248,320,16565,2,0,B|228:360|228:360|296:360|328:296|264:208,1,209.999993591309,2|0,0:0|0:0,0:0:0:0:
96,244,17015,2,0,P|172:248|208:208,1,104.999996795654,2|0,0:0|0:0,0:0:0:0:
360,80,17315,6,0,P|400:40|432:132,1,180,2|0,0:0|0:0,0:0:0:0:
446,119,17967,1,0,0:0:0:0:
184,352,18681,6,0,P|148:288|64:312,1,150
104,154,19550,6,0,B|176:146|216:82|216:82|220:146|284:170,1,225
255,155,20707,6,0,B|316:124|316:124|380:164,1,134.999995880127,4|0,0:0|0:0,0:0:0:0:
388,172,21022,2,0,L|400:120,1,44.999998626709,2|0,0:0|0:0,0:0:0:0:
416,48,21180,1,0,0:0:0:0:
312,232,21338,6,0,L|324:328,1,89.9999972534181,2|0,0:0|0:0,0:0:0:0:
412,356,21654,1,0,0:0:0:0:
172,296,21812,6,0,B|108:276|108:276|36:324,1,134.999995880127
32,328,22128,2,0,L|40:268,1,44.999998626709
48,192,22285,1,2,0:0:0:0:
172,296,22443,6,0,L|268:264,1,89.9999972534181,0|2,0:0|0:0,0:0:0:0:
320,352,22759,1,0,0:0:0:0:
384,192,22917,1,2,0:0:0:0:
320,352,23075,6,0,B|256:304|264:240|312:176|408:232|360:284,1,240
192,336,23470,1,0,0:0:0:0:
156,324,23549,6,0,L|115:313,1,30,2|0,0:0|0:0,0:0:0:0:
348,156,23864,2,0,L|389:145,1,30
76,88,24180,2,0,L|35:77,1,30,2|0,0:0|0:0,0:0:0:0:
0,200,24338,6,0,B|12:132|80:140|80:140|120:176|80:220,1,180
58,286,24654,2,0,P|86:296|115:290,1,60
188,224,24812,5,2,0:0:0:0:
268,344,24970,1,0,0:0:0:0:
207,135,25128,2,0,L|151:117,1,60
83,58,25285,6,0,P|151:90|143:134,1,112.5
0,268,25601,6,0,B|64:232|68:144|68:144|88:200|160:208,1,240
324,336,26075,2,0,L|364:324,2,30,2|0|0,0:0|0:0|0:0,0:0:0:0:
432,304,26233,1,0,0:0:0:0:
280,256,26391,5,0,0:0:0:0:
256,272,26470,1,0,0:0:0:0:
236,296,26549,1,0,0:0:0:0:
228,324,26628,1,0,0:0:0:0:
228,352,26707,1,2,0:0:0:0:
64,264,26864,2,0,L|55:210,2,40
8,164,27022,6,0,B|144:88|144:88|108:192,1,240,0|2,0:0|0:0,0:0:0:0:
136,316,27496,1,0,0:0:0:0:
338,261,27654,6,0,L|322:193,1,60
368,120,27812,1,0,0:0:0:0:
436,316,27970,1,2,0:0:0:0:
264,332,28128,6,0,B|216:360|216:360|208:284|284:244|348:264,1,240
128,320,28522,1,0,0:0:0:0:
92,328,28601,6,0,L|56:336,1,30,2|0,0:0|0:0,0:0:0:0:
400,200,28917,2,0,L|432:208,1,30,2|2,0:0|0:0,0:0:0:0:
112,56,29233,2,0,L|76:64,1,30,2|0,0:0|0:0,0:0:0:0:
48,152,29391,6,0,B|152:96|152:96|132:172,1,180
92,228,29707,1,0,0:0:0:0:
296,312,29864,1,0,0:0:0:0:
346,82,30022,1,0,0:0:0:0:
208,384,30180,5,8,0:0:0:0:
176,332,30259,1,8,0:0:0:0:
184,272,30338,1,8,0:0:0:0:
224,228,30417,1,8,0:0:0:0:
272,196,30496,1,8,0:0:0:0:
272,136,30575,1,8,0:0:0:0:
228,96,30654,6,0,P|224:68|344:92,1,225,4|0,0:0|0:0,0:0:0:0:
296,168,30970,1,2,0:0:0:0:
104,324,31128,6,0,P|88:288|96:248,1,75,8|0,0:0|0:0,0:0:0:0:
228,96,31285,1,0,0:0:0:0:
196,272,31443,1,2,0:0:0:0:
16,156,31601,2,0,P|80:176|164:128,1,150,2|10,0:0|0:0,0:0:0:0:
420,68,31917,6,0,B|472:56|472:56|424:172|424:172|412:120,1,225,2|0,0:0|0:0,0:0:0:0:
336,92,32233,1,2,0:0:0:0:
144,170,32391,2,0,P|136:222|160:258,1,75,8|0,0:0|0:0,0:0:0:0:
276,344,32549,1,0,0:0:0:0:
413,127,32707,5,2,0:0:0:0:
280,188,32864,1,2,0:0:0:0:
188,76,33022,1,10,0:0:0:0:
72,263,33180,6,0,B|53:329|53:329|157:321|189:249|144:170,1,300,4|2,0:0|0:0,0:0:0:0:
48,88,33654,1,8,0:0:0:0:
268,324,33812,6,0,B|412:368|352:220|492:240|516:348|440:384|392:316,1,300,0|0,0:0|0:0,0:0:0:0:
280,160,34285,2,0,P|256:124|276:68,1,75,8|0,0:0|0:0,0:0:0:0:
462,123,34443,6,0,B|356:20|356:20|349:95,1,225,4|0,0:0|0:0,0:0:0:0:
380,188,34759,1,2,0:0:0:0:
268,324,34917,1,8,0:0:0:0:
96,272,35075,1,2,0:0:0:0:
201,122,35233,6,0,L|377:90,1,150,8|8,0:0|0:0,0:0:0:0:
440,80,35470,1,8,0:0:0:0:
440,80,35549,1,8,0:0:0:0:
328,260,35707,6,0,P|324:352|400:288,1,225,4|0,0:0|0:0,0:0:0:0:
408,216,36022,1,2,0:0:0:0:
212,360,36180,6,0,L|136:348,1,75,8|0,0:0|0:0,0:0:0:0:
24,272,36338,1,0,0:0:0:0:
260,184,36496,1,2,0:0:0:0:
48,68,36654,2,0,L|200:40,1,150,2|8,0:0|0:0,0:0:0:0:
328,232,36970,6,0,B|320:280|280:304|224:312|224:312|216:288|192:256|100:244,1,225,2|0,0:0|0:0,0:0:0:0:
137,348,37285,1,2,0:0:0:0:
236,124,37443,6,0,L|336:88,1,75,8|0,0:0|0:0,0:0:0:0:
444,80,37601,1,0,0:0:0:0:
328,232,37759,1,2,0:0:0:0:
144,160,37917,1,2,0:0:0:0:
328,232,38075,1,8,0:0:0:0:
44,120,38233,6,0,B|-8:64|12:12|96:0|156:96|28:80|16:176|92:240,1,300,4|2,0:0|0:0,0:0:0:0:
220,144,38628,1,0,0:0:0:0:
180,152,38707,6,0,L|120:164,1,37.5,8|0,0:0|0:0,0:0:0:0:
388,324,39022,2,0,L|424:316,1,37.5,2|0,0:0|0:0,0:0:0:0:
136,48,39338,2,0,L|76:60,1,37.5,8|0,0:0|0:0,0:0:0:0:
33,146,39496,6,0,B|84:160|100:228|100:228|120:168|180:152,1,225,4|0,0:0|0:0,0:0:0:0:
232,80,39812,1,2,0:0:0:0:
388,324,39970,1,8,0:0:0:0:
468,112,40128,1,2,0:0:0:0:
244,324,40285,5,8,0:0:0:0:
192,312,40364,1,8,0:0:0:0:
144,296,40443,1,8,0:0:0:0:
92,280,40522,1,8,0:0:0:0:
32,264,40601,5,8,0:0:0:0:
40,292,40680,1,8,0:0:0:0:
48,320,40759,1,8,0:0:0:0:
56,348,40838,1,8,0:0:0:0:
64,376,40917,5,4,0:0:0:0:
124,80,41075,1,2,0:0:0:0:
64,376,41233,1,2,0:0:0:0:
40,164,41391,5,4,0:0:0:0:
332,100,41549,1,2,0:0:0:0:
40,164,41707,1,2,0:0:0:0:
248,52,41864,5,4,0:0:0:0:
432,292,42022,1,2,0:0:0:0:
248,52,42180,1,2,0:0:0:0:
452,204,42338,5,4,0:0:0:0:
164,288,42496,1,2,0:0:0:0:
452,204,42654,1,2,0:0:0:0:
256,348,42812,5,4,0:0:0:0:
84,160,42970,1,2,0:0:0:0:
56,172,43049,1,2,0:0:0:0:
28,184,43128,1,10,0:0:0:0:
348,356,43285,6,0,B|404:304|376:212|268:204|268:204|300:228|300:284,1,300,4|2,0:0|0:0,0:0:0:0:
168,368,43680,1,2,0:0:0:0:
112,296,43759,6,0,P|184:252|212:304,1,150,8|2,0:0|0:0,0:0:0:0:
164,44,44075,2,0,P|92:88|64:36,1,150,8|2,0:0|0:0,0:0:0:0:
28,184,44391,1,8,0:0:0:0:
304,100,44549,6,0,B|432:176|432:176|408:84,1,225,4|0,0:0|0:0,0:0:0:0:
360,24,44864,1,8,0:0:0:0:
276,312,45022,1,8,0:0:0:0:
108,64,45180,1,2,0:0:0:0:
404,192,45338,1,8,0:0:0:0:
136,243,45496,6,0,L|116:335,1,90.0900900900901,8|0,0:0|0:0,0:0:0:0:
20,360,45891,1,0,0:0:0:0:
4,356,45970,6,0,P|40:320|132:348,1,134.999995880127,4|0,0:0|0:0,0:0:0:0:
200,380,46285,2,0,P|220:340|200:300,1,89.9999972534181,8|0,0:0|0:0,0:0:0:0:
40,208,46601,2,0,P|54:165|96:151,1,89.9999972534181,8|0,0:0|0:0,0:0:0:0:
296,136,46917,1,8,0:0:0:0:
228,44,47075,1,0,0:0:0:0:
228,44,47154,1,0,0:0:0:0:
228,44,47233,6,0,P|192:100|200:180,1,134.999995880127
208,252,47549,1,8,0:0:0:0:
312,220,47707,1,0,0:0:0:0:
400,284,47864,1,8,0:0:0:0:
284,356,48022,5,2,0:0:0:0:
312,220,48180,1,8,0:0:0:0:
284,356,48338,1,2,0:0:0:0:
48,332,48496,5,8,0:0:0:0:
215,298,48654,1,0,0:0:0:0:
48,332,48812,6,0,B|72:332|92:312|92:312|112:316|128:316|128:316|140:312|160:296|160:296|188:308|240:292,1,179.999994506836,8|8,0:0|0:0,0:0:0:0:
215,298,49443,1,8,0:0:0:0:
184,208,49601,6,0,B|160:152|160:152|328:184|328:184|260:228,1,300,0|0,0:0|0:0,0:0:0:0:
215,298,49996,1,0,0:0:0:0:
215,298,50075,6,0,P|287:274|383:314,1,180,8|0,0:0|0:0,0:0:0:0:
320,376,50391,5,8,0:0:0:0:
270,220,50549,1,2,0:0:0:0:
320,376,50707,1,8,0:0:0:0:
270,220,50864,1,2,0:0:0:0:
464,360,51022,5,8,0:0:0:0:
270,220,51338,6,0,L|80:244,1,180,8|0,0:0|0:0,0:0:0:0:
20,304,51654,2,0,P|56:356|104:324,1,120,8|0,0:0|0:0,0:0:0:0:
98,336,51891,1,0,0:0:0:0:
98,336,51970,1,8,0:0:0:0:
364,176,52128,6,0,B|328:128|344:44|344:44|332:108|256:144,1,240,0|0,0:0|0:0,0:0:0:0:
284,244,52601,1,8,0:0:0:0:
240,32,52759,1,0,0:0:0:0:
444,104,52917,1,8,0:0:0:0:
184,160,53075,1,8,0:0:0:0:
124,148,53154,1,8,0:0:0:0:
72,132,53233,6,0,P|16:184|28:232,1,120,8|2,0:0|0:0,0:0:0:0:
113,331,53549,2,0,L|187:316,1,75
187,316,54654,6,0,B|240:300|284:248|284:248|264:288|276:320,1,180,4|0,0:0|0:0,0:0:0:0:
360,300,54970,1,2,0:0:0:0:
244,124,55128,1,8,0:0:0:0:
472,52,55285,1,2,0:0:0:0:
472,52,55364,1,0,0:0:0:0:
472,52,55443,6,0,L|456:124,1,60,8|8,0:0|0:0,0:0:0:0:
348,224,55601,1,8,0:0:0:0:
292,244,55680,1,8,0:0:0:0:
232,252,55759,1,8,0:0:0:0:
172,248,55838,1,8,0:0:0:0:
112,232,55917,1,8,0:0:0:0:
60,200,55996,1,8,0:0:0:0:
24,152,56075,6,0,P|80:108|148:152,1,134.999995880127,4|0,0:0|0:0,0:0:0:0:
296,24,56391,2,0,P|328:44|304:140,1,134.999995880127,8|0,0:0|0:0,0:0:0:0:
184,300,56707,5,2,0:0:0:0:
224,124,56864,1,2,0:0:0:0:
404,188,57022,1,8,0:0:0:0:
184,300,57180,6,0,B|167:360|115:376|40:364|40:364|23:312|71:283,1,269.999991760254,2|0,0:0|0:0,0:0:0:0:
172,52,57654,1,10,0:0:0:0:
192,216,57812,1,0,0:0:0:0:
460,72,57970,5,2,0:0:0:0:
408,248,58128,1,2,0:0:0:0:
320,92,58285,2,0,L|292:324,1,202.499993820191,8|0,0:0|0:0,0:0:0:0:
284,380,58601,5,2,0:0:0:0:
408,248,58759,1,2,0:0:0:0:
168,212,58917,2,0,B|104:196|104:196|8:252,1,134.999995880127,8|0,0:0|0:0,0:0:0:0:
44,230,59233,6,0,B|108:246|108:246|204:190,1,134.999995880127,2|2,0:0|0:0,0:0:0:0:
248,32,59549,1,8,0:0:0:0:
356,72,59707,6,0,B|272:96|268:168|268:168|228:92|104:116,1,269.999991760254,2|2,0:0|0:0,0:0:0:0:
152,328,60180,2,0,P|184:288|160:204,1,134.999995880127,8|0,0:0|0:0,0:0:0:0:
32,252,60496,5,2,0:0:0:0:
296,308,60654,1,8,0:0:0:0:
32,252,60812,1,2,0:0:0:0:
296,308,60970,1,8,0:0:0:0:
200,384,61128,6,0,L|176:240,1,134.999995880127,4|0,0:0|0:0,0:0:0:0:
136,44,61443,1,8,0:0:0:0:
68,236,61601,1,0,0:0:0:0:
4,120,61759,5,2,0:0:0:0:
168,212,61917,1,2,0:0:0:0:
256,48,62075,1,8,0:0:0:0:
360,232,62233,6,0,B|472:168|472:168|444:236,1,202.499993820191
396,312,62549,1,2,0:0:0:0:
252,192,62707,1,8,0:0:0:0:
376,40,62864,1,0,0:0:0:0:
140,204,63022,5,2,0:0:0:0:
352,152,63180,1,2,0:0:0:0:
412,332,63338,6,0,L|296:296,1,112.5,8|0,0:0|0:0,0:0:0:0:
220,336,63654,6,0,B|164:376|164:376|232:228,1,202.499993820191,2|0,0:0|0:0,0:0:0:0:
304,298,63970,1,8,0:0:0:0:
140,204,64128,1,0,0:0:0:0:
328,96,64285,6,0,B|456:80|512:60,1,134.999995880127,2|2,0:0|0:0,0:0:0:0:
264,188,64601,1,8,0:0:0:0:
76,136,64759,6,0,P|44:48|140:80,1,202.499993820191,2|0,0:0|0:0,0:0:0:0:
176,120,65075,1,2,0:0:0:0:
84,344,65233,6,0,B|24:376|24:376|64:272|160:276|228:340,1,292.499986610413,8|0,0:0|0:0,0:0:0:0:
340,352,65549,5,8,0:0:0:0:
376,296,65628,1,8,0:0:0:0:
392,228,65707,1,8,0:0:0:0:
384,160,65785,1,8,0:0:0:0:
364,96,65864,5,2,0:0:0:0:
356,108,65943,1,2,0:0:0:0:
348,124,66022,1,2,0:0:0:0:
340,140,66101,1,2,0:0:0:0:
332,152,66180,1,4,0:0:0:0:
510,204,66496,6,0,P|438:180|390:256,1,150,2|0,0:0|0:0,0:0:0:0:
468,288,67128,1,2,0:0:0:0:
272,328,67285,6,0,B|302:290|298:246|298:246|302:290|334:306,1,150
324,299,67759,1,2,0:0:0:0:
160,264,68075,5,0,0:0:0:0:
104,336,68233,2,0,L|0:360,2,75,2|0|0,0:0|0:0|0:0,0:0:0:0:
248,312,68707,6,0,B|272:256|316:256|360:264|360:264|368:292|360:336|316:352,1,209.999993591309,2|0,0:0|0:0,0:0:0:0:
120,216,69338,1,2,0:0:0:0:
100,108,69496,1,0,0:0:0:0:
100,108,69812,6,0,B|156:164|276:176|324:24|252:-8|156:8|172:84,1,314.999990386963,2|0,0:0|0:0,0:0:0:0:
428,296,70601,5,2,0:0:0:0:
428,296,70680,1,0,0:0:0:0:
428,296,70759,2,0,L|440:364,2,56.2500021457673,0|2|0,0:0|0:0|0:0,0:0:0:0:
128,244,71233,6,0,L|247:225,1,120,4|0,0:0|0:0,0:0:0:0:
365,205,71549,2,0,L|244:225,1,120,8|0,0:0|0:0,0:0:0:0:
128,244,71864,5,2,0:0:0:0:
365,205,72022,1,2,0:0:0:0:
263,342,72180,2,0,L|246:224,1,120,10|0,0:0|0:0,0:0:0:0:
94,222,72496,6,0,L|241:194,1,150,2|0,0:0|0:0,0:0:0:0:
389,167,72812,2,0,L|241:194,1,150,8|0,0:0|0:0,0:0:0:0:
94,222,73128,5,2,0:0:0:0:
389,167,73285,1,2,0:0:0:0:
263,342,73443,2,0,L|241:194,1,150,10|0,0:0|0:0,0:0:0:0:
60,198,73759,6,0,L|237:164,1,179.999994506836,2|0,0:0|0:0,0:0:0:0:
413,129,74075,2,0,L|236:163,1,179.999994506836,8|0,0:0|0:0,0:0:0:0:
60,198,74391,5,2,0:0:0:0:
413,129,74549,1,2,0:0:0:0:
263,342,74707,2,0,L|236:156,1,179.999994506836,10|0,0:0|0:0,0:0:0:0:
24,174,75022,6,0,L|230:133,1,209.999993591309,2|0,0:0|0:0,0:0:0:0:
436,93,75338,2,0,L|229:133,1,209.999993591309,8|0,0:0|0:0,0:0:0:0:
24,174,75654,5,2,0:0:0:0:
436,93,75812,1,2,0:0:0:0:
260,340,75970,2,0,L|228:128,1,209.999993591309,10|2,0:0|0:0,0:0:0:0:
84,332,76207,1,2,0:0:0:0:
84,332,76285,6,0,P|156:268|312:240,1,225,2|0,0:0|0:0,0:0:0:0:
352,304,76601,2,0,P|412:248|344:192,1,150,8|0,0:0|0:0,0:0:0:0:
212,56,76917,2,0,L|40:84,1,150,2|2,0:0|0:0,0:0:0:0:
29,333,77233,2,0,L|177:308,1,150,8|0,0:0|0:0,0:0:0:0:
420,278,77549,6,0,P|368:318|292:298,1,100,8|0,0:0|0:0,0:0:0:0:
256,362,77759,2,0,P|195:336|174:261,1,100,8|0,0:0|0:0,0:0:0:0:
100,264,77970,1,8,0:0:0:0:
92,106,78180,6,0,P|144:66|220:86,1,100,8|0,0:0|0:0,0:0:0:0:
256,22,78391,2,0,P|316:47|337:122,1,100,8|0,0:0|0:0,0:0:0:0:
412,120,78601,1,8,0:0:0:0:
336,360,78812,5,4,0:0:0:0:
252,112,78970,1,2,0:0:0:0:
76,320,79128,5,8,0:0:0:0:
264,68,79285,1,2,0:0:0:0:
422,293,79443,5,8,0:0:0:0:
60,76,79601,1,2,0:0:0:0:
324,296,79917,6,0,B|444:216|444:216|420:304,1,225,4|0,0:0|0:0,0:0:0:0:
376,372,80233,1,2,0:0:0:0:
164,356,80391,2,0,P|220:292|176:208,1,150,8|2,0:0|0:0,0:0:0:0:
24,80,80707,5,8,0:0:0:0:
40,112,80785,1,8,0:0:0:0:
76,140,80864,1,8,0:0:0:0:
128,156,80943,1,8,0:0:0:0:
188,148,81022,5,8,0:0:0:0:
240,104,81101,1,8,0:0:0:0:
308,72,81180,1,8,0:0:0:0:
392,80,81259,1,8,0:0:0:0:
452,148,81338,6,0,B|380:168|368:232|368:232|436:228|476:292,1,225,4|0,0:0|0:0,0:0:0:0:
376,324,81654,2,0,B|336:328|308:356|308:356|312:320|288:276,1,150,8|0,0:0|0:0,0:0:0:0:
40,192,81970,1,2,0:0:0:0:
160,360,82128,1,2,0:0:0:0:
280,272,82285,2,0,P|280:232|256:184,1,75,8|0,0:0|0:0,0:0:0:0:
104,60,82443,6,0,B|160:92|168:164|168:164|184:104|288:72,1,225,2|0,0:0|0:0,0:0:0:0:
320,80,82759,1,2,0:0:0:0:
452,312,82917,2,0,B|412:316|384:280|384:280|384:328|340:356,1,150,8|0,0:0|0:0,0:0:0:0:
171,166,83233,2,0,B|199:182|199:230|199:230|227:194|266:198,1,150,2|2,0:0|0:0,0:0:0:0:
436,68,83549,2,0,B|436:48|456:32|456:32|432:32|408:12,2,75,8|0|0,0:0|0:0|0:0,0:0:0:0:
224,84,83864,6,0,B|172:72|96:16|96:16|140:52|144:128,1,225,2|0,0:0|0:0,0:0:0:0:
170,166,84180,2,0,P|116:208|32:160,1,150,8|0,0:0|0:0,0:0:0:0:
224,324,84496,5,2,0:0:0:0:
380,172,84654,1,2,0:0:0:0:
488,360,84812,1,8,0:0:0:0:
148,248,84970,6,0,P|32:256|116:332,1,225,4|0,0:0|0:0,0:0:0:0:
156,352,85285,1,2,0:0:0:0:
380,172,85443,1,8,0:0:0:0:
296,356,85601,1,2,0:0:0:0:
144,112,85759,1,8,0:0:0:0:
392,248,85917,5,2,0:0:0:0:
396,284,85996,1,2,0:0:0:0:
400,320,86075,1,10,0:0:0:0:
164,352,86233,1,8,0:0:0:0:
196,276,86312,1,8,0:0:0:0:
220,196,86391,6,0,L|196:40,1,150,4|0,0:0|0:0,0:0:0:0:
197,47,86707,1,8,0:0:0:0:
424,216,86864,2,0,L|484:68,1,150,2|0,0:0|0:0,0:0:0:0:
480,76,87180,1,2,0:0:0:0:
340,316,87338,6,0,P|288:232|200:244,1,179.999994506836,8|0,0:0|0:0,0:0:0:0:
8,292,87575,1,0,0:0:0:0:
92,308,87654,6,0,L|276:328,1,150,2|0,0:0|0:0,0:0:0:0:
241,324,87970,1,8,0:0:0:0:
264,84,88128,2,0,L|448:64,1,150,2|0,0:0|0:0,0:0:0:0:
413,67,88443,1,2,0:0:0:0:
241,324,88601,6,0,B|252:260|244:220|180:184|180:184|160:280|37:284,1,269.999991760254,8|0,0:0|0:0,0:0:0:0:
80,176,88917,5,2,0:0:0:0:
264,84,89075,1,0,0:0:0:0:
121,264,89233,1,10,0:0:0:0:
48,76,89391,1,0,0:0:0:0:
36,304,89549,2,0,P|88:364|156:352,2,150,2|2|8,0:0|0:0|0:0,0:0:0:0:
251,179,90022,6,0,B|291:171|327:127|327:127|255:211|263:339,1,269.999991760254,4|0,0:0|0:0,0:0:0:0:
300,368,90338,1,2,0:0:0:0:
424,196,90496,1,8,0:0:0:0:
152,260,90654,2,0,L|56:280,2,75,4|0|0,0:0|0:0|0:0,0:0:0:0:
228,52,90970,5,8,0:0:0:0:
176,40,91049,1,8,0:0:0:0:
124,28,91128,1,8,0:0:0:0:
48,232,91285,1,8,0:0:0:0:
128,212,91364,1,8,0:0:0:0:
208,192,91443,6,0,B|268:168|316:196|316:196|312:272|256:292,1,225,4|0,0:0|0:0,0:0:0:0:
216,360,91759,2,0,P|148:320|196:280,1,150,8|0,0:0|0:0,0:0:0:0:
424,200,92075,1,2,0:0:0:0:
263,288,92233,1,2,0:0:0:0:
200,144,92391,2,0,P|196:112|232:60,1,75,8|0,0:0|0:0,0:0:0:0:
424,96,92549,6,0,B|364:80|312:32|312:32|328:104|252:144,1,225,2|0,0:0|0:0,0:0:0:0:
200,144,92864,1,2,0:0:0:0:
16,136,93022,2,0,B|44:152|44:200|44:200|72:164|111:168,1,150,8|0,0:0|0:0,0:0:0:0:
388,240,93338,2,0,B|360:224|360:176|360:176|332:212|293:208,1,150,2|2,0:0|0:0,0:0:0:0:
156,328,93654,2,0,B|168:352|164:364|164:364|172:348|224:336,2,75,8|0|0,0:0|0:0|0:0,0:0:0:0:
192,116,93970,6,0,B|136:92|104:8|104:8|104:56|68:104,1,225,2|0,0:0|0:0,0:0:0:0:
8,128,94285,2,0,P|33:191|100:168,1,150,8|0,0:0|0:0,0:0:0:0:
252,24,94601,5,2,0:0:0:0:
296,232,94759,1,2,0:0:0:0:
464,108,94917,1,8,0:0:0:0:
304,328,95075,6,0,P|408:340|388:252,1,225,4|0,0:0|0:0,0:0:0:0:
296,232,95391,1,2,0:0:0:0:
44,328,95549,1,8,0:0:0:0:
212,344,95707,1,2,0:0:0:0:
296,108,95864,1,8,0:0:0:0:
88,20,96022,5,10,0:0:0:0:
44,60,96101,1,8,0:0:0:0:
44,120,96180,1,8,0:0:0:0:
80,168,96259,1,8,0:0:0:0:
136,188,96338,1,8,0:0:0:0:
192,172,96417,1,8,0:0:0:0:
232,128,96496,5,6,0:0:0:0:
12,224,96654,1,2,0:0:0:0:
216,336,96812,1,10,0:0:0:0:
21,350,96970,6,0,B|94:289|94:289|233:342,1,225,4|0,0:0|0:0,0:0:0:0:
296,368,97285,1,2,0:0:0:0:
140,216,97443,2,0,L|156:120,1,75,8|0,0:0|0:0,0:0:0:0:
100,64,97601,6,0,B|164:64|232:0|232:0|188:52|212:84,1,225,4|0,0:0|0:0,0:0:0:0:
296,72,97917,1,2,0:0:0:0:
308,248,98075,5,8,0:0:0:0:
448,40,98233,1,2,0:0:0:0:
144,156,98391,5,8,0:0:0:0:
254,381,98549,1,2,0:0:0:0:
296,72,98707,5,8,0:0:0:0:
45,54,98864,1,2,0:0:0:0:
184,288,100443,5,0,0:0:0:0:
260,244,100601,1,0,0:0:0:0:
316,312,100759,1,0,0:0:0:0:
396,268,100917,1,0,0:0:0:0:
452,340,101075,1,2,0:0:0:0:
428,360,101154,1,2,0:0:0:0:
400,364,101233,1,8,0:0:0:0:
396,96,101391,6,0,B|456:44|456:44|408:208,1,225,4|0,0:0|0:0,0:0:0:0:
396,268,101707,1,2,0:0:0:0:
260,72,101864,6,0,L|185:60,1,75,8|0,0:0|0:0,0:0:0:0:
52,156,102022,1,0,0:0:0:0:
264,264,102180,1,2,0:0:0:0:
40,352,102338,2,0,P|116:308|120:212,1,150,2|8,0:0|0:0,0:0:0:0:
396,84,102654,6,0,B|440:48|440:48|448:120|392:172|276:152,1,225,2|0,0:0|0:0,0:0:0:0:
256,128,102970,1,2,0:0:0:0:
32,312,103128,6,0,L|20:232,1,75,8|0,0:0|0:0,0:0:0:0:
112,136,103285,1,0,0:0:0:0:
224,336,103443,1,2,0:0:0:0:
400,140,103601,1,2,0:0:0:0:
156,256,103759,1,8,0:0:0:0:
388,364,103917,6,0,B|316:176|316:176|268:292,1,300,4|2,0:0|0:0,0:0:0:0:
148,380,104312,1,0,0:0:0:0:
224,336,104391,6,0,B|187:313|190:273|190:273|156:303|77:293,1,150,8|0,0:0|0:0,0:0:0:0:
16,40,104707,2,0,B|52:62|49:102|49:102|83:72|162:82,1,150,2|2,0:0|0:0,0:0:0:0:
360,240,105022,2,0,P|396:228|428:204,1,75,8|0,0:0|0:0,0:0:0:0:
432,340,105180,6,0,P|368:272|232:304,1,225,4|0,0:0|0:0,0:0:0:0:
184,356,105496,1,2,0:0:0:0:
119,79,105654,1,8,0:0:0:0:
24,260,105812,1,2,0:0:0:0:
280,160,105970,5,8,0:0:0:0:
272,132,106049,1,8,0:0:0:0:
264,104,106128,1,8,0:0:0:0:
256,76,106207,1,8,0:0:0:0:
248,48,106285,1,8,0:0:0:0:
472,128,106443,6,0,P|464:40|376:104,1,225,4|0,0:0|0:0,0:0:0:0:
392,176,106759,1,2,0:0:0:0:
232,72,106917,6,0,L|132:88,1,75,8|0,0:0|0:0,0:0:0:0:
32,184,107075,1,0,0:0:0:0:
248,264,107233,1,2,0:0:0:0:
48,360,107391,2,0,P|112:324|200:352,1,150,2|8,0:0|0:0,0:0:0:0:
456,264,107707,6,0,B|444:200|372:168|324:192|324:192|356:216|360:280,1,225,2|0,0:0|0:0,0:0:0:0:
356,328,108022,1,0,0:0:0:0:
173,274,108180,6,0,L|248:264,1,75,8|0,0:0|0:0,0:0:0:0:
356,328,108338,1,0,0:0:0:0:
155,165,108496,1,2,0:0:0:0:
372,100,108654,1,2,0:0:0:0:
256,352,108812,1,8,0:0:0:0:
20,173,108970,6,0,B|176:60|176:60|152:184,1,300,4|2,0:0|0:0,0:0:0:0:
132,340,109364,1,0,0:0:0:0:
52,292,109443,6,0,B|88:280|96:232|96:232|128:272|196:248,1,150,8|0,0:0|0:0,0:0:0:0:
376,40,109759,2,0,B|340:52|332:100|332:100|300:60|232:84,1,150,2|2,0:0|0:0,0:0:0:0:
432,328,110075,2,0,P|472:344|512:340,1,75,8|0,0:0|0:0,0:0:0:0:
332,368,110233,6,0,P|404:304|364:180,1,225,4|0,0:0|0:0,0:0:0:0:
284,168,110549,1,2,0:0:0:0:
512,252,110707,1,8,0:0:0:0:
176,348,110864,1,2,0:0:0:0:
348,72,111022,5,8,0:0:0:0:
288,72,111101,1,8,0:0:0:0:
232,88,111180,1,8,0:0:0:0:
180,120,111259,1,8,0:0:0:0:
140,168,111338,5,10,0:0:0:0:
128,140,111417,1,2,0:0:0:0:
116,112,111496,1,2,0:0:0:0:
100,84,111575,1,2,0:0:0:0:
88,56,111654,5,4,0:0:0:0:
420,156,111812,1,2,0:0:0:0:
88,56,111970,1,2,0:0:0:0:
424,56,112128,5,4,0:0:0:0:
84,156,112285,1,2,0:0:0:0:
424,56,112443,1,2,0:0:0:0:
60,256,112601,5,4,0:0:0:0:
432,356,112759,1,2,0:0:0:0:
60,256,112917,1,2,0:0:0:0:
432,256,113075,5,4,0:0:0:0:
60,356,113233,1,2,0:0:0:0:
432,256,113391,1,2,0:0:0:0:
44,132,113549,5,4,0:0:0:0:
408,20,113707,1,2,0:0:0:0:
416,40,113785,1,2,0:0:0:0:
424,60,113864,1,8,0:0:0:0:
264,356,114022,6,0,B|236:164|236:164|328:268,1,300,4|2,0:0|0:0,0:0:0:0:
306,243,114417,1,2,0:0:0:0:
306,243,114496,5,8,0:0:0:0:
0,96,114654,1,2,0:0:0:0:
248,72,114812,5,8,0:0:0:0:
0,300,114970,1,2,0:0:0:0:
305,242,115128,1,8,0:0:0:0:
342,21,115285,6,0,B|302:261,1,225,4|0,0:0|0:0,0:0:0:0:
344,336,115601,1,2,0:0:0:0:
144,256,115759,1,8,0:0:0:0:
432,152,115917,1,2,0:0:0:0:
60,336,116075,5,8,0:0:0:0:
32,284,116154,1,8,0:0:0:0:
28,224,116233,1,8,0:0:0:0:
68,180,116312,1,10,0:0:0:0:
120,152,116391,5,2,0:0:0:0:
140,172,116470,1,2,0:0:0:0:
152,200,116549,1,2,0:0:0:0:
152,228,116628,1,2,0:0:0:0:
144,256,116707,5,4,0:0:0:0:
336,48,116864,1,2,0:0:0:0:
428,344,117022,1,8,0:0:0:0:
56,212,117180,5,4,0:0:0:0:
448,112,117496,5,4,0:0:0:0:
260,344,117812,5,4,0:0:0:0:
256,192,117891,12,0,120496,0:0:0:0:
