osu file format v14

[General]
AudioFilename: audio.mp3
AudioLeadIn: 0
PreviewTime: 81276
Countdown: 0
SampleSet: Soft
StackLeniency: 0.7
Mode: 0
LetterboxInBreaks: 0
WidescreenStoryboard: 1

[Editor]
DistanceSpacing: 0.7
BeatDivisor: 8
GridSize: 4
TimelineZoom: 2.799999

[Metadata]
Title:ONENESS
TitleUnicode:ONENESS
Artist:Roselia
ArtistUnicode:Roselia
Creator:Underdogs
Version:Light Insane
Source:バンドリ!ガールズバンドパーティ!
Tags:[ -Scarlet- ] Determination Symphony BanG Dream! Garupa Bandori ロゼリア ガルパ Girls Band Party! 湊友希那 Minato Yukina 相羽あいな Aiba Aina 宇田川あこ Udagawa Ako 櫻川めぐ Sakuragawa Megu 白金燐子 Shirokane Rinko 明坂聡美 Akesaka Satomi 氷川紗夜 Hikawa Sayo 工藤晴香 Kudou Haruka 今井リサ Imai Risa 遠藤ゆりか Endou Yurika
BeatmapID:1518441
BeatmapSetID:419257

[Difficulty]
HPDrainRate:6
CircleSize:4
OverallDifficulty:7
ApproachRate:8.8
SliderMultiplier:1.5
SliderTickRate:1

[Events]
//Background and Video events
0,0,"yukina besto.jpg",0,0
//Break Periods
//Storyboard Layer 0 (Background)
//Storyboard Layer 1 (Fail)
//Storyboard Layer 2 (Pass)
//Storyboard Layer 3 (Foreground)
//Storyboard Sound Samples

[TimingPoints]
515,600,4,2,3,60,1,0
17315,652.173913043478,4,2,3,60,1,0
17967,714.285714285714,4,2,3,60,1,0
18681,869.565217391304,4,2,3,60,1,0
19550,1157.18418514947,4,2,3,60,1,0
20566,-100,4,2,3,5,0,0
20707,315.789473684211,4,2,3,80,1,0
20707,-133.333333333333,4,2,3,80,0,0
29549,-100,4,2,1,80,0,0
45970,-142.857142857143,4,2,2,70,0,0
53075,-100,4,2,1,70,0,0
53391,-100,4,2,2,70,0,0
53549,-100,4,2,3,40,0,0
54654,-100,4,2,1,75,0,0
55443,-100,4,2,1,50,0,0
55601,-100,4,2,1,60,0,0
55759,-100,4,2,1,70,0,0
66180,-133.333333333333,4,2,3,70,0,0
70601,-133.333333333333,4,2,3,45,0,0
71233,-100,4,2,1,70,0,0
73285,-100,4,2,2,70,0,0
73443,-100,4,2,1,70,0,0
73601,-100,4,2,2,70,0,0
73759,-100,4,2,1,70,0,0
81338,-100,4,2,1,80,0,1
99022,-133.333333333333,4,2,3,80,0,0
101075,-100,4,2,1,80,0,0
106443,-100,4,2,1,80,0,0
111022,-100,4,2,1,60,0,0
111654,-100,4,2,1,80,0,0
117891,-100,4,2,1,5,0,0

[Colours]
Combo1 : 26,26,255
Combo2 : 0,255,255
Combo3 : 255,98,255
Combo4 : 255,102,28

[HitObjects]
64,328,515,6,0,P|120:340|172:260,1,150,0|2,0:0|0:0,0:0:0:0:
148,144,1715,2,0,L|132:44,1,75,0|0,0:0|0:0,0:0:0:0:
216,16,2315,2,0,L|227:90,1,75,2|0,0:0|0:0,0:0:0:0:
256,188,2915,6,0,P|312:208|392:156,2,150,0|2|0,0:0|0:0|0:0,0:0:0:0:
256,176,4715,1,2,0:0:0:0:
260,164,5315,6,0,B|272:216|272:216|264:252|264:252|284:320,1,150,0|2,0:0|0:0,0:0:0:0:
444,352,6515,2,0,P|468:320|468:284,1,75,0|0,0:0|0:0,0:0:0:0:
348,240,7115,2,0,P|363:276|394:294,1,75,2|0,0:0|0:0,0:0:0:0:
444,208,7715,5,0,0:0:0:0:
472,124,8015,1,0,0:0:0:0:
376,148,8315,5,2,0:0:0:0:
373,59,8615,1,0,0:0:0:0:
288,136,8915,5,0,0:0:0:0:
254,53,9215,1,0,0:0:0:0:
200,164,9515,5,2,0:0:0:0:
139,97,9815,1,0,0:0:0:0:
84,172,10115,6,0,P|60:216|116:308,1,150,0|2,0:0|0:0,0:0:0:0:
176,256,11015,1,0,0:0:0:0:
244,316,11315,2,0,L|352:308,1,75,0|0,0:0|0:0,0:0:0:0:
344,328,11765,2,0,L|418:333,1,75,0|0,0:0|0:0,0:0:0:0:
500,280,12215,1,0,0:0:0:0:
408,224,12515,6,0,L|420:136,1,75
304,108,13115,2,0,L|314:182,1,75,2|0,0:0|0:0,0:0:0:0:
418,149,13715,2,0,L|406:61,1,75,0|0,0:0|0:0,0:0:0:0:
314,33,14315,2,0,L|303:107,1,75,2|0,0:0|0:0,0:0:0:0:
208,168,14915,6,0,P|152:148|144:56,1,150,0|2,0:0|0:0,0:0:0:0:
208,12,15815,1,0,0:0:0:0:
204,96,16115,2,0,L|60:104,2,112.5,2|2|2,0:0|0:0|0:0,0:0:0:0:
304,108,17315,1,2,0:0:0:0:
304,108,17967,6,0,L|384:96,1,75
436,208,18681,6,0,L|360:196,1,75
248,252,19550,2,0,B|252:208|252:208|232:176|232:176|240:112,1,131.25,2|0,0:0|0:0,0:0:0:0:
188,36,20707,6,0,P|160:24|80:52,1,112.500004291535,4|2,0:0|0:0,0:0:0:0:
56,136,21338,2,0,B|44:180|44:180|48:204|48:204|32:268,1,112.500004291535,0|2,0:0|0:0,0:0:0:0:
20,340,21812,2,0,P|72:324|132:356,1,112.500004291535
208,316,22285,2,0,L|200:380,1,56.2500021457673,2|0,0:0|0:0,0:0:0:0:
296,280,22601,2,0,L|304:216,1,56.2500021457673,0|0,0:0|0:0,0:0:0:0:
220,184,22917,1,2,0:0:0:0:
284,364,23075,6,0,P|336:356|368:300,1,112.500004291535,0|0,0:0|0:0,0:0:0:0:
464,224,23549,2,0,L|392:228,1,56.2500021457673,2|0,0:0|0:0,0:0:0:0:
320,132,23864,2,0,L|392:136,1,56.2500021457673,0|0,0:0|0:0,0:0:0:0:
464,68,24180,1,2,0:0:0:0:
376,135,24338,6,0,L|244:139,1,112.500004291535,0|0,0:0|0:0,0:0:0:0:
164,96,24812,2,0,B|160:68|160:68|176:32,1,56.2500021457673,2|0,0:0|0:0,0:0:0:0:
263,135,25128,1,0,0:0:0:0:
240,224,25285,1,0,0:0:0:0:
136,192,25443,1,2,0:0:0:0:
320,216,25601,6,0,P|312:264|244:304,1,112.500004291535,0|0,0:0|0:0,0:0:0:0:
112,312,26075,2,0,L|180:304,1,56.2500021457673,2|0,0:0|0:0,0:0:0:0:
240,224,26391,2,0,L|172:216,1,56.2500021457673,0|0,0:0|0:0,0:0:0:0:
64,240,26707,1,2,0:0:0:0:
56,68,26864,6,0,P|92:52|164:88,1,112.500004291535,0|0,0:0|0:0,0:0:0:0:
240,128,27338,2,0,L|244:56,1,56.2500021457673,2|0,0:0|0:0,0:0:0:0:
328,23,27654,2,0,L|332:80,1,56.2500021457673,0|0,0:0|0:0,0:0:0:0:
404,136,27970,1,2,0:0:0:0:
376,268,28128,6,0,B|340:244|340:244|256:252,1,112.500004291535,0|0,0:0|0:0,0:0:0:0:
180,288,28601,2,0,L|188:216,1,56.2500021457673,2|0,0:0|0:0,0:0:0:0:
104,196,28917,2,0,L|96:268,1,56.2500021457673,0|0,0:0|0:0,0:0:0:0:
88,348,29233,1,2,0:0:0:0:
180,288,29391,6,0,L|196:156,1,112.500004291535
104,36,29864,1,0,0:0:0:0:
48,164,30022,1,0,0:0:0:0:
200,80,30180,1,8,0:0:0:0:
237,76,30259,1,8,0:0:0:0:
274,72,30338,1,8,0:0:0:0:
311,68,30417,1,8,0:0:0:0:
349,65,30496,1,8,0:0:0:0:
460,140,30654,6,0,P|480:176|412:268,1,150,4|2,0:0|0:0,0:0:0:0:
280,220,31128,2,0,L|376:204,1,75,8|0,0:0|0:0,0:0:0:0:
232,292,31443,2,0,P|200:260|200:220,1,75,2|0,0:0|0:0,0:0:0:0:
244,48,31759,1,10,0:0:0:0:
244,48,31917,6,0,B|220:84|220:84|100:76,1,150,2|2,0:0|0:0,0:0:0:0:
40,200,32391,2,0,L|124:184,1,75,8|0,0:0|0:0,0:0:0:0:
188,296,32707,2,0,L|104:280,1,75,2|0,0:0|0:0,0:0:0:0:
208,176,33022,1,10,0:0:0:0:
352,232,33180,6,0,B|384:264|384:264|368:376,1,150,4|2,0:0|0:0,0:0:0:0:
188,296,33654,2,0,L|276:280,1,75,8|0,0:0|0:0,0:0:0:0:
425,245,33970,2,0,L|337:229,1,75,2|0,0:0|0:0,0:0:0:0:
240,56,34285,1,8,0:0:0:0:
240,56,34443,6,0,B|228:108|228:108|240:144|240:144|228:224,1,150,4|2,0:0|0:0,0:0:0:0:
324,104,34917,1,8,0:0:0:0:
148,160,35075,1,2,0:0:0:0:
304,296,35233,2,0,L|324:208,1,75,8|8,0:0|0:0,0:0:0:0:
328,212,35470,1,8,0:0:0:0:
340,200,35549,1,8,0:0:0:0:
288,384,35707,6,0,P|244:364|232:264,1,150,4|2,0:0|0:0,0:0:0:0:
378,302,36180,2,0,L|286:294,1,75,8|0,0:0|0:0,0:0:0:0:
152,278,36496,2,0,L|244:270,1,75,2|0,0:0|0:0,0:0:0:0:
256,156,36812,1,8,0:0:0:0:
104,200,36970,6,0,B|120:76|120:76|84:108,1,150,2|2,0:0|0:0,0:0:0:0:
24,232,37443,2,0,L|36:320,1,75,8|0,0:0|0:0,0:0:0:0:
132,352,37759,1,2,0:0:0:0:
220,249,37917,1,2,0:0:0:0:
192,137,38075,1,8,0:0:0:0:
238,349,38233,6,0,B|311:328|311:328|406:353,1,150,4|2,0:0|0:0,0:0:0:0:
446,255,38707,2,0,P|482:305|472:343,1,75,8|0,0:0|0:0,0:0:0:0:
362,257,39022,2,0,L|378:171,1,75,2|0,0:0|0:0,0:0:0:0:
415,102,39338,1,8,0:0:0:0:
323,20,39496,6,0,P|270:12|214:90,1,150,4|2,0:0|0:0,0:0:0:0:
250,237,39970,2,0,L|266:155,1,75,8|2,0:0|0:0,0:0:0:0:
162,138,40285,1,8,0:0:0:0:
124,140,40364,1,8,0:0:0:0:
87,142,40443,1,8,0:0:0:0:
49,144,40522,1,8,0:0:0:0:
20,148,40601,2,0,L|24:204,3,37.5,8|8|8|8,0:0|0:0|0:0|0:0,0:0:0:0:
23,215,40917,6,0,L|28:302,1,75,4|2,0:0|0:0,0:0:0:0:
62,366,41233,1,2,0:0:0:0:
118,206,41391,6,0,L|123:293,1,75,4|2,0:0|0:0,0:0:0:0:
157,357,41707,1,2,0:0:0:0:
213,194,41864,6,0,L|218:281,1,75,4|2,0:0|0:0,0:0:0:0:
252,345,42180,1,2,0:0:0:0:
305,192,42338,6,0,L|310:279,1,75,4|2,0:0|0:0,0:0:0:0:
344,343,42654,1,2,0:0:0:0:
427,283,42812,6,0,L|422:196,1,75,4|2,0:0|0:0,0:0:0:0:
388,132,43128,1,10,0:0:0:0:
254,334,43285,6,0,B|228:297|230:248|230:248|205:289|168:300,1,150,4|2,0:0|0:0,0:0:0:0:
34,320,43759,2,0,L|115:313,1,75,8|2,0:0|0:0,0:0:0:0:
31,220,44075,2,0,L|105:226,1,75,8|2,0:0|0:0,0:0:0:0:
188,291,44391,1,8,0:0:0:0:
232,153,44549,6,0,P|247:100|173:46,1,150,4|8,0:0|0:0,0:0:0:0:
117,141,45022,1,8,0:0:0:0:
274,227,45180,1,2,0:0:0:0:
165,260,45338,1,8,0:0:0:0:
250,84,45496,2,0,B|305:88|305:88|328:108|328:108|408:117,1,150,8|0,0:0|0:0,0:0:0:0:
436,298,45970,6,0,B|463:274|463:274|464:200,1,104.999996795654,4|0,0:0|0:0,0:0:0:0:
350,202,46601,2,0,L|237:191,1,104.999996795654,8|8,0:0|0:0,0:0:0:0:
176,146,47075,6,0,P|160:193|189:251,1,104.999996795654,0|0,0:0|0:0,0:0:0:0:
250,295,47549,2,0,L|317:289,1,52.4999983978272,8|0,0:0|0:0,0:0:0:0:
393,238,47864,1,8,0:0:0:0:
476,346,48022,1,2,0:0:0:0:
494,223,48180,1,8,0:0:0:0:
371,362,48338,1,2,0:0:0:0:
308,208,48496,6,0,L|316:157,1,52.4999983978272,8|0,0:0|0:0,0:0:0:0:
394,99,48812,2,0,L|404:166,1,52.4999983978272,8|0,0:0|0:0,0:0:0:0:
444,33,49128,2,0,P|396:19|340:39,1,104.999996795654,8|8,0:0|0:0,0:0:0:0:
279,88,49601,6,0,P|231:102|175:82,1,104.999996795654,0|0,0:0|0:0,0:0:0:0:
122,25,50075,1,8,0:0:0:0:
43,237,50391,1,8,0:0:0:0:
138,204,50549,1,2,0:0:0:0:
135,363,50707,1,8,0:0:0:0:
41,329,50864,1,2,0:0:0:0:
208,308,51022,6,0,P|263:305|315:346,1,104.999996795654,8|8,0:0|0:0,0:0:0:0:
457,349,51654,2,0,L|468:289,1,52.4999983978272,8|0,0:0|0:0,0:0:0:0:
415,229,51970,1,8,0:0:0:0:
415,229,52128,6,0,B|405:191|405:191|419:115,1,104.999996795654,0|0,0:0|0:0,0:0:0:0:
355,46,52601,2,0,L|343:117,1,52.4999983978272,8|0,0:0|0:0,0:0:0:0:
297,179,52917,2,0,P|257:176|232:160,1,52.4999983978272,8|8,0:0|0:0,0:0:0:0:
238,151,53154,1,8,0:0:0:0:
234,126,53233,6,0,P|209:117|152:128,1,75,8|0,0:0|0:0,0:0:0:0:
96,188,53549,1,0,0:0:0:0:
96,188,54654,6,0,B|88:256|88:256|99:280|99:280|89:355,1,150,4|2,0:0|0:0,0:0:0:0:
214,357,55128,2,0,L|300:351,1,75,8|2,0:0|0:0,0:0:0:0:
403,311,55443,1,8,0:0:0:0:
430,286,55522,1,8,0:0:0:0:
442,251,55601,1,8,0:0:0:0:
436,214,55680,1,8,0:0:0:0:
427,191,55759,2,0,L|413:145,3,37.5,8|8|8|8,0:0|0:0|0:0|0:0,0:0:0:0:
441,108,56075,6,0,B|401:137|401:137|290:122,1,150,4|8,0:0|0:0,0:0:0:0:
226,43,56549,1,0,0:0:0:0:
158,131,56707,2,0,L|77:118,2,75,2|2|8,0:0|0:0|0:0,0:0:0:0:
225,264,57180,6,0,P|165:238|75:288,1,150,0|2,0:0|0:0,0:0:0:0:
235,343,57654,2,0,P|277:327|297:283,1,75,8|0,0:0|0:0,0:0:0:0:
237,189,57970,2,0,L|224:269,1,75,2|2,0:0|0:0,0:0:0:0:
390,236,58285,2,0,L|302:226,1,75,8|0,0:0|0:0,0:0:0:0:
397,315,58601,6,0,P|443:296|459:200,2,150,2|8|2,0:0|0:0|0:0,0:0:0:0:
277,298,59391,1,2,0:0:0:0:
323,188,59549,1,8,0:0:0:0:
212,354,59707,6,0,B|183:316|202:262|202:262|180:296|122:290,1,150,2|2,0:0|0:0,0:0:0:0:
48,226,60180,2,0,L|132:219,1,75,8|0,0:0|0:0,0:0:0:0:
225,172,60496,1,2,0:0:0:0:
121,57,60654,2,0,P|95:99|105:153,2,75,8|2|8,0:0|0:0|0:0,0:0:0:0:
233,72,61128,6,0,B|292:77|292:77|315:90|315:90|395:97,1,150,4|8,0:0|0:0,0:0:0:0:
483,72,61601,1,0,0:0:0:0:
384,188,61759,2,0,L|291:177,2,75,2|2|8,0:0|0:0|0:0,0:0:0:0:
448,282,62233,6,0,P|463:325|378:380,1,150,0|2,0:0|0:0,0:0:0:0:
322,308,62707,2,0,L|239:302,1,75,8|0,0:0|0:0,0:0:0:0:
234,174,63022,2,0,L|171:228,1,75,2|2,0:0|0:0,0:0:0:0:
41,280,63338,1,8,0:0:0:0:
126,342,63496,1,0,0:0:0:0:
309,198,63654,6,0,P|309:147|226:92,2,150,2|8|2,0:0|0:0|0:0,0:0:0:0:
245,303,64443,1,2,0:0:0:0:
234,175,64601,1,8,0:0:0:0:
356,303,64759,6,0,L|508:282,1,150,2|2,0:0|0:0,0:0:0:0:
505,189,65233,2,0,L|406:204,1,75,8|2,0:0|0:0,0:0:0:0:
338,160,65549,1,8,0:0:0:0:
316,129,65628,1,8,0:0:0:0:
312,93,65707,1,8,0:0:0:0:
327,59,65785,1,8,0:0:0:0:
356,36,65864,2,0,L|410:44,3,37.5,2|2|2|2,0:0|0:0|0:0|0:0,0:0:0:0:
430,16,66180,6,0,L|294:32,1,112.500004291535,4|2,0:0|0:0,0:0:0:0:
88,99,66812,2,0,L|225:80,1,112.500004291535,0|2,0:0|0:0,0:0:0:0:
266,152,67285,2,0,P|288:189|272:272,1,112.500004291535
201,332,67759,2,0,L|136:327,1,56.2500021457673,2|0,0:0|0:0,0:0:0:0:
71,274,68075,1,0,0:0:0:0:
71,274,68233,1,2,0:0:0:0:
71,274,68707,6,0,B|65:233|65:233|48:211|48:211|46:148,1,112.500004291535,2|0,0:0|0:0,0:0:0:0:
166,37,69338,1,2,0:0:0:0:
200,122,69496,2,0,P|239:133|307:91,1,112.500004291535,0|2,0:0|0:0,0:0:0:0:
305,76,70601,2,0,L|292:172,2,75.000002861023,2|2|2,0:0|0:0|0:0,0:0:0:0:
426,44,71233,6,0,L|411:130,1,75,4|0,0:0|0:0,0:0:0:0:
392,219,71549,2,0,L|481:203,1,75,8|0,0:0|0:0,0:0:0:0:
458,335,71864,2,0,L|369:319,1,75,2|2,0:0|0:0,0:0:0:0:
256,322,72180,1,8,0:0:0:0:
294,245,72338,1,0,0:0:0:0:
237,163,72496,6,0,L|148:147,1,75,2|2,0:0|0:0,0:0:0:0:
79,260,72812,2,0,L|168:244,1,75,8|0,0:0|0:0,0:0:0:0:
85,120,73128,1,2,0:0:0:0:
163,149,73285,1,2,0:0:0:0:
209,68,73443,1,8,0:0:0:0:
138,26,73601,1,2,0:0:0:0:
152,246,73759,6,0,L|225:259,1,75,2|2,0:0|0:0,0:0:0:0:
396,296,74075,2,0,L|322:309,1,75,8|0,0:0|0:0,0:0:0:0:
104,309,74391,2,0,P|76:269|106:180,1,150,2|8,0:0|0:0,0:0:0:0:
208,156,74864,1,0,0:0:0:0:
347,202,75022,6,0,L|370:119,1,75,2|2,0:0|0:0,0:0:0:0:
187,83,75338,2,0,L|207:155,1,75,8|0,0:0|0:0,0:0:0:0:
311,276,75654,6,0,P|369:281|422:184,1,150,2|8,0:0|0:0,0:0:0:0:
277,117,76128,1,0,0:0:0:0:
219,268,76285,6,0,L|211:361,1,75,2|2,0:0|0:0,0:0:0:0:
112,361,76601,2,0,L|124:275,1,75,8|0,0:0|0:0,0:0:0:0:
173,187,76917,2,0,L|161:101,1,75,2|2,0:0|0:0,0:0:0:0:
67,69,77233,2,0,L|56:143,1,75,8|0,0:0|0:0,0:0:0:0:
219,268,77549,6,0,B|260:245|260:245|344:260,2,100,8|8|8,0:0|0:0|0:0,0:0:0:0:
156,343,78180,2,0,B|115:366|115:366|31:351,2,100,8|8|8,0:0|0:0|0:0,0:0:0:0:
265,144,78812,6,0,L|257:225,1,75,4|2,0:0|0:0,0:0:0:0:
391,265,79128,2,0,L|383:184,1,75,8|2,0:0|0:0,0:0:0:0:
292,314,79443,1,8,0:0:0:0:
488,229,79601,1,2,0:0:0:0:
317,79,79917,6,0,P|267:61|187:117,1,150,4|2,0:0|0:0,0:0:0:0:
141,198,80391,2,0,L|58:189,1,75,8|2,0:0|0:0,0:0:0:0:
34,302,80707,2,0,L|91:293,1,37.5,8|8,0:0|0:0,0:0:0:0:
160,286,80864,2,0,L|197:291,1,37.5,8|8,0:0|0:0,0:0:0:0:
278,351,81022,1,8,0:0:0:0:
312,336,81101,1,8,0:0:0:0:
334,307,81180,1,8,0:0:0:0:
338,270,81259,1,8,0:0:0:0:
323,236,81338,6,0,L|277:169,1,75,4|2,0:0|0:0,0:0:0:0:
401,117,81654,2,0,L|320:102,1,75,8|0,0:0|0:0,0:0:0:0:
159,61,81970,1,2,0:0:0:0:
190,177,82128,1,2,0:0:0:0:
260,30,82285,1,8,0:0:0:0:
75,142,82443,6,0,B|65:192|65:192|72:229|72:229|57:310,1,150,2|2,0:0|0:0,0:0:0:0:
161,355,82917,2,0,L|252:344,1,75,8|0,0:0|0:0,0:0:0:0:
297,258,83233,2,0,L|371:267,1,75,2|2,0:0|0:0,0:0:0:0:
463,346,83549,2,0,P|481:312|465:246,1,75,8|0,0:0|0:0,0:0:0:0:
388,120,83864,6,0,B|373:177|373:177|381:208|381:208|368:287,1,150,2|8,0:0|0:0,0:0:0:0:
464,181,84338,1,0,0:0:0:0:
444,56,84496,2,0,P|388:37|344:50,2,75,2|2|8,0:0|0:0|0:0,0:0:0:0:
308,98,84970,6,0,B|247:87|247:87|217:98|217:98|132:91,1,150,4|2,0:0|0:0,0:0:0:0:
63,138,85443,2,0,P|42:173|50:228,1,75,8|2,0:0|0:0,0:0:0:0:
169,243,85759,2,0,P|149:207|97:186,1,75,8|2,0:0|0:0,0:0:0:0:
95,297,86075,1,8,0:0:0:0:
124,319,86154,1,0,0:0:0:0:
161,326,86233,1,8,0:0:0:0:
197,318,86312,1,8,0:0:0:0:
225,294,86391,6,0,L|221:377,1,75,4|0,0:0|0:0,0:0:0:0:
326,351,86707,1,8,0:0:0:0:
285,240,86864,2,0,P|230:212|145:282,1,150,2|2,0:0|0:0,0:0:0:0:
377,255,87338,2,0,L|390:167,1,75,8|0,0:0|0:0,0:0:0:0:
303,74,87654,6,0,B|409:56|409:56|447:104,1,150,2|8,0:0|0:0,0:0:0:0:
259,138,88128,2,0,P|230:102|266:7,1,150,2|2,0:0|0:0,0:0:0:0:
309,201,88601,2,0,P|263:221|227:207,1,75,8|0,0:0|0:0,0:0:0:0:
72,204,88917,6,0,P|118:224|154:210,1,75,2|0,0:0|0:0,0:0:0:0:
134,71,89233,2,0,L|116:180,1,75,8|0,0:0|0:0,0:0:0:0:
152,292,89549,2,0,L|139:218,1,75,2|2,0:0|0:0,0:0:0:0:
32,119,89864,1,8,0:0:0:0:
84,340,90022,6,0,P|132:371|226:316,1,150,4|2,0:0|0:0,0:0:0:0:
245,194,90496,1,8,0:0:0:0:
321,344,90654,2,0,B|368:329|368:329|416:335|416:335|492:317,1,150,4|8,0:0|0:0,0:0:0:0:
408,231,91128,1,8,0:0:0:0:
411,193,91207,1,8,0:0:0:0:
414,156,91285,1,8,0:0:0:0:
418,118,91364,1,8,0:0:0:0:
420,92,91443,6,0,L|321:99,1,75,4|2,0:0|0:0,0:0:0:0:
185,37,91759,2,0,L|284:44,1,75,8|0,0:0|0:0,0:0:0:0:
310,215,92075,1,2,0:0:0:0:
196,211,92233,1,2,0:0:0:0:
250,126,92391,1,8,0:0:0:0:
226,286,92549,6,0,P|159:285|121:198,1,150,2|2,0:0|0:0,0:0:0:0:
317,298,93022,2,0,L|312:380,1,75,8|0,0:0|0:0,0:0:0:0:
409,339,93338,2,0,L|414:257,1,75,2|2,0:0|0:0,0:0:0:0:
352,141,93654,2,0,P|336:180|363:240,1,75,8|0,0:0|0:0,0:0:0:0:
424,114,93970,6,0,P|398:78|296:88,1,150,2|8,0:0|0:0,0:0:0:0:
254,148,94443,1,0,0:0:0:0:
184,100,94601,2,0,L|195:13,2,75,2|2|8,0:0|0:0|0:0,0:0:0:0:
245,239,95075,6,0,B|198:234|198:234|164:245|164:245|89:235,1,150,4|2,0:0|0:0,0:0:0:0:
224,335,95549,2,0,L|314:331,1,75,8|2,0:0|0:0,0:0:0:0:
406,304,95864,2,0,P|421:264|403:222,1,75,8|2,0:0|0:0,0:0:0:0:
254,70,96180,1,8,0:0:0:0:
239,103,96259,1,8,0:0:0:0:
244,140,96338,1,8,0:0:0:0:
269,167,96417,1,8,0:0:0:0:
305,177,96496,6,0,L|388:154,1,75,4|0,0:0|0:0,0:0:0:0:
344,50,96812,1,8,0:0:0:0:
268,276,96970,2,0,L|417:232,1,150,4|2,0:0|0:0,0:0:0:0:
476,148,97443,1,8,0:0:0:0:
252,353,97601,6,0,P|204:325|217:215,1,150,4|2,0:0|0:0,0:0:0:0:
130,136,98075,2,0,L|42:143,1,75,8|2,0:0|0:0,0:0:0:0:
204,79,98391,2,0,L|292:86,1,75,8|2,0:0|0:0,0:0:0:0:
122,37,98707,2,0,L|34:44,1,75,8|0,0:0|0:0,0:0:0:0:
39,239,99022,5,0,0:0:0:0:
121,247,99180,1,2,0:0:0:0:
205,224,99338,1,0,0:0:0:0:
285,247,99496,2,0,P|294:292|231:338,1,112.500004291535,2|2,0:0|0:0,0:0:0:0:
293,160,100128,6,0,B|340:157|340:157|366:167|366:167|419:163,1,112.500004291535,2|0,0:0|0:0,0:0:0:0:
472,113,100601,2,0,P|479:84|467:48,1,56.2500021457673,2|0,0:0|0:0,0:0:0:0:
380,23,100917,2,0,P|374:50|381:77,1,56.2500021457673,2|2,0:0|0:0,0:0:0:0:
385,84,101154,1,2,0:0:0:0:
391,90,101233,1,8,0:0:0:0:
443,252,101391,6,0,L|272:248,1,150,4|2,0:0|0:0,0:0:0:0:
205,296,101864,2,0,P|188:252|207:211,1,75,8|0,0:0|0:0,0:0:0:0:
283,179,102180,2,0,P|300:223|281:264,1,75,2|2,0:0|0:0,0:0:0:0:
180,129,102496,1,8,0:0:0:0:
251,28,102654,6,0,B|313:31|313:31|344:43|344:43|418:46,1,150,2|2,0:0|0:0,0:0:0:0:
490,171,103128,2,0,L|402:157,1,75,8|0,0:0|0:0,0:0:0:0:
283,179,103443,1,2,0:0:0:0:
325,38,103601,1,2,0:0:0:0:
380,250,103759,1,8,0:0:0:0:
248,93,103917,6,0,P|200:76|111:119,1,150,4|0,0:0|0:0,0:0:0:0:
113,274,104391,2,0,L|123:181,1,75,8|0,0:0|0:0,0:0:0:0:
214,272,104707,2,0,L|222:346,1,75,2|2,0:0|0:0,0:0:0:0:
295,217,105022,1,8,0:0:0:0:
384,337,105180,6,0,P|424:328|460:225,1,150,4|2,0:0|0:0,0:0:0:0:
417,128,105654,2,0,L|330:131,1,75,8|2,0:0|0:0,0:0:0:0:
175,152,105970,1,8,0:0:0:0:
246,260,106128,1,8,0:0:0:0:
246,260,106207,1,8,0:0:0:0:
246,260,106285,1,8,0:0:0:0:
224,89,106443,6,0,P|178:72|97:143,1,150,4|2,0:0|0:0,0:0:0:0:
56,233,106917,2,0,L|51:332,1,75,8|0,0:0|0:0,0:0:0:0:
163,328,107233,2,0,L|159:253,1,75,2|2,0:0|0:0,0:0:0:0:
176,152,107549,1,8,0:0:0:0:
261,342,107707,6,0,B|310:326|310:326|354:333|354:333|430:315,1,150,2|2,0:0|0:0,0:0:0:0:
334,167,108180,2,0,L|325:252,1,75,8|0,0:0|0:0,0:0:0:0:
481,269,108496,1,2,0:0:0:0:
428,190,108654,1,2,0:0:0:0:
483,86,108812,1,8,0:0:0:0:
343,29,108970,6,0,B|239:32|239:32|214:92,1,150,4|2,0:0|0:0,0:0:0:0:
213,220,109443,2,0,P|249:196|259:147,1,75,8|0,0:0|0:0,0:0:0:0:
109,158,109759,2,0,L|199:142,1,75,2|2,0:0|0:0,0:0:0:0:
87,62,110075,1,8,0:0:0:0:
28,192,110233,6,0,B|15:249|15:249|30:275|30:275|17:351,1,150,4|2,0:0|0:0,0:0:0:0:
112,363,110707,2,0,P|158:372|201:353,1,75,8|2,0:0|0:0,0:0:0:0:
272,298,111022,2,0,L|266:247,3,37.5,8|8|8|8,0:0|0:0|0:0|0:0,0:0:0:0:
210,205,111338,1,8,0:0:0:0:
215,167,111417,1,8,0:0:0:0:
220,130,111496,1,8,0:0:0:0:
225,93,111575,1,8,0:0:0:0:
227,69,111654,6,0,B|265:64|265:64|314:71,2,75,4|2|2,0:0|0:0|0:0,0:0:0:0:
395,153,112128,2,0,B|357:158|357:158|308:151,2,75,4|2|2,0:0|0:0|0:0,0:0:0:0:
488,73,112601,2,0,L|503:-8,2,75,4|2|2,0:0|0:0|0:0,0:0:0:0:
395,153,113075,2,0,L|410:234,2,75,4|2|2,0:0|0:0|0:0,0:0:0:0:
404,42,113549,1,4,0:0:0:0:
496,175,113707,1,2,0:0:0:0:
496,175,113785,1,2,0:0:0:0:
496,175,113864,1,8,0:0:0:0:
416,305,114022,6,0,P|357:290|340:187,1,150,4|2,0:0|0:0,0:0:0:0:
238,118,114496,2,0,L|330:108,1,75,8|2,0:0|0:0,0:0:0:0:
225,225,114812,2,0,L|133:215,1,75,8|2,0:0|0:0,0:0:0:0:
87,112,115128,1,8,0:0:0:0:
151,217,115285,6,0,B|140:282|140:282|150:304|150:304|140:378,1,150,4|2,0:0|0:0,0:0:0:0:
51,262,115759,1,8,0:0:0:0:
233,321,115917,1,2,0:0:0:0:
296,189,116075,2,0,L|290:122,3,37.5,8|0|4|2,0:0|0:0|0:0|0:0,0:0:0:0:
256,131,116391,2,0,L|259:93,3,37.5,2|2|2|2,0:0|0:0|0:0|0:0,0:0:0:0:
281,55,116707,5,4,0:0:0:0:
445,91,116864,1,2,0:0:0:0:
445,91,116943,1,2,0:0:0:0:
445,91,117022,1,8,0:0:0:0:
443,264,117180,5,4,0:0:0:0:
159,220,117496,5,4,0:0:0:0:
383,164,117812,5,4,0:0:0:0:
256,192,117891,12,0,120496,0:0:0:0:
