osu file format v14

[General]
AudioFilename: audio.mp3
AudioLeadIn: 0
PreviewTime: 81276
Countdown: 0
SampleSet: Soft
StackLeniency: 0.7
Mode: 0
LetterboxInBreaks: 0
WidescreenStoryboard: 1

[Editor]
DistanceSpacing: 0.7
BeatDivisor: 4
GridSize: 4
TimelineZoom: 2.799999

[Metadata]
Title:ONENESS
TitleUnicode:ONENESS
Artist:Roselia
ArtistUnicode:Roselia
Creator:Underdogs
Version:Insane
Source:バンドリ!ガールズバンドパーティ!
Tags:[ -Scarlet- ] Determination Symphony BanG Dream! Garupa Bandori ロゼリア ガルパ Girls Band Party! 湊友希那 Minato Yukina 相羽あいな Aiba Aina 宇田川あこ Udagawa Ako 櫻川めぐ Sakuragawa Megu 白金燐子 Shirokane Rinko 明坂聡美 Akesaka Satomi 氷川紗夜 Hikawa Sayo 工藤晴香 Kudou Haruka 今井リサ Imai Risa 遠藤ゆりか Endou Yurika
BeatmapID:1496709
BeatmapSetID:419257

[Difficulty]
HPDrainRate:6
CircleSize:4
OverallDifficulty:8
ApproachRate:9
SliderMultiplier:1.8
SliderTickRate:1

[Events]
//Background and Video events
0,0,"yukina besto.jpg",0,0
//Break Periods
//Storyboard Layer 0 (Background)
//Storyboard Layer 1 (Fail)
//Storyboard Layer 2 (Pass)
//Storyboard Layer 3 (Foreground)
//Storyboard Sound Samples

[TimingPoints]
515,600,4,2,3,60,1,0
17315,652.173913043478,4,2,3,60,1,0
17967,714.285714285714,4,2,3,60,1,0
18681,869.565217391304,4,2,3,60,1,0
19550,1157.18418514947,4,2,3,60,1,0
20566,-100,4,2,3,5,0,0
20707,315.789473684211,4,2,3,80,1,0
20707,-133.333333333333,4,2,3,80,0,0
29549,-100,4,2,1,80,0,0
45970,-142.857142857143,4,2,2,70,0,0
53075,-100,4,2,1,70,0,0
53391,-100,4,2,2,70,0,0
53549,-100,4,2,3,40,0,0
54654,-100,4,2,1,75,0,0
55443,-100,4,2,1,50,0,0
55601,-100,4,2,1,60,0,0
55759,-100,4,2,1,70,0,0
66180,-133.333333333333,4,2,3,70,0,0
70601,-133.333333333333,4,2,3,45,0,0
71233,-100,4,2,1,70,0,0
73285,-100,4,2,2,70,0,0
73443,-100,4,2,1,70,0,0
73601,-100,4,2,2,70,0,0
73759,-100,4,2,1,70,0,0
81338,-100,4,2,1,80,0,1
99022,-133.333333333333,4,2,3,80,0,0
101075,-100,4,2,1,80,0,0
106443,-100,4,2,1,80,0,0
111022,-100,4,2,1,60,0,0
111654,-100,4,2,1,80,0,0
117891,-100,4,2,1,5,0,0

[Colours]
Combo1 : 26,26,255
Combo2 : 0,255,255
Combo3 : 255,98,255
Combo4 : 255,102,28

[HitObjects]
352,104,515,6,0,P|328:148|424:168,1,180,0|2,0:0|0:0,0:0:0:0:
296,28,1715,2,0,L|200:40,1,90,0|0,0:0|0:0,0:0:0:0:
104,120,2315,2,0,L|200:132,1,90,2|0,0:0|0:0,0:0:0:0:
104,32,2915,5,0,0:0:0:0:
24,88,3215,1,0,0:0:0:0:
36,184,3515,1,2,0:0:0:0:
132,204,3815,1,0,0:0:0:0:
208,144,4115,6,0,L|196:48,1,90,0|0,0:0|0:0,0:0:0:0:
320,112,4715,2,0,L|308:201,1,90,2|0,0:0|0:0,0:0:0:0:
296,312,5315,6,0,B|252:272|252:272|128:296,1,180,0|2,0:0|0:0,0:0:0:0:
376,356,6515,1,0,0:0:0:0:
384,264,6815,1,0,0:0:0:0:
460,200,7115,1,2,0:0:0:0:
468,108,7415,1,0,0:0:0:0:
360,52,7715,6,0,L|368:156,1,90,0|0,0:0|0:0,0:0:0:0:
248,180,8315,2,0,L|254:90,1,90,2|0,0:0|0:0,0:0:0:0:
172,24,8915,1,0,0:0:0:0:
80,80,9215,1,0,0:0:0:0:
248,180,9515,1,2,0:0:0:0:
160,128,9815,1,0,0:0:0:0:
208,252,10115,6,0,P|272:260|328:164,1,180,0|2,0:0|0:0,0:0:0:0:
288,56,11015,1,0,0:0:0:0:
208,252,11315,2,0,B|200:304|200:304|208:332|208:332|196:400,2,135,0|0|0,0:0|0:0|0:0,0:0:0:0:
104,136,12515,2,0,L|88:236,1,90,0|0,0:0|0:0,0:0:0:0:
212,148,13115,2,0,L|197:59,1,90,2|0,0:0|0:0,0:0:0:0:
208,248,13715,2,0,P|252:248|296:216,1,90,0|0,0:0|0:0,0:0:0:0:
368,80,14315,2,0,P|346:118|351:172,1,90,2|0,0:0|0:0,0:0:0:0:
392,252,14915,6,0,B|520:232|520:232|464:204,1,180,0|2,0:0|0:0,0:0:0:0:
428,332,15815,1,0,0:0:0:0:
428,140,16115,2,0,B|456:96|456:96|444:4,2,135,2|2|2,0:0|0:0|0:0,0:0:0:0:
308,96,17315,1,2,0:0:0:0:
308,96,17967,6,0,L|216:112,1,90
48,76,18681,6,0,L|148:56,1,90
228,212,19550,6,0,P|176:240|164:160,1,157.5,2|0,0:0|0:0,0:0:0:0:
156,166,20707,6,0,B|112:232|196:216|148:316,1,135.000005149842,4|2,0:0|0:0,0:0:0:0:
157,293,21338,1,0,0:0:0:0:
157,293,21654,1,2,0:0:0:0:
260,352,21812,2,0,L|408:340,1,135.000005149842,0|0,0:0|0:0,0:0:0:0:
456,220,22285,2,0,P|468:264|452:300,1,67.5000025749208,2|0,0:0|0:0,0:0:0:0:
384,180,22601,2,0,P|416:147|455:143,1,67.5000025749208,0|0,0:0|0:0,0:0:0:0:
384,264,22917,1,2,0:0:0:0:
384,264,23075,6,0,B|336:256|336:256|308:268|308:268|236:260,1,135.000005149842
165,331,23549,2,0,L|165:244,1,67.5000025749208,2|0,0:0|0:0,0:0:0:0:
60,213,23864,2,0,L|60:280,1,67.5000025749208
68,366,24180,1,2,0:0:0:0:
124,168,24338,6,0,P|88:140|0:160,1,135.000005149842,0|0,0:0|0:0,0:0:0:0:
184,216,24812,2,0,P|204:172|192:136,1,67.5000025749208,2|0,0:0|0:0,0:0:0:0:
156,12,25128,1,0,0:0:0:0:
152,88,25285,1,0,0:0:0:0:
256,24,25443,1,2,0:0:0:0:
276,108,25601,6,0,L|424:92,1,135.000005149842,0|0,0:0|0:0,0:0:0:0:
477,40,26075,2,0,P|497:88|486:122,1,67.5000025749208,2|0,0:0|0:0,0:0:0:0:
428,155,26391,2,0,P|408:107|419:73,1,67.5000025749208
494,234,26707,1,2,0:0:0:0:
399,262,26864,6,0,B|348:254|348:254|326:264|326:264|253:257,1,135.000005149842
178,190,27338,1,2,0:0:0:0:
135,282,27496,1,0,0:0:0:0:
287,347,27654,2,0,B|195:335|195:335|183:351|155:363,1,135.000005149842,0|2,0:0|0:0,0:0:0:0:
48,352,28128,6,0,L|64:216,1,135.000005149842
164,112,28601,2,0,L|168:188,1,67.5000025749208,2|0,0:0|0:0,0:0:0:0:
52,124,28917,2,0,L|55:56,2,67.5000025749208,0|0|2,0:0|0:0|0:0,0:0:0:0:
172,255,29391,6,0,P|220:240|240:160,1,135.000005149842
88,112,29864,1,0,0:0:0:0:
124,328,30022,1,0,0:0:0:0:
376,148,30180,2,8,L|288:140,1,45
284,208,30338,2,8,L|227:140,1,45
176,184,30496,2,8,L|184:96,1,45
368,72,30654,6,0,P|416:84|420:212,1,180,4|2,0:0|0:0,0:0:0:0:
252,328,31128,2,0,L|264:228,1,90,8|0,0:0|0:0,0:0:0:0:
376,148,31443,1,2,0:0:0:0:
404,288,31601,1,0,0:0:0:0:
262,238,31759,1,10,0:0:0:0:
296,40,31917,6,0,B|264:84|264:84|120:68,1,180,2|2,0:0|0:0,0:0:0:0:
44,264,32391,2,0,L|160:252,1,90,8|0,0:0|0:0,0:0:0:0:
36,128,32707,1,2,0:0:0:0:
36,128,32864,1,0,0:0:0:0:
96,356,33022,1,10,0:0:0:0:
260,194,33180,6,0,P|212:174|136:270,1,180,4|2,0:0|0:0,0:0:0:0:
280,344,33654,1,8,0:0:0:0:
352,208,33812,2,0,L|364:112,1,90,0|2,0:0|0:0,0:0:0:0:
200,64,34128,1,0,0:0:0:0:
256,192,34285,1,8,0:0:0:0:
480,72,34443,6,0,B|436:32|436:32|296:48,1,180,4|2,0:0|0:0,0:0:0:0:
136,168,34917,1,8,0:0:0:0:
92,32,35075,1,2,0:0:0:0:
224,80,35233,1,8,0:0:0:0:
44,140,35391,1,8,0:0:0:0:
44,140,35470,1,8,0:0:0:0:
44,140,35549,1,8,0:0:0:0:
188,252,35707,6,0,B|56:256|56:256|32:304,1,180,4|2,0:0|0:0,0:0:0:0:
204,332,36180,2,0,P|244:312|264:236,1,90,8|0,0:0|0:0,0:0:0:0:
212,112,36496,1,2,0:0:0:0:
212,112,36654,1,0,0:0:0:0:
188,252,36812,1,8,0:0:0:0:
360,184,36970,6,0,L|340:0,1,180,2|2,0:0|0:0,0:0:0:0:
440,196,37443,2,0,P|424:240|372:264,1,90,8|0,0:0|0:0,0:0:0:0:
248,176,37759,1,2,0:0:0:0:
324,336,37917,1,2,0:0:0:0:
360,184,38075,1,8,0:0:0:0:
200,284,38233,6,0,B|128:276|128:276|88:288|88:288|-4:280,1,180,4|2,0:0|0:0,0:0:0:0:
96,96,38707,2,0,L|84:196,1,90,8|0,0:0|0:0,0:0:0:0:
152,368,39022,1,2,0:0:0:0:
208,200,39180,1,0,0:0:0:0:
304,328,39338,1,8,0:0:0:0:
116,276,39496,6,0,B|248:276|248:276|284:224,1,180,4|2,0:0|0:0,0:0:0:0:
264,56,39970,2,0,P|244:100|264:148,1,90,8|2,0:0|0:0,0:0:0:0:
412,208,40285,1,8,0:0:0:0:
424,165,40364,1,8,0:0:0:0:
409,124,40443,1,8,0:0:0:0:
371,101,40522,1,8,0:0:0:0:
327,106,40601,2,8,L|324:176,3,45
364,292,40917,6,0,L|472:272,1,90,4|2,0:0|0:0,0:0:0:0:
296,228,41233,1,2,0:0:0:0:
207,211,41391,2,0,L|295:227,1,90,4|2,0:0|0:0,0:0:0:0:
144,320,41707,1,2,0:0:0:0:
60,232,41864,6,0,B|48:192|48:192|60:132,1,90,4|2,0:0|0:0,0:0:0:0:
168,40,42180,1,2,0:0:0:0:
232,176,42338,2,0,L|112:200,1,90,4|2,0:0|0:0,0:0:0:0:
280,72,42654,1,2,0:0:0:0:
288,248,42812,2,0,L|396:264,1,90,4|2,0:0|0:0,0:0:0:0:
404,88,43128,1,10,0:0:0:0:
408,356,43285,6,0,L|220:320,1,180,4|2,0:0|0:0,0:0:0:0:
216,312,43680,1,2,0:0:0:0:
216,288,43759,1,8,0:0:0:0:
64,272,43917,1,2,0:0:0:0:
184,112,44075,2,0,P|180:156|168:220,1,90,8|2,0:0|0:0,0:0:0:0:
32,128,44391,1,8,0:0:0:0:
188,32,44549,6,0,B|244:40|256:84|256:84|284:52|344:60,1,180,4|8,0:0|0:0,0:0:0:0:
460,112,45022,1,8,0:0:0:0:
320,160,45180,1,2,0:0:0:0:
408,24,45338,1,8,0:0:0:0:
464,264,45496,2,0,P|360:252|284:260,1,180,8|0,0:0|0:0,0:0:0:0:
192,328,45970,5,4,0:0:0:0:
192,328,46285,2,0,L|204:244,1,62.9999980773926,8|0,0:0|0:0,0:0:0:0:
104,180,46601,2,0,L|120:264,1,62.9999980773926,8|0,0:0|0:0,0:0:0:0:
208,172,46917,1,8,0:0:0:0:
120,104,47075,6,0,P|84:104|28:176,1,125.999996154785,0|0,0:0|0:0,0:0:0:0:
40,328,47549,2,0,L|48:252,1,62.9999980773926,8|0,0:0|0:0,0:0:0:0:
104,176,47864,1,8,0:0:0:0:
140,308,48022,1,2,0:0:0:0:
208,172,48180,1,8,0:0:0:0:
232,304,48338,1,2,0:0:0:0:
352,220,48496,6,0,L|268:228,1,62.9999980773926,8|0,0:0|0:0,0:0:0:0:
324,332,48812,2,0,L|408:340,1,62.9999980773926,8|0,0:0|0:0,0:0:0:0:
424,228,49128,2,0,P|416:184|324:152,1,125.999996154785,8|8,0:0|0:0,0:0:0:0:
244,244,49601,6,0,P|286:259|359:195,1,125.999996154785,0|0,0:0|0:0,0:0:0:0:
232,76,50075,2,0,L|224:148,1,62.9999980773926,8|0,0:0|0:0,0:0:0:0:
368,44,50391,1,8,0:0:0:0:
340,140,50549,1,2,0:0:0:0:
376,32,50707,1,8,0:0:0:0:
348,148,50864,1,2,0:0:0:0:
240,76,51022,6,0,L|160:72,1,62.9999980773926,8|0,0:0|0:0,0:0:0:0:
120,168,51338,2,0,L|200:164,1,62.9999980773926,8|0,0:0|0:0,0:0:0:0:
296,228,51654,2,0,P|312:272|264:344,1,125.999996154785,8|8,0:0|0:0,0:0:0:0:
127,309,52128,6,0,B|147:273|147:273|239:273,1,125.999996154785,0|0,0:0|0:0,0:0:0:0:
308,166,52601,2,0,L|292:242,1,62.9999980773926,8|0,0:0|0:0,0:0:0:0:
404,280,52917,2,0,L|391:218,1,62.9999980773926,8|8,0:0|0:0,0:0:0:0:
400,192,53154,1,8,0:0:0:0:
400,192,53233,2,0,P|416:144|400:100,1,90,8|2,0:0|0:0,0:0:0:0:
348,48,53549,5,0,0:0:0:0:
348,48,54654,2,0,L|152:40,1,180,4|2,0:0|0:0,0:0:0:0:
48,108,55128,1,8,0:0:0:0:
156,148,55285,1,2,0:0:0:0:
144,176,55364,1,0,0:0:0:0:
136,200,55443,6,0,L|132:264,3,45,8|8|8|8,0:0|0:0|0:0|0:0,0:0:0:0:
156,272,55759,2,0,L|158:316,3,45,8|8|8|8,0:0|0:0|0:0|0:0,0:0:0:0:
140,344,56075,6,0,B|196:328|256:360|256:360|236:328|248:292,1,180,4|8,0:0|0:0,0:0:0:0:
304,136,56549,1,0,0:0:0:0:
392,252,56707,2,0,L|296:236,1,90,2|2,0:0|0:0,0:0:0:0:
192,200,57022,1,8,0:0:0:0:
264,64,57180,6,0,P|328:60|384:156,1,180,0|2,0:0|0:0,0:0:0:0:
208,116,57654,2,0,P|184:68|200:20,1,90,8|0,0:0|0:0,0:0:0:0:
300,136,57970,1,2,0:0:0:0:
268,228,58128,1,2,0:0:0:0:
118,123,58285,2,0,L|214:115,1,90,8|0,0:0|0:0,0:0:0:0:
296,304,58601,6,0,P|236:300|196:192,2,180,2|8|2,0:0|0:0|0:0,0:0:0:0:
415,252,59391,1,2,0:0:0:0:
367,153,59549,1,8,0:0:0:0:
294,303,59707,6,0,B|220:296|220:296|190:306|190:306|90:297,1,180,2|2,0:0|0:0,0:0:0:0:
36,233,60180,2,0,P|9:280|28:330,1,90,8|0,0:0|0:0,0:0:0:0:
165,210,60496,1,2,0:0:0:0:
88,120,60654,1,8,0:0:0:0:
118,299,60812,1,2,0:0:0:0:
179,122,60970,1,8,0:0:0:0:
30,35,61128,6,0,P|82:36|219:27,1,180,4|8,0:0|0:0,0:0:0:0:
304,144,61601,1,0,0:0:0:0:
179,122,61759,2,0,L|164:220,2,90,2|2|8,0:0|0:0|0:0,0:0:0:0:
304,64,62233,2,0,P|360:88|336:212,1,180,0|2,0:0|0:0,0:0:0:0:
244,248,62707,2,0,L|259:346,1,90,8|0,0:0|0:0,0:0:0:0:
372,276,63022,5,2,0:0:0:0:
304,140,63180,1,2,0:0:0:0:
257,336,63338,2,0,L|357:356,1,90,8|0,0:0|0:0,0:0:0:0:
244,248,63654,6,0,L|52:268,1,180,0|8,0:0|0:0,0:0:0:0:
144,348,64128,1,0,0:0:0:0:
140,180,64285,2,0,L|20:192,1,90,2|2,0:0|0:0,0:0:0:0:
84,76,64601,1,8,0:0:0:0:
192,124,64759,6,0,P|216:172|136:260,1,180,2|2,0:0|0:0,0:0:0:0:
4,176,65233,2,0,L|100:164,1,90,8|0,0:0|0:0,0:0:0:0:
192,124,65549,1,8,0:0:0:0:
235,132,65628,1,8,0:0:0:0:
272,110,65707,1,8,0:0:0:0:
285,68,65785,1,8,0:0:0:0:
265,28,65864,2,0,L|328:40,3,45,2|2|2|2,0:0|0:0|0:0|0:0,0:0:0:0:
328,48,66180,6,0,P|388:36|448:92,1,135.000005149842,4|2,0:0|0:0,0:0:0:0:
380,236,66812,2,0,B|356:196|356:196|372:100,1,135.000005149842,0|2,0:0|0:0,0:0:0:0:
448,196,67285,6,0,P|456:252|404:308,1,135.000005149842,0|0,0:0|0:0,0:0:0:0:
332,344,67759,2,0,L|264:347,1,67.5000025749208,2|0,0:0|0:0,0:0:0:0:
168,308,68075,1,0,0:0:0:0:
128,232,68233,2,0,P|176:220|244:268,1,135.000005149842,2|0,0:0|0:0,0:0:0:0:
88,304,68707,6,0,P|53:268|61:185,2,135.000005149842,2|0|2,0:0|0:0|0:0,0:0:0:0:
168,308,69496,1,0,0:0:0:0:
168,308,69812,2,0,L|324:300,1,135.000005149842,2|0,0:0|0:0,0:0:0:0:
383,352,70285,1,2,0:0:0:0:
432,144,70601,2,0,B|440:112|440:112|432:84|432:84|440:48,2,90.0000034332277,2|2|2,0:0|0:0|0:0,0:0:0:0:
352,112,71233,6,0,L|232:96,1,90,4|0,0:0|0:0,0:0:0:0:
220,24,71549,2,0,L|123:97,1,90,8|0,0:0|0:0,0:0:0:0:
0,112,71864,1,2,0:0:0:0:
60,32,72022,1,2,0:0:0:0:
124,166,72180,2,0,L|136:256,1,90,8|0,0:0|0:0,0:0:0:0:
92,328,72496,6,0,P|156:336|200:308,1,90,2|2,0:0|0:0,0:0:0:0:
264,168,72812,2,0,P|225:219|227:271,1,90,8|0,0:0|0:0,0:0:0:0:
424,268,73128,1,2,0:0:0:0:
308,240,73285,1,2,0:0:0:0:
288,351,73443,2,0,L|405:348,1,90,8|2,0:0|0:0,0:0:0:0:
512,232,73759,6,0,L|496:132,1,90,2|2,0:0|0:0,0:0:0:0:
420,28,74075,2,0,L|405:116,1,90,8|0,0:0|0:0,0:0:0:0:
296,236,74391,1,2,0:0:0:0:
392,212,74549,1,2,0:0:0:0:
316,112,74707,2,0,L|196:100,1,90,8|0,0:0|0:0,0:0:0:0:
64,232,75022,6,0,L|84:132,1,90,2|2,0:0|0:0,0:0:0:0:
192,284,75338,2,0,L|172:184,1,90,8|0,0:0|0:0,0:0:0:0:
104,344,75654,1,2,0:0:0:0:
308,292,75812,1,2,0:0:0:0:
308,292,75891,1,0,0:0:0:0:
308,292,75970,1,8,0:0:0:0:
200,368,76128,1,0,0:0:0:0:
256,204,76285,6,0,B|284:84|284:84|320:144,1,180,2|8,0:0|0:0,0:0:0:0:
368,200,76759,1,0,0:0:0:0:
216,276,76917,2,0,P|180:244|184:172,1,90,2|2,0:0|0:0,0:0:0:0:
296,130,77233,2,0,P|286:177|221:209,1,90,8|0,0:0|0:0,0:0:0:0:
100,140,77549,6,0,L|232:132,2,120,8|8|8,0:0|0:0|0:0,0:0:0:0:
168,284,78180,2,0,L|36:276,2,120,8|8|8,0:0|0:0|0:0,0:0:0:0:
288,336,78812,5,4,0:0:0:0:
408,336,78970,1,2,0:0:0:0:
268,228,79128,5,8,0:0:0:0:
448,200,79285,1,2,0:0:0:0:
240,128,79443,5,8,0:0:0:0:
480,80,79601,1,2,0:0:0:0:
176,56,79917,6,0,B|144:116|144:116|176:240,1,180,4|2,0:0|0:0,0:0:0:0:
236,312,80391,1,8,0:0:0:0:
316,176,80549,1,2,0:0:0:0:
380,368,80707,1,8,0:0:0:0:
408,372,80785,1,8,0:0:0:0:
428,364,80864,2,0,L|436:304,1,45,8|8,0:0|0:0,0:0:0:0:
484,260,81022,2,0,L|472:208,1,45,8|8,0:0|0:0,0:0:0:0:
400,180,81180,2,0,L|412:128,1,45,8|8,0:0|0:0,0:0:0:0:
480,72,81338,6,0,B|412:96|412:96|292:52,1,180,4|8,0:0|0:0,0:0:0:0:
184,48,81812,1,0,0:0:0:0:
152,200,81970,2,0,L|260:188,1,90,2|2,0:0|0:0,0:0:0:0:
312,140,82285,1,8,0:0:0:0:
108,140,82443,6,0,P|76:208|164:272,1,180,2|2,0:0|0:0,0:0:0:0:
236,288,82917,1,8,0:0:0:0:
152,200,83075,1,0,0:0:0:0:
120,368,83233,2,0,L|228:360,1,90,2|2,0:0|0:0,0:0:0:0:
336,212,83549,2,0,L|228:204,1,90,8|0,0:0|0:0,0:0:0:0:
424,352,83864,6,0,L|416:260,1,90,2|0,0:0|0:0,0:0:0:0:
360,124,84180,1,8,0:0:0:0:
308,300,84338,1,0,0:0:0:0:
156,120,84496,2,0,L|264:112,1,90,2|2,0:0|0:0,0:0:0:0:
192,264,84812,1,8,0:0:0:0:
245,113,84970,6,0,P|156:104|49:97,1,180,4|2,0:0|0:0,0:0:0:0:
96,228,85443,1,8,0:0:0:0:
140,20,85601,1,2,0:0:0:0:
264,200,85759,1,8,0:0:0:0:
236,16,85917,1,2,0:0:0:0:
220,276,86075,1,8,0:0:0:0:
262,288,86154,1,0,0:0:0:0:
305,277,86233,1,8,0:0:0:0:
335,245,86312,1,8,0:0:0:0:
344,201,86391,6,0,L|332:88,1,90,4|0,0:0|0:0,0:0:0:0:
424,52,86707,1,8,0:0:0:0:
464,304,86864,2,0,B|416:272|416:272|272:288,1,180,2|2,0:0|0:0,0:0:0:0:
152,304,87338,1,8,0:0:0:0:
240,360,87496,1,0,0:0:0:0:
220,208,87654,6,0,P|224:168|232:116,1,90,2|0,0:0|0:0,0:0:0:0:
156,40,87970,1,8,0:0:0:0:
72,116,88128,2,0,L|83:205,1,90,2|0,0:0|0:0,0:0:0:0:
152,304,88443,1,2,0:0:0:0:
284,276,88601,2,0,L|376:260,1,90,8|0,0:0|0:0,0:0:0:0:
295,88,88917,6,0,P|239:100|227:216,2,180,2|8|2,0:0|0:0|0:0,0:0:0:0:
440,152,89707,1,2,0:0:0:0:
284,164,89864,1,8,0:0:0:0:
404,44,90022,6,0,B|336:56|336:56|296:44|296:44|192:56,1,180,4|2,0:0|0:0,0:0:0:0:
36,112,90496,1,8,0:0:0:0:
132,264,90654,1,2,0:0:0:0:
136,256,90733,1,2,0:0:0:0:
140,248,90812,2,0,L|132:144,1,90,0|8,0:0|0:0,0:0:0:0:
132,352,91128,1,8,0:0:0:0:
176,348,91207,1,8,0:0:0:0:
221,345,91285,1,8,0:0:0:0:
266,342,91364,1,8,0:0:0:0:
300,340,91443,6,0,P|288:292|316:240,1,90,4|2,0:0|0:0,0:0:0:0:
444,256,91759,2,0,P|408:290|349:292,1,90,8|0,0:0|0:0,0:0:0:0:
272,148,92075,1,2,0:0:0:0:
376,216,92233,1,2,0:0:0:0:
200,200,92391,1,8,0:0:0:0:
406,38,92549,6,0,L|374:226,1,180,2|2,0:0|0:0,0:0:0:0:
272,148,93022,2,0,L|288:48,1,90,8|0,0:0|0:0,0:0:0:0:
200,200,93338,2,0,P|244:236|288:236,1,90,2|2,0:0|0:0,0:0:0:0:
196,120,93654,2,0,P|142:140|120:178,1,90,8|0,0:0|0:0,0:0:0:0:
199,375,93970,6,0,B|191:307|191:307|207:271|207:271|199:199,1,180,2|8,0:0|0:0,0:0:0:0:
100,272,94443,1,0,0:0:0:0:
284,324,94601,2,0,L|384:304,1,90,2|2,0:0|0:0,0:0:0:0:
452,228,94917,1,8,0:0:0:0:
308,157,95075,6,0,B|272:201|272:201|285:337,1,180,4|2,0:0|0:0,0:0:0:0:
104,268,95549,2,0,L|200:280,1,90,8|2,0:0|0:0,0:0:0:0:
64,352,95864,1,8,0:0:0:0:
120,164,96022,1,2,0:0:0:0:
184,364,96180,1,8,0:0:0:0:
226,350,96259,1,8,0:0:0:0:
256,318,96338,1,8,0:0:0:0:
267,274,96417,1,8,0:0:0:0:
255,231,96496,5,4,0:0:0:0:
96,260,96654,1,0,0:0:0:0:
184,364,96812,1,8,0:0:0:0:
152,168,96970,2,0,B|136:48|136:48|196:92,1,180,4|2,0:0|0:0,0:0:0:0:
52,172,97443,1,8,0:0:0:0:
183,82,97601,6,0,B|303:62|243:122|387:98,1,180,4|2,0:0|0:0,0:0:0:0:
240,184,98075,1,8,0:0:0:0:
316,12,98233,1,2,0:0:0:0:
352,200,98391,5,8,0:0:0:0:
183,82,98549,1,2,0:0:0:0:
358,102,98707,5,8,0:0:0:0:
156,272,98864,1,0,0:0:0:0:
340,296,99022,5,0,0:0:0:0:
424,256,99180,1,2,0:0:0:0:
352,200,99338,1,0,0:0:0:0:
440,336,99496,2,0,P|476:320|496:228,1,135.000005149842,2|2,0:0|0:0,0:0:0:0:
498,233,100128,5,2,0:0:0:0:
328,100,100443,1,0,0:0:0:0:
268,168,100601,1,2,0:0:0:0:
312,240,100759,1,0,0:0:0:0:
380,180,100917,1,2,0:0:0:0:
336,344,101075,1,2,0:0:0:0:
336,344,101154,1,2,0:0:0:0:
336,344,101233,1,8,0:0:0:0:
139,243,101391,6,0,B|199:267|199:267|315:239,1,180,4|2,0:0|0:0,0:0:0:0:
88,180,101864,2,0,P|60:224|72:276,1,90,8|0,0:0|0:0,0:0:0:0:
200,176,102180,1,2,0:0:0:0:
160,36,102338,1,2,0:0:0:0:
96,104,102496,1,8,0:0:0:0:
272,84,102654,6,0,L|472:104,1,180,2|2,0:0|0:0,0:0:0:0:
464,252,103128,2,0,L|344:232,1,90,8|0,0:0|0:0,0:0:0:0:
224,224,103443,1,2,0:0:0:0:
296,328,103601,1,2,0:0:0:0:
300,160,103759,1,8,0:0:0:0:
192,320,103917,6,0,B|116:312|116:312|84:324|84:324|0:316,1,180,4|2,0:0|0:0,0:0:0:0:
72,148,104391,2,0,P|80:204|52:248,1,90,8|0,0:0|0:0,0:0:0:0:
0,104,104707,2,0,P|44:69|96:71,1,90,2|2,0:0|0:0,0:0:0:0:
160,112,105022,1,8,0:0:0:0:
248,236,105180,6,0,B|240:164|240:164|252:136|252:136|244:48,1,180,4|2,0:0|0:0,0:0:0:0:
328,196,105654,1,8,0:0:0:0:
312,304,105812,1,2,0:0:0:0:
138,235,105970,2,0,L|246:223,1,90,8|8,0:0|0:0,0:0:0:0:
241,233,106207,1,8,0:0:0:0:
252,241,106285,1,8,0:0:0:0:
377,83,106443,6,0,P|323:69|241:160,1,180,4|2,0:0|0:0,0:0:0:0:
437,286,106917,2,0,L|449:191,1,90,8|0,0:0|0:0,0:0:0:0:
324,152,107233,2,0,L|335:241,1,90,2|2,0:0|0:0,0:0:0:0:
377,82,107549,1,8,0:0:0:0:
340,324,107707,6,0,B|302:324|278:298|278:298|233:348|149:324,1,180,2|2,0:0|0:0,0:0:0:0:
61,300,108180,2,0,B|47:260|47:260|58:206,1,90,8|0,0:0|0:0,0:0:0:0:
154,148,108496,1,2,0:0:0:0:
194,240,108654,1,2,0:0:0:0:
56,213,108812,1,8,0:0:0:0:
122,53,108970,6,0,B|199:56|199:56|228:71|228:71|326:71,1,180,4|2,0:0|0:0,0:0:0:0:
243,158,109443,2,0,L|146:147,1,90,8|0,0:0|0:0,0:0:0:0:
294,232,109759,2,0,P|329:185|321:137,1,90,2|2,0:0|0:0,0:0:0:0:
194,240,110075,1,8,0:0:0:0:
340,335,110233,6,0,L|327:140,1,180,4|2,0:0|0:0,0:0:0:0:
428,94,110707,1,8,0:0:0:0:
418,212,110864,1,2,0:0:0:0:
333,64,111022,2,0,L|248:57,3,45,8|8|8|8,0:0|0:0|0:0|0:0,0:0:0:0:
220,180,111338,2,0,L|224:128,1,45,8|8,0:0|0:0,0:0:0:0:
180,16,111496,2,0,L|176:68,1,45,8|8,0:0|0:0,0:0:0:0:
92,72,111654,6,0,L|-7:60,2,90,4|2|2,0:0|0:0|0:0,0:0:0:0:
110,166,112128,2,0,L|11:154,2,90,4|2|2,0:0|0:0|0:0,0:0:0:0:
247,199,112601,2,0,L|346:187,2,90,4|2|2,0:0|0:0|0:0,0:0:0:0:
232,313,113075,2,0,L|331:301,2,90,4|2|2,0:0|0:0|0:0,0:0:0:0:
123,248,113549,1,4,0:0:0:0:
183,100,113707,1,2,0:0:0:0:
183,100,113785,1,2,0:0:0:0:
183,100,113864,1,8,0:0:0:0:
230,311,114022,6,0,P|285:335|383:267,1,180,4|2,0:0|0:0,0:0:0:0:
310,123,114496,1,8,0:0:0:0:
296,250,114654,1,2,0:0:0:0:
408,70,114812,1,8,0:0:0:0:
394,197,114970,1,2,0:0:0:0:
220,181,115128,1,8,0:0:0:0:
241,45,115285,6,0,L|23:64,1,180,4|2,0:0|0:0,0:0:0:0:
110,246,115759,1,8,0:0:0:0:
156,140,115917,1,2,0:0:0:0:
48,168,116075,1,8,0:0:0:0:
70,327,116233,2,0,P|123:333|197:231,1,180,4|2,0:0|0:0,0:0:0:0:
255,66,116707,5,4,0:0:0:0:
306,257,116864,1,2,0:0:0:0:
306,257,116943,1,2,0:0:0:0:
306,257,117022,1,8,0:0:0:0:
163,138,117180,5,4,0:0:0:0:
457,193,117496,5,4,0:0:0:0:
274,353,117812,5,4,0:0:0:0:
256,192,117891,12,0,120496,0:0:0:0:
