osu file format v14

[General]
AudioFilename: audio.mp3
AudioLeadIn: 0
PreviewTime: 81259
Countdown: 1
SampleSet: Soft
StackLeniency: 0.7
Mode: 2
LetterboxInBreaks: 0
WidescreenStoryboard: 1

[Editor]
DistanceSpacing: 0.9
BeatDivisor: 4
GridSize: 16
TimelineZoom: 2.2

[Metadata]
Title:ONENESS
TitleUnicode:ONENESS
Artist:Roselia
ArtistUnicode:Roselia
Creator:Noctalium
Version:Together
Source:oneness roselia
Tags:oneness roselia
BeatmapID:1890104
BeatmapSetID:905587

[Difficulty]
HPDrainRate:7
CircleSize:4
OverallDifficulty:9.3
ApproachRate:9.3
SliderMultiplier:1.92
SliderTickRate:2

[Events]
//Background and Video events
0,0,"bang-dream-wallpapers-hd-66394-777080.png",0,0
//Break Periods
//Storyboard Layer 0 (Background)
//Storyboard Layer 1 (Fail)
//Storyboard Layer 2 (Pass)
//Storyboard Layer 3 (Foreground)
//Storyboard Sound Samples

[TimingPoints]
1115,600,4,2,0,60,1,0
17915,652.173913043478,4,2,0,60,1,0
18567,714.285714285714,4,2,0,60,1,0
19281,869.565217391304,4,2,0,60,1,0
20150,1157.18418514947,4,2,0,40,1,0
21307,315.789473684211,4,2,0,50,1,0
32991,-100,4,2,0,50,0,0
54149,-100,4,2,0,40,0,0
66780,-100,4,2,0,35,0,0
71833,-100,4,2,0,40,0,0
76728,-83.3333333333333,4,2,0,40,0,0
76885,-100,4,2,0,52,0,0
81464,-90.9090909090909,4,2,0,52,0,0
81938,-90.9090909090909,4,2,0,60,0,1
91964,-90.9090909090909,4,2,0,60,0,0
92043,-90.9090909090909,4,2,0,60,0,1
99622,-90.9090909090909,4,2,0,60,0,0
101991,-100,4,2,0,60,0,0
118491,-100,4,2,0,45,0,0
132464,-100,4,2,0,35,0,0
147622,-90.9090909090909,4,2,0,60,0,1
157567,-90.9090909090909,4,2,0,60,0,0
157728,-90.9090909090909,4,2,0,60,0,1
165307,-100,4,2,0,60,0,0
167833,-100,4,2,0,35,0,0

[Colours]
Combo1 : 255,128,64
Combo2 : 179,202,210
Combo3 : 104,204,206
Combo4 : 128,0,255

[HitObjects]
160,272,1115,6,0,P|112:176|160:80,1,192
320,272,2315,2,0,P|352:224|320:176,1,96
192,192,2915,2,0,P|160:160|192:128,1,96
320,192,3515,6,0,L|336:96,1,96,2|0,0:0|0:0,0:0:0:0:
160,256,4115,2,0,P|96:208|176:176,2,192
336,272,5915,2,0,P|400:224|384:112,1,192
256,96,7115,2,0,P|224:128|256:144,1,96
400,160,8015,2,0,B|464:224|384:288|384:288|320:336|384:240|384:240|368:192|240:176|288:80|416:96,1,480
192,192,10115,5,0,0:0:0:0:
320,192,10715,1,0,0:0:0:0:
416,192,11315,2,0,L|448:288,1,96
256,192,11915,2,0,P|208:176|256:112,2,144
368,256,13115,6,0,P|432:176|352:112,1,192,2|0,0:0|0:0,0:0:0:0:
128,256,14315,2,0,P|79:215|141:114,1,192,2|0,0:0|0:0,0:0:0:0:
256,320,15515,2,0,B|336:272|256:208|256:208|160:144|256:96,1,288
432,192,16715,2,0,L|288:192,2,144
208,192,17915,5,2,0:0:0:0:
384,192,18567,1,0,0:0:0:0:
96,192,19281,1,0,0:0:0:0:
400,192,20150,1,2,0:0:0:0:
160,160,21307,6,0,L|160:272,1,96
64,256,21622,2,0,L|176:256,1,96,2|0,0:0|0:0,0:0:0:0:
384,256,21938,2,0,L|288:256,2,96,2|0|0,0:0|0:0|0:0,0:0:0:0:
160,336,22412,2,0,P|80:272|160:208,1,192
416,336,22885,6,0,L|416:240,1,96,2|0,0:0|0:0,0:0:0:0:
176,240,23201,2,0,L|288:240,2,96,0|2|2,0:0|0:0|0:0,0:0:0:0:
416,176,23675,2,0,P|480:96|416:48,1,192
176,48,24149,6,0,L|272:48,1,96,2|0,0:0|0:0,0:0:0:0:
32,48,24464,2,0,L|128:48,2,96,2|0|0,0:0|0:0|0:0,0:0:0:0:
272,128,24938,2,0,P|336:176|272:240,1,192
400,240,25412,6,0,L|432:336,1,96,2|0,0:0|0:0,0:0:0:0:
192,320,25728,1,0,0:0:0:0:
464,240,25885,2,0,L|368:240,1,96
128,192,26201,6,0,L|224:192,2,96,4|0|0,0:3|0:0|0:0,0:0:0:0:
368,32,26675,2,0,L|256:32,1,96,2|0,0:0|0:0,0:0:0:0:
176,32,26991,1,2,0:0:0:0:
432,32,27149,2,0,P|496:80|432:144,1,192
192,96,27622,6,0,L|192:192,1,96
96,192,27938,2,0,L|208:192,1,96,2|0,0:0|0:0,0:0:0:0:
32,192,28254,1,2,0:0:0:0:
272,192,28412,2,0,L|176:192,1,96,0|0,3:0|0:0,0:0:0:0:
80,192,28728,1,0,0:0:0:0:
320,192,28885,6,0,P|384:144|320:80,1,192
448,192,29359,1,0,0:0:0:0:
192,192,29517,2,0,L|320:192,2,96,2|0|0,0:0|0:0|0:0,0:0:0:0:
288,96,29991,2,0,L|288:208,1,96
48,192,30307,5,0,0:0:0:0:
288,192,30464,2,0,L|176:192,1,96,2|0,0:0|0:0,0:0:0:0:
432,192,30780,2,0,L|368:192,1,48,0|0,1:0|1:0,1:0:0:0:
224,256,30938,2,0,L|272:208,1,48,0|0,1:0|1:0,1:0:0:0:
416,256,31096,2,0,L|464:208,1,48,0|0,1:0|1:0,1:0:0:0:
208,128,31254,6,0,P|128:176|160:288,1,192,4|0,0:0|0:0,0:0:0:0:
352,272,31728,2,0,L|464:272,1,96,0|0,1:0|0:0,0:0:0:0:
288,272,32043,2,0,L|384:272,1,96,4|4,3:0|3:0,0:0:0:0:
144,272,32359,1,0,1:0:0:0:
384,208,32517,6,0,P|448:144|384:96,1,192
144,112,32991,2,0,L|240:112,1,96
96,192,33307,2,0,L|192:192,2,96,4|4|0,3:0|3:0|1:0,0:0:0:0:
336,192,33780,6,0,P|400:128|336:80,1,192
416,96,34254,1,0,1:0:0:0:
192,320,34412,2,0,P|128:256|192:208,1,192
112,224,34886,1,0,1:0:0:0:
400,224,35043,6,0,L|288:224,1,96,4|0,0:0|0:0,0:0:0:0:
64,160,35359,2,0,L|176:160,3,96
432,160,35991,2,0,L|384:128,1,48,0|0,1:0|1:0,1:0:0:0:
224,160,36149,2,0,L|272:208,1,48,0|0,1:0|1:0,1:0:0:0:
416,240,36307,6,0,P|464:192|400:80,1,192
208,32,36780,2,0,L|320:32,1,96,0|0,1:0|0:0,0:0:0:0:
160,96,37096,2,0,L|256:96,2,96,4|4|0,3:0|3:0|1:0,3:0:0:0:
432,32,37570,6,0,B|304:32|304:32|368:32,1,192
240,32,38043,2,0,L|320:112,1,96,0|0,1:0|0:0,0:0:0:0:
80,96,38359,2,4,L|192:96,2,96,4|4|4,3:0|3:0|3:0,3:0:0:0:
320,96,38833,6,0,P|368:128|320:240,1,192
64,240,39307,2,0,L|144:320,1,96,0|0,1:0|0:0,0:0:0:0:
208,240,39622,1,0,0:0:0:0:
448,240,39780,2,0,L|368:160,1,96
320,176,40096,6,0,L|432:176,1,96,4|0,0:0|0:0,0:0:0:0:
176,176,40412,1,4,3:0:0:0:
416,128,40570,2,0,L|304:128,1,96,0|0,1:0|1:0,0:0:0:0:
192,128,40885,6,0,L|144:80,1,48,0|0,1:0|2:0,1:0:0:0:
320,64,41043,2,0,L|368:16,1,48,0|0,1:0|2:3,1:0:0:0:
160,208,41201,2,0,L|112:160,1,48,0|0,1:0|2:3,1:0:0:0:
286,161,41359,2,0,L|334:113,1,48,0|0,1:0|2:3,1:0:0:0:
48,128,41517,6,0,P|32:176|64:224,1,96
288,352,41833,1,0,1:0:0:0:
400,352,41991,6,0,L|512:352,1,96,4|2,0:0|0:0,0:0:0:0:
256,288,42307,1,0,1:0:0:0:
368,288,42464,6,0,L|480:288,1,96,4|2,0:0|0:0,0:0:0:0:
224,224,42780,1,0,1:0:0:0:
336,224,42938,6,0,L|448:224,1,96,4|2,0:0|0:0,0:0:0:0:
192,144,43254,1,0,1:0:0:0:
96,64,43412,2,0,L|192:64,2,96,0|4|0,1:0|0:3|1:0,0:0:0:0:
352,208,43885,6,0,P|404:142|340:62,1,192,4|0,0:0|0:0,0:0:0:0:
208,64,44280,1,0,0:0:0:0:
64,64,44359,2,0,P|32:80|64:112,1,96
240,128,44596,1,0,0:0:0:0:
384,128,44675,2,0,P|416:144|384:176,1,96
128,176,44991,1,0,1:0:0:0:
384,240,45149,6,0,P|448:192|384:128,1,192
128,64,45622,1,0,1:0:0:0:
384,64,45780,1,0,1:0:0:0:
144,128,45938,1,0,0:0:0:0:
368,112,46096,2,0,P|432:160|368:224,1,192,4|0,0:0|0:0,0:0:0:0:
144,64,46570,6,0,L|112:160,1,96,4|0,0:0|0:0,0:0:0:0:
256,64,46885,2,0,L|288:160,1,96,0|0,3:0|0:0,0:0:0:0:
128,224,47201,1,0,3:0:0:0:
368,224,47359,2,0,L|256:224,1,96,2|0,0:0|3:0,0:0:0:0:
432,224,47675,6,0,L|432:128,1,96,2|0,0:0|3:0,0:0:0:0:
192,128,47991,2,0,L|304:128,2,96,0|2|0,0:0|3:2|0:0,0:0:0:0:
64,128,48464,2,0,L|176:128,1,96,0|0,3:0|0:0,0:0:0:0:
64,128,48780,2,0,L|64:240,1,96,0|0,3:0|0:0,0:0:0:0:
304,224,49096,6,0,L|208:224,2,96,0|0|0,3:0|0:0|3:0,0:0:0:0:
400,224,49570,1,0,0:0:0:0:
160,224,49728,2,0,P|96:192|160:112,1,192
384,112,50201,1,0,0:0:0:0:
144,48,50359,6,0,L|48:48,1,96,0|0,3:0|0:0,0:0:0:0:
304,48,50675,2,0,L|400:48,1,96,2|0,3:2|0:0,0:0:0:0:
144,128,50991,2,0,L|224:48,1,96,2|0,3:2|0:0,0:0:0:0:
368,128,51307,2,0,L|288:48,1,96
80,128,51622,6,4,L|176:128,1,96,4|0,0:0|0:0,0:0:0:0:
416,128,51938,2,0,L|304:128,1,96,2|0,3:2|0:0,0:0:0:0:
80,192,52254,2,0,L|192:192,2,96,0|2|0,3:2|0:0|3:0,0:0:0:0:
320,192,52728,6,0,P|400:144|320:112,1,192
192,96,53201,2,0,L|192:208,1,96,0|0,3:0|0:0,0:0:0:0:
432,192,53517,1,0,1:0:0:0:
192,192,53675,2,0,L|128:192,1,48,0|0,1:0|1:0,1:0:0:0:
320,192,53833,1,0,1:0:0:0:
64,192,53991,1,0,1:0:0:0:
256,192,54149,12,0,55096,0:0:0:0:
256,80,55254,6,0,P|208:128|272:240,1,192
352,240,55728,1,0,1:0:0:0:
112,240,55885,6,0,L|64:192,1,48,4|0,1:3|0:0,0:0:0:0:
240,240,56043,2,0,L|320:160,1,96
272,160,56280,1,0,1:0:0:0:
128,160,56359,2,0,L|176:112,1,48,0|0,1:0|1:0,1:0:0:0:
304,112,56517,2,0,L|256:64,1,48,0|0,1:0|1:0,1:0:0:0:
96,64,56675,2,0,P|64:112|96:144,1,96
320,32,56991,6,0,L|432:32,1,96,0|0,1:0|0:0,0:0:0:0:
192,32,57307,2,0,L|288:32,2,96,0|0|0,1:0|0:0|0:0,0:0:0:0:
432,160,57780,6,0,P|489:123|400:48,1,192,2|2,2:0|0:0,0:0:0:0:
192,32,58254,2,0,L|288:32,1,96,0|0,1:0|0:0,0:0:0:0:
416,32,58570,2,0,L|320:32,1,96,0|2,1:0|0:0,0:0:0:0:
80,96,58885,2,0,L|192:96,1,96,0|0,1:0|0:0,0:0:0:0:
416,112,59201,5,0,1:0:0:0:
144,112,59359,1,2,0:0:0:0:
448,192,59517,2,0,L|416:288,1,96,0|0,1:0|0:0,0:0:0:0:
176,288,59833,2,0,L|272:288,2,96,0|0|0,1:0|0:0|1:0,0:0:0:0:
416,288,60307,6,0,L|208:288,1,192,2|0,0:0|0:0,0:0:0:0:
320,224,60780,2,0,L|432:224,1,96,0|0,1:0|0:0,0:0:0:0:
320,128,61096,2,0,L|320:240,1,96,0|0,0:0|1:0,0:0:0:0:
416,128,61412,1,0,0:0:0:0:
176,128,61570,1,0,1:0:0:0:
416,224,61728,6,0,L|320:224,1,96,4|2,0:0|0:0,0:0:0:0:
96,224,62043,2,0,L|192:224,1,96,0|0,1:0|0:0,0:0:0:0:
432,144,62359,2,0,L|336:144,2,96,0|2|0,1:0|0:0|1:0,0:0:0:0:
192,144,62833,2,0,P|112:192|176:240,1,192
416,256,63307,6,0,L|320:256,1,96,0|0,1:0|0:0,0:0:0:0:
416,160,63622,2,0,L|416:288,1,96,0|2,1:0|0:0,0:0:0:0:
320,160,63938,2,0,L|432:160,1,96,0|0,1:0|0:0,0:0:0:0:
192,160,64254,6,0,L|80:160,1,96,2|0,0:0|0:0,0:0:0:0:
368,96,64570,2,0,L|480:96,1,96,0|0,1:0|0:0,0:0:0:0:
192,96,64885,1,0,0:0:0:0:
416,96,65043,1,0,0:0:0:0:
144,160,65201,1,0,0:0:0:0:
384,160,65359,6,0,P|448:208|352:256,1,192
128,288,65833,2,0,L|240:288,1,96,4|0,0:0|0:0,0:0:0:0:
464,288,66149,2,0,L|416:240,1,48,0|0,1:0|0:0,0:0:0:0:
272,240,66307,2,0,L|320:192,1,48,4|0,3:0|0:0,0:0:0:0:
448,176,66464,2,0,L|400:128,1,48,0|0,1:0|1:0,1:0:0:0:
192,128,66622,2,0,L|240:80,1,48,0|0,1:0|1:0,1:0:0:0:
368,80,66780,6,0,P|432:128|352:208,1,192,4|0,0:0|0:0,0:0:0:0:
240,208,67254,1,0,0:0:0:0:
384,208,67412,2,0,L|288:208,2,96,2|0|0,0:0|0:0|0:0,0:0:0:0:
144,208,67885,6,0,P|80:144|160:80,1,192,2|0,0:0|0:0,0:0:0:0:
48,96,68359,1,2,0:0:0:0:
224,96,68675,1,0,0:0:0:0:
352,96,68833,2,0,P|416:144|336:224,1,192,2|0,0:0|0:0,0:0:0:0:
128,320,69307,6,0,P|176:256|112:176,2,192
352,176,70096,1,2,0:0:0:0:
192,176,70412,2,0,P|144:160|192:64,1,192
80,64,70885,2,0,L|176:64,1,96
416,64,71201,2,0,L|272:64,2,144
288,224,71833,6,0,L|320:128,1,96,4|0,0:0|0:0,0:0:0:0:
192,128,72149,2,0,L|160:16,1,96,0|0,1:0|0:0,0:0:0:0:
400,32,72464,2,0,L|304:32,3,96
64,32,73096,6,0,L|160:32,2,96,4|0|0,0:0|0:0|1:0,0:0:0:0:
304,32,73570,1,0,0:0:0:0:
64,128,73728,2,0,L|160:128,3,96
400,128,74359,6,0,L|432:240,1,96,4|2,0:0|0:0,0:0:0:0:
304,224,74675,2,0,L|272:320,1,96,0|0,1:0|0:0,0:0:0:0:
400,352,74991,2,0,L|304:352,3,96
64,176,75622,6,0,L|32:288,1,96,4|2,0:0|0:0,0:0:0:0:
160,272,75938,2,0,L|192:368,1,96,0|0,1:0|0:0,0:0:0:0:
64,352,76254,1,2,0:0:0:0:
336,352,76412,1,0,1:0:0:0:
96,304,76570,2,0,L|144:256,1,48,0|0,1:0|0:0,0:0:0:0:
304,272,76728,2,0,L|256:224,1,57.5999982421876,0|0,1:0|1:0,1:0:0:0:
64,192,76885,6,0,L|144:112,1,96
368,128,77201,2,0,L|256:128,1,96,0|0,1:0|0:0,0:0:0:0:
32,128,77517,2,0,L|128:128,1,96,2|0,0:0|0:0,0:0:0:0:
432,64,77833,2,0,L|336:64,1,96,0|0,1:0|0:0,0:0:0:0:
432,160,78149,5,4,0:0:0:0:
160,160,78359,1,0,1:0:0:0:
432,240,78570,1,0,1:0:0:0:
80,160,78780,1,0,1:0:0:0:
352,160,78991,1,0,1:0:0:0:
80,240,79201,1,0,1:0:0:0:
432,112,79412,6,0,L|432:224,1,96,4|2,0:0|0:0,0:0:0:0:
304,208,79728,2,0,L|400:208,2,96
64,208,80201,2,0,L|176:208,1,96,0|0,1:0|0:0,0:0:0:0:
320,96,80517,2,0,P|368:144|304:256,1,192
208,256,80991,2,0,L|208:144,1,96,0|0,1:0|0:0,0:0:0:0:
320,160,81307,5,2,0:0:0:0:
80,160,81464,2,0,L|32:112,1,52.8000016113282
224,160,81622,2,0,L|272:112,1,52.8000016113282,0|0,1:0|1:0,1:0:0:0:
112,160,81780,2,0,L|64:112,1,52.8000016113282,0|0,1:0|1:0,1:0:0:0:
256,160,81938,6,0,L|384:160,2,105.600003222656,4|0|0,0:0|0:0|0:0,0:0:0:0:
240,336,82412,1,0,0:0:0:0:
96,240,82570,2,0,L|208:240,2,105.600003222656,2|2|0,0:0|0:0|1:0,0:0:0:0:
368,128,83043,6,0,P|432:176|352:272,1,211.200006445313,2|0,0:0|0:0,0:0:0:0:
96,304,83517,2,0,L|208:304,1,105.600003222656,0|0,1:0|0:0,0:0:0:0:
96,192,83833,2,0,L|96:320,1,105.600003222656,2|0,0:0|0:0,0:0:0:0:
336,192,84149,2,0,L|224:192,1,105.600003222656,0|0,1:0|0:0,0:0:0:0:
480,192,84464,6,0,L|368:192,1,105.600003222656,2|0,0:0|0:0,0:0:0:0:
96,192,84780,2,0,L|208:192,1,105.600003222656,0|0,1:0|0:0,0:0:0:0:
304,192,85096,1,2,0:0:0:0:
32,192,85254,2,0,L|160:192,1,105.600003222656,2|0,0:0|1:0,0:0:0:0:
400,192,85570,6,0,P|448:160|368:64,1,211.200006445313
288,64,86043,2,0,L|400:64,1,105.600003222656,0|0,1:0|2:0,2:0:0:0:
256,48,86359,1,0,1:0:0:0:
384,128,86517,5,0,0:0:0:0:
320,128,86596,1,0,0:0:0:0:
256,128,86675,1,0,0:0:0:0:
128,128,86833,2,0,L|128:192,1,52.8000016113282,0|0,1:0|1:0,1:0:0:0:
384,64,86991,6,0,L|256:64,1,105.600003222656,4|0,0:0|0:0,0:0:0:0:
384,128,87307,1,0,1:0:0:0:
112,192,87464,2,0,L|224:192,2,105.600003222656,2|0|2,0:0|0:0|0:0,0:0:0:0:
416,192,87938,2,0,L|416:80,1,105.600003222656,0|0,1:0|0:0,0:0:0:0:
304,256,88254,6,0,L|416:256,1,105.600003222656,4|0,0:0|0:0,0:0:0:0:
144,256,88570,1,0,1:0:0:0:
416,128,88728,2,0,L|304:128,2,105.600003222656,2|0|2,0:0|0:0|0:0,0:0:0:0:
304,32,89201,2,0,L|304:160,1,105.600003222656,0|0,1:0|0:0,0:0:0:0:
64,144,89517,6,0,L|32:256,1,105.600003222656,2|0,1:2|0:0,0:0:0:0:
272,256,89833,2,0,L|304:384,1,105.600003222656,2|0,1:2|0:0,0:0:0:0:
64,64,90149,1,0,0:0:0:0:
320,64,90307,1,0,0:0:0:0:
64,128,90464,1,0,0:0:0:0:
320,128,90622,6,0,P|384:160|320:256,1,211.200006445313
448,128,91096,2,0,L|448:256,1,105.600003222656,0|4,1:0|3:0,0:0:0:0:
208,128,91412,2,0,L|176:240,1,105.600003222656,0|4,1:0|3:0,0:0:0:0:
224,240,91649,1,0,3:0:0:0:
384,256,91728,2,0,L|432:208,1,52.8000016113282,0|0,1:0|0:0,0:0:0:0:
224,304,91885,2,0,L|176:256,1,52.8000016113282,0|0,1:0|1:0,1:0:0:0:
384,192,92043,6,0,L|512:192,1,105.600003222656,4|0,0:0|0:0,0:0:0:0:
272,112,92359,2,0,L|400:112,1,105.600003222656,0|0,1:0|0:0,0:0:0:0:
128,112,92675,2,2,L|128:256,1,105.600003222656
192,224,92991,1,0,1:0:0:0:
432,224,93149,6,0,P|480:176|416:48,1,211.200006445313
192,48,93622,2,0,L|80:48,1,105.600003222656,0|0,1:0|0:0,0:0:0:0:
320,48,93938,2,0,L|432:48,1,105.600003222656,2|0,0:0|0:0,0:0:0:0:
160,112,94254,2,0,L|48:112,1,105.600003222656,0|0,1:0|0:0,0:0:0:0:
272,192,94570,6,0,L|160:192,1,105.600003222656,4|0,0:0|0:0,0:0:0:0:
416,192,94885,2,0,L|416:80,1,105.600003222656,0|0,1:0|0:0,0:0:0:0:
288,80,95201,1,0,1:0:0:0:
432,80,95359,2,0,L|320:80,1,105.600003222656,0|0,1:0|0:0,0:0:0:0:
96,208,95675,6,0,P|32:144|128:80,1,211.200006445313,4|4,0:0|3:0,0:0:0:0:
352,32,96149,2,0,L|224:32,1,105.600003222656,0|0,1:0|2:0,0:0:0:0:
352,96,96464,1,0,0:0:0:0:
112,176,96622,5,0,0:0:0:0:
176,176,96701,1,0,0:0:0:0:
240,176,96780,1,0,0:0:0:0:
496,176,96938,2,0,L|432:176,1,52.8000016113282,0|0,1:0|1:0,1:0:0:0:
384,176,97096,6,0,P|336:144|336:96,1,105.600003222656
96,32,97412,1,0,1:0:0:0:
384,32,97570,2,0,L|464:112,1,105.600003222656,4|0,0:0|0:0,0:0:0:0:
144,32,97885,2,0,L|48:128,1,105.600003222656,2|4,1:2|3:0,2:0:0:0:
336,32,98201,6,0,L|368:144,1,105.600003222656,4|0,0:0|0:0,0:0:0:0:
128,160,98517,1,0,1:0:0:0:
416,160,98675,1,0,1:0:0:0:
96,256,98833,6,0,L|144:208,1,52.8000016113282,0|0,1:0|1:0,1:0:0:0:
320,208,98991,2,0,L|432:208,1,105.600003222656
192,144,99307,2,0,L|80:144,1,105.600003222656
432,96,99622,5,0,0:0:0:0:
160,96,99780,1,0,0:0:0:0:
416,160,99938,1,0,0:0:0:0:
144,160,100096,2,0,P|80:192|144:272,1,158.400004833985
256,272,100412,2,0,P|320:224|320:144,1,158.400004833985
96,80,100728,6,0,L|320:80,1,211.200006445313
432,80,101201,1,0,0:0:0:0:
176,80,101359,1,0,0:0:0:0:
416,144,101517,1,0,0:0:0:0:
144,144,101675,6,0,L|96:96,1,52.8000016113282,4|0,3:0|0:0,0:0:0:0:
288,144,101833,1,0,1:0:0:0:
160,80,101991,6,0,P|112:128|112:256,1,192,4|4,0:0|3:0,0:0:0:0:
208,240,102464,2,0,L|96:240,1,96,0|0,1:0|0:0,0:0:0:0:
400,240,102780,2,0,L|304:240,2,96,2|4|0,2:0|3:0|1:0,0:0:0:0:
304,48,103254,6,0,P|368:96|304:192,1,192
112,192,103728,2,0,L|224:192,1,96,0|0,1:0|0:0,0:0:0:0:
112,272,104043,1,4,3:0:0:0:
368,272,104201,1,4,3:0:0:0:
128,128,104359,1,0,1:0:0:0:
384,128,104517,6,0,P|432:160|336:224,1,192
288,192,104991,2,0,L|400:192,1,96,0|0,1:0|0:0,0:0:0:0:
112,192,105307,2,0,L|224:192,2,96,4|0|0,3:0|0:0|1:0,0:0:0:0:
400,96,105780,6,0,L|208:96,1,192
464,192,106254,2,0,L|464:96,1,96,0|0,1:0|0:0,0:0:0:0:
208,96,106570,1,4,3:0:0:0:
448,112,106728,2,0,L|384:112,1,48,0|0,1:0|1:0,1:0:0:0:
208,176,106885,2,0,L|144:176,1,48,0|0,1:0|1:0,1:0:0:0:
368,240,107043,6,0,P|432:192|432:80,1,192,4|4,2:0|3:0,0:0:0:0:
144,240,107517,2,0,L|256:240,1,96,0|0,1:0|0:0,0:0:0:0:
64,144,107833,2,0,L|176:144,2,96,4|4|0,3:0|3:0|1:0,0:0:0:0:
304,144,108307,6,0,P|352:160|272:240,1,192
448,320,108780,2,0,L|352:320,1,96,0|0,1:0|0:0,0:0:0:0:
112,320,109096,2,0,L|224:320,2,96
400,224,109570,6,0,P|448:160|448:48,1,192,4|0,0:0|3:0,0:0:0:0:
304,192,110043,2,0,L|272:96,1,96,0|0,1:0|0:0,0:0:0:0:
400,192,110359,2,0,L|432:80,1,96,0|0,1:0|0:0,0:0:0:0:
304,32,110675,1,0,1:0:0:0:
48,144,110833,6,0,P|18:217|64:320,1,192
128,336,111307,2,0,L|160:240,1,96,0|0,1:0|0:0,0:0:0:0:
400,240,111622,5,0,0:0:0:0:
432,192,111701,1,0,0:0:0:0:
256,176,111780,1,0,0:0:0:0:
224,128,111859,1,0,0:0:0:0:
448,112,111938,5,0,0:0:0:0:
480,64,112017,1,0,0:0:0:0:
128,80,112096,1,0,0:0:0:0:
176,48,112175,1,0,0:0:0:0:
400,32,112254,5,0,0:0:0:0:
304,32,112412,2,0,L|208:32,1,96,2|0,0:0|1:0,0:0:0:0:
304,112,112728,1,4,0:0:0:0:
32,112,112886,2,0,L|160:112,1,96,2|0,0:0|1:0,0:0:0:0:
224,112,113201,5,4,0:0:0:0:
464,112,113359,2,0,L|336:112,1,96,2|0,0:0|1:0,0:0:0:0:
256,112,113675,1,4,0:0:0:0:
400,112,113833,2,0,L|400:240,1,96,2|0,0:0|1:0,0:0:0:0:
144,208,114149,6,0,L|208:208,1,48,0|0,1:0|1:0,0:0:0:0:
400,208,114307,1,4,3:0:0:0:
144,128,114464,1,4,0:0:0:0:
400,128,114622,6,0,P|448:160|416:288,1,192
304,272,115096,2,0,L|272:160,1,96,0|0,1:0|0:0,0:0:0:0:
400,272,115412,2,0,L|432:144,1,96,0|0,1:0|0:0,0:0:0:0:
112,128,115728,1,0,1:0:0:0:
400,208,115885,6,0,P|464:160|384:96,1,192,4|2,0:0|0:0,0:0:0:0:
128,80,116359,2,0,L|240:80,1,96,0|0,1:0|0:0,0:0:0:0:
464,80,116675,5,0,0:0:0:0:
416,80,116754,1,0,0:0:0:0:
224,80,116833,1,0,0:0:0:0:
272,80,116912,1,0,0:0:0:0:
416,160,116991,5,0,0:0:0:0:
368,160,117070,1,0,0:0:0:0:
160,160,117149,1,0,0:0:0:0:
208,160,117228,1,0,0:0:0:0:
432,240,117307,5,4,0:0:0:0:
192,240,117464,1,2,0:0:0:0:
448,320,117622,1,2,0:0:0:0:
192,144,117780,2,0,L|192:256,1,96,4|0,0:0|0:0,0:0:0:0:
432,144,118096,2,0,L|304:144,1,96,4|0,0:0|0:0,0:0:0:0:
192,64,118412,6,0,P|128:96|192:208,1,192
400,192,118885,2,0,L|304:192,1,96
400,32,119201,2,0,L|400:144,1,96
128,128,119517,2,0,L|128:224,1,96
400,160,119833,1,0,0:0:0:0:
256,192,119991,12,0,121096,0:0:0:0:
160,192,121254,6,0,L|112:144,1,48
288,160,121412,2,0,L|336:128,1,48
128,64,121570,2,0,L|96:16,1,48
320,48,121728,2,0,L|352:0,1,48
96,128,121885,5,0,0:0:0:0:
55,148,121963,1,0,0:0:0:0:
53,194,122042,1,0,0:0:0:0:
224,192,122122,1,0,0:0:0:0:
268,180,122200,1,0,0:0:0:0:
276,136,122279,1,0,0:0:0:0:
80,48,122359,5,0,0:0:0:0:
144,48,122517,6,0,L|64:128,1,96
240,128,122833,2,0,L|320:48,1,96
32,192,123149,2,0,L|128:192,2,96
272,192,123622,1,0,0:0:0:0:
144,192,123780,1,0,0:0:0:0:
352,192,123938,6,0,L|256:192,2,96
448,112,124412,2,0,L|352:112,1,96
256,112,124728,1,0,0:0:0:0:
128,112,124885,6,0,P|64:128|128:208,1,192
224,208,125359,2,0,L|224:304,1,96
320,208,125675,2,0,L|208:208,2,96
416,208,126149,5,0,0:0:0:0:
288,208,126307,1,0,0:0:0:0:
160,208,126464,2,0,L|128:96,1,96
272,208,126780,2,0,L|304:112,1,96
240,112,127017,5,0,0:0:0:0:
96,112,127096,2,0,L|48:64,1,48
272,48,127254,2,0,L|320:0,1,48
64,32,127412,6,0,L|160:32,1,96
64,112,127728,2,0,L|144:192,1,96
368,192,128043,2,0,L|272:192,2,96
128,272,128517,2,0,L|128:176,1,96
384,176,128833,5,0,0:0:0:0:
96,176,128991,1,0,0:0:0:0:
352,96,129149,2,0,L|240:96,1,96
16,96,129464,2,0,L|144:96,2,96
272,96,129938,5,0,0:0:0:0:
128,96,130254,1,0,0:0:0:0:
400,96,130570,1,0,0:0:0:0:
160,176,130885,1,0,0:0:0:0:
288,176,131043,1,0,0:0:0:0:
128,304,131517,6,0,L|48:224,1,96
224,304,131833,2,0,L|304:224,1,96
432,224,132070,2,0,L|384:176,1,48
192,160,132228,2,0,L|240:112,1,48
368,32,132385,1,0,0:0:0:0:
416,80,132464,6,0,P|480:144|400:208,1,192,4|0,0:0|0:0,0:0:0:0:
320,208,132938,1,0,0:0:0:0:
32,208,133096,2,0,L|144:208,2,96,2|0|0,0:0|0:0|0:0,0:0:0:0:
320,208,133569,6,0,P|384:160|304:96,1,192,2|0,0:0|0:0,0:0:0:0:
224,96,134043,1,2,0:0:0:0:
384,96,134359,1,0,0:0:0:0:
160,96,134517,2,0,P|96:144|176:224,1,192,2|0,0:0|0:0,0:0:0:0:
400,224,134991,6,0,L|208:224,2,192
112,224,135780,1,2,0:0:0:0:
320,176,136096,2,0,P|400:128|352:16,1,192
288,32,136569,2,0,L|192:32,1,96
416,176,136885,2,0,L|272:176,2,144
176,176,137517,6,0,L|208:80,1,96,4|0,0:0|0:0,0:0:0:0:
368,176,137833,2,0,L|336:64,1,96,0|0,1:0|0:0,0:0:0:0:
112,272,138149,2,0,L|112:176,1,96
416,256,138464,2,0,L|416:160,1,96
112,192,138780,6,0,L|208:192,2,96,4|0|0,0:0|0:0|1:0,0:0:0:0:
256,192,139254,1,0,0:0:0:0:
400,192,139412,2,0,L|304:192,2,96
256,192,139885,1,0,0:0:0:0:
96,128,140043,6,0,L|128:240,1,96,4|2,0:0|0:0,0:0:0:0:
416,144,140359,2,0,L|384:240,1,96,0|0,1:0|0:0,0:0:0:0:
80,128,140675,2,0,L|176:128,1,96
432,144,140991,2,0,L|336:144,1,96
96,128,141306,6,0,L|176:208,1,96,4|2,0:0|0:0,0:0:0:0:
416,144,141622,2,0,L|336:224,1,96,0|0,1:0|0:0,0:0:0:0:
224,144,141938,1,2,0:0:0:0:
352,144,142096,1,0,1:0:0:0:
112,224,142254,5,0,0:0:0:0:
70,242,142332,1,0,0:0:0:0:
68,287,142411,1,0,0:0:0:0:
108,309,142490,1,0,0:0:0:0:
384,320,142569,6,0,L|288:320,1,96
448,240,142885,2,0,L|336:240,1,96,0|0,1:0|0:0,0:0:0:0:
128,320,143201,2,0,L|224:320,1,96
64,240,143517,2,0,L|176:240,1,96,0|0,1:0|0:0,0:0:0:0:
448,240,143833,5,4,0:0:0:0:
320,240,144043,1,0,1:0:0:0:
32,240,144254,1,0,1:0:0:0:
160,240,144464,1,0,1:0:0:0:
448,32,144675,1,0,1:0:0:0:
64,32,144885,1,0,1:0:0:0:
192,32,145096,6,0,L|96:128,1,96,4|2,0:0|0:0,0:0:0:0:
352,32,145412,2,0,L|448:32,2,96
128,96,145885,2,0,L|128:208,1,96,0|0,1:0|0:0,0:0:0:0:
368,192,146201,2,0,P|416:272|352:352,1,192
256,352,146675,2,0,L|160:352,1,96,0|0,1:0|0:0,0:0:0:0:
112,352,146912,1,0,0:0:0:0:
48,352,146991,6,0,L|96:352,1,48
288,304,147149,2,0,L|240:304,1,48
80,272,147307,2,0,L|144:272,1,48
352,224,147464,2,0,L|288:224,1,48
112,176,147622,6,0,L|32:96,1,105.600003222656
176,176,147938,1,0,0:0:0:0:
112,112,148096,1,0,0:0:0:0:
384,96,148254,2,0,L|272:96,2,105.600003222656,2|2|0,0:0|0:0|1:0,0:0:0:0:
96,64,148727,6,0,P|32:112|112:208,1,211.200006445313,2|0,0:0|0:0,0:0:0:0:
176,208,149201,2,0,L|256:128,1,105.600003222656,0|0,1:0|0:0,0:0:0:0:
496,144,149517,2,0,L|400:240,1,105.600003222656,2|0,0:0|0:0,0:0:0:0:
112,208,149833,2,0,L|224:208,1,105.600003222656,0|0,1:0|0:0,0:0:0:0:
480,192,150148,6,0,L|368:192,1,105.600003222656,2|0,0:0|0:0,0:0:0:0:
144,128,150464,2,0,L|256:128,1,105.600003222656,0|0,1:0|0:0,0:0:0:0:
16,128,150780,1,2,0:0:0:0:
256,48,150938,2,0,L|384:48,1,105.600003222656,2|0,0:0|1:0,0:0:0:0:
128,48,151254,6,0,P|50:102|106:178,1,211.200006445313
336,176,151727,2,0,L|448:176,1,105.600003222656,0|0,1:0|2:0,2:0:0:0:
336,96,152043,1,0,1:0:0:0:
96,352,152201,5,0,0:0:0:0:
256,352,152280,1,0,0:0:0:0:
400,352,152359,2,0,L|400:224,1,105.600003222656
256,224,152596,1,0,0:0:0:0:
96,224,152675,2,0,L|0:128,1,105.600003222656
256,288,152991,5,0,1:0:0:0:
480,224,153148,2,0,L|368:224,2,105.600003222656,2|0|2,0:0|0:0|0:0,0:0:0:0:
368,128,153622,2,0,L|288:48,1,105.600003222656,0|0,1:0|0:0,0:0:0:0:
432,32,153938,6,0,L|432:144,1,105.600003222656,4|0,0:0|0:0,0:0:0:0:
192,128,154254,1,0,1:0:0:0:
432,208,154412,2,0,L|320:208,2,105.600003222656,2|0|2,0:0|0:0|0:0,0:0:0:0:
80,208,154885,2,0,L|192:208,1,105.600003222656,0|0,1:0|0:0,0:0:0:0:
80,208,155201,6,0,L|80:320,1,105.600003222656,2|0,1:2|0:0,0:0:0:0:
320,208,155517,2,0,L|400:288,1,105.600003222656,2|0,1:2|0:0,0:0:0:0:
160,288,155833,1,0,0:0:0:0:
448,288,155991,1,0,0:0:0:0:
224,288,156148,1,0,0:0:0:0:
128,288,156306,6,0,P|62:219|135:159,1,211.200006445313
256,160,156780,2,0,L|368:160,1,105.600003222656,0|4,1:0|3:0,0:0:0:0:
144,160,157096,2,0,L|32:160,1,105.600003222656,0|4,1:0|3:0,0:0:0:0:
80,160,157333,1,0,3:0:0:0:
384,256,157412,2,0,L|320:256,1,52.8000016113282,0|0,1:0|0:0,0:0:0:0:
144,304,157569,2,0,L|208:304,1,52.8000016113282,0|0,1:0|1:0,1:0:0:0:
384,192,157727,6,0,L|480:96,1,105.600003222656,4|0,0:0|0:0,0:0:0:0:
240,192,158043,2,0,L|160:112,1,105.600003222656,0|0,1:0|0:0,0:0:0:0:
432,288,158359,2,0,L|320:288,2,105.600003222656
192,288,158833,6,0,P|144:240|208:112,1,211.200006445313
288,112,159306,2,0,L|256:224,1,105.600003222656,0|0,1:0|0:0,0:0:0:0:
384,112,159622,2,0,L|416:224,1,105.600003222656,2|0,0:0|0:0,0:0:0:0:
192,112,159938,2,0,L|80:112,1,105.600003222656
320,112,160254,2,0,L|448:112,1,105.600003222656
192,176,160569,6,0,L|80:176,1,105.600003222656,0|0,1:0|0:0,0:0:0:0:
320,176,160885,2,0,L|432:176,2,105.600003222656
176,176,161359,6,0,P|96:128|96:16,1,211.200006445313,4|4,0:0|3:0,0:0:0:0:
224,16,161833,2,0,L|304:96,1,105.600003222656,0|0,1:0|2:0,0:0:0:0:
400,96,162148,1,0,0:0:0:0:
96,304,162306,5,0,0:0:0:0:
256,304,162385,1,0,0:0:0:0:
416,304,162464,2,0,L|416:192,1,105.600003222656
256,192,162701,1,0,0:0:0:0:
96,192,162780,6,0,L|208:192,1,105.600003222656
96,112,163096,1,0,1:0:0:0:
416,192,163254,2,0,L|304:192,1,105.600003222656,4|0,0:0|0:0,0:0:0:0:
80,208,163569,2,0,L|192:208,1,105.600003222656,2|4,1:2|3:0,2:0:0:0:
432,128,163885,6,0,L|320:128,1,105.600003222656,4|0,0:0|0:0,0:0:0:0:
80,112,164201,1,0,1:0:0:0:
432,64,164359,1,0,1:0:0:0:
112,48,164517,6,0,L|176:48,1,52.8000016113282
384,128,164675,2,0,L|320:128,1,52.8000016113282
160,192,164833,2,0,L|224:192,1,52.8000016113282
432,240,164991,2,0,L|368:240,1,52.8000016113282
80,96,165307,5,0,0:0:0:0:
352,96,165465,1,0,0:0:0:0:
80,160,165623,1,0,0:0:0:0:
352,160,165780,2,0,P|400:192|352:256,1,144
224,256,166096,2,0,P|160:208|176:128,1,144
304,112,166412,2,0,P|400:128|400:128,1,96
208,112,166649,6,0,L|160:112,1,48
304,176,166807,2,0,L|352:176,1,48
176,208,166964,2,0,L|128:208,1,48
336,256,167122,2,0,L|384:256,1,48
160,288,167280,2,0,L|112:288,1,48
384,320,167438,5,0,0:0:0:0:
352,320,167517,1,0,0:0:0:0:
128,144,167675,1,0,0:0:0:0:
