osu file format v14

[General]
AudioFilename: audio.mp3
AudioLeadIn: 0
PreviewTime: 81870
Countdown: 0
SampleSet: Soft
StackLeniency: 0.7
Mode: 3
LetterboxInBreaks: 0
SpecialStyle: 0
WidescreenStoryboard: 0

[Editor]
DistanceSpacing: 0.5
BeatDivisor: 4
GridSize: 8
TimelineZoom: 2.1

[Metadata]
Title:ONENESS
TitleUnicode:ONENESS
Artist:Roselia
ArtistUnicode:Roselia
Creator:FerdiXIA-
Version:Lofty Ambition
Source:バンドリ! ガールズバンドパーティ!
Tags:Forthnos Anfang 4th single シングル Bangdream! BanG Dream! Girls Band Party! Bandori Garupa ガルパ ロゼリア 湊友希那 Minato Yukina 相羽あいな Aiba Aina 宇田川あこ Udagawa Ako 櫻川めぐ Sakuragawa Megu 白金燐子 Shirokane Rinko 明坂聡美 Akesaka Satomi 氷川紗夜 Hikawa Sayo 工藤晴香 Kudou Haruka 今井リサ Imai Lisa 遠藤ゆりか Endou Yurika 織田あすか Oda Asuka 上松範康 Agematsu Noriyasu 藤永龍太郎 Fujinaga Ryutaro Elements Garden Female Vocals pop jpop j-pop video game japanese
BeatmapID:3184034
BeatmapSetID:1558772

[Difficulty]
HPDrainRate:8
CircleSize:4
OverallDifficulty:8
ApproachRate:5
SliderMultiplier:1.4
SliderTickRate:1

[Events]
//Background and Video events
0,0,"background.jpg",0,0
//Break Periods
//Storyboard Layer 0 (Background)
//Storyboard Layer 1 (Fail)
//Storyboard Layer 2 (Pass)
//Storyboard Layer 3 (Foreground)
//Storyboard Layer 4 (Overlay)
//Storyboard Sound Samples

[TimingPoints]
1125,600,4,2,1,25,1,0
1125,-52.6315789473684,4,2,1,25,0,0
17925,652.173913043478,4,2,1,25,1,0
17925,-48.3091787439614,4,2,1,25,0,0
18577,714.285714285714,4,2,1,25,1,0
18577,-44.2477876106195,4,2,1,25,0,0
19291,869.565217391304,4,2,1,25,1,0
19291,-36.3636363636364,4,2,1,25,0,0
20160,1153.84615384615,4,2,1,25,1,0
20160,-27.3972602739726,4,2,1,25,0,0
21318,315.789473684211,4,2,1,25,1,0
30791,-100,4,2,1,60,0,0
66791,-117.647058823529,4,2,1,25,0,0
71528,-33.3333333333333,4,2,1,60,0,0
71568,-166.666666666667,4,2,1,60,0,0
71764.75,-125,4,2,1,60,0,0
71784.5,-100,4,2,1,60,0,0
71804.25,-83.3333333333333,4,2,1,60,0,0
71824,-71.4285714285714,4,2,1,60,0,0
71844,-100,4,2,1,60,0,0
78160,-66.6666666666667,4,2,1,60,0,0
78265,-200,4,2,1,60,0,0
78370,-66.6666666666667,4,2,1,60,0,0
78475,-200,4,2,1,60,0,0
78581,-66.6666666666667,4,2,1,60,0,0
78686,-200,4,2,1,60,0,0
78791,-66.6666666666667,4,2,1,60,0,0
78896,-200,4,2,1,60,0,0
79002,-66.6666666666667,4,2,1,60,0,0
79107,-200,4,2,1,60,0,0
79212,-66.6666666666667,4,2,1,60,0,0
79318,-200,4,2,1,60,0,0
79423,-100,4,2,1,60,0,0
81949,-100,4,2,1,60,0,1
91423,-100,4,2,1,60,0,0
92054,-100,4,2,1,60,0,1
99633,-400,4,2,1,60,0,0
100739,-250,4,2,1,60,0,0
100818,-181.818181818182,4,2,1,60,0,0
100896,-142.857142857143,4,2,1,60,0,0
100975,-117.647058823529,4,2,1,60,0,0
101054,-100,4,2,1,60,0,0
117791,-400,4,2,1,60,0,0
117870,-133.333333333333,4,2,1,60,0,0
117949,-80,4,2,1,60,0,0
118028,-57.1428571428571,4,2,1,60,0,0
118107,-400,4,2,1,60,0,0
118186,-133.333333333333,4,2,1,60,0,0
118265,-80,4,2,1,60,0,0
118344,-57.1428571428571,4,2,1,60,0,0
118423,-100,4,2,1,60,0,0

[HitObjects]
64,192,1125,128,0,1725:0:0:0:0:
448,192,1125,1,0,0:0:0:0:
192,192,1425,1,0,0:0:0:0:
320,192,1725,128,0,2325:0:0:0:0:
448,192,2025,1,0,0:0:0:0:
192,192,2325,128,0,2625:0:0:0:0:
448,192,2625,128,0,2925:0:0:0:0:
320,192,2925,1,0,0:0:0:0:
64,192,3225,128,0,3825:0:0:0:0:
320,192,3525,1,0,0:0:0:0:
448,192,3525,1,0,0:0:0:0:
192,192,3825,128,0,4125:0:0:0:0:
448,192,4125,128,0,4725:0:0:0:0:
192,192,4425,1,0,0:0:0:0:
320,192,4725,128,0,5025:0:0:0:0:
192,192,5325,128,0,5925:0:0:0:0:
64,192,5925,128,0,6525:0:0:0:0:
448,192,5925,1,0,0:0:0:0:
320,192,6225,1,0,0:0:0:0:
448,192,6525,128,0,7125:0:0:0:0:
192,192,6825,1,0,0:0:0:0:
320,192,7125,128,0,7425:0:0:0:0:
64,192,7425,128,0,7725:0:0:0:0:
320,192,7725,1,0,0:0:0:0:
192,192,8025,128,0,10425:0:0:0:0:
64,192,8325,1,0,0:0:0:0:
448,192,8325,1,0,0:0:0:0:
320,192,8625,1,0,0:0:0:0:
448,192,8925,1,0,0:0:0:0:
64,192,9225,1,0,0:0:0:0:
320,192,9525,1,0,0:0:0:0:
448,192,9825,1,0,0:0:0:0:
64,192,10125,1,0,0:0:0:0:
320,192,10425,1,0,0:0:0:0:
64,192,10725,1,0,0:0:0:0:
448,192,10725,1,0,0:0:0:0:
192,192,11025,1,0,0:0:0:0:
320,192,11325,128,0,11475:0:0:0:0:
320,192,11625,128,0,11925:0:0:0:0:
448,192,11925,128,0,12375:0:0:0:0:
64,192,12375,128,0,12825:0:0:0:0:
320,192,12525,1,0,0:0:0:0:
192,192,12825,128,0,13125:0:0:0:0:
320,192,13125,128,0,13725:0:0:0:0:
448,192,13125,1,0,0:0:0:0:
192,192,13425,1,0,0:0:0:0:
448,192,13725,128,0,14325:0:0:0:0:
64,192,14025,1,0,0:0:0:0:
192,192,14325,128,0,14925:0:0:0:0:
320,192,14925,128,0,15525:0:0:0:0:
64,192,15525,128,0,15825:0:0:0:0:
448,192,15525,1,0,0:0:0:0:
192,192,15825,1,0,0:0:0:0:
448,192,16125,1,0,0:0:0:0:
64,192,16425,128,0,16575:0:0:0:0:
64,192,16725,128,0,17025:0:0:0:0:
320,192,16725,128,0,17025:0:0:0:0:
192,192,17175,128,0,17475:0:0:0:0:
448,192,17175,128,0,17475:0:0:0:0:
320,192,17625,128,0,17925:0:0:0:0:
448,192,17625,128,0,17925:0:0:0:0:
64,192,17925,128,0,21025:0:0:0:0:
192,192,17925,128,0,18251:0:0:0:0:
448,192,18577,128,0,21025:0:0:0:0:
192,192,19291,128,0,21025:0:0:0:0:
320,192,20160,128,0,21025:0:0:0:0:
64,192,21318,128,0,21633:0:0:0:0:
448,192,21318,1,0,0:0:0:0:
192,192,21633,128,0,21949:0:0:0:0:
320,192,21633,128,0,21791:0:0:0:0:
448,192,21791,128,0,21949:0:0:0:0:
64,192,21949,128,0,22107:0:0:0:0:
320,192,21949,128,0,22265:0:0:0:0:
192,192,22107,128,0,22265:0:0:0:0:
448,192,22265,128,0,22423:0:0:0:0:
192,192,22423,128,0,22660:0:0:0:0:
64,192,22739,128,0,22896:0:0:0:0:
192,192,22739,128,0,22896:0:0:0:0:
320,192,22896,128,0,23212:0:0:0:0:
448,192,22896,128,0,23054:0:0:0:0:
64,192,23054,128,0,23212:0:0:0:0:
192,192,23212,128,0,23370:0:0:0:0:
448,192,23212,128,0,23528:0:0:0:0:
320,192,23370,128,0,23528:0:0:0:0:
64,192,23528,128,0,23686:0:0:0:0:
448,192,23686,128,0,23923:0:0:0:0:
448,192,24002,128,0,24160:0:0:0:0:
64,192,24160,128,0,24318:0:0:0:0:
192,192,24160,128,0,24318:0:0:0:0:
320,192,24318,1,0,0:0:0:0:
64,192,24475,128,0,24633:0:0:0:0:
448,192,24475,128,0,24633:0:0:0:0:
320,192,24633,1,0,0:0:0:0:
192,192,24791,128,0,24949:0:0:0:0:
448,192,24949,128,0,25265:0:0:0:0:
320,192,25107,128,0,25265:0:0:0:0:
64,192,25265,128,0,25423:0:0:0:0:
192,192,25265,128,0,25423:0:0:0:0:
320,192,25423,128,0,25581:0:0:0:0:
448,192,25423,128,0,25739:0:0:0:0:
64,192,25581,128,0,25739:0:0:0:0:
192,192,25739,128,0,26054:0:0:0:0:
320,192,25739,128,0,25896:0:0:0:0:
64,192,25896,128,0,26054:0:0:0:0:
448,192,26054,128,0,26212:0:0:0:0:
192,192,26212,128,0,26449:0:0:0:0:
320,192,26370,1,0,0:0:0:0:
192,192,26528,128,0,26686:0:0:0:0:
64,192,26686,128,0,27002:0:0:0:0:
448,192,26686,128,0,26844:0:0:0:0:
320,192,26844,128,0,27002:0:0:0:0:
192,192,27002,128,0,27160:0:0:0:0:
448,192,27002,128,0,27318:0:0:0:0:
64,192,27160,128,0,27475:0:0:0:0:
320,192,27318,1,0,0:0:0:0:
448,192,27475,128,0,27712:0:0:0:0:
192,192,27633,1,0,0:0:0:0:
320,192,27791,128,0,27949:0:0:0:0:
448,192,27791,128,0,27949:0:0:0:0:
64,192,27949,128,0,28265:0:0:0:0:
192,192,27949,128,0,28107:0:0:0:0:
320,192,28107,128,0,28265:0:0:0:0:
192,192,28265,128,0,28423:0:0:0:0:
448,192,28265,128,0,28581:0:0:0:0:
64,192,28423,128,0,28581:0:0:0:0:
192,192,28581,1,0,0:0:0:0:
320,192,28739,128,0,28896:0:0:0:0:
64,192,28896,128,0,28975:0:0:0:0:
192,192,28896,1,0,0:0:0:0:
64,192,29054,128,0,29212:0:0:0:0:
192,192,29212,128,0,29370:0:0:0:0:
448,192,29212,128,0,29370:0:0:0:0:
320,192,29370,1,0,0:0:0:0:
64,192,29528,128,0,29686:0:0:0:0:
192,192,29528,128,0,29686:0:0:0:0:
448,192,29686,1,0,0:0:0:0:
64,192,29844,128,0,30002:0:0:0:0:
320,192,29844,128,0,30002:0:0:0:0:
192,192,30002,128,0,30318:0:0:0:0:
448,192,30160,1,0,0:0:0:0:
64,192,30318,128,0,30396:0:0:0:0:
320,192,30318,128,0,30396:0:0:0:0:
192,192,30475,128,0,30554:0:0:0:0:
448,192,30475,128,0,30554:0:0:0:0:
320,192,30633,128,0,30712:0:0:0:0:
448,192,30633,128,0,30712:0:0:0:0:
64,192,30791,1,8,0:0:0:0:
192,192,30791,1,0,0:0:0:0:
320,192,30870,1,8,0:0:0:0:
448,192,30870,1,0,0:0:0:0:
64,192,30949,1,8,0:0:0:0:
192,192,30949,1,0,0:0:0:0:
320,192,31028,1,8,0:0:0:0:
448,192,31028,1,0,0:0:0:0:
64,192,31107,1,8,0:0:0:0:
192,192,31107,1,0,0:0:0:0:
320,192,31186,1,8,0:0:0:0:
64,192,31265,1,2,0:0:0:0:
192,192,31265,1,4,0:0:0:0:
448,192,31265,1,0,0:0:0:0:
320,192,31423,1,0,0:0:0:0:
64,192,31581,1,2,0:0:0:0:
192,192,31581,1,0,0:0:0:0:
64,192,31739,1,8,0:0:0:0:
320,192,31739,1,0,0:0:0:0:
448,192,31739,1,0,0:0:0:0:
320,192,31896,1,0,0:0:0:0:
64,192,32054,1,2,0:0:0:0:
448,192,32054,1,0,0:0:0:0:
192,192,32212,1,0,0:0:0:0:
64,192,32370,1,8,0:0:0:0:
320,192,32370,1,0,0:0:0:0:
448,192,32370,1,0,0:0:0:0:
64,192,32528,1,0,0:0:0:0:
192,192,32686,1,2,0:0:0:0:
320,192,32686,1,0,0:0:0:0:
448,192,32844,1,0,0:0:0:0:
64,192,33002,1,8,0:0:0:0:
192,192,33002,1,0,0:0:0:0:
320,192,33002,1,0,0:0:0:0:
192,192,33160,1,0,0:0:0:0:
320,192,33318,1,2,0:0:0:0:
448,192,33318,1,0,0:0:0:0:
64,192,33475,1,2,0:0:0:0:
192,192,33475,1,0,0:0:0:0:
64,192,33633,1,8,0:0:0:0:
320,192,33633,1,0,0:0:0:0:
448,192,33633,1,0,0:0:0:0:
64,192,33791,1,2,0:0:0:0:
192,192,33791,128,4,34107:0:0:0:0:
448,192,33791,1,0,0:0:0:0:
320,192,34107,1,2,0:0:0:0:
448,192,34107,128,0,34265:0:0:0:0:
64,192,34265,1,8,0:0:0:0:
192,192,34265,1,0,0:0:0:0:
320,192,34265,128,0,34423:0:0:0:0:
448,192,34423,1,0,0:0:0:0:
64,192,34581,128,2,34739:0:0:0:0:
192,192,34581,1,0,0:0:0:0:
320,192,34739,1,2,0:0:0:0:
448,192,34739,1,0,0:0:0:0:
64,192,34896,1,8,0:0:0:0:
192,192,34896,1,0,0:0:0:0:
448,192,34896,128,0,35054:0:0:0:0:
64,192,35054,1,2,0:0:0:0:
192,192,35054,128,4,35370:0:0:0:0:
320,192,35054,1,0,0:0:0:0:
320,192,35370,1,2,0:0:0:0:
448,192,35370,1,0,0:0:0:0:
64,192,35528,1,8,0:0:0:0:
192,192,35528,1,0,0:0:0:0:
448,192,35528,1,0,0:0:0:0:
320,192,35686,1,0,0:0:0:0:
64,192,35844,1,2,0:0:0:0:
192,192,35844,1,0,0:0:0:0:
320,192,36002,1,8,0:0:0:0:
448,192,36002,1,0,0:0:0:0:
64,192,36081,1,8,0:0:0:0:
192,192,36081,1,0,0:0:0:0:
320,192,36160,1,8,0:0:0:0:
448,192,36160,1,0,0:0:0:0:
64,192,36318,1,2,0:0:0:0:
192,192,36318,1,4,0:0:0:0:
448,192,36318,1,0,0:0:0:0:
320,192,36475,1,0,0:0:0:0:
192,192,36633,1,2,0:0:0:0:
448,192,36633,1,0,0:0:0:0:
64,192,36791,1,8,0:0:0:0:
320,192,36791,1,0,0:0:0:0:
448,192,36791,1,0,0:0:0:0:
64,192,36949,1,0,0:0:0:0:
192,192,37107,1,2,0:0:0:0:
320,192,37107,1,0,0:0:0:0:
448,192,37265,1,0,0:0:0:0:
64,192,37423,1,8,0:0:0:0:
192,192,37423,1,0,0:0:0:0:
320,192,37423,1,0,0:0:0:0:
320,192,37581,1,0,0:0:0:0:
64,192,37739,1,2,0:0:0:0:
448,192,37739,1,0,0:0:0:0:
192,192,37896,1,0,0:0:0:0:
64,192,38054,1,8,0:0:0:0:
320,192,38054,1,0,0:0:0:0:
448,192,38054,1,0,0:0:0:0:
64,192,38212,1,0,0:0:0:0:
320,192,38370,1,2,0:0:0:0:
448,192,38370,1,0,0:0:0:0:
192,192,38528,1,2,0:0:0:0:
448,192,38528,1,0,0:0:0:0:
64,192,38686,1,8,0:0:0:0:
192,192,38686,1,0,0:0:0:0:
320,192,38686,1,0,0:0:0:0:
64,192,38844,1,2,0:0:0:0:
320,192,38844,1,4,0:0:0:0:
448,192,38844,128,0,39160:0:0:0:0:
64,192,39160,128,2,39318:0:0:0:0:
320,192,39160,1,0,0:0:0:0:
192,192,39318,128,8,39475:0:0:0:0:
320,192,39318,1,0,0:0:0:0:
448,192,39318,1,0,0:0:0:0:
320,192,39633,128,2,39791:0:0:0:0:
448,192,39633,1,0,0:0:0:0:
64,192,39791,1,2,0:0:0:0:
192,192,39791,1,0,0:0:0:0:
64,192,39949,128,8,40107:0:0:0:0:
320,192,39949,1,0,0:0:0:0:
448,192,39949,1,0,0:0:0:0:
192,192,40107,128,2,40423:0:0:0:0:
320,192,40107,1,4,0:0:0:0:
448,192,40107,1,0,0:0:0:0:
320,192,40423,1,2,0:0:0:0:
448,192,40423,1,0,0:0:0:0:
64,192,40581,1,8,0:0:0:0:
192,192,40581,1,4,0:0:0:0:
448,192,40581,1,0,0:0:0:0:
192,192,40739,1,2,0:0:0:0:
320,192,40739,1,0,0:0:0:0:
64,192,40896,1,8,0:0:0:0:
448,192,40896,1,0,0:0:0:0:
320,192,40975,1,0,0:0:0:100:KICK 2.wav
64,192,41054,1,0,0:0:0:100:KICK 2.wav
192,192,41054,1,0,0:0:0:0:
320,192,41133,1,0,0:0:0:100:KICK 2.wav
192,192,41212,1,0,0:0:0:100:KICK 2.wav
448,192,41212,1,0,0:0:0:0:
64,192,41291,1,0,0:0:0:100:KICK 2.wav
320,192,41370,1,0,0:0:0:100:KICK 2.wav
448,192,41370,1,0,0:0:0:0:
192,192,41449,1,0,0:0:0:100:KICK 2.wav
64,192,41528,1,4,0:0:0:0:
320,192,41528,1,8,0:0:0:0:
448,192,41528,1,0,0:0:0:0:
192,192,41686,1,2,0:0:0:0:
448,192,41686,1,0,0:0:0:0:
64,192,41844,1,2,0:0:0:0:
320,192,41844,1,0,0:0:0:0:
64,192,42002,1,4,0:0:0:0:
192,192,42002,1,8,0:0:0:0:
448,192,42002,1,0,0:0:0:0:
320,192,42160,1,2,0:0:0:0:
448,192,42160,1,0,0:0:0:0:
64,192,42318,1,2,0:0:0:0:
192,192,42318,1,0,0:0:0:0:
64,192,42475,1,8,0:0:0:0:
192,192,42475,1,4,0:0:0:0:
448,192,42475,1,0,0:0:0:0:
192,192,42633,1,2,0:0:0:0:
320,192,42633,1,0,0:0:0:0:
64,192,42791,1,2,0:0:0:0:
448,192,42791,1,0,0:0:0:0:
64,192,42949,1,8,0:0:0:0:
192,192,42949,1,4,0:0:0:0:
320,192,42949,1,0,0:0:0:0:
192,192,43107,1,2,0:0:0:0:
448,192,43107,1,0,0:0:0:0:
64,192,43265,1,2,0:0:0:0:
448,192,43265,1,0,0:0:0:0:
64,192,43423,1,8,0:0:0:0:
320,192,43423,1,4,0:0:0:0:
448,192,43423,1,0,0:0:0:0:
192,192,43581,1,2,0:0:0:0:
320,192,43581,1,0,0:0:0:0:
64,192,43739,1,8,0:0:0:0:
192,192,43739,1,0,0:0:0:0:
448,192,43739,1,0,0:0:0:0:
64,192,43896,128,2,44212:0:0:0:0:
320,192,43896,1,4,0:0:0:0:
448,192,43896,1,0,0:0:0:0:
192,192,44212,1,0,0:0:0:100:KICK 2.wav
448,192,44212,1,0,0:0:0:0:
320,192,44291,1,0,0:0:0:100:KICK 2.wav
64,192,44370,1,8,0:0:0:0:
192,192,44370,1,0,0:0:0:60:hihat02.wav
448,192,44370,1,0,0:0:0:0:
192,192,44528,1,2,0:0:0:0:
320,192,44528,1,0,0:0:0:0:
64,192,44686,1,8,0:0:0:0:
320,192,44686,1,0,0:0:0:60:hihat02.wav
448,192,44686,1,0,0:0:0:0:
192,192,44844,1,2,0:0:0:0:
448,192,44844,1,0,0:0:0:0:
64,192,45002,1,8,0:0:0:0:
192,192,45002,1,0,0:0:0:0:
320,192,45002,1,0,0:0:0:0:
64,192,45160,1,2,0:0:0:0:
320,192,45160,1,4,0:0:0:0:
448,192,45160,128,0,45475:0:0:0:0:
64,192,45475,1,8,0:0:0:0:
192,192,45475,1,0,0:0:0:0:
320,192,45475,1,0,0:0:0:0:
64,192,45633,1,8,0:0:0:0:
320,192,45633,1,0,0:0:0:0:
448,192,45633,1,0,0:0:0:0:
64,192,45791,1,8,0:0:0:0:
192,192,45791,1,0,0:0:0:0:
448,192,45791,1,0,0:0:0:0:
192,192,45949,1,8,0:0:0:0:
320,192,45949,1,0,0:0:0:0:
448,192,45949,1,0,0:0:0:0:
64,192,46107,128,8,46423:0:0:0:0:
192,192,46107,1,0,0:0:0:60:hihat02.wav
320,192,46107,1,0,0:0:0:0:
448,192,46423,128,0,46581:0:0:0:0:
64,192,46581,1,2,0:0:0:0:
192,192,46581,1,4,0:0:0:0:
320,192,46581,1,0,0:0:0:0:
192,192,46896,128,2,47212:0:0:0:0:
320,192,46896,1,0,0:0:0:0:
64,192,47054,1,0,0:0:0:0:
320,192,47212,1,2,0:0:0:0:
448,192,47212,128,0,47528:0:0:0:0:
192,192,47370,1,0,0:0:0:0:
64,192,47528,128,2,47686:0:0:0:0:
320,192,47528,1,0,0:0:0:0:
448,192,47686,128,0,47844:0:0:0:0:
64,192,47844,1,2,0:0:0:0:
192,192,47844,1,0,0:0:0:0:
320,192,48002,1,0,0:0:0:0:
64,192,48160,128,2,48318:0:0:0:0:
448,192,48160,1,0,0:0:0:0:
320,192,48318,128,0,48475:0:0:0:0:
192,192,48475,1,2,0:0:0:0:
448,192,48475,128,0,48633:0:0:0:0:
64,192,48633,128,0,48791:0:0:0:60:hihat02.wav
192,192,48791,128,2,48949:0:0:0:0:
320,192,48791,1,0,0:0:0:0:
64,192,48949,128,0,49107:0:0:0:60:hihat02.wav
320,192,49107,128,2,49423:0:0:0:0:
448,192,49107,1,0,0:0:0:0:
192,192,49265,1,0,0:0:0:0:
64,192,49423,1,2,0:0:0:0:
448,192,49423,1,0,0:0:0:0:
320,192,49581,1,0,0:0:0:0:
64,192,49739,1,2,0:0:0:0:
192,192,49739,1,0,0:0:0:0:
320,192,49896,1,0,0:0:0:0:
192,192,50054,1,2,0:0:0:0:
448,192,50054,1,0,0:0:0:0:
64,192,50212,1,0,0:0:0:0:
192,192,50370,1,2,0:0:0:0:
320,192,50370,1,0,0:0:0:0:
448,192,50528,1,0,0:0:0:0:
64,192,50686,1,2,0:0:0:0:
320,192,50686,1,0,0:0:0:0:
192,192,50844,1,0,0:0:0:0:
64,192,51002,1,2,0:0:0:0:
448,192,51002,1,0,0:0:0:0:
320,192,51160,128,0,51318:0:0:0:60:hihat02.wav
64,192,51318,1,2,0:0:0:0:
192,192,51318,1,0,0:0:0:0:
320,192,51475,128,0,51633:0:0:0:60:hihat02.wav
64,192,51633,1,2,0:0:0:0:
448,192,51633,1,0,0:0:0:0:
192,192,51791,1,0,0:0:0:0:
64,192,51949,1,2,0:0:0:0:
320,192,51949,128,0,52265:0:0:0:0:
448,192,52107,1,0,0:0:0:0:
64,192,52265,1,2,0:0:0:0:
192,192,52265,128,0,52423:0:0:0:0:
448,192,52423,128,0,52581:0:0:0:0:
64,192,52581,128,2,52739:0:0:0:0:
320,192,52581,1,0,0:0:0:0:
192,192,52739,128,0,53054:0:0:0:0:
320,192,52896,1,2,0:0:0:0:
448,192,52896,1,0,0:0:0:0:
64,192,53054,1,0,0:0:0:0:
192,192,53212,1,2,0:0:0:0:
448,192,53212,128,0,53370:0:0:0:0:
320,192,53370,128,0,53528:0:0:0:0:
64,192,53528,128,2,53686:0:0:0:0:
192,192,53528,1,0,0:0:0:60:hihat02.wav
320,192,53686,1,8,0:0:0:0:
448,192,53686,1,0,0:0:0:0:
192,192,53765,1,8,0:0:0:0:
64,192,53844,1,8,0:0:0:0:
320,192,53844,1,0,0:0:0:0:
448,192,53844,1,0,0:0:0:0:
192,192,54002,1,2,0:0:0:0:
448,192,54002,128,0,54475:0:0:0:60:hihat02.wav
64,192,54160,128,0,54475:0:0:0:0:
320,192,54318,128,0,54475:0:0:0:0:
192,192,54475,128,0,54633:0:0:0:0:
64,192,54791,128,0,54949:0:0:0:0:
320,192,55107,128,0,55265:0:0:0:0:
64,192,55265,1,2,0:0:0:0:
192,192,55265,128,4,55581:0:0:0:0:
448,192,55265,1,0,0:0:0:0:
64,192,55581,1,8,0:0:0:0:
320,192,55581,1,0,0:0:0:0:
448,192,55581,1,0,0:0:0:0:
64,192,55739,1,2,0:0:0:0:
192,192,55739,1,0,0:0:0:0:
320,192,55896,1,8,0:0:0:0:
448,192,55896,1,0,0:0:0:0:
64,192,55975,1,8,0:0:0:0:
192,192,55975,1,0,0:0:0:0:
320,192,56054,1,0,0:0:0:100:KICK 2.wav
448,192,56054,1,0,0:0:0:0:
64,192,56212,1,8,0:0:0:0:
192,192,56212,1,0,0:0:0:0:
320,192,56291,1,8,0:0:0:0:
448,192,56291,1,0,0:0:0:0:
64,192,56370,1,2,0:0:0:0:
192,192,56370,1,0,0:0:0:0:
320,192,56449,1,8,0:0:0:0:
448,192,56449,1,0,0:0:0:0:
64,192,56528,1,8,0:0:0:0:
192,192,56528,1,0,0:0:0:0:
320,192,56607,1,8,0:0:0:0:
64,192,56686,1,2,0:0:0:0:
192,192,56686,1,4,0:0:0:0:
448,192,56686,1,0,0:0:0:0:
320,192,56844,128,0,57002:0:0:0:60:hihat02.wav
64,192,57002,1,8,0:0:0:0:
192,192,57002,1,0,0:0:0:0:
448,192,57002,1,0,0:0:0:0:
448,192,57160,128,0,57318:0:0:0:60:hihat02.wav
64,192,57318,1,2,0:0:0:0:
320,192,57318,1,0,0:0:0:0:
192,192,57475,128,0,57633:0:0:0:60:hihat02.wav
64,192,57633,1,8,0:0:0:0:
320,192,57633,1,0,0:0:0:0:
448,192,57633,1,0,0:0:0:0:
64,192,57791,128,0,57949:0:0:0:60:hihat02.wav
192,192,57949,1,2,0:0:0:0:
448,192,57949,1,0,0:0:0:0:
320,192,58107,128,0,58265:0:0:0:60:hihat02.wav
64,192,58265,1,8,0:0:0:0:
192,192,58265,1,0,0:0:0:0:
448,192,58265,1,0,0:0:0:0:
192,192,58423,128,0,58581:0:0:0:60:hihat02.wav
64,192,58581,1,2,0:0:0:0:
320,192,58581,1,0,0:0:0:0:
448,192,58739,128,0,58896:0:0:0:60:hihat02.wav
64,192,58896,1,8,0:0:0:0:
192,192,58896,1,0,0:0:0:0:
320,192,58896,1,0,0:0:0:0:
64,192,59054,128,0,59212:0:0:0:60:hihat02.wav
320,192,59212,1,2,0:0:0:0:
448,192,59212,1,0,0:0:0:0:
192,192,59370,128,0,59528:0:0:0:60:hihat02.wav
64,192,59528,1,8,0:0:0:0:
320,192,59528,1,0,0:0:0:0:
448,192,59528,1,0,0:0:0:0:
448,192,59686,128,0,59844:0:0:0:60:hihat02.wav
64,192,59844,1,2,0:0:0:0:
192,192,59844,1,0,0:0:0:0:
320,192,60002,128,0,60160:0:0:0:60:hihat02.wav
64,192,60160,1,8,0:0:0:0:
192,192,60160,1,0,0:0:0:0:
448,192,60160,1,0,0:0:0:0:
192,192,60318,128,0,60475:0:0:0:60:hihat02.wav
320,192,60475,1,2,0:0:0:0:
448,192,60475,1,0,0:0:0:0:
64,192,60633,128,0,60791:0:0:0:60:hihat02.wav
192,192,60791,1,8,0:0:0:0:
320,192,60791,1,0,0:0:0:0:
448,192,60791,1,0,0:0:0:0:
448,192,60949,128,0,61107:0:0:0:60:hihat02.wav
64,192,61107,1,2,0:0:0:0:
192,192,61107,1,0,0:0:0:0:
64,192,61265,1,8,0:0:0:0:
320,192,61265,1,0,0:0:0:60:hihat02.wav
448,192,61265,1,0,0:0:0:0:
192,192,61423,1,2,0:0:0:0:
320,192,61423,1,0,0:0:0:0:
64,192,61581,1,8,0:0:0:0:
192,192,61581,1,4,0:0:0:0:
448,192,61581,1,0,0:0:0:0:
64,192,61739,1,2,0:0:0:0:
320,192,61739,1,0,0:0:0:0:
320,192,61896,128,0,62054:0:0:0:60:hihat02.wav
64,192,62054,1,8,0:0:0:0:
192,192,62054,1,0,0:0:0:0:
448,192,62054,1,0,0:0:0:0:
64,192,62212,128,0,62370:0:0:0:60:hihat02.wav
192,192,62370,1,2,0:0:0:0:
320,192,62370,1,0,0:0:0:0:
448,192,62528,128,0,62686:0:0:0:60:hihat02.wav
64,192,62686,1,8,0:0:0:0:
192,192,62686,1,0,0:0:0:0:
320,192,62686,1,0,0:0:0:0:
192,192,62844,128,0,63002:0:0:0:60:hihat02.wav
64,192,63002,1,2,0:0:0:0:
448,192,63002,1,0,0:0:0:0:
320,192,63160,128,0,63318:0:0:0:60:hihat02.wav
64,192,63318,1,8,0:0:0:0:
192,192,63318,1,0,0:0:0:0:
448,192,63318,1,0,0:0:0:0:
64,192,63475,128,0,63633:0:0:0:60:hihat02.wav
320,192,63633,1,2,0:0:0:0:
448,192,63633,1,0,0:0:0:0:
192,192,63791,128,0,63949:0:0:0:60:hihat02.wav
64,192,63949,1,8,0:0:0:0:
320,192,63949,1,0,0:0:0:0:
448,192,63949,1,0,0:0:0:0:
448,192,64107,128,0,64265:0:0:0:60:hihat02.wav
64,192,64265,1,2,0:0:0:0:
320,192,64265,1,0,0:0:0:0:
192,192,64423,128,0,64581:0:0:0:60:hihat02.wav
64,192,64581,1,8,0:0:0:0:
320,192,64581,1,0,0:0:0:0:
448,192,64581,1,0,0:0:0:0:
320,192,64739,128,0,64896:0:0:0:60:hihat02.wav
64,192,64896,1,2,0:0:0:0:
192,192,64896,1,0,0:0:0:0:
64,192,65054,128,0,65212:0:0:0:60:hihat02.wav
192,192,65212,1,8,0:0:0:0:
320,192,65212,1,0,0:0:0:0:
448,192,65212,1,0,0:0:0:0:
448,192,65370,128,0,65528:0:0:0:60:hihat02.wav
192,192,65528,1,2,0:0:0:0:
320,192,65528,1,0,0:0:0:0:
192,192,65686,1,2,0:0:0:0:
320,192,65686,1,0,0:0:0:0:
64,192,65844,128,8,66160:0:0:0:0:
192,192,65844,1,4,0:0:0:0:
448,192,65844,1,0,0:0:0:0:
320,192,66160,1,8,0:0:0:0:
448,192,66160,1,0,0:0:0:0:
64,192,66239,1,8,0:0:0:0:
192,192,66239,1,0,0:0:0:0:
320,192,66318,1,8,0:0:0:0:
448,192,66318,1,0,0:0:0:0:
64,192,66396,1,8,0:0:0:0:
192,192,66396,1,0,0:0:0:0:
320,192,66475,1,0,0:0:0:100:KICK 2.wav
448,192,66475,1,0,0:0:0:0:
192,192,66554,1,0,0:0:0:100:KICK 2.wav
64,192,66633,1,0,0:0:0:100:KICK 2.wav
448,192,66633,1,0,0:0:0:0:
320,192,66712,1,0,0:0:0:100:KICK 2.wav
64,192,66791,128,2,67896:0:0:0:0:
192,192,66791,1,4,0:0:0:0:
448,192,66791,1,0,0:0:0:0:
320,192,67107,128,0,67265:0:0:0:0:
192,192,67265,1,0,0:0:0:0:
448,192,67423,128,0,67581:0:0:0:0:
192,192,67739,128,0,67896:0:0:0:0:
320,192,67896,128,0,68212:0:0:0:0:
448,192,67896,128,0,68844:0:0:0:0:
64,192,68370,128,0,68528:0:0:0:0:
192,192,68528,1,0,0:0:0:0:
320,192,68686,128,0,68844:0:0:0:0:
64,192,68844,128,0,69318:0:0:0:0:
192,192,68844,128,0,69002:0:0:0:0:
448,192,69002,128,0,69160:0:0:0:0:
320,192,69160,128,0,69318:0:0:0:0:
192,192,69318,128,0,69475:0:0:0:0:
448,192,69318,128,0,69949:0:0:0:0:
320,192,69633,128,0,69791:0:0:0:0:
64,192,69949,128,0,70265:0:0:0:0:
192,192,69949,128,0,70107:0:0:0:0:
448,192,70107,128,0,70265:0:0:0:0:
192,192,70423,128,0,70739:0:0:0:0:
320,192,70423,128,0,71212:0:0:0:0:
64,192,70739,1,0,0:0:0:0:
192,192,70896,1,0,0:0:0:0:
448,192,71054,1,0,0:0:0:0:
192,192,71212,1,0,0:0:0:0:
320,192,71291,1,0,0:0:0:0:
192,192,71370,1,0,0:0:0:0:
320,192,71449,1,0,0:0:0:0:
192,192,71528,128,0,71844:0:0:0:60:hihat02.wav
64,192,71844,1,2,0:0:0:0:
320,192,71844,1,4,0:0:0:0:
448,192,71844,1,0,0:0:0:0:
320,192,72002,1,0,0:0:0:0:
64,192,72160,1,2,0:0:0:0:
448,192,72160,1,0,0:0:0:0:
64,192,72318,1,0,0:0:0:0:
192,192,72475,1,2,0:0:0:0:
320,192,72475,1,0,0:0:0:0:
192,192,72633,1,0,0:0:0:0:
64,192,72791,1,2,0:0:0:0:
448,192,72791,1,0,0:0:0:0:
448,192,72949,1,0,0:0:0:0:
192,192,73107,1,2,0:0:0:0:
320,192,73107,1,0,0:0:0:0:
320,192,73265,1,0,0:0:0:0:
64,192,73423,1,2,0:0:0:0:
448,192,73423,1,0,0:0:0:0:
64,192,73581,1,0,0:0:0:0:
192,192,73739,1,2,0:0:0:0:
320,192,73739,1,0,0:0:0:0:
192,192,73896,128,0,74054:0:0:0:60:hihat02.wav
64,192,74054,1,2,0:0:0:0:
448,192,74054,1,0,0:0:0:0:
192,192,74212,128,0,74370:0:0:0:60:hihat02.wav
64,192,74370,1,2,0:0:0:0:
448,192,74370,1,0,0:0:0:0:
448,192,74528,1,0,0:0:0:0:
64,192,74686,1,2,0:0:0:0:
320,192,74686,1,0,0:0:0:0:
320,192,74844,1,0,0:0:0:0:
64,192,75002,1,2,0:0:0:0:
192,192,75002,1,0,0:0:0:0:
64,192,75160,1,0,0:0:0:0:
192,192,75318,1,2,0:0:0:0:
448,192,75318,1,0,0:0:0:0:
192,192,75475,1,0,0:0:0:0:
320,192,75633,1,2,0:0:0:0:
448,192,75633,1,0,0:0:0:0:
320,192,75791,1,0,0:0:0:0:
64,192,75949,1,2,0:0:0:0:
448,192,75949,1,0,0:0:0:0:
64,192,76107,1,0,0:0:0:0:
192,192,76265,1,2,0:0:0:0:
320,192,76265,1,0,0:0:0:0:
192,192,76423,1,2,0:0:0:0:
320,192,76423,1,0,0:0:0:0:
64,192,76581,1,8,0:0:0:0:
320,192,76581,1,4,0:0:0:0:
448,192,76581,1,0,0:0:0:0:
192,192,76739,1,0,0:0:0:100:KICK 2.wav
320,192,76818,1,8,0:0:0:0:
64,192,76896,1,2,0:0:0:0:
192,192,76896,1,4,0:0:0:0:
448,192,76896,1,0,0:0:0:0:
320,192,77054,1,0,0:0:0:0:
64,192,77212,1,8,0:0:0:0:
192,192,77212,1,0,0:0:0:0:
448,192,77212,1,0,0:0:0:0:
64,192,77370,1,0,0:0:0:0:
192,192,77528,1,2,0:0:0:0:
320,192,77528,1,0,0:0:0:0:
192,192,77686,1,2,0:0:0:0:
320,192,77686,1,0,0:0:0:0:
64,192,77844,1,8,0:0:0:0:
320,192,77844,1,0,0:0:0:0:
448,192,77844,1,0,0:0:0:0:
192,192,78002,1,0,0:0:0:0:
64,192,78160,1,8,0:0:0:0:
320,192,78160,1,0,0:0:0:0:
448,192,78160,1,0,0:0:0:0:
64,192,78370,1,8,0:0:0:0:
192,192,78370,1,0,0:0:0:0:
448,192,78370,1,0,0:0:0:0:
192,192,78581,1,8,0:0:0:0:
320,192,78581,1,0,0:0:0:0:
448,192,78581,1,0,0:0:0:0:
64,192,78791,1,8,0:0:0:0:
192,192,78791,1,0,0:0:0:0:
320,192,78791,1,0,0:0:0:0:
64,192,79002,1,8,0:0:0:0:
320,192,79002,1,0,0:0:0:0:
448,192,79002,1,0,0:0:0:0:
64,192,79212,1,8,0:0:0:0:
192,192,79212,1,0,0:0:0:0:
448,192,79212,1,0,0:0:0:0:
64,192,79423,1,8,0:0:0:0:
320,192,79423,1,4,0:0:0:0:
448,192,79423,1,0,0:0:0:0:
192,192,79581,1,2,0:0:0:0:
320,192,79581,1,0,0:0:0:0:
64,192,79739,1,8,0:0:0:0:
192,192,79739,1,4,0:0:0:0:
448,192,79739,1,0,0:0:0:0:
192,192,79896,1,2,0:0:0:0:
320,192,79896,1,0,0:0:0:0:
64,192,80054,1,8,0:0:0:0:
320,192,80054,1,4,0:0:0:0:
448,192,80054,1,0,0:0:0:0:
64,192,80212,1,8,0:0:0:0:
320,192,80212,1,4,0:0:0:0:
448,192,80212,1,0,0:0:0:0:
192,192,80370,1,2,0:0:0:0:
448,192,80370,1,0,0:0:0:0:
64,192,80528,1,8,0:0:0:0:
192,192,80528,1,4,0:0:0:0:
320,192,80528,1,0,0:0:0:0:
320,192,80686,1,2,0:0:0:0:
448,192,80686,1,0,0:0:0:0:
64,192,80844,1,2,0:0:0:0:
192,192,80844,1,0,0:0:0:0:
64,192,81002,128,8,81318:0:0:0:0:
320,192,81002,1,4,0:0:0:0:
448,192,81002,1,0,0:0:0:0:
320,192,81318,128,2,81396:0:0:0:0:
448,192,81318,1,8,0:0:0:0:
64,192,81396,128,8,81475:0:0:0:0:
192,192,81396,1,0,0:0:0:0:
320,192,81475,1,8,0:0:0:0:
448,192,81475,128,0,81554:0:0:0:0:
64,192,81554,1,8,0:0:0:0:
192,192,81554,128,0,81633:0:0:0:0:
320,192,81633,128,2,81712:0:0:0:0:
448,192,81633,1,0,0:0:0:0:
64,192,81712,128,8,81791:0:0:0:0:
192,192,81712,1,0,0:0:0:0:
320,192,81791,1,8,0:0:0:0:
448,192,81791,128,0,81870:0:0:0:0:
192,192,81870,128,8,81949:0:0:0:0:
64,192,81949,1,2,0:0:0:0:
320,192,81949,1,4,0:0:0:0:
448,192,81949,1,0,0:0:0:0:
192,192,82107,1,0,0:0:0:0:
64,192,82265,1,8,0:0:0:0:
320,192,82265,1,0,0:0:0:0:
448,192,82265,1,0,0:0:0:0:
192,192,82423,1,0,0:0:0:0:
320,192,82502,1,0,0:0:0:0:
64,192,82581,1,2,0:0:0:0:
448,192,82581,1,0,0:0:0:0:
320,192,82739,1,0,0:0:0:0:
64,192,82896,1,8,0:0:0:0:
192,192,82896,1,0,0:0:0:0:
448,192,82896,1,0,0:0:0:0:
320,192,83054,1,0,0:0:0:0:
64,192,83212,1,2,0:0:0:0:
192,192,83212,1,0,0:0:0:0:
320,192,83370,1,0,0:0:0:0:
64,192,83528,1,8,0:0:0:0:
192,192,83528,1,0,0:0:0:0:
448,192,83528,1,0,0:0:0:0:
320,192,83686,1,0,0:0:0:0:
192,192,83765,1,0,0:0:0:0:
64,192,83844,1,2,0:0:0:0:
448,192,83844,1,0,0:0:0:0:
192,192,84002,1,0,0:0:0:0:
64,192,84160,1,8,0:0:0:0:
320,192,84160,1,0,0:0:0:0:
448,192,84160,1,0,0:0:0:0:
192,192,84318,1,0,0:0:0:0:
320,192,84475,1,2,0:0:0:0:
448,192,84475,128,0,84791:0:0:0:0:
192,192,84633,1,0,0:0:0:0:
64,192,84791,128,8,85107:0:0:0:0:
192,192,84791,1,0,0:0:0:0:
320,192,84791,1,0,0:0:0:0:
448,192,84949,1,0,0:0:0:0:
320,192,85028,1,0,0:0:0:0:
192,192,85107,128,2,85265:0:0:0:0:
448,192,85107,1,0,0:0:0:0:
320,192,85265,128,0,85423:0:0:0:0:
64,192,85423,1,2,0:0:0:0:
192,192,85423,1,0,0:0:0:0:
64,192,85581,1,8,0:0:0:0:
320,192,85581,1,4,0:0:0:0:
448,192,85581,128,0,86054:0:0:0:0:
192,192,85739,1,2,0:0:0:0:
64,192,85896,1,0,0:0:0:0:
64,192,86054,1,8,0:0:0:0:
192,192,86054,1,4,0:0:0:0:
320,192,86054,1,0,0:0:0:0:
448,192,86212,1,0,0:0:0:0:
320,192,86291,1,0,0:0:0:0:
64,192,86370,1,2,0:0:0:0:
192,192,86370,1,0,0:0:0:0:
320,192,86528,1,8,0:0:0:0:
448,192,86528,1,0,0:0:0:0:
64,192,86607,1,8,0:0:0:0:
192,192,86607,1,0,0:0:0:0:
320,192,86686,1,8,0:0:0:0:
448,192,86686,1,2,0:0:0:0:
64,192,86765,1,8,0:0:0:0:
192,192,86765,1,0,0:0:0:0:
320,192,86844,1,8,0:0:0:0:
448,192,86844,1,0,0:0:0:0:
192,192,86923,1,8,0:0:0:0:
64,192,87002,1,2,0:0:0:0:
320,192,87002,1,4,0:0:0:0:
448,192,87002,1,0,0:0:0:0:
192,192,87160,1,0,0:0:0:0:
64,192,87318,1,8,0:0:0:0:
320,192,87318,1,0,0:0:0:0:
448,192,87318,1,0,0:0:0:0:
192,192,87475,1,0,0:0:0:0:
64,192,87633,1,2,0:0:0:0:
448,192,87633,1,0,0:0:0:0:
320,192,87791,1,0,0:0:0:0:
64,192,87949,1,8,0:0:0:0:
192,192,87949,1,0,0:0:0:0:
448,192,87949,1,0,0:0:0:0:
320,192,88107,1,0,0:0:0:0:
64,192,88265,1,2,0:0:0:0:
448,192,88265,1,0,0:0:0:0:
192,192,88423,1,0,0:0:0:0:
64,192,88581,1,8,0:0:0:0:
320,192,88581,1,0,0:0:0:0:
448,192,88581,1,0,0:0:0:0:
192,192,88739,1,0,0:0:0:0:
64,192,88896,1,2,0:0:0:0:
448,192,88896,1,0,0:0:0:0:
320,192,89054,1,0,0:0:0:0:
64,192,89212,1,8,0:0:0:0:
192,192,89212,1,0,0:0:0:0:
448,192,89212,1,0,0:0:0:0:
320,192,89370,1,0,0:0:0:0:
64,192,89528,128,2,89844:0:0:0:0:
192,192,89528,1,0,0:0:0:0:
448,192,89686,1,0,0:0:0:0:
192,192,89844,1,8,0:0:0:0:
320,192,89844,128,0,90160:0:0:0:0:
448,192,89844,1,0,0:0:0:0:
192,192,90002,1,0,0:0:0:0:
64,192,90160,1,2,0:0:0:0:
448,192,90160,128,0,90318:0:0:0:0:
192,192,90318,128,2,90475:0:0:0:0:
320,192,90318,1,0,0:0:0:0:
64,192,90475,1,8,0:0:0:0:
320,192,90475,1,0,0:0:0:0:
448,192,90475,1,0,0:0:0:0:
64,192,90633,128,2,90949:0:0:0:0:
192,192,90633,1,4,0:0:0:0:
448,192,90633,1,0,0:0:0:0:
320,192,90791,1,0,0:0:0:0:
192,192,90949,1,2,0:0:0:0:
448,192,90949,128,0,91107:0:0:0:0:
64,192,91107,1,8,0:0:0:0:
192,192,91107,1,4,0:0:0:0:
320,192,91107,1,0,0:0:0:0:
448,192,91265,1,0,0:0:0:0:
320,192,91344,1,0,0:0:0:0:
64,192,91423,1,2,0:0:0:0:
192,192,91423,1,0,0:0:0:0:
320,192,91581,1,8,0:0:0:0:
448,192,91581,1,0,0:0:0:0:
64,192,91660,1,8,0:0:0:0:
192,192,91660,1,0,0:0:0:0:
320,192,91739,1,2,0:0:0:0:
448,192,91739,1,0,0:0:0:0:
192,192,91818,1,0,0:0:0:0:
64,192,91896,1,8,0:0:0:0:
320,192,91896,1,0,0:0:0:0:
448,192,91975,1,8,0:0:0:0:
64,192,92054,1,2,0:0:0:0:
192,192,92054,1,4,0:0:0:0:
320,192,92054,1,0,0:0:0:0:
192,192,92212,1,0,0:0:0:0:
64,192,92370,1,8,0:0:0:0:
320,192,92370,1,0,0:0:0:0:
448,192,92370,1,0,0:0:0:0:
192,192,92528,1,0,0:0:0:0:
320,192,92607,1,0,0:0:0:0:
64,192,92686,1,2,0:0:0:0:
448,192,92686,1,0,0:0:0:0:
320,192,92844,1,0,0:0:0:0:
64,192,93002,1,8,0:0:0:0:
192,192,93002,1,0,0:0:0:0:
448,192,93002,1,0,0:0:0:0:
320,192,93160,1,0,0:0:0:0:
64,192,93318,1,2,0:0:0:0:
192,192,93318,1,0,0:0:0:0:
320,192,93475,1,0,0:0:0:0:
64,192,93633,1,8,0:0:0:0:
192,192,93633,1,0,0:0:0:0:
448,192,93633,1,0,0:0:0:0:
320,192,93791,1,0,0:0:0:0:
192,192,93870,1,0,0:0:0:0:
64,192,93949,1,2,0:0:0:0:
448,192,93949,1,0,0:0:0:0:
192,192,94107,1,0,0:0:0:0:
64,192,94265,1,8,0:0:0:0:
320,192,94265,1,0,0:0:0:0:
448,192,94265,1,0,0:0:0:0:
192,192,94423,1,0,0:0:0:0:
64,192,94581,128,2,94896:0:0:0:0:
448,192,94581,1,0,0:0:0:0:
320,192,94739,1,0,0:0:0:0:
192,192,94896,1,8,0:0:0:0:
320,192,94896,1,0,0:0:0:0:
448,192,94896,128,0,95212:0:0:0:0:
64,192,95054,1,0,0:0:0:0:
192,192,95133,1,0,0:0:0:0:
64,192,95212,1,2,0:0:0:0:
320,192,95212,128,0,95370:0:0:0:0:
192,192,95370,128,0,95528:0:0:0:0:
320,192,95528,1,2,0:0:0:0:
448,192,95528,1,0,0:0:0:0:
64,192,95686,128,8,96160:0:0:0:0:
192,192,95686,1,4,0:0:0:0:
448,192,95686,1,0,0:0:0:0:
320,192,95844,1,2,0:0:0:0:
192,192,96002,1,0,0:0:0:0:
192,192,96160,1,8,0:0:0:0:
320,192,96160,1,4,0:0:0:0:
448,192,96160,1,0,0:0:0:0:
64,192,96318,1,0,0:0:0:0:
448,192,96396,1,0,0:0:0:0:
192,192,96475,1,2,0:0:0:0:
320,192,96475,1,0,0:0:0:0:
64,192,96633,1,8,0:0:0:0:
448,192,96633,1,0,0:0:0:0:
192,192,96712,1,8,0:0:0:0:
320,192,96712,1,0,0:0:0:0:
64,192,96791,1,8,0:0:0:0:
448,192,96791,1,2,0:0:0:0:
192,192,96870,1,8,0:0:0:0:
320,192,96870,1,0,0:0:0:0:
64,192,96949,1,8,0:0:0:0:
448,192,96949,1,0,0:0:0:0:
192,192,97028,1,8,0:0:0:0:
64,192,97107,1,2,0:0:0:0:
320,192,97107,1,4,0:0:0:0:
448,192,97107,128,0,97581:0:0:0:0:
192,192,97265,1,2,0:0:0:0:
64,192,97423,1,8,0:0:0:0:
320,192,97423,1,0,0:0:0:0:
64,192,97581,128,2,98212:0:0:0:0:
192,192,97581,1,4,0:0:0:0:
320,192,97581,1,0,0:0:0:0:
192,192,97896,1,2,0:0:0:0:
320,192,98054,1,8,0:0:0:0:
448,192,98054,1,0,0:0:0:0:
192,192,98212,1,2,0:0:0:0:
320,192,98212,128,4,99002:0:0:0:0:
448,192,98212,1,0,0:0:0:0:
64,192,98528,1,2,0:0:0:0:
192,192,98686,1,8,0:0:0:0:
448,192,98686,1,0,0:0:0:0:
64,192,98844,1,2,0:0:0:0:
64,192,99002,1,8,0:0:0:0:
192,192,99002,128,0,99633:0:0:0:0:
448,192,99002,1,0,0:0:0:0:
320,192,99160,1,2,0:0:0:0:
64,192,99318,1,8,0:0:0:0:
448,192,99318,1,0,0:0:0:0:
320,192,99475,1,2,0:0:0:0:
448,192,100739,128,0,101054:0:0:0:0:
320,192,101054,128,0,101212:0:0:0:0:
192,192,101212,128,0,101370:0:0:0:0:
64,192,101370,128,0,101528:0:0:0:0:
448,192,101528,128,0,101686:0:0:0:0:
64,192,101686,1,0,0:0:0:100:KICK 2.wav
192,192,101686,1,0,0:0:0:0:
320,192,101765,1,0,0:0:0:100:KICK 2.wav
64,192,101844,1,8,0:0:0:0:
192,192,101844,1,0,0:0:0:0:
448,192,101844,1,0,0:0:0:0:
64,192,102002,1,2,0:0:0:0:
320,192,102002,1,4,0:0:0:0:
448,192,102002,1,0,0:0:0:0:
320,192,102160,1,0,0:0:0:0:
64,192,102318,1,2,0:0:0:0:
192,192,102318,1,0,0:0:0:0:
64,192,102475,1,8,0:0:0:0:
320,192,102475,1,0,0:0:0:0:
448,192,102475,1,0,0:0:0:0:
448,192,102633,1,0,0:0:0:0:
64,192,102791,1,2,0:0:0:0:
320,192,102791,1,0,0:0:0:0:
192,192,102949,1,0,0:0:0:0:
64,192,103107,1,8,0:0:0:0:
320,192,103107,1,0,0:0:0:0:
448,192,103107,1,0,0:0:0:0:
64,192,103265,1,0,0:0:0:0:
192,192,103423,1,2,0:0:0:0:
320,192,103423,1,0,0:0:0:0:
448,192,103581,1,0,0:0:0:0:
64,192,103739,1,8,0:0:0:0:
192,192,103739,1,0,0:0:0:0:
320,192,103739,1,0,0:0:0:0:
192,192,103896,1,0,0:0:0:0:
320,192,104054,1,2,0:0:0:0:
448,192,104054,1,0,0:0:0:0:
64,192,104212,1,2,0:0:0:0:
192,192,104212,1,0,0:0:0:0:
64,192,104370,1,8,0:0:0:0:
320,192,104370,1,0,0:0:0:0:
448,192,104370,1,0,0:0:0:0:
64,192,104528,1,2,0:0:0:0:
192,192,104528,128,4,104844:0:0:0:0:
448,192,104528,1,0,0:0:0:0:
64,192,104844,1,2,0:0:0:0:
448,192,104844,128,0,105002:0:0:0:0:
64,192,105002,1,8,0:0:0:0:
192,192,105002,1,0,0:0:0:0:
320,192,105002,128,0,105160:0:0:0:0:
64,192,105318,128,2,105475:0:0:0:0:
192,192,105318,1,0,0:0:0:0:
320,192,105475,1,2,0:0:0:0:
448,192,105475,1,0,0:0:0:0:
64,192,105633,1,8,0:0:0:0:
192,192,105633,1,0,0:0:0:0:
448,192,105633,128,0,105791:0:0:0:0:
64,192,105791,1,2,0:0:0:0:
192,192,105791,128,4,106107:0:0:0:0:
320,192,105791,1,0,0:0:0:0:
320,192,106107,1,2,0:0:0:0:
448,192,106107,1,0,0:0:0:0:
64,192,106265,1,8,0:0:0:0:
192,192,106265,1,0,0:0:0:0:
448,192,106265,1,0,0:0:0:0:
320,192,106423,1,0,0:0:0:0:
64,192,106581,1,2,0:0:0:0:
192,192,106581,1,0,0:0:0:0:
320,192,106739,1,8,0:0:0:0:
448,192,106739,1,0,0:0:0:0:
64,192,106818,1,8,0:0:0:0:
192,192,106818,1,0,0:0:0:0:
320,192,106896,1,8,0:0:0:0:
448,192,106896,1,0,0:0:0:0:
64,192,107054,1,2,0:0:0:0:
192,192,107054,1,4,0:0:0:0:
448,192,107054,1,0,0:0:0:0:
320,192,107212,1,0,0:0:0:0:
64,192,107370,1,2,0:0:0:0:
448,192,107370,1,0,0:0:0:0:
192,192,107528,1,8,0:0:0:0:
320,192,107528,1,0,0:0:0:0:
448,192,107528,1,0,0:0:0:0:
192,192,107686,1,0,0:0:0:0:
64,192,107844,1,2,0:0:0:0:
320,192,107844,1,0,0:0:0:0:
448,192,108002,1,0,0:0:0:0:
64,192,108160,1,8,0:0:0:0:
192,192,108160,1,0,0:0:0:0:
320,192,108160,1,0,0:0:0:0:
320,192,108318,1,0,0:0:0:0:
64,192,108475,1,2,0:0:0:0:
448,192,108475,1,0,0:0:0:0:
192,192,108633,1,0,0:0:0:0:
64,192,108791,1,8,0:0:0:0:
320,192,108791,1,0,0:0:0:0:
448,192,108791,1,0,0:0:0:0:
448,192,108949,1,0,0:0:0:0:
192,192,109107,1,2,0:0:0:0:
320,192,109107,1,0,0:0:0:0:
64,192,109265,1,2,0:0:0:0:
448,192,109265,1,0,0:0:0:0:
64,192,109423,1,8,0:0:0:0:
192,192,109423,1,0,0:0:0:0:
320,192,109423,1,0,0:0:0:0:
192,192,109581,1,4,0:0:0:0:
320,192,109581,1,2,0:0:0:0:
448,192,109581,128,0,109896:0:0:0:0:
64,192,109896,128,2,110054:0:0:0:0:
320,192,109896,1,0,0:0:0:0:
192,192,110054,128,8,110212:0:0:0:0:
320,192,110054,1,0,0:0:0:0:
448,192,110054,1,0,0:0:0:0:
320,192,110370,128,2,110528:0:0:0:0:
448,192,110370,1,0,0:0:0:0:
64,192,110528,1,2,0:0:0:0:
192,192,110528,1,0,0:0:0:0:
320,192,110686,1,8,0:0:0:0:
448,192,110686,1,0,0:0:0:0:
64,192,110686,128,0,110844:0:0:0:0:
320,192,110844,1,2,0:0:0:0:
192,192,110844,128,4,111160:0:0:0:0:
448,192,110844,1,0,0:0:0:0:
320,192,111160,1,2,0:0:0:0:
448,192,111160,1,0,0:0:0:0:
64,192,111318,1,8,0:0:0:0:
192,192,111318,1,0,0:0:0:0:
448,192,111318,1,0,0:0:0:0:
64,192,111475,1,0,0:0:0:0:
192,192,111633,1,8,0:0:0:0:
320,192,111633,1,0,0:0:0:0:
448,192,111633,1,0,0:0:0:0:
64,192,111739,1,8,0:0:0:0:
192,192,111739,1,0,0:0:0:0:
320,192,111844,1,8,0:0:0:0:
448,192,111844,1,0,0:0:0:0:
192,192,111949,1,0,0:0:0:100:KICK 2.wav
320,192,111949,1,0,0:0:0:0:
64,192,112054,1,0,0:0:0:100:KICK 2.wav
192,192,112054,1,0,0:0:0:0:
320,192,112160,1,0,0:0:0:100:KICK 2.wav
448,192,112160,1,0,0:0:0:0:
64,192,112265,1,8,0:0:0:0:
192,192,112265,1,4,0:0:0:0:
448,192,112265,1,0,0:0:0:0:
64,192,112423,1,2,0:0:0:0:
320,192,112423,1,0,0:0:0:0:
192,192,112581,1,2,0:0:0:0:
448,192,112581,1,0,0:0:0:0:
64,192,112739,1,8,0:0:0:0:
320,192,112739,1,4,0:0:0:0:
448,192,112739,1,0,0:0:0:0:
64,192,112896,1,2,0:0:0:0:
192,192,112896,1,0,0:0:0:0:
320,192,113054,1,2,0:0:0:0:
448,192,113054,1,0,0:0:0:0:
64,192,113212,1,8,0:0:0:0:
320,192,113212,1,4,0:0:0:0:
448,192,113212,1,0,0:0:0:0:
192,192,113370,1,2,0:0:0:0:
320,192,113370,1,0,0:0:0:0:
64,192,113528,1,2,0:0:0:0:
448,192,113528,1,0,0:0:0:0:
192,192,113686,1,8,0:0:0:0:
320,192,113686,1,4,0:0:0:0:
448,192,113686,1,0,0:0:0:0:
64,192,113844,1,2,0:0:0:0:
320,192,113844,1,0,0:0:0:0:
64,192,114002,1,2,0:0:0:0:
448,192,114002,1,0,0:0:0:0:
64,192,114160,1,8,0:0:0:0:
192,192,114160,1,4,0:0:0:0:
448,192,114160,1,0,0:0:0:0:
320,192,114318,1,0,0:0:0:100:KICK 2.wav
192,192,114396,1,0,0:0:0:100:KICK 2.wav
64,192,114475,1,8,0:0:0:0:
320,192,114475,1,0,0:0:0:0:
448,192,114475,1,0,0:0:0:0:
64,192,114633,128,2,114949:0:0:0:0:
192,192,114633,1,4,0:0:0:0:
448,192,114633,1,0,0:0:0:0:
192,192,114949,1,2,0:0:0:0:
320,192,114949,1,0,0:0:0:0:
64,192,115107,1,8,0:0:0:0:
192,192,115107,1,0,0:0:0:60:hihat02.wav
448,192,115107,1,0,0:0:0:0:
192,192,115265,1,2,0:0:0:0:
320,192,115265,1,0,0:0:0:0:
64,192,115423,1,8,0:0:0:0:
320,192,115423,1,0,0:0:0:60:hihat02.wav
448,192,115423,1,0,0:0:0:0:
192,192,115581,1,2,0:0:0:0:
448,192,115581,1,0,0:0:0:0:
64,192,115739,1,8,0:0:0:0:
192,192,115739,1,0,0:0:0:0:
320,192,115739,1,0,0:0:0:0:
192,192,115896,1,2,0:0:0:0:
320,192,115896,1,4,0:0:0:0:
448,192,115896,128,0,116212:0:0:0:0:
64,192,116212,1,2,0:0:0:0:
320,192,116212,1,0,0:0:0:0:
64,192,116370,1,8,0:0:0:0:
192,192,116370,1,4,0:0:0:0:
448,192,116370,1,0,0:0:0:0:
192,192,116528,1,2,0:0:0:0:
320,192,116528,1,0,0:0:0:0:
320,192,116686,1,8,0:0:0:0:
448,192,116686,1,0,0:0:0:0:
192,192,116765,1,0,0:0:0:100:KICK 2.wav
64,192,116844,1,2,0:0:0:0:
448,192,116844,1,0,0:0:0:100:KICK 2.wav
320,192,116923,1,0,0:0:0:100:KICK 2.wav
64,192,117002,1,0,0:0:0:100:KICK 2.wav
192,192,117002,1,0,0:0:0:0:
320,192,117081,1,0,0:0:0:100:KICK 2.wav
64,192,117160,1,2,0:0:0:0:
448,192,117160,1,0,0:0:0:100:KICK 2.wav
192,192,117239,1,0,0:0:0:100:KICK 2.wav
64,192,117318,1,4,0:0:0:0:
320,192,117318,1,8,0:0:0:0:
448,192,117318,1,0,0:0:0:0:
192,192,117475,1,0,0:0:0:100:KICK 2.wav
448,192,117475,1,0,0:0:0:0:
320,192,117554,1,0,0:0:0:100:KICK 2.wav
64,192,117633,1,0,0:0:0:100:KICK 2.wav
192,192,117712,1,0,0:0:0:100:KICK 2.wav
64,192,117791,1,4,0:0:0:0:
320,192,117791,1,8,0:0:0:0:
448,192,117791,1,0,0:0:0:0:
64,192,118107,1,4,0:0:0:0:
192,192,118107,1,8,0:0:0:0:
448,192,118107,1,0,0:0:0:0:
64,192,118423,128,4,121107:0:0:0:0:
320,192,118423,128,8,121423:0:0:0:0:
448,192,118423,128,0,121423:0:0:0:0:
192,192,121107,128,0,121423:0:0:0:0:
