osu file format v14

[General]
AudioFilename: audio.mp3
AudioLeadIn: 0
PreviewTime: 81870
Countdown: 0
SampleSet: Soft
StackLeniency: 0.7
Mode: 3
LetterboxInBreaks: 0
SpecialStyle: 0
WidescreenStoryboard: 1

[Editor]
Bookmarks: 16725,112260
DistanceSpacing: 0.5
BeatDivisor: 2
GridSize: 8
TimelineZoom: 1.8

[Metadata]
Title:ONENESS
TitleUnicode:ONENESS
Artist:Roselia
ArtistUnicode:Roselia
Creator:FerdiXIA-
Version:Forthnos' Normal
Source:バンドリ! ガールズバンドパーティ!
Tags:Forthnos Anfang 4th single シングル Bangdream! BanG Dream! Girls Band Party! Bandori Garupa ガルパ ロゼリア 湊友希那 Minato Yukina 相羽あいな Aiba Aina 宇田川あこ Udagawa Ako 櫻川めぐ Sakuragawa Megu 白金燐子 Shirokane Rinko 明坂聡美 Akesaka Satomi 氷川紗夜 Hikawa Sayo 工藤晴香 Kudou Haruka 今井リサ Imai Lisa 遠藤ゆりか Endou Yurika 織田あすか Oda Asuka 上松範康 Agematsu Noriyasu 藤永龍太郎 Fujinaga Ryutaro Elements Garden Female Vocals pop jpop j-pop video game japanese
BeatmapID:3237806
BeatmapSetID:1558772

[Difficulty]
HPDrainRate:7
CircleSize:4
OverallDifficulty:7
ApproachRate:5
SliderMultiplier:1.4
SliderTickRate:1

[Events]
//Background and Video events
0,0,"background.jpg",0,0
//Break Periods
//Storyboard Layer 0 (Background)
//Storyboard Layer 1 (Fail)
//Storyboard Layer 2 (Pass)
//Storyboard Layer 3 (Foreground)
//Storyboard Layer 4 (Overlay)
//Storyboard Sound Samples
Sample,53528,0,"hihat02.wav",60

[TimingPoints]
1125,600,4,2,1,25,1,0
1125,-52.6315789473684,4,2,1,25,0,0
17925,652.173913043478,4,2,1,25,1,0
17925,-48.3091787439614,4,2,1,25,0,0
18577,714.285714285714,4,2,1,25,1,0
18577,-44.2477876106195,4,2,1,25,0,0
19291,869.565217391304,4,2,1,25,1,0
19291,-36.3636363636364,4,2,1,25,0,0
20160,1153.84615384615,4,2,1,25,1,0
20160,-27.3972602739726,4,2,1,25,0,0
21318,315.789473684211,4,2,1,25,1,0
30791,-100,4,2,1,60,0,0
66791,-100,4,2,1,25,0,0
71844,-100,4,2,1,60,0,0
81949,-100,4,2,1,60,0,1
91423,-100,4,2,1,60,0,0
92054,-100,4,2,1,60,0,1
99633,-100,4,2,1,60,0,0

[HitObjects]
64,192,1125,128,0,1725:0:0:0:0:
448,192,1725,128,0,2325:0:0:0:0:
192,192,2325,1,0,0:0:0:0:
320,192,2625,128,0,3225:0:0:0:0:
64,192,3225,128,0,3825:0:0:0:0:
192,192,3525,1,0,0:0:0:0:
448,192,3825,1,0,0:0:0:0:
192,192,4125,128,0,4725:0:0:0:0:
64,192,4725,1,0,0:0:0:0:
320,192,5325,128,0,5925:0:0:0:0:
64,192,5925,128,0,6525:0:0:0:0:
448,192,6525,128,0,7125:0:0:0:0:
320,192,7125,1,0,0:0:0:0:
192,192,7425,128,0,8025:0:0:0:0:
64,192,8025,128,0,10725:0:0:0:0:
448,192,8325,1,0,0:0:0:0:
320,192,8925,1,0,0:0:0:0:
192,192,9525,1,0,0:0:0:0:
448,192,10125,1,0,0:0:0:0:
320,192,10725,1,0,0:0:0:0:
448,192,11325,1,0,0:0:0:0:
448,192,11625,1,0,0:0:0:0:
64,192,11925,128,0,12375:0:0:0:0:
192,192,12375,128,0,12825:0:0:0:0:
320,192,12825,128,0,13125:0:0:0:0:
448,192,13125,128,0,13725:0:0:0:0:
320,192,13725,128,0,14325:0:0:0:0:
192,192,14325,128,0,14925:0:0:0:0:
64,192,14925,128,0,15525:0:0:0:0:
448,192,15525,128,0,16125:0:0:0:0:
192,192,16425,1,0,0:0:0:0:
64,192,16725,128,0,17175:0:0:0:0:
448,192,17175,128,0,17625:0:0:0:0:
192,192,17625,128,0,17925:0:0:0:0:
320,192,17925,128,0,18577:0:0:0:0:
64,192,18577,128,0,19291:0:0:0:0:
192,192,19291,128,0,20160:0:0:0:0:
448,192,20160,128,0,21313:0:0:0:0:
64,192,21318,1,0,0:0:0:0:
192,192,21318,1,0,0:0:0:0:
320,192,21633,1,0,0:0:0:0:
192,192,21791,1,0,0:0:0:0:
64,192,21949,1,0,0:0:0:0:
448,192,22107,1,0,0:0:0:0:
192,192,22423,1,0,0:0:0:0:
320,192,22739,1,0,0:0:0:0:
448,192,22896,1,0,0:0:0:0:
192,192,23054,1,0,0:0:0:0:
64,192,23212,1,0,0:0:0:0:
320,192,23370,1,0,0:0:0:0:
192,192,23686,1,0,0:0:0:0:
192,192,24002,1,0,0:0:0:0:
320,192,24160,1,0,0:0:0:0:
448,192,24475,1,0,0:0:0:0:
192,192,24791,1,0,0:0:0:0:
64,192,24949,1,0,0:0:0:0:
448,192,25265,1,0,0:0:0:0:
320,192,25423,1,0,0:0:0:0:
192,192,25581,1,0,0:0:0:0:
64,192,25739,1,0,0:0:0:0:
448,192,25896,1,0,0:0:0:0:
192,192,26212,1,0,0:0:0:0:
64,192,26370,1,0,0:0:0:0:
320,192,26528,1,0,0:0:0:0:
448,192,26686,1,0,0:0:0:0:
192,192,26844,1,0,0:0:0:0:
320,192,27002,1,0,0:0:0:0:
64,192,27160,1,0,0:0:0:0:
448,192,27475,1,0,0:0:0:0:
320,192,27633,1,0,0:0:0:0:
64,192,27791,1,0,0:0:0:0:
192,192,27949,1,0,0:0:0:0:
448,192,28107,1,0,0:0:0:0:
320,192,28265,1,0,0:0:0:0:
192,192,28423,1,0,0:0:0:0:
64,192,28581,1,0,0:0:0:0:
320,192,28739,1,0,0:0:0:0:
320,192,29054,1,0,0:0:0:0:
192,192,29212,1,0,0:0:0:0:
64,192,29528,1,0,0:0:0:0:
320,192,29844,1,0,0:0:0:0:
192,192,30002,1,0,0:0:0:0:
448,192,30160,1,0,0:0:0:0:
320,192,30318,1,0,0:0:0:0:
192,192,30475,1,0,0:0:0:0:
64,192,30633,1,0,0:0:0:0:
448,192,30791,128,8,30949:0:0:0:0:
192,192,30949,128,8,31107:0:0:0:0:
320,192,31107,128,8,31265:0:0:0:0:
64,192,31265,1,2,0:0:0:0:
192,192,31265,1,4,0:0:0:0:
448,192,31581,1,2,0:0:0:0:
64,192,31739,1,8,0:0:0:0:
192,192,31739,1,0,0:0:0:0:
320,192,32054,1,2,0:0:0:0:
64,192,32370,1,8,0:0:0:0:
448,192,32370,1,0,0:0:0:0:
192,192,32686,1,2,0:0:0:0:
320,192,33002,1,8,0:0:0:0:
448,192,33002,1,0,0:0:0:0:
192,192,33318,1,2,0:0:0:0:
320,192,33475,1,2,0:0:0:0:
64,192,33633,1,8,0:0:0:0:
448,192,33633,1,0,0:0:0:0:
192,192,33791,1,2,0:0:0:0:
320,192,33791,1,4,0:0:0:0:
64,192,34107,1,2,0:0:0:0:
320,192,34265,1,8,0:0:0:0:
448,192,34265,1,0,0:0:0:0:
192,192,34581,1,2,0:0:0:0:
320,192,34739,1,2,0:0:0:0:
64,192,34896,1,8,0:0:0:0:
192,192,34896,1,0,0:0:0:0:
320,192,35054,1,2,0:0:0:0:
448,192,35054,1,4,0:0:0:0:
64,192,35370,1,2,0:0:0:0:
320,192,35528,1,8,0:0:0:0:
448,192,35528,1,0,0:0:0:0:
64,192,35844,1,2,0:0:0:0:
192,192,35844,1,0,0:0:0:0:
448,192,36002,1,8,0:0:0:0:
320,192,36081,1,8,0:0:0:0:
192,192,36160,1,8,0:0:0:0:
64,192,36318,1,2,0:0:0:0:
448,192,36318,1,4,0:0:0:0:
320,192,36633,1,2,0:0:0:0:
64,192,36791,1,8,0:0:0:0:
192,192,36791,1,0,0:0:0:0:
448,192,37107,1,2,0:0:0:0:
192,192,37423,1,8,0:0:0:0:
320,192,37423,1,0,0:0:0:0:
64,192,37739,1,2,0:0:0:0:
320,192,38054,1,8,0:0:0:0:
448,192,38054,1,0,0:0:0:0:
192,192,38370,1,2,0:0:0:0:
320,192,38528,1,2,0:0:0:0:
64,192,38686,1,8,0:0:0:0:
448,192,38686,1,0,0:0:0:0:
192,192,38844,1,2,0:0:0:0:
320,192,38844,1,4,0:0:0:0:
448,192,39160,1,2,0:0:0:0:
64,192,39318,1,8,0:0:0:0:
320,192,39318,1,0,0:0:0:0:
192,192,39633,1,2,0:0:0:0:
448,192,39791,1,2,0:0:0:0:
64,192,39949,1,8,0:0:0:0:
192,192,39949,1,0,0:0:0:0:
320,192,40107,1,2,0:0:0:0:
448,192,40107,1,4,0:0:0:0:
192,192,40423,1,2,0:0:0:0:
64,192,40581,1,8,0:0:0:0:
448,192,40581,1,4,0:0:0:0:
320,192,40739,1,2,0:0:0:0:
64,192,40896,128,8,41212:0:0:0:0:
192,192,40896,1,0,0:0:0:0:
448,192,41212,128,0,41528:0:0:0:100:KICK 2.wav
64,192,41528,1,4,0:0:0:0:
192,192,41528,1,8,0:0:0:0:
320,192,41686,1,2,0:0:0:0:
192,192,41844,1,2,0:0:0:0:
64,192,42002,1,4,0:0:0:0:
448,192,42002,1,8,0:0:0:0:
320,192,42160,1,2,0:0:0:0:
192,192,42318,1,2,0:0:0:0:
320,192,42475,1,8,0:0:0:0:
448,192,42475,1,4,0:0:0:0:
64,192,42633,1,2,0:0:0:0:
192,192,42791,1,2,0:0:0:0:
64,192,42949,1,8,0:0:0:0:
320,192,42949,1,4,0:0:0:0:
448,192,43107,1,2,0:0:0:0:
192,192,43265,1,2,0:0:0:0:
64,192,43423,1,8,0:0:0:0:
448,192,43423,1,4,0:0:0:0:
320,192,43581,1,2,0:0:0:0:
64,192,43739,1,8,0:0:0:0:
192,192,43739,1,0,0:0:0:0:
320,192,43896,1,2,0:0:0:0:
448,192,43896,1,4,0:0:0:0:
64,192,44212,1,0,0:0:0:100:KICK 2.wav
192,192,44291,1,0,0:0:0:100:KICK 2.wav
320,192,44370,1,8,0:0:0:0:
448,192,44370,1,0,0:0:0:60:hihat02.wav
192,192,44528,1,2,0:0:0:0:
64,192,44686,1,8,0:0:0:0:
448,192,44686,1,0,0:0:0:60:hihat02.wav
320,192,44844,1,2,0:0:0:0:
64,192,45002,1,8,0:0:0:0:
192,192,45002,1,0,0:0:0:0:
320,192,45160,1,2,0:0:0:0:
448,192,45160,1,4,0:0:0:0:
64,192,45475,1,8,0:0:0:0:
192,192,45475,1,0,0:0:0:0:
320,192,45633,1,8,0:0:0:0:
448,192,45633,1,0,0:0:0:0:
64,192,45791,1,8,0:0:0:0:
192,192,45791,1,0,0:0:0:0:
320,192,45949,1,8,0:0:0:0:
448,192,45949,1,0,0:0:0:0:
64,192,46107,1,8,0:0:0:0:
192,192,46107,1,0,0:0:0:60:hihat02.wav
320,192,46581,1,2,0:0:0:0:
448,192,46581,1,4,0:0:0:0:
448,192,46896,1,2,0:0:0:0:
192,192,47212,1,2,0:0:0:0:
192,192,47528,1,2,0:0:0:0:
320,192,47844,1,2,0:0:0:0:
320,192,48160,1,2,0:0:0:0:
64,192,48475,1,2,0:0:0:0:
448,192,48633,1,0,0:0:0:60:hihat02.wav
64,192,48791,1,2,0:0:0:0:
448,192,48949,1,0,0:0:0:60:hihat02.wav
192,192,49107,1,2,0:0:0:0:
192,192,49423,1,2,0:0:0:0:
320,192,49739,1,2,0:0:0:0:
320,192,50054,1,2,0:0:0:0:
64,192,50370,1,2,0:0:0:0:
64,192,50686,1,2,0:0:0:0:
448,192,51002,1,2,0:0:0:0:
192,192,51160,1,0,0:0:0:60:hihat02.wav
448,192,51318,1,2,0:0:0:0:
192,192,51475,1,0,0:0:0:60:hihat02.wav
320,192,51633,1,2,0:0:0:0:
320,192,51949,1,2,0:0:0:0:
192,192,52265,1,2,0:0:0:0:
192,192,52581,1,2,0:0:0:0:
64,192,52896,1,2,0:0:0:0:
64,192,53212,1,2,0:0:0:0:
448,192,53528,1,2,0:0:0:0:
64,192,53686,1,8,0:0:0:0:
192,192,53765,1,8,0:0:0:0:
320,192,53844,1,8,0:0:0:0:
448,192,53844,1,0,0:0:0:0:
64,192,54002,1,2,0:0:0:0:
192,192,54002,1,0,0:0:0:60:hihat02.wav
320,192,55265,1,2,0:0:0:0:
448,192,55265,1,4,0:0:0:0:
64,192,55581,1,8,0:0:0:0:
192,192,55581,1,0,0:0:0:0:
448,192,55739,128,2,56054:0:0:0:0:
192,192,56054,1,0,0:0:0:100:KICK 2.wav
64,192,56212,128,8,56370:0:0:0:0:
320,192,56370,128,2,56528:0:0:0:0:
192,192,56528,128,8,56686:0:0:0:0:
320,192,56686,1,2,0:0:0:0:
448,192,56686,1,4,0:0:0:0:
64,192,57002,1,8,0:0:0:0:
192,192,57002,1,0,0:0:0:0:
320,192,57318,1,2,0:0:0:0:
64,192,57633,1,8,0:0:0:0:
448,192,57633,1,0,0:0:0:0:
192,192,57949,1,2,0:0:0:0:
320,192,58265,1,8,0:0:0:0:
448,192,58265,1,0,0:0:0:0:
64,192,58581,1,2,0:0:0:0:
192,192,58896,1,8,0:0:0:0:
320,192,58896,1,0,0:0:0:0:
448,192,59212,1,2,0:0:0:0:
64,192,59528,1,8,0:0:0:0:
192,192,59528,1,0,0:0:0:0:
320,192,59844,1,2,0:0:0:0:
64,192,60160,1,8,0:0:0:0:
448,192,60160,1,0,0:0:0:0:
192,192,60475,1,2,0:0:0:0:
320,192,60791,1,8,0:0:0:0:
448,192,60791,1,0,0:0:0:0:
192,192,61107,1,2,0:0:0:0:
64,192,61265,1,8,0:0:0:0:
448,192,61265,1,0,0:0:0:60:hihat02.wav
320,192,61423,1,2,0:0:0:0:
64,192,61581,1,8,0:0:0:0:
192,192,61581,1,4,0:0:0:0:
448,192,61739,1,2,0:0:0:0:
64,192,62054,1,8,0:0:0:0:
192,192,62054,1,0,0:0:0:0:
320,192,62370,1,2,0:0:0:0:
64,192,62686,1,8,0:0:0:0:
448,192,62686,1,0,0:0:0:0:
192,192,63002,1,2,0:0:0:0:
320,192,63318,1,8,0:0:0:0:
448,192,63318,1,0,0:0:0:0:
64,192,63633,1,2,0:0:0:0:
192,192,63949,1,8,0:0:0:0:
448,192,63949,1,0,0:0:0:0:
320,192,64265,1,2,0:0:0:0:
64,192,64581,1,8,0:0:0:0:
192,192,64581,1,0,0:0:0:0:
448,192,64896,1,2,0:0:0:0:
64,192,65212,1,8,0:0:0:0:
320,192,65212,1,0,0:0:0:0:
192,192,65528,1,2,0:0:0:0:
320,192,65686,1,2,0:0:0:0:
64,192,65844,128,8,66160:0:0:0:0:
448,192,65844,1,4,0:0:0:0:
448,192,66160,128,8,66318:0:0:0:0:
192,192,66318,128,8,66475:0:0:0:0:
320,192,66475,128,0,66633:0:0:0:100:KICK 2.wav
64,192,66633,128,0,66791:0:0:0:100:KICK 2.wav
320,192,66791,1,2,0:0:0:0:
448,192,66791,1,4,0:0:0:0:
320,192,67265,1,0,0:0:0:0:
64,192,67896,1,0,0:0:0:0:
192,192,67896,1,0,0:0:0:0:
448,192,68370,1,0,0:0:0:0:
192,192,68528,1,0,0:0:0:0:
320,192,68686,1,0,0:0:0:0:
448,192,68844,1,0,0:0:0:0:
64,192,69002,1,0,0:0:0:0:
192,192,69160,1,0,0:0:0:0:
320,192,69318,1,0,0:0:0:0:
448,192,69318,1,0,0:0:0:0:
64,192,69949,1,0,0:0:0:0:
320,192,69949,1,0,0:0:0:0:
192,192,70423,1,0,0:0:0:0:
448,192,70423,1,0,0:0:0:0:
64,192,71212,128,0,71528:0:0:0:0:
448,192,71528,128,0,71844:0:0:0:60:hihat02.wav
64,192,71844,1,2,0:0:0:0:
192,192,71844,1,4,0:0:0:0:
64,192,72160,1,2,0:0:0:0:
320,192,72475,1,2,0:0:0:0:
320,192,72791,1,2,0:0:0:0:
192,192,73107,1,2,0:0:0:0:
192,192,73423,1,2,0:0:0:0:
448,192,73739,1,2,0:0:0:0:
64,192,73896,1,0,0:0:0:60:hihat02.wav
448,192,74054,1,2,0:0:0:0:
64,192,74212,1,0,0:0:0:60:hihat02.wav
320,192,74370,1,2,0:0:0:0:
320,192,74686,1,2,0:0:0:0:
192,192,75002,1,2,0:0:0:0:
192,192,75318,1,2,0:0:0:0:
448,192,75633,1,2,0:0:0:0:
448,192,75949,1,2,0:0:0:0:
64,192,76265,1,2,0:0:0:0:
192,192,76423,1,2,0:0:0:0:
320,192,76581,1,8,0:0:0:0:
448,192,76581,1,4,0:0:0:0:
64,192,76896,1,2,0:0:0:0:
192,192,76896,1,4,0:0:0:0:
320,192,77212,1,8,0:0:0:0:
448,192,77212,1,0,0:0:0:0:
192,192,77528,1,2,0:0:0:0:
320,192,77686,1,2,0:0:0:0:
64,192,77844,1,8,0:0:0:0:
448,192,77844,1,0,0:0:0:0:
64,192,78160,1,8,0:0:0:0:
192,192,78160,1,0,0:0:0:0:
64,192,78370,1,8,0:0:0:0:
192,192,78370,1,0,0:0:0:0:
320,192,78581,1,8,0:0:0:0:
448,192,78581,1,0,0:0:0:0:
320,192,78791,1,8,0:0:0:0:
448,192,78791,1,0,0:0:0:0:
64,192,79002,1,8,0:0:0:0:
192,192,79002,1,0,0:0:0:0:
64,192,79212,1,8,0:0:0:0:
192,192,79212,1,0,0:0:0:0:
320,192,79423,1,8,0:0:0:0:
448,192,79423,1,4,0:0:0:0:
192,192,79581,1,2,0:0:0:0:
64,192,79739,1,8,0:0:0:0:
448,192,79739,1,4,0:0:0:0:
320,192,79896,1,2,0:0:0:0:
64,192,80054,1,8,0:0:0:0:
192,192,80054,1,4,0:0:0:0:
320,192,80212,1,8,0:0:0:0:
448,192,80212,1,4,0:0:0:0:
192,192,80370,1,2,0:0:0:0:
64,192,80528,1,8,0:0:0:0:
448,192,80528,1,4,0:0:0:0:
320,192,80686,1,2,0:0:0:0:
192,192,80844,1,2,0:0:0:0:
64,192,81002,1,8,0:0:0:0:
320,192,81002,1,4,0:0:0:0:
448,192,81318,128,10,81475:0:0:0:0:
192,192,81475,128,8,81633:0:0:0:0:
320,192,81633,128,2,81791:0:0:0:0:
64,192,81791,128,8,81949:0:0:0:0:
320,192,81949,1,2,0:0:0:0:
448,192,81949,128,4,82265:0:0:0:0:
64,192,82265,1,8,0:0:0:0:
192,192,82265,128,0,82581:0:0:0:0:
320,192,82581,1,2,0:0:0:0:
64,192,82896,1,8,0:0:0:0:
448,192,82896,1,0,0:0:0:0:
320,192,83212,1,2,0:0:0:0:
64,192,83528,1,8,0:0:0:0:
192,192,83528,1,0,0:0:0:0:
320,192,83844,1,2,0:0:0:0:
64,192,84160,1,8,0:0:0:0:
448,192,84160,1,0,0:0:0:0:
192,192,84475,128,2,84791:0:0:0:0:
64,192,84791,1,8,0:0:0:0:
448,192,84791,128,0,85107:0:0:0:0:
192,192,85107,1,2,0:0:0:0:
448,192,85423,1,2,0:0:0:0:
64,192,85581,1,8,0:0:0:0:
192,192,85581,1,4,0:0:0:0:
320,192,85739,1,2,0:0:0:0:
64,192,86054,1,8,0:0:0:0:
448,192,86054,1,4,0:0:0:0:
320,192,86370,128,2,86528:0:0:0:0:
64,192,86528,128,8,86686:0:0:0:0:
448,192,86686,128,10,86844:0:0:0:0:
192,192,86844,128,8,87002:0:0:0:0:
320,192,87002,1,2,0:0:0:0:
448,192,87002,1,4,0:0:0:0:
64,192,87318,1,8,0:0:0:0:
192,192,87318,1,0,0:0:0:0:
448,192,87633,1,2,0:0:0:0:
64,192,87949,1,8,0:0:0:0:
320,192,87949,1,0,0:0:0:0:
192,192,88265,1,2,0:0:0:0:
320,192,88581,1,8,0:0:0:0:
448,192,88581,1,0,0:0:0:0:
64,192,88896,1,2,0:0:0:0:
192,192,89212,1,8,0:0:0:0:
448,192,89212,1,0,0:0:0:0:
320,192,89528,128,2,89844:0:0:0:0:
64,192,89844,128,8,90160:0:0:0:0:
448,192,89844,1,0,0:0:0:0:
320,192,90160,1,2,0:0:0:0:
192,192,90318,1,2,0:0:0:0:
320,192,90475,1,8,0:0:0:0:
448,192,90475,1,0,0:0:0:0:
64,192,90633,1,2,0:0:0:0:
192,192,90633,1,4,0:0:0:0:
320,192,90949,1,2,0:0:0:0:
64,192,91107,1,8,0:0:0:0:
448,192,91107,1,4,0:0:0:0:
448,192,91423,128,2,91581:0:0:0:0:
192,192,91581,128,8,91739:0:0:0:0:
320,192,91739,128,2,91896:0:0:0:0:
64,192,91896,128,8,92054:0:0:0:0:
320,192,92054,1,2,0:0:0:0:
448,192,92054,128,4,92370:0:0:0:0:
64,192,92370,1,8,0:0:0:0:
192,192,92370,128,0,92686:0:0:0:0:
320,192,92686,1,2,0:0:0:0:
64,192,93002,1,8,0:0:0:0:
448,192,93002,1,0,0:0:0:0:
192,192,93318,1,2,0:0:0:0:
320,192,93633,1,8,0:0:0:0:
448,192,93633,1,0,0:0:0:0:
64,192,93949,1,2,0:0:0:0:
192,192,94265,1,8,0:0:0:0:
320,192,94265,1,0,0:0:0:0:
448,192,94581,128,2,94896:0:0:0:0:
64,192,94896,128,8,95212:0:0:0:0:
192,192,94896,1,0,0:0:0:0:
320,192,95212,1,2,0:0:0:0:
192,192,95528,1,2,0:0:0:0:
320,192,95686,1,8,0:0:0:0:
448,192,95686,1,4,0:0:0:0:
64,192,95844,1,2,0:0:0:0:
320,192,96160,1,8,0:0:0:0:
448,192,96160,1,4,0:0:0:0:
64,192,96475,128,2,96633:0:0:0:0:
320,192,96633,128,8,96791:0:0:0:0:
192,192,96791,128,10,96949:0:0:0:0:
448,192,96949,128,8,97107:0:0:0:0:
64,192,97107,1,2,0:0:0:0:
192,192,97107,1,4,0:0:0:0:
320,192,97265,1,2,0:0:0:0:
64,192,97423,1,8,0:0:0:0:
448,192,97423,1,0,0:0:0:0:
192,192,97581,1,2,0:0:0:0:
320,192,97581,1,4,0:0:0:0:
64,192,97896,1,2,0:0:0:0:
320,192,98054,1,8,0:0:0:0:
448,192,98054,1,0,0:0:0:0:
64,192,98212,1,2,0:0:0:0:
192,192,98212,1,4,0:0:0:0:
320,192,98528,1,2,0:0:0:0:
64,192,98686,1,8,0:0:0:0:
448,192,98686,1,0,0:0:0:0:
192,192,98844,1,2,0:0:0:0:
320,192,99002,1,8,0:0:0:0:
448,192,99002,1,0,0:0:0:0:
64,192,99160,1,2,0:0:0:0:
192,192,99318,1,8,0:0:0:0:
320,192,99318,1,0,0:0:0:0:
448,192,99475,1,2,0:0:0:0:
448,192,101686,1,0,0:0:0:100:KICK 2.wav
320,192,101765,1,0,0:0:0:100:KICK 2.wav
64,192,101844,1,8,0:0:0:0:
192,192,101844,1,0,0:0:0:0:
320,192,102002,1,2,0:0:0:0:
448,192,102002,1,4,0:0:0:0:
64,192,102318,1,2,0:0:0:0:
320,192,102475,1,8,0:0:0:0:
448,192,102475,1,0,0:0:0:0:
192,192,102791,1,2,0:0:0:0:
64,192,103107,1,8,0:0:0:0:
448,192,103107,1,0,0:0:0:0:
320,192,103423,1,2,0:0:0:0:
64,192,103739,1,8,0:0:0:0:
192,192,103739,1,0,0:0:0:0:
448,192,104054,1,2,0:0:0:0:
192,192,104212,1,2,0:0:0:0:
320,192,104370,1,8,0:0:0:0:
448,192,104370,1,0,0:0:0:0:
64,192,104528,1,2,0:0:0:0:
192,192,104528,1,4,0:0:0:0:
320,192,104844,1,2,0:0:0:0:
64,192,105002,1,8,0:0:0:0:
448,192,105002,1,0,0:0:0:0:
192,192,105318,1,2,0:0:0:0:
320,192,105475,1,2,0:0:0:0:
64,192,105633,1,8,0:0:0:0:
192,192,105633,1,0,0:0:0:0:
320,192,105791,1,2,0:0:0:0:
448,192,105791,1,4,0:0:0:0:
192,192,106107,1,2,0:0:0:0:
64,192,106265,1,8,0:0:0:0:
448,192,106265,1,0,0:0:0:0:
64,192,106581,1,2,0:0:0:0:
192,192,106581,1,0,0:0:0:0:
448,192,106739,1,8,0:0:0:0:
320,192,106818,1,8,0:0:0:0:
192,192,106896,1,8,0:0:0:0:
64,192,107054,1,2,0:0:0:0:
448,192,107054,1,4,0:0:0:0:
192,192,107370,1,2,0:0:0:0:
320,192,107528,1,8,0:0:0:0:
448,192,107528,1,0,0:0:0:0:
64,192,107844,1,2,0:0:0:0:
192,192,108160,1,8,0:0:0:0:
320,192,108160,1,0,0:0:0:0:
448,192,108475,1,2,0:0:0:0:
64,192,108791,1,8,0:0:0:0:
192,192,108791,1,0,0:0:0:0:
320,192,109107,1,2,0:0:0:0:
192,192,109265,1,2,0:0:0:0:
64,192,109423,1,8,0:0:0:0:
448,192,109423,1,0,0:0:0:0:
192,192,109581,1,4,0:0:0:0:
320,192,109581,1,2,0:0:0:0:
448,192,109896,1,2,0:0:0:0:
192,192,110054,1,8,0:0:0:0:
320,192,110054,1,0,0:0:0:0:
64,192,110370,1,2,0:0:0:0:
320,192,110528,1,2,0:0:0:0:
64,192,110686,1,8,0:0:0:0:
192,192,110686,1,0,0:0:0:0:
320,192,110844,1,2,0:0:0:0:
448,192,110844,1,4,0:0:0:0:
192,192,111160,1,2,0:0:0:0:
64,192,111318,1,8,0:0:0:0:
448,192,111318,1,0,0:0:0:0:
320,192,111633,128,8,111949:0:0:0:0:
64,192,111949,128,0,112265:0:0:0:100:KICK 2.wav
320,192,112265,1,8,0:0:0:0:
448,192,112265,1,4,0:0:0:0:
192,192,112423,1,2,0:0:0:0:
320,192,112581,1,2,0:0:0:0:
64,192,112739,1,8,0:0:0:0:
448,192,112739,1,4,0:0:0:0:
192,192,112896,1,2,0:0:0:0:
320,192,113054,1,2,0:0:0:0:
64,192,113212,1,8,0:0:0:0:
192,192,113212,1,4,0:0:0:0:
448,192,113370,1,2,0:0:0:0:
320,192,113528,1,2,0:0:0:0:
192,192,113686,1,8,0:0:0:0:
448,192,113686,1,4,0:0:0:0:
64,192,113844,1,2,0:0:0:0:
320,192,114002,1,2,0:0:0:0:
64,192,114160,1,8,0:0:0:0:
448,192,114160,1,4,0:0:0:0:
192,192,114318,1,0,0:0:0:100:KICK 2.wav
320,192,114475,1,8,0:0:0:0:
448,192,114475,1,0,0:0:0:0:
64,192,114633,1,2,0:0:0:0:
192,192,114633,1,4,0:0:0:0:
64,192,114949,1,2,0:0:0:0:
320,192,115107,1,8,0:0:0:0:
448,192,115107,1,0,0:0:0:60:hihat02.wav
192,192,115265,1,2,0:0:0:0:
64,192,115423,1,8,0:0:0:0:
448,192,115423,1,0,0:0:0:60:hihat02.wav
320,192,115581,1,2,0:0:0:0:
64,192,115739,1,8,0:0:0:0:
192,192,115739,1,0,0:0:0:0:
320,192,115896,1,2,0:0:0:0:
448,192,115896,1,4,0:0:0:0:
448,192,116212,1,2,0:0:0:0:
64,192,116370,1,8,0:0:0:0:
192,192,116370,1,4,0:0:0:0:
320,192,116528,1,2,0:0:0:0:
64,192,116686,128,8,117002:0:0:0:0:
448,192,116686,1,0,0:0:0:0:
320,192,117002,128,0,117318:0:0:0:100:KICK 2.wav
64,192,117318,1,4,0:0:0:0:
448,192,117318,1,8,0:0:0:0:
192,192,117475,1,0,0:0:0:100:KICK 2.wav
448,192,117633,1,0,0:0:0:100:KICK 2.wav
320,192,117712,1,0,0:0:0:100:KICK 2.wav
64,192,117791,1,4,0:0:0:0:
192,192,117791,1,8,0:0:0:0:
320,192,118107,1,4,0:0:0:0:
448,192,118107,1,8,0:0:0:0:
192,192,118423,128,4,121423:0:0:0:0:
320,192,118423,128,8,121107:0:0:0:0:
