osu file format v14

[General]
AudioFilename: ONENESS.mp3
AudioLeadIn: 0
PreviewTime: 81893
Countdown: 0
SampleSet: None
StackLeniency: 0.7
Mode: 3
LetterboxInBreaks: 0
SpecialStyle: 0
WidescreenStoryboard: 1

[Editor]
DistanceSpacing: 0.8
BeatDivisor: 4
GridSize: 4
TimelineZoom: 2.244

[Metadata]
Title:ONENESS
TitleUnicode:ONENESS
Artist:Roselia
ArtistUnicode:Roselia
Creator:123ysg
Version:NM
Source:バンドリ!ガールズバンドパーティ!
Tags:BanGDream 湊友希那 相羽あいな LOUDER R BLACKSHOUT
BeatmapID:2106109
BeatmapSetID:1006341

[Difficulty]
HPDrainRate:7
CircleSize:4
OverallDifficulty:7
ApproachRate:5
SliderMultiplier:1.9
SliderTickRate:1

[Events]
//Background and Video events
0,0,"ONENESS.jpg",0,0
//Break Periods
//Storyboard Layer 0 (Background)
//Storyboard Layer 1 (Fail)
//Storyboard Layer 2 (Pass)
//Storyboard Layer 3 (Foreground)
//Storyboard Sound Samples

[TimingPoints]
1080,600,4,1,1,45,1,0
1080,-76.9230769230769,4,1,1,45,0,0
17880,652.173913043478,4,1,1,45,1,0
17880,-80,4,1,1,45,0,0
18532,714.285714285714,4,1,1,45,1,0
18534,-83.3333333333333,4,1,1,45,0,0
19246,869.565217391304,4,1,1,45,1,0
19246,-83.3333333333333,4,1,1,45,0,0
20115,1153.84615384615,4,1,1,45,1,0
21268,315.789473684211,4,2,1,75,1,0
81899,-100,4,2,1,75,0,1
99583,-100,4,2,1,75,0,0
101952,-100,4,2,1,75,0,1
116004,-100,4,2,1,75,0,0

[HitObjects]
192,192,1080,128,0,1680:0:0:0:0:
448,192,1080,1,0,0:0:0:0:
64,192,1680,128,0,2280:0:0:0:0:
448,192,2280,1,0,0:0:0:0:
320,192,2280,128,0,2580:0:0:0:0:
192,192,2580,128,0,3030:0:0:0:0:
64,192,3180,128,0,4080:0:0:0:0:
448,192,3780,1,0,0:0:0:0:
192,192,4080,128,0,4680:0:0:0:0:
320,192,4680,128,0,4980:0:0:0:0:
448,192,4680,1,0,0:0:0:0:
448,192,5280,128,0,5880:0:0:0:0:
192,192,5880,128,0,6480:0:0:0:0:
320,192,5880,1,0,0:0:0:0:
64,192,6480,128,0,6930:0:0:0:0:
320,192,7080,128,0,7380:0:0:0:0:
192,192,7080,1,0,0:0:0:0:
448,192,7380,128,0,7830:0:0:0:0:
320,192,7980,128,0,10230:0:0:0:0:
64,192,10680,1,0,0:0:0:0:
448,192,10680,128,0,11280:0:0:0:0:
192,192,11280,128,0,11580:0:0:0:0:
64,192,11580,128,0,11880:0:0:0:0:
448,192,11880,128,0,12330:0:0:0:0:
320,192,12330,128,0,12780:0:0:0:0:
192,192,12780,128,0,13080:0:0:0:0:
448,192,13080,1,0,0:0:0:0:
64,192,13080,128,0,13680:0:0:0:0:
192,192,13680,128,0,14280:0:0:0:0:
64,192,14280,1,0,0:0:0:0:
320,192,14280,128,0,14880:0:0:0:0:
448,192,14880,128,0,15480:0:0:0:0:
320,192,15480,1,0,0:0:0:0:
192,192,15480,128,0,16080:0:0:0:0:
320,192,16380,128,0,16680:0:0:0:0:
64,192,16680,1,0,0:0:0:0:
448,192,16680,1,0,0:0:0:0:
192,192,17130,1,0,0:0:0:0:
448,192,17130,1,0,0:0:0:0:
64,192,17580,1,0,0:0:0:0:
320,192,17580,1,0,0:0:0:0:
448,192,17880,1,0,0:0:0:0:
192,192,17880,128,0,18532:0:0:0:0:
320,192,18532,128,0,19246:0:0:0:0:
64,192,19246,128,0,20115:0:0:0:0:
192,192,20115,128,0,21268:0:0:0:0:
448,192,21268,128,0,21583:0:0:0:0:
64,192,21583,128,0,21741:0:0:0:0:
192,192,21741,128,0,21899:0:0:0:0:
320,192,21899,128,0,22057:0:0:0:0:
448,192,22057,128,0,22373:0:0:0:0:
192,192,22373,128,0,22689:0:0:0:0:
448,192,22689,128,0,22846:0:0:0:0:
320,192,22846,128,0,23004:0:0:0:0:
192,192,23004,128,0,23162:0:0:0:0:
64,192,23162,128,0,23320:0:0:0:0:
192,192,23320,128,0,23636:0:0:0:0:
320,192,23636,128,0,23952:0:0:0:0:
192,192,23952,128,0,24110:0:0:0:0:
64,192,24110,128,0,24268:0:0:0:0:
448,192,24110,128,0,24268:0:0:0:0:
192,192,24425,128,0,24583:0:0:0:0:
320,192,24425,128,0,24583:0:0:0:0:
192,192,24741,128,0,24899:0:0:0:0:
448,192,24741,128,0,24899:0:0:0:0:
320,192,24899,128,0,25057:0:0:0:0:
64,192,24899,128,0,25057:0:0:0:0:
448,192,25215,128,0,25373:0:0:0:0:
320,192,25373,128,0,25689:0:0:0:0:
192,192,25689,128,0,25846:0:0:0:0:
64,192,25846,128,0,26162:0:0:0:0:
448,192,26162,128,0,26320:0:0:0:0:
192,192,26320,1,2,0:0:0:0:
64,192,26636,1,0,0:0:0:0:
448,192,26636,1,0,0:0:0:0:
320,192,26794,1,0,0:0:0:0:
192,192,26873,1,2,0:0:0:0:
64,192,26873,1,0,0:0:0:0:
448,192,27031,1,0,0:0:0:0:
320,192,27110,1,2,0:0:0:0:
192,192,27110,1,0,0:0:0:0:
448,192,27268,1,0,0:0:0:0:
64,192,27268,1,0,0:0:0:0:
192,192,27346,1,0,0:0:0:0:
320,192,27583,1,2,0:0:0:0:
64,192,27899,1,0,0:0:0:0:
448,192,27899,1,0,0:0:0:0:
192,192,28057,1,0,0:0:0:0:
448,192,28136,1,0,0:0:0:0:
320,192,28136,1,2,0:0:0:0:
64,192,28294,1,0,0:0:0:0:
320,192,28373,1,2,0:0:0:0:
192,192,28373,1,0,0:0:0:0:
448,192,28531,1,0,0:0:0:0:
64,192,28531,1,0,0:0:0:0:
320,192,28610,1,0,0:0:0:0:
320,192,28846,128,0,29004:0:0:0:0:
192,192,29004,128,0,29162:0:0:0:0:
64,192,29162,128,0,29320:0:0:0:0:
448,192,29478,128,0,29636:0:0:0:0:
64,192,29794,128,0,29952:0:0:0:0:
192,192,29952,128,0,30110:0:0:0:0:
320,192,30268,1,0,0:0:0:0:
192,192,30425,1,0,0:0:0:0:
320,192,30583,1,0,0:0:0:0:
64,192,30741,1,8,0:0:0:0:
192,192,30899,1,8,0:0:0:0:
320,192,31057,1,8,0:0:0:0:
448,192,31215,128,2,31531:0:0:0:0:
192,192,31531,1,2,0:0:0:0:
448,192,31689,1,8,0:0:0:0:
64,192,31689,1,4,0:0:0:0:
320,192,32004,128,2,32162:0:0:0:0:
192,192,32162,128,0,32320:0:0:0:0:
64,192,32320,1,8,0:0:0:0:
448,192,32320,1,4,0:0:0:0:
192,192,32636,1,2,0:0:0:0:
320,192,32794,1,0,0:0:0:0:
448,192,32952,1,4,0:0:0:0:
64,192,32952,1,8,0:0:0:0:
192,192,33268,128,2,33425:0:0:0:0:
320,192,33425,128,2,33583:0:0:0:0:
64,192,33583,1,4,0:0:0:0:
448,192,33583,1,8,0:0:0:0:
192,192,33741,128,2,34057:0:0:0:0:
448,192,34057,1,2,0:0:0:0:
64,192,34215,1,4,0:0:0:0:
320,192,34215,1,8,0:0:0:0:
192,192,34531,128,2,34689:0:0:0:0:
320,192,34689,1,2,0:0:0:0:
64,192,34846,1,4,0:0:0:0:
448,192,34846,1,8,0:0:0:0:
320,192,35004,128,2,35320:0:0:0:0:
64,192,35320,1,2,0:0:0:0:
448,192,35478,1,4,0:0:0:0:
192,192,35478,1,8,0:0:0:0:
448,192,35794,1,4,0:0:0:0:
64,192,35794,1,8,0:0:0:0:
192,192,35952,1,8,0:0:0:0:
320,192,36110,1,8,0:0:0:0:
448,192,36268,128,2,36583:0:0:0:0:
192,192,36583,1,2,0:0:0:0:
64,192,36741,1,8,0:0:0:0:
320,192,36741,1,4,0:0:0:0:
192,192,37057,128,2,37215:0:0:0:0:
320,192,37215,128,0,37373:0:0:0:0:
448,192,37373,1,8,0:0:0:0:
64,192,37373,1,4,0:0:0:0:
192,192,37689,1,2,0:0:0:0:
320,192,37846,1,0,0:0:0:0:
64,192,38004,1,4,0:0:0:0:
448,192,38004,1,8,0:0:0:0:
320,192,38320,128,2,38478:0:0:0:0:
192,192,38478,128,2,38636:0:0:0:0:
448,192,38636,1,4,0:0:0:0:
64,192,38636,1,8,0:0:0:0:
320,192,38794,128,2,39110:0:0:0:0:
64,192,39110,1,2,0:0:0:0:
448,192,39268,1,4,0:0:0:0:
192,192,39268,1,8,0:0:0:0:
320,192,39583,1,2,0:0:0:0:
192,192,39741,1,2,0:0:0:0:
448,192,39899,1,4,0:0:0:0:
64,192,39899,1,8,0:0:0:0:
320,192,40057,128,2,40373:0:0:0:0:
192,192,40373,1,2,0:0:0:0:
64,192,40531,1,4,0:0:0:0:
448,192,40531,1,8,0:0:0:0:
320,192,40689,1,2,0:0:0:0:
448,192,40846,1,4,0:0:0:0:
64,192,40846,1,8,0:0:0:0:
192,192,41004,1,2,0:0:0:0:
448,192,41162,1,0,0:0:0:0:
448,192,41320,1,0,0:0:0:0:
64,192,41478,1,8,0:0:0:0:
192,192,41478,1,4,0:0:0:0:
448,192,41794,1,2,0:0:0:0:
320,192,41952,1,4,0:0:0:0:
64,192,41952,1,8,0:0:0:0:
64,192,42268,1,2,0:0:0:0:
192,192,42425,1,4,0:0:0:0:
448,192,42425,1,8,0:0:0:0:
320,192,42741,1,2,0:0:0:0:
448,192,42899,1,8,0:0:0:0:
192,192,42899,1,4,0:0:0:0:
192,192,43215,1,2,0:0:0:0:
320,192,43373,1,8,0:0:0:0:
64,192,43373,1,4,0:0:0:0:
448,192,43531,1,2,0:0:0:0:
192,192,43689,1,8,0:0:0:0:
320,192,43689,1,4,0:0:0:0:
64,192,43846,128,2,44162:0:0:0:0:
448,192,44162,1,2,0:0:0:0:
320,192,44320,1,4,0:0:0:0:
192,192,44320,1,8,0:0:0:0:
320,192,44636,1,8,0:0:0:0:
64,192,44636,1,4,0:0:0:0:
192,192,44952,1,8,0:0:0:0:
448,192,44952,1,4,0:0:0:0:
320,192,45110,128,8,45425:0:0:0:0:
64,192,45110,1,4,0:0:0:0:
64,192,45425,1,8,0:0:0:0:
448,192,45425,1,4,0:0:0:0:
64,192,45583,1,8,0:0:0:0:
448,192,45583,1,4,0:0:0:0:
192,192,45899,1,8,0:0:0:0:
320,192,45899,1,4,0:0:0:0:
64,192,46057,1,4,0:0:0:0:
448,192,46057,128,8,46531:0:0:0:0:
192,192,46373,1,0,0:0:0:0:
320,192,46531,128,2,46846:0:0:0:0:
64,192,46846,128,2,47004:0:0:0:0:
192,192,47004,128,0,47162:0:0:0:0:
320,192,47162,128,2,47320:0:0:0:0:
448,192,47320,128,0,47478:0:0:0:0:
64,192,47636,128,0,47952:0:0:0:0:
192,192,47952,128,0,48110:0:0:0:0:
448,192,48110,128,2,48268:0:0:0:0:
320,192,48268,128,0,48425:0:0:0:0:
192,192,48425,128,2,48583:0:0:0:0:
64,192,48583,128,0,48741:0:0:0:0:
448,192,48899,128,0,49215:0:0:0:0:
64,192,49215,128,0,49373:0:0:0:0:
192,192,49373,128,2,49531:0:0:0:0:
320,192,49689,128,2,49846:0:0:0:0:
448,192,50004,128,2,50162:0:0:0:0:
320,192,50162,128,0,50320:0:0:0:0:
64,192,50478,128,0,50794:0:0:0:0:
448,192,50952,128,2,51110:0:0:0:0:
320,192,51110,128,0,51268:0:0:0:0:
192,192,51268,128,2,51425:0:0:0:0:
64,192,51425,128,0,51583:0:0:0:0:
448,192,51583,128,2,51741:0:0:0:0:
320,192,51741,128,0,51899:0:0:0:0:
64,192,51899,128,2,52057:0:0:0:0:
192,192,52057,128,0,52215:0:0:0:0:
320,192,52215,128,2,52373:0:0:0:0:
64,192,52373,128,0,52689:0:0:0:0:
448,192,52689,128,0,53004:0:0:0:0:
320,192,53004,128,0,53162:0:0:0:0:
192,192,53162,128,2,53320:0:0:0:0:
64,192,53320,128,0,53478:0:0:0:0:
448,192,53478,128,2,53636:0:0:0:0:
64,192,53715,1,8,0:0:0:0:
192,192,53794,1,8,0:0:0:0:
320,192,53794,1,4,0:0:0:0:
448,192,53952,128,0,54110:0:0:0:0:
192,192,54110,128,0,54268:0:0:0:0:
64,192,54268,128,0,54425:0:0:0:0:
320,192,54425,128,0,54662:0:0:0:0:
64,192,54741,128,0,54978:0:0:0:0:
320,192,55057,128,0,55215:0:0:0:0:
192,192,55215,128,2,55531:0:0:0:0:
64,192,55531,1,8,0:0:0:0:
448,192,55531,1,0,0:0:0:0:
320,192,55689,1,2,0:0:0:0:
64,192,55846,1,0,0:0:0:0:
448,192,55846,1,8,0:0:0:0:
320,192,56004,1,8,0:0:0:0:
192,192,56004,1,0,0:0:0:0:
64,192,56162,1,8,0:0:0:0:
448,192,56162,1,0,0:0:0:0:
320,192,56320,1,8,0:0:0:0:
192,192,56320,1,0,0:0:0:0:
448,192,56478,1,0,0:0:0:0:
64,192,56478,1,8,0:0:0:0:
192,192,56636,128,2,56952:0:0:0:0:
320,192,56952,1,0,0:0:0:0:
64,192,56952,1,8,0:0:0:0:
448,192,57268,1,2,0:0:0:0:
320,192,57425,1,0,0:0:0:0:
192,192,57583,1,0,0:0:0:0:
64,192,57583,1,8,0:0:0:0:
448,192,57741,128,0,58057:0:0:0:0:
192,192,58057,128,0,58215:0:0:0:0:
320,192,58215,1,0,0:0:0:0:
64,192,58215,128,8,58373:0:0:0:0:
448,192,58373,128,0,58531:0:0:0:0:
320,192,58531,128,2,58689:0:0:0:0:
192,192,58689,128,0,59004:0:0:0:0:
448,192,58846,1,8,0:0:0:0:
64,192,58846,1,0,0:0:0:0:
448,192,59162,128,2,59320:0:0:0:0:
320,192,59320,128,0,59478:0:0:0:0:
192,192,59478,1,0,0:0:0:0:
64,192,59478,1,8,0:0:0:0:
448,192,59794,128,2,59952:0:0:0:0:
320,192,60110,1,0,0:0:0:0:
64,192,60110,1,8,0:0:0:0:
192,192,60268,128,0,60583:0:0:0:0:
448,192,60425,1,2,0:0:0:0:
320,192,60583,128,0,60741:0:0:0:0:
64,192,60741,1,2,0:0:0:0:
320,192,61057,1,2,0:0:0:0:
64,192,61215,1,4,0:0:0:0:
448,192,61215,1,8,0:0:0:0:
192,192,61373,1,2,0:0:0:0:
448,192,61531,1,8,0:0:0:0:
64,192,61531,1,4,0:0:0:0:
320,192,61689,128,2,62004:0:0:0:0:
64,192,62004,1,0,0:0:0:0:
192,192,62004,1,8,0:0:0:0:
448,192,62162,128,0,62320:0:0:0:0:
320,192,62320,128,2,62478:0:0:0:0:
192,192,62478,128,0,62636:0:0:0:0:
64,192,62636,1,8,0:0:0:0:
448,192,62636,1,0,0:0:0:0:
320,192,62794,128,0,63110:0:0:0:0:
448,192,62952,1,2,0:0:0:0:
64,192,63110,128,0,63268:0:0:0:0:
448,192,63268,1,8,0:0:0:0:
192,192,63268,128,0,63425:0:0:0:0:
320,192,63425,128,0,63583:0:0:0:0:
448,192,63583,128,2,63741:0:0:0:0:
192,192,63741,128,0,64057:0:0:0:0:
64,192,63899,1,0,0:0:0:0:
320,192,63899,1,8,0:0:0:0:
448,192,64215,1,2,0:0:0:0:
320,192,64531,1,0,0:0:0:0:
64,192,64531,1,8,0:0:0:0:
192,192,64846,1,2,0:0:0:0:
320,192,65004,1,0,0:0:0:0:
64,192,65162,1,8,0:0:0:0:
448,192,65162,128,0,65320:0:0:0:0:
320,192,65320,1,0,0:0:0:0:
192,192,65478,1,2,0:0:0:0:
320,192,65636,1,2,0:0:0:0:
448,192,65794,1,4,0:0:0:0:
64,192,65794,128,8,66110:0:0:0:0:
448,192,66110,1,8,0:0:0:0:
192,192,66189,1,8,0:0:0:0:
320,192,66268,1,8,0:0:0:0:
64,192,66346,1,8,0:0:0:0:
320,192,66583,1,0,0:0:0:0:
448,192,66741,128,0,67846:0:0:0:0:
64,192,66741,1,0,0:0:0:0:
320,192,67057,128,0,67373:0:0:0:0:
192,192,67373,128,0,67689:0:0:0:0:
64,192,67689,128,0,67846:0:0:0:0:
320,192,67846,128,0,68478:0:0:0:0:
192,192,67846,1,0,0:0:0:0:
448,192,68320,128,0,68478:0:0:0:0:
192,192,68478,128,0,69268:0:0:0:0:
64,192,68478,1,0,0:0:0:0:
448,192,69268,128,0,69899:0:0:0:0:
64,192,69268,1,0,0:0:0:0:
320,192,69899,128,0,70057:0:0:0:0:
192,192,70057,128,0,70373:0:0:0:0:
320,192,70373,128,0,71162:0:0:0:0:
64,192,70373,1,0,0:0:0:0:
64,192,71162,1,0,0:0:0:0:
192,192,71320,1,0,0:0:0:0:
320,192,71478,128,0,71636:0:0:0:0:
64,192,71636,128,0,71794:0:0:0:0:
448,192,71794,1,2,0:0:0:0:
320,192,72110,1,0,0:0:0:0:
64,192,72110,1,2,0:0:0:0:
64,192,72425,1,2,0:0:0:0:
448,192,72741,1,0,0:0:0:0:
192,192,72741,1,2,0:0:0:0:
320,192,73057,1,2,0:0:0:0:
64,192,73373,1,0,0:0:0:0:
448,192,73373,1,2,0:0:0:0:
192,192,73689,1,2,0:0:0:0:
448,192,74004,1,0,0:0:0:0:
64,192,74004,1,2,0:0:0:0:
320,192,74162,1,0,0:0:0:0:
192,192,74320,1,2,0:0:0:0:
320,192,74636,1,0,0:0:0:0:
448,192,74636,1,2,0:0:0:0:
320,192,74952,1,2,0:0:0:0:
192,192,75268,1,0,0:0:0:0:
64,192,75268,1,2,0:0:0:0:
448,192,75583,1,2,0:0:0:0:
64,192,75899,1,0,0:0:0:0:
192,192,75899,1,2,0:0:0:0:
64,192,76215,1,2,0:0:0:0:
320,192,76531,1,8,0:0:0:0:
448,192,76531,1,0,0:0:0:0:
192,192,76846,128,2,77162:0:0:0:0:
64,192,77162,1,8,0:0:0:0:
448,192,77162,128,0,77478:0:0:0:0:
320,192,77478,128,2,77794:0:0:0:0:
192,192,77794,128,0,78110:0:0:0:0:
64,192,77794,1,8,0:0:0:0:
448,192,78110,1,8,0:0:0:0:
320,192,78110,1,8,0:0:0:0:
64,192,78320,1,8,0:0:0:0:
192,192,78531,1,8,0:0:0:0:
320,192,78741,1,8,0:0:0:0:
64,192,78741,1,8,0:0:0:0:
448,192,78952,1,8,0:0:0:0:
320,192,79162,1,8,0:0:0:0:
64,192,79373,1,4,0:0:0:0:
448,192,79373,1,8,0:0:0:0:
192,192,79689,1,4,0:0:0:0:
448,192,79689,1,8,0:0:0:0:
64,192,80004,1,4,0:0:0:0:
448,192,80004,1,8,0:0:0:0:
320,192,80162,1,8,0:0:0:0:
192,192,80162,1,0,0:0:0:0:
64,192,80478,1,4,0:0:0:0:
448,192,80478,1,8,0:0:0:0:
320,192,80636,1,2,0:0:0:0:
192,192,80794,1,2,0:0:0:0:
64,192,80952,1,4,0:0:0:0:
448,192,80952,128,8,81268:0:0:0:0:
64,192,81268,1,8,0:0:0:0:
192,192,81425,1,8,0:0:0:0:
448,192,81583,1,8,0:0:0:0:
320,192,81662,1,8,0:0:0:0:
192,192,81741,1,8,0:0:0:0:
64,192,81820,1,8,0:0:0:0:
448,192,81899,128,2,82215:0:0:0:0:
320,192,82215,1,4,0:0:0:0:
64,192,82215,1,8,0:0:0:0:
192,192,82531,1,2,0:0:0:0:
320,192,82689,1,0,0:0:0:0:
448,192,82846,1,4,0:0:0:0:
64,192,82846,1,8,0:0:0:0:
192,192,83004,128,0,83478:0:0:0:0:
320,192,83162,1,2,0:0:0:0:
448,192,83478,1,4,0:0:0:0:
64,192,83478,1,8,0:0:0:0:
448,192,83794,128,2,84110:0:0:0:0:
64,192,83952,1,0,0:0:0:0:
320,192,84110,1,4,0:0:0:0:
192,192,84110,1,8,0:0:0:0:
192,192,84425,1,2,0:0:0:0:
64,192,84741,1,4,0:0:0:0:
448,192,84741,1,8,0:0:0:0:
192,192,85057,1,2,0:0:0:0:
320,192,85373,1,2,0:0:0:0:
64,192,85531,128,8,86320:0:0:0:0:
448,192,85531,1,4,0:0:0:0:
192,192,85689,1,2,0:0:0:0:
448,192,86004,1,4,0:0:0:0:
320,192,86004,1,8,0:0:0:0:
192,192,86320,1,2,0:0:0:0:
448,192,86478,1,8,0:0:0:0:
320,192,86636,1,8,0:0:0:0:
192,192,86794,1,8,0:0:0:0:
64,192,86952,128,2,87268:0:0:0:0:
320,192,87268,1,4,0:0:0:0:
448,192,87268,1,8,0:0:0:0:
192,192,87425,128,0,87741:0:0:0:0:
448,192,87583,1,2,0:0:0:0:
320,192,87741,128,0,87899:0:0:0:0:
64,192,87899,1,4,0:0:0:0:
448,192,87899,1,8,0:0:0:0:
448,192,88215,128,2,88531:0:0:0:0:
320,192,88531,1,4,0:0:0:0:
64,192,88531,1,8,0:0:0:0:
192,192,88689,128,0,89162:0:0:0:0:
448,192,88846,1,2,0:0:0:0:
448,192,89162,1,4,0:0:0:0:
64,192,89162,1,8,0:0:0:0:
320,192,89478,128,2,89794:0:0:0:0:
192,192,89794,1,8,0:0:0:0:
64,192,89794,1,4,0:0:0:0:
192,192,90110,1,2,0:0:0:0:
320,192,90268,1,2,0:0:0:0:
448,192,90425,1,8,0:0:0:0:
64,192,90425,1,4,0:0:0:0:
320,192,90583,128,2,90899:0:0:0:0:
64,192,90899,1,2,0:0:0:0:
192,192,91057,1,8,0:0:0:0:
448,192,91057,1,4,0:0:0:0:
64,192,91215,1,2,0:0:0:0:
192,192,91373,1,2,0:0:0:0:
320,192,91531,1,2,0:0:0:0:
64,192,91610,1,8,0:0:0:0:
448,192,91689,1,8,0:0:0:0:
192,192,91846,1,2,0:0:0:0:
64,192,92004,128,2,92320:0:0:0:0:
192,192,92320,1,4,0:0:0:0:
448,192,92320,1,8,0:0:0:0:
320,192,92636,128,2,92794:0:0:0:0:
192,192,92794,128,0,92952:0:0:0:0:
64,192,92952,1,8,0:0:0:0:
448,192,92952,1,4,0:0:0:0:
320,192,93110,128,0,93425:0:0:0:0:
64,192,93268,1,2,0:0:0:0:
192,192,93425,128,0,93583:0:0:0:0:
448,192,93583,1,4,0:0:0:0:
64,192,93583,1,8,0:0:0:0:
320,192,93899,1,2,0:0:0:0:
192,192,94057,1,0,0:0:0:0:
64,192,94215,1,4,0:0:0:0:
448,192,94215,1,8,0:0:0:0:
320,192,94531,128,2,94846:0:0:0:0:
448,192,94846,1,4,0:0:0:0:
64,192,94846,1,8,0:0:0:0:
192,192,95162,128,2,95320:0:0:0:0:
320,192,95320,128,0,95478:0:0:0:0:
64,192,95478,1,2,0:0:0:0:
448,192,95636,128,8,96425:0:0:0:0:
192,192,95636,1,4,0:0:0:0:
64,192,95794,1,2,0:0:0:0:
192,192,96110,1,8,0:0:0:0:
320,192,96110,1,4,0:0:0:0:
64,192,96425,1,2,0:0:0:0:
320,192,96583,1,8,0:0:0:0:
192,192,96741,1,8,0:0:0:0:
64,192,96899,1,8,0:0:0:0:
320,192,97057,128,2,97373:0:0:0:0:
64,192,97373,1,4,0:0:0:0:
448,192,97373,1,8,0:0:0:0:
192,192,97531,128,2,97846:0:0:0:0:
448,192,97846,1,2,0:0:0:0:
64,192,98004,1,4,0:0:0:0:
320,192,98004,1,8,0:0:0:0:
448,192,98162,128,2,98478:0:0:0:0:
320,192,98478,1,2,0:0:0:0:
192,192,98636,1,8,0:0:0:0:
64,192,98636,1,4,0:0:0:0:
192,192,98952,1,4,0:0:0:0:
448,192,98952,1,8,0:0:0:0:
320,192,99110,1,2,0:0:0:0:
448,192,99268,1,4,0:0:0:0:
64,192,99268,1,8,0:0:0:0:
320,192,99425,1,2,0:0:0:0:
192,192,99583,128,0,100846:0:0:0:0:
448,192,101004,128,0,101162:0:0:0:0:
320,192,101162,128,0,101320:0:0:0:0:
192,192,101320,128,0,101478:0:0:0:0:
64,192,101478,128,0,101636:0:0:0:0:
448,192,101636,1,0,0:0:0:0:
320,192,101794,1,8,0:0:0:0:
192,192,101794,1,0,0:0:0:0:
64,192,101952,128,2,102268:0:0:0:0:
448,192,102268,1,2,0:0:0:0:
320,192,102425,1,4,0:0:0:0:
192,192,102425,1,8,0:0:0:0:
192,192,102741,128,2,102899:0:0:0:0:
320,192,102899,128,0,103057:0:0:0:0:
64,192,103057,1,8,0:0:0:0:
448,192,103057,1,4,0:0:0:0:
320,192,103373,1,2,0:0:0:0:
192,192,103531,1,0,0:0:0:0:
64,192,103689,1,4,0:0:0:0:
448,192,103689,1,8,0:0:0:0:
320,192,104004,128,2,104162:0:0:0:0:
192,192,104162,128,0,104320:0:0:0:0:
448,192,104320,1,4,0:0:0:0:
64,192,104320,1,8,0:0:0:0:
320,192,104478,128,2,104794:0:0:0:0:
192,192,104794,1,2,0:0:0:0:
448,192,104952,1,4,0:0:0:0:
64,192,104952,1,8,0:0:0:0:
448,192,105268,128,2,105583:0:0:0:0:
320,192,105583,1,4,0:0:0:0:
64,192,105583,1,8,0:0:0:0:
192,192,105741,128,2,106057:0:0:0:0:
320,192,106057,128,2,106215:0:0:0:0:
64,192,106215,1,4,0:0:0:0:
448,192,106215,1,8,0:0:0:0:
192,192,106531,1,2,0:0:0:0:
448,192,106689,1,8,0:0:0:0:
64,192,106768,1,8,0:0:0:0:
448,192,106846,1,8,0:0:0:0:
192,192,107004,128,2,107320:0:0:0:0:
320,192,107320,1,2,0:0:0:0:
64,192,107478,1,4,0:0:0:0:
448,192,107478,1,8,0:0:0:0:
192,192,107794,128,2,107952:0:0:0:0:
320,192,107952,128,0,108110:0:0:0:0:
448,192,108110,1,8,0:0:0:0:
64,192,108110,1,4,0:0:0:0:
192,192,108425,1,2,0:0:0:0:
320,192,108583,1,0,0:0:0:0:
64,192,108741,1,4,0:0:0:0:
448,192,108741,1,8,0:0:0:0:
320,192,109057,128,2,109215:0:0:0:0:
192,192,109215,128,2,109373:0:0:0:0:
448,192,109373,1,8,0:0:0:0:
64,192,109373,1,4,0:0:0:0:
320,192,109531,128,2,109846:0:0:0:0:
192,192,109846,128,2,110004:0:0:0:0:
448,192,110004,1,4,0:0:0:0:
64,192,110004,1,8,0:0:0:0:
320,192,110320,128,2,110636:0:0:0:0:
448,192,110636,1,8,0:0:0:0:
64,192,110636,1,4,0:0:0:0:
192,192,110794,128,2,111110:0:0:0:0:
448,192,111110,1,2,0:0:0:0:
64,192,111268,1,0,0:0:0:0:
320,192,111268,1,8,0:0:0:0:
192,192,111425,1,2,0:0:0:0:
320,192,111583,1,8,0:0:0:0:
448,192,111583,1,0,0:0:0:0:
192,192,111899,1,0,0:0:0:0:
448,192,112215,1,8,0:0:0:0:
64,192,112215,1,4,0:0:0:0:
320,192,112373,1,2,0:0:0:0:
192,192,112531,1,2,0:0:0:0:
64,192,112689,1,4,0:0:0:0:
448,192,112689,1,8,0:0:0:0:
192,192,113004,1,8,0:0:0:0:
448,192,113004,1,4,0:0:0:0:
64,192,113320,128,8,116004:0:0:0:0:
320,192,113320,128,4,116004:0:0:0:0:
