osu file format v14

[General]
AudioFilename: audio.mp3
AudioLeadIn: 0
PreviewTime: 242289
Countdown: 0
SampleSet: Soft
StackLeniency: 0.7
Mode: 3
LetterboxInBreaks: 0
SpecialStyle: 0
WidescreenStoryboard: 0

[Editor]
DistanceSpacing: 1
BeatDivisor: 4
GridSize: 8
TimelineZoom: 1.7

[Metadata]
Title:Nesshoku Starmine
TitleUnicode:Nesshoku Starmine
Artist:Roselia
ArtistUnicode:ロゼリア
Creator:Damaree
Version:4K Ultimate Passion
Source:バンドリ!ガールズバンドパーティ!
Tags:BanG Dream! Garupa Bandori Girls Band Party!Minato Yukina Hikawa Sayo Imai Lisa Udagawa Ako Shirokane Rinko Asuka Oda bandori game version
BeatmapID:1649399
BeatmapSetID:785643

[Difficulty]
HPDrainRate:8
CircleSize:4
OverallDifficulty:8
ApproachRate:5
SliderMultiplier:1.4
SliderTickRate:1

[Events]
//Background and Video events
0,0,"owo.jpg",0,0
//Break Periods
//Storyboard Layer 0 (Background)
//Storyboard Layer 1 (Fail)
//Storyboard Layer 2 (Pass)
//Storyboard Layer 3 (Foreground)
//Storyboard Sound Samples

[TimingPoints]
3011,320.855614973262,4,2,0,0,1,0
85150,-100,4,2,0,0,0,1
105604,-133.333333333333,4,2,0,0,0,1
105684,-66.6666666666667,4,2,0,0,0,1
105765,-133.333333333333,4,2,0,0,0,1
105845,-66.6666666666667,4,2,0,0,0,1
105925,-133.333333333333,4,2,0,0,0,1
106005,-100,4,2,0,0,0,1
106085,-133.333333333333,4,2,0,0,0,1
106166,-66.6666666666667,4,2,0,0,0,1
106246,-133.333333333333,4,2,0,0,0,1
106326,-66.6666666666667,4,2,0,0,0,1
106406,-133.333333333333,4,2,0,0,0,1
106486,-100,4,2,0,0,0,1
106567,-133.333333333333,4,2,0,0,0,1
106647,-66.6666666666667,4,2,0,0,0,1
106727,-133.333333333333,4,2,0,0,0,1
106807,-66.6666666666667,4,2,0,0,0,1
106888,-133.333333333333,4,2,0,0,0,1
106968,-100,4,2,0,0,0,1
107048,-133.333333333333,4,2,0,0,0,1
107128,-66.6666666666667,4,2,0,0,0,1
107208,-133.333333333333,4,2,0,0,0,1
107289,-66.6666666666667,4,2,0,0,0,1
107369,-133.333333333333,4,2,0,0,0,1
107449,-100,4,2,0,0,0,1
107529,-200,4,2,0,0,0,1
107609,-50,4,2,0,0,0,1
107770,-200,4,2,0,0,0,1
107930,-100,4,2,0,0,0,1
110497,-100,4,2,0,0,0,0
162155,-100,4,2,0,0,0,1
182609,-133.333333333333,4,2,0,0,0,1
182690,-66.6666666666667,4,2,0,0,0,1
182770,-133.333333333333,4,2,0,0,0,1
182850,-66.6666666666667,4,2,0,0,0,1
182930,-133.333333333333,4,2,0,0,0,1
183010,-100,4,2,0,0,0,1
183091,-133.333333333333,4,2,0,0,0,1
183171,-66.6666666666667,4,2,0,0,0,1
183251,-133.333333333333,4,2,0,0,0,1
183331,-66.6666666666667,4,2,0,0,0,1
183412,-133.333333333333,4,2,0,0,0,1
183492,-100,4,2,0,0,0,1
183572,-133.333333333333,4,2,0,0,0,1
183652,-66.6666666666667,4,2,0,0,0,1
183732,-133.333333333333,4,2,0,0,0,1
183813,-66.6666666666667,4,2,0,0,0,1
183893,-133.333333333333,4,2,0,0,0,1
183973,-100,4,2,0,0,0,1
184053,-133.333333333333,4,2,0,0,0,1
184133,-66.6666666666667,4,2,0,0,0,1
184214,-133.333333333333,4,2,0,0,0,1
184294,-66.6666666666667,4,2,0,0,0,1
184374,-133.333333333333,4,2,0,0,0,1
184454,-100,4,2,0,0,0,1
184535,-200,4,2,0,0,0,1
184615,-50,4,2,0,0,0,1
184775,-200,4,2,0,0,0,1
184936,-100,4,2,0,0,0,1
187663,-100,4,2,0,0,0,0
245577,-100,4,2,0,0,0,1
271085,-100,4,2,0,0,0,0

[HitObjects]
64,192,3010,5,0,0:0:0:0:
192,192,3010,1,0,0:0:0:0:
448,192,3010,1,0,0:0:0:0:
320,192,3171,1,0,0:0:0:0:
64,192,3331,1,0,0:0:0:0:
448,192,3492,1,0,0:0:0:0:
192,192,3652,1,0,0:0:0:0:
448,192,3813,1,0,0:0:0:0:
64,192,3973,1,0,0:0:0:0:
320,192,4133,1,0,0:0:0:0:
64,192,4294,1,0,0:0:0:0:
448,192,4454,1,0,0:0:0:0:
192,192,4615,1,0,0:0:0:0:
448,192,4775,1,0,0:0:0:0:
64,192,4936,1,0,0:0:0:0:
320,192,5096,1,0,0:0:0:0:
64,192,5256,1,0,0:0:0:0:
448,192,5417,1,0,0:0:0:0:
192,192,5577,1,0,0:0:0:0:
64,192,5577,1,0,0:0:0:0:
448,192,5738,1,0,0:0:0:0:
64,192,5898,1,0,0:0:0:0:
320,192,6059,1,0,0:0:0:0:
64,192,6219,1,0,0:0:0:0:
448,192,6379,1,0,0:0:0:0:
192,192,6540,1,0,0:0:0:0:
448,192,6700,1,0,0:0:0:0:
64,192,6861,1,0,0:0:0:0:
320,192,7021,1,0,0:0:0:0:
64,192,7182,128,0,7823:0:0:0:0:
192,192,7502,128,0,8144:0:0:0:0:
320,192,7823,128,0,8144:0:0:0:0:
448,192,8144,128,0,10069:0:0:0:0:
64,192,8144,1,0,0:0:0:0:
320,192,8465,1,0,0:0:0:0:
192,192,8625,1,0,0:0:0:0:
64,192,8786,128,0,9107:0:0:0:0:
320,192,9107,1,0,0:0:0:0:
64,192,9267,1,0,0:0:0:0:
192,192,9588,128,0,9909:0:0:0:0:
320,192,9909,1,0,0:0:0:0:
64,192,10069,1,0,0:0:0:0:
320,192,10390,128,0,10711:0:0:0:0:
192,192,10711,128,0,11353:0:0:0:0:
448,192,10711,1,0,0:0:0:0:
320,192,11353,128,0,11994:0:0:0:0:
64,192,11353,1,0,0:0:0:0:
448,192,11674,1,0,0:0:0:0:
64,192,11834,1,0,0:0:0:0:
192,192,11994,128,0,12315:0:0:0:0:
448,192,11994,1,0,0:0:0:0:
448,192,12315,128,0,12957:0:0:0:0:
64,192,12476,1,0,0:0:0:0:
320,192,12636,128,0,13278:0:0:0:0:
192,192,12636,1,0,0:0:0:0:
192,192,12957,128,0,13278:0:0:0:0:
64,192,13278,128,0,15203:0:0:0:0:
448,192,13278,1,0,0:0:0:0:
192,192,13599,1,0,0:0:0:0:
320,192,13759,1,0,0:0:0:0:
448,192,13920,128,0,14240:0:0:0:0:
192,192,14240,1,0,0:0:0:0:
448,192,14401,1,0,0:0:0:0:
320,192,14561,1,0,0:0:0:0:
192,192,14722,128,0,15043:0:0:0:0:
448,192,15043,1,0,0:0:0:0:
320,192,15203,1,0,0:0:0:0:
64,192,15524,128,0,15845:0:0:0:0:
320,192,15845,128,0,16326:0:0:0:0:
192,192,15845,1,0,0:0:0:0:
64,192,16326,1,0,0:0:0:0:
192,192,16486,128,0,17449:0:0:0:0:
448,192,16807,1,0,0:0:0:0:
64,192,16968,1,0,0:0:0:0:
320,192,17128,1,0,0:0:0:0:
448,192,17289,1,0,0:0:0:0:
64,192,17449,128,0,18091:0:0:0:0:
192,192,17770,128,0,18412:0:0:0:0:
320,192,18091,128,0,18412:0:0:0:0:
448,192,18412,128,0,20337:0:0:0:0:
64,192,18412,1,0,0:0:0:0:
192,192,18732,1,0,0:0:0:0:
320,192,18893,1,0,0:0:0:0:
64,192,19053,128,0,19374:0:0:0:0:
192,192,19374,1,0,0:0:0:0:
320,192,19535,1,0,0:0:0:0:
192,192,19855,1,0,0:0:0:0:
64,192,20016,128,0,20337:0:0:0:0:
320,192,20337,1,0,0:0:0:0:
192,192,20337,1,0,0:0:0:0:
448,192,20978,1,0,0:0:0:0:
64,192,20978,1,0,0:0:0:0:
320,192,21299,1,0,0:0:0:0:
192,192,21460,1,0,0:0:0:0:
64,192,21620,128,0,21941:0:0:0:0:
448,192,21941,1,0,0:0:0:0:
320,192,22101,1,0,0:0:0:0:
64,192,22422,1,0,0:0:0:0:
320,192,22583,128,0,22904:0:0:0:0:
64,192,22904,128,0,23064:0:0:0:0:
448,192,22904,1,0,0:0:0:0:
192,192,23064,128,0,23224:0:0:0:0:
320,192,23224,128,0,23385:0:0:0:0:
448,192,23385,128,0,23545:0:0:0:0:
192,192,23545,1,0,0:0:0:0:
64,192,23545,1,0,0:0:0:0:
320,192,23866,128,0,24187:0:0:0:0:
64,192,24187,1,0,0:0:0:0:
448,192,24347,1,0,0:0:0:0:
320,192,24508,1,0,0:0:0:0:
64,192,24668,1,0,0:0:0:0:
448,192,24829,128,0,25150:0:0:0:0:
192,192,24829,1,0,0:0:0:0:
64,192,25150,128,0,25470:0:0:0:0:
448,192,25470,128,0,25791:0:0:0:0:
320,192,25470,1,0,0:0:0:0:
64,192,25791,128,0,26112:0:0:0:0:
320,192,26112,128,0,26273:0:0:0:0:
448,192,26112,128,0,26273:0:0:0:0:
192,192,26273,128,0,26433:0:0:0:0:
64,192,26273,128,0,26433:0:0:0:0:
320,192,26593,128,0,26754:0:0:0:0:
448,192,26593,128,0,26754:0:0:0:0:
64,192,26754,128,0,26914:0:0:0:0:
192,192,26754,128,0,26914:0:0:0:0:
448,192,27075,128,0,27235:0:0:0:0:
320,192,27075,128,0,27235:0:0:0:0:
192,192,27235,128,0,27396:0:0:0:0:
64,192,27235,128,0,27396:0:0:0:0:
320,192,27556,128,0,27716:0:0:0:0:
448,192,27556,128,0,27716:0:0:0:0:
64,192,27716,128,0,27877:0:0:0:0:
192,192,27716,128,0,27877:0:0:0:0:
448,192,28037,128,0,28198:0:0:0:0:
320,192,28037,128,0,28198:0:0:0:0:
192,192,28037,128,0,28198:0:0:0:0:
64,192,28037,128,0,28198:0:0:0:0:
64,192,28358,128,0,28519:0:0:0:0:
192,192,28358,128,0,28519:0:0:0:0:
320,192,28358,128,0,28519:0:0:0:0:
448,192,28358,128,0,28519:0:0:0:0:
64,192,28679,128,0,28839:0:0:0:0:
192,192,28679,128,0,28839:0:0:0:0:
320,192,28839,128,0,29000:0:0:0:0:
448,192,28839,128,0,29000:0:0:0:0:
64,192,29160,128,0,29321:0:0:0:0:
192,192,29160,128,0,29321:0:0:0:0:
448,192,29321,128,0,29481:0:0:0:0:
320,192,29321,128,0,29481:0:0:0:0:
192,192,29642,128,0,29802:0:0:0:0:
64,192,29642,128,0,29802:0:0:0:0:
320,192,29802,128,0,29962:0:0:0:0:
448,192,29802,128,0,29962:0:0:0:0:
64,192,30123,128,0,30283:0:0:0:0:
192,192,30123,128,0,30283:0:0:0:0:
448,192,30283,128,0,30444:0:0:0:0:
320,192,30283,128,0,30444:0:0:0:0:
320,192,30604,128,0,30765:0:0:0:0:
448,192,30604,128,0,30765:0:0:0:0:
192,192,30604,128,0,30765:0:0:0:0:
64,192,30604,128,0,30765:0:0:0:0:
448,192,30925,128,0,32369:0:0:0:0:
192,192,30925,128,0,33171:0:0:0:0:
64,192,30925,128,0,33171:0:0:0:0:
320,192,30925,128,0,32369:0:0:0:0:
448,192,32529,1,0,0:0:0:0:
320,192,32529,1,0,0:0:0:0:
448,192,32850,1,0,0:0:0:0:
320,192,32850,1,0,0:0:0:0:
448,192,33171,1,0,0:0:0:0:
320,192,33171,1,0,0:0:0:0:
192,192,33251,1,0,0:0:0:0:
64,192,33251,1,0,0:0:0:0:
448,192,33331,1,0,0:0:0:0:
320,192,33331,1,0,0:0:0:0:
192,192,33412,1,0,0:0:0:0:
64,192,33412,1,0,0:0:0:0:
320,192,33492,1,0,0:0:0:0:
448,192,33492,1,0,0:0:0:0:
192,192,33572,1,0,0:0:0:0:
64,192,33572,1,0,0:0:0:0:
320,192,33652,1,0,0:0:0:0:
448,192,33652,1,0,0:0:0:0:
192,192,33732,1,0,0:0:0:0:
64,192,33732,1,0,0:0:0:0:
448,192,33813,1,0,0:0:0:0:
320,192,33813,1,0,0:0:0:0:
64,192,33813,1,0,0:0:0:0:
192,192,33973,1,0,0:0:0:0:
448,192,33973,1,0,0:0:0:0:
320,192,34133,1,0,0:0:0:0:
64,192,34133,1,0,0:0:0:0:
192,192,34133,1,0,0:0:0:0:
448,192,34294,1,0,0:0:0:0:
192,192,34454,1,0,0:0:0:0:
64,192,34454,1,0,0:0:0:0:
192,192,34615,1,0,0:0:0:0:
64,192,34615,1,0,0:0:0:0:
320,192,34775,1,0,0:0:0:0:
448,192,34775,1,0,0:0:0:0:
64,192,34775,1,0,0:0:0:0:
192,192,34936,1,0,0:0:0:0:
448,192,34936,1,0,0:0:0:0:
320,192,35096,1,0,0:0:0:0:
192,192,35256,1,0,0:0:0:0:
64,192,35256,1,0,0:0:0:0:
448,192,35417,1,0,0:0:0:0:
320,192,35417,1,0,0:0:0:0:
64,192,35417,1,0,0:0:0:0:
192,192,35577,1,0,0:0:0:0:
448,192,35738,1,0,0:0:0:0:
320,192,35738,1,0,0:0:0:0:
64,192,35898,1,0,0:0:0:0:
448,192,35898,1,0,0:0:0:0:
320,192,36059,1,0,0:0:0:0:
192,192,36059,1,0,0:0:0:0:
64,192,36059,1,0,0:0:0:0:
320,192,36219,1,0,0:0:0:0:
192,192,36219,1,0,0:0:0:0:
448,192,36219,1,0,0:0:0:0:
64,192,36379,1,0,0:0:0:0:
320,192,36540,1,0,0:0:0:0:
192,192,36540,1,0,0:0:0:0:
320,192,36700,1,0,0:0:0:0:
448,192,36700,1,0,0:0:0:0:
64,192,36700,1,0,0:0:0:0:
192,192,36861,1,0,0:0:0:0:
64,192,36941,1,0,0:0:0:0:
320,192,37021,128,0,37182:0:0:0:0:
448,192,37021,1,0,0:0:0:0:
64,192,37182,128,0,37342:0:0:0:0:
192,192,37182,1,0,0:0:0:0:
320,192,37342,1,0,0:0:0:0:
192,192,37342,1,0,0:0:0:0:
448,192,37342,1,0,0:0:0:0:
448,192,37502,128,0,37823:0:0:0:0:
64,192,37502,1,0,0:0:0:0:
192,192,37663,1,0,0:0:0:0:
64,192,37823,128,0,37984:0:0:0:0:
320,192,37823,1,0,0:0:0:0:
192,192,37984,128,0,38144:0:0:0:0:
448,192,37984,1,0,0:0:0:0:
64,192,38144,1,0,0:0:0:0:
320,192,38144,128,0,38305:0:0:0:0:
192,192,38305,1,0,0:0:0:0:
64,192,38305,1,0,0:0:0:0:
320,192,38385,1,0,0:0:0:0:
448,192,38385,1,0,0:0:0:0:
192,192,38465,1,0,0:0:0:0:
64,192,38465,1,0,0:0:0:0:
320,192,38545,1,0,0:0:0:0:
448,192,38545,1,0,0:0:0:0:
192,192,38625,1,0,0:0:0:0:
64,192,38625,1,0,0:0:0:0:
320,192,38706,1,0,0:0:0:0:
448,192,38786,1,0,0:0:0:0:
192,192,38786,1,0,0:0:0:0:
64,192,38786,1,0,0:0:0:0:
448,192,39107,1,0,0:0:0:0:
320,192,39107,1,0,0:0:0:0:
192,192,39267,1,0,0:0:0:0:
64,192,39267,1,0,0:0:0:0:
320,192,39267,1,0,0:0:0:0:
448,192,39428,1,0,0:0:0:0:
192,192,39428,1,0,0:0:0:0:
320,192,39588,1,0,0:0:0:0:
64,192,39588,1,0,0:0:0:0:
192,192,39748,1,0,0:0:0:0:
64,192,39748,1,0,0:0:0:0:
320,192,39909,1,0,0:0:0:0:
448,192,39909,1,0,0:0:0:0:
192,192,39909,1,0,0:0:0:0:
64,192,40069,1,0,0:0:0:0:
320,192,40069,1,0,0:0:0:0:
192,192,40230,1,0,0:0:0:0:
320,192,40390,1,0,0:0:0:0:
448,192,40390,1,0,0:0:0:0:
192,192,40551,1,0,0:0:0:0:
64,192,40551,1,0,0:0:0:0:
320,192,40551,1,0,0:0:0:0:
448,192,40711,1,0,0:0:0:0:
64,192,40711,1,0,0:0:0:0:
192,192,40871,1,0,0:0:0:0:
448,192,40871,1,0,0:0:0:0:
320,192,40952,1,0,0:0:0:0:
192,192,41032,1,0,0:0:0:0:
64,192,41032,1,0,0:0:0:0:
448,192,41112,1,0,0:0:0:0:
320,192,41112,1,0,0:0:0:0:
192,192,41192,1,0,0:0:0:0:
64,192,41192,1,0,0:0:0:0:
320,192,41273,1,0,0:0:0:0:
448,192,41353,1,0,0:0:0:0:
192,192,41353,1,0,0:0:0:0:
64,192,41353,1,0,0:0:0:0:
320,192,41674,1,0,0:0:0:0:
64,192,41674,1,0,0:0:0:0:
192,192,41834,1,0,0:0:0:0:
320,192,41834,1,0,0:0:0:0:
448,192,41834,1,0,0:0:0:0:
64,192,41994,1,0,0:0:0:0:
192,192,42155,128,0,42315:0:0:0:0:
448,192,42155,1,0,0:0:0:0:
448,192,42315,128,0,42476:0:0:0:0:
320,192,42315,1,0,0:0:0:0:
192,192,42476,1,0,0:0:0:0:
320,192,42476,1,0,0:0:0:0:
64,192,42476,1,0,0:0:0:0:
64,192,42636,128,0,42957:0:0:0:0:
448,192,42636,1,0,0:0:0:0:
192,192,42797,1,0,0:0:0:0:
320,192,42797,1,0,0:0:0:0:
320,192,42957,128,0,43117:0:0:0:0:
448,192,42957,1,0,0:0:0:0:
64,192,43117,1,0,0:0:0:0:
448,192,43117,1,0,0:0:0:0:
192,192,43117,128,0,43278:0:0:0:0:
64,192,43278,1,0,0:0:0:0:
448,192,43278,128,0,43438:0:0:0:0:
320,192,43438,128,0,43759:0:0:0:0:
192,192,43438,1,0,0:0:0:0:
64,192,43599,128,0,43759:0:0:0:0:
192,192,43759,128,0,43920:0:0:0:0:
448,192,43759,1,0,0:0:0:0:
448,192,43920,1,0,0:0:0:0:
320,192,43920,1,0,0:0:0:0:
64,192,43920,1,0,0:0:0:0:
192,192,44080,1,0,0:0:0:0:
448,192,44080,1,0,0:0:0:0:
320,192,44240,1,0,0:0:0:0:
192,192,44401,1,0,0:0:0:0:
64,192,44401,1,0,0:0:0:0:
448,192,44401,1,0,0:0:0:0:
320,192,44561,1,0,0:0:0:0:
192,192,44642,1,0,0:0:0:0:
448,192,44722,1,0,0:0:0:0:
64,192,44722,128,0,44882:0:0:0:0:
320,192,44882,128,0,45043:0:0:0:0:
448,192,45043,1,0,0:0:0:0:
64,192,45043,1,0,0:0:0:0:
192,192,45203,128,0,45524:0:0:0:0:
320,192,45203,1,0,0:0:0:0:
448,192,45203,1,0,0:0:0:0:
64,192,45363,1,0,0:0:0:0:
320,192,45363,1,0,0:0:0:0:
448,192,45524,128,0,45684:0:0:0:0:
320,192,45604,1,0,0:0:0:0:
64,192,45684,128,0,45845:0:0:0:0:
192,192,45684,1,0,0:0:0:0:
320,192,45845,128,0,46005:0:0:0:0:
448,192,45845,1,0,0:0:0:0:
192,192,45925,1,0,0:0:0:0:
448,192,46005,128,0,46166:0:0:0:0:
64,192,46005,1,0,0:0:0:0:
320,192,46166,128,0,46326:0:0:0:0:
192,192,46166,1,0,0:0:0:0:
64,192,46326,128,0,46406:0:0:0:0:
448,192,46326,1,0,0:0:0:0:
192,192,46406,128,0,46486:0:0:0:0:
320,192,46486,128,0,46567:0:0:0:0:
448,192,46567,128,0,46647:0:0:0:0:
320,192,46647,1,0,0:0:0:0:
192,192,46647,1,0,0:0:0:0:
64,192,46647,128,0,47850:0:0:0:0:
448,192,46968,1,0,0:0:0:0:
320,192,46968,1,0,0:0:0:0:
448,192,47289,1,0,0:0:0:0:
320,192,47289,1,0,0:0:0:0:
448,192,47609,1,0,0:0:0:0:
320,192,47609,1,0,0:0:0:0:
64,192,47930,128,0,49133:0:0:0:0:
448,192,47930,1,0,0:0:0:0:
320,192,47930,1,0,0:0:0:0:
448,192,48251,1,0,0:0:0:0:
320,192,48251,1,0,0:0:0:0:
320,192,48572,128,0,48893:0:0:0:0:
448,192,48572,1,0,0:0:0:0:
192,192,48893,128,0,49133:0:0:0:0:
448,192,48893,1,0,0:0:0:0:
448,192,49214,128,0,50417:0:0:0:0:
192,192,49214,1,0,0:0:0:0:
64,192,49214,1,0,0:0:0:0:
192,192,49535,1,0,0:0:0:0:
64,192,49535,1,0,0:0:0:0:
192,192,49855,1,0,0:0:0:0:
64,192,49855,1,0,0:0:0:0:
192,192,50176,1,0,0:0:0:0:
64,192,50176,1,0,0:0:0:0:
448,192,50497,128,0,51700:0:0:0:0:
192,192,50497,1,0,0:0:0:0:
64,192,50497,1,0,0:0:0:0:
64,192,50818,1,0,0:0:0:0:
192,192,50818,1,0,0:0:0:0:
192,192,51139,128,0,51460:0:0:0:0:
64,192,51139,1,0,0:0:0:0:
320,192,51460,128,0,51700:0:0:0:0:
64,192,51460,1,0,0:0:0:0:
64,192,51781,128,0,52984:0:0:0:0:
448,192,51781,1,0,0:0:0:0:
320,192,51781,1,0,0:0:0:0:
448,192,52101,1,0,0:0:0:0:
320,192,52101,1,0,0:0:0:0:
448,192,52422,1,0,0:0:0:0:
320,192,52422,1,0,0:0:0:0:
448,192,52743,1,0,0:0:0:0:
320,192,52743,1,0,0:0:0:0:
448,192,53064,128,0,54027:0:0:0:0:
192,192,53064,1,0,0:0:0:0:
64,192,53064,1,0,0:0:0:0:
192,192,53385,1,0,0:0:0:0:
64,192,53385,1,0,0:0:0:0:
192,192,53706,1,0,0:0:0:0:
64,192,53706,1,0,0:0:0:0:
192,192,53866,1,0,0:0:0:0:
64,192,53866,1,0,0:0:0:0:
320,192,54027,1,0,0:0:0:0:
192,192,54027,1,0,0:0:0:0:
64,192,54027,1,0,0:0:0:0:
448,192,54187,1,0,0:0:0:0:
320,192,54187,1,0,0:0:0:0:
192,192,54187,1,0,0:0:0:0:
64,192,54187,1,0,0:0:0:0:
448,192,54508,1,0,0:0:0:0:
192,192,54508,1,0,0:0:0:0:
320,192,54668,1,0,0:0:0:0:
192,192,54668,1,0,0:0:0:0:
64,192,54668,1,0,0:0:0:0:
448,192,54829,1,0,0:0:0:0:
192,192,54989,1,0,0:0:0:0:
64,192,54989,1,0,0:0:0:0:
448,192,55150,1,0,0:0:0:0:
192,192,55150,1,0,0:0:0:0:
320,192,55310,1,0,0:0:0:0:
448,192,55310,1,0,0:0:0:0:
64,192,55310,1,0,0:0:0:0:
192,192,55470,1,0,0:0:0:0:
320,192,55470,1,0,0:0:0:0:
64,192,55470,1,0,0:0:0:0:
448,192,55631,1,0,0:0:0:0:
320,192,55791,1,0,0:0:0:0:
64,192,55791,1,0,0:0:0:0:
192,192,55952,1,0,0:0:0:0:
448,192,55952,1,0,0:0:0:0:
320,192,56112,1,0,0:0:0:0:
192,192,56273,1,0,0:0:0:0:
64,192,56273,1,0,0:0:0:0:
448,192,56353,1,0,0:0:0:0:
320,192,56353,1,0,0:0:0:0:
192,192,56433,1,0,0:0:0:0:
64,192,56433,1,0,0:0:0:0:
320,192,56513,1,0,0:0:0:0:
448,192,56513,1,0,0:0:0:0:
192,192,56593,1,0,0:0:0:0:
64,192,56593,1,0,0:0:0:0:
448,192,56914,1,0,0:0:0:0:
320,192,56914,1,0,0:0:0:0:
64,192,56914,1,0,0:0:0:0:
192,192,57075,1,0,0:0:0:0:
448,192,57235,1,0,0:0:0:0:
64,192,57235,1,0,0:0:0:0:
448,192,57396,1,0,0:0:0:0:
64,192,57556,1,0,0:0:0:0:
320,192,57556,1,0,0:0:0:0:
320,192,57716,1,0,0:0:0:0:
192,192,57716,1,0,0:0:0:0:
448,192,57877,1,0,0:0:0:0:
192,192,57877,1,0,0:0:0:0:
64,192,57877,1,0,0:0:0:0:
64,192,58037,1,0,0:0:0:0:
320,192,58037,1,0,0:0:0:0:
192,192,58198,1,0,0:0:0:0:
448,192,58358,1,0,0:0:0:0:
320,192,58358,1,0,0:0:0:0:
448,192,58519,1,0,0:0:0:0:
192,192,58519,1,0,0:0:0:0:
64,192,58519,1,0,0:0:0:0:
320,192,58679,1,0,0:0:0:0:
192,192,58679,1,0,0:0:0:0:
64,192,58839,1,0,0:0:0:0:
448,192,58839,128,0,59080:0:0:0:0:
192,192,59000,1,0,0:0:0:0:
320,192,59000,1,0,0:0:0:0:
448,192,59160,128,0,59401:0:0:0:0:
64,192,59160,1,0,0:0:0:0:
320,192,59160,1,0,0:0:0:0:
192,192,59321,1,0,0:0:0:0:
320,192,59481,1,0,0:0:0:0:
448,192,59481,1,0,0:0:0:0:
64,192,59481,1,0,0:0:0:0:
320,192,59642,1,0,0:0:0:0:
192,192,59802,1,0,0:0:0:0:
448,192,59802,1,0,0:0:0:0:
64,192,59802,1,0,0:0:0:0:
192,192,59962,1,0,0:0:0:0:
320,192,60123,1,0,0:0:0:0:
64,192,60123,1,0,0:0:0:0:
320,192,60283,1,0,0:0:0:0:
448,192,60444,1,0,0:0:0:0:
192,192,60444,1,0,0:0:0:0:
64,192,60444,1,0,0:0:0:0:
448,192,60604,1,0,0:0:0:0:
320,192,60765,1,0,0:0:0:0:
192,192,60765,1,0,0:0:0:0:
192,192,60925,1,0,0:0:0:0:
320,192,61085,1,0,0:0:0:0:
64,192,61085,1,0,0:0:0:0:
448,192,61085,1,0,0:0:0:0:
448,192,61246,1,0,0:0:0:0:
64,192,61406,128,0,61647:0:0:0:0:
192,192,61406,1,0,0:0:0:0:
448,192,61567,1,0,0:0:0:0:
320,192,61567,1,0,0:0:0:0:
64,192,61727,128,0,61968:0:0:0:0:
192,192,61727,1,0,0:0:0:0:
320,192,61888,1,0,0:0:0:0:
448,192,61888,1,0,0:0:0:0:
192,192,62048,1,0,0:0:0:0:
64,192,62048,1,0,0:0:0:0:
448,192,62048,1,0,0:0:0:0:
320,192,62208,1,0,0:0:0:0:
192,192,62369,1,0,0:0:0:0:
64,192,62369,1,0,0:0:0:0:
448,192,62529,1,0,0:0:0:0:
192,192,62529,1,0,0:0:0:0:
320,192,62690,1,0,0:0:0:0:
448,192,62690,1,0,0:0:0:0:
64,192,62690,128,0,63010:0:0:0:0:
192,192,62850,1,0,0:0:0:0:
320,192,63010,1,0,0:0:0:0:
448,192,63010,1,0,0:0:0:0:
320,192,63171,1,0,0:0:0:0:
64,192,63171,128,0,63973:0:0:0:0:
448,192,63331,1,0,0:0:0:0:
192,192,63492,1,0,0:0:0:0:
320,192,63492,1,0,0:0:0:0:
448,192,63652,1,0,0:0:0:0:
192,192,63813,1,0,0:0:0:0:
320,192,63973,1,0,0:0:0:0:
448,192,63973,1,0,0:0:0:0:
320,192,64133,1,0,0:0:0:0:
64,192,64133,1,0,0:0:0:0:
192,192,64294,1,0,0:0:0:0:
448,192,64294,1,0,0:0:0:0:
320,192,64454,1,0,0:0:0:0:
192,192,64454,1,0,0:0:0:0:
64,192,64454,128,0,64775:0:0:0:0:
448,192,64775,1,0,0:0:0:0:
192,192,64775,1,0,0:0:0:0:
320,192,64855,1,0,0:0:0:0:
192,192,64936,128,0,65096:0:0:0:0:
64,192,64936,1,0,0:0:0:0:
448,192,64936,1,0,0:0:0:0:
320,192,65096,1,0,0:0:0:0:
448,192,65096,1,0,0:0:0:0:
320,192,65256,128,0,65417:0:0:0:0:
64,192,65256,1,0,0:0:0:0:
192,192,65256,1,0,0:0:0:0:
64,192,65417,128,0,65577:0:0:0:0:
448,192,65417,1,0,0:0:0:0:
192,192,65577,1,0,0:0:0:0:
320,192,65577,1,0,0:0:0:0:
448,192,65577,1,0,0:0:0:0:
448,192,65738,128,0,66059:0:0:0:0:
64,192,65738,1,0,0:0:0:0:
320,192,65898,1,0,0:0:0:0:
192,192,65898,1,0,0:0:0:0:
64,192,66059,1,0,0:0:0:0:
320,192,66139,1,0,0:0:0:0:
64,192,66219,128,0,66379:0:0:0:0:
192,192,66219,1,0,0:0:0:0:
448,192,66219,1,0,0:0:0:0:
320,192,66379,1,0,0:0:0:0:
64,192,66540,128,0,66700:0:0:0:0:
192,192,66540,1,0,0:0:0:0:
320,192,66620,1,0,0:0:0:0:
192,192,66700,1,0,0:0:0:0:
448,192,66700,1,0,0:0:0:0:
64,192,66781,1,0,0:0:0:0:
320,192,66861,128,0,67021:0:0:0:0:
192,192,66861,1,0,0:0:0:0:
192,192,67021,1,0,0:0:0:0:
64,192,67021,1,0,0:0:0:0:
448,192,67021,128,0,67342:0:0:0:0:
320,192,67342,1,0,0:0:0:0:
64,192,67342,1,0,0:0:0:0:
320,192,67502,1,0,0:0:0:0:
448,192,67502,1,0,0:0:0:0:
192,192,67502,1,0,0:0:0:0:
64,192,67663,1,0,0:0:0:0:
448,192,67663,1,0,0:0:0:0:
64,192,67823,128,0,67984:0:0:0:0:
320,192,67823,1,0,0:0:0:0:
192,192,67823,1,0,0:0:0:0:
448,192,67984,128,0,68144:0:0:0:0:
320,192,67984,1,0,0:0:0:0:
192,192,68144,1,0,0:0:0:0:
64,192,68144,1,0,0:0:0:0:
192,192,68305,128,0,68625:0:0:0:0:
320,192,68305,1,0,0:0:0:0:
448,192,68465,1,0,0:0:0:0:
64,192,68465,1,0,0:0:0:0:
320,192,68625,1,0,0:0:0:0:
448,192,68786,128,0,68946:0:0:0:0:
64,192,68786,1,0,0:0:0:0:
320,192,68946,1,0,0:0:0:0:
192,192,68946,1,0,0:0:0:0:
64,192,69027,1,0,0:0:0:0:
448,192,69027,1,0,0:0:0:0:
320,192,69107,1,0,0:0:0:0:
192,192,69107,1,0,0:0:0:0:
448,192,69267,1,0,0:0:0:0:
64,192,69267,1,0,0:0:0:0:
192,192,69428,1,0,0:0:0:0:
320,192,69508,1,0,0:0:0:0:
192,192,69588,1,0,0:0:0:0:
320,192,69668,1,0,0:0:0:0:
64,192,69748,1,0,0:0:0:0:
448,192,69748,128,0,72235:0:0:0:0:
192,192,69748,1,0,0:0:0:0:
64,192,70069,1,0,0:0:0:0:
320,192,70069,128,0,70230:0:0:0:0:
192,192,70230,1,0,0:0:0:0:
64,192,70390,128,0,70551:0:0:0:0:
320,192,70390,1,0,0:0:0:0:
64,192,70711,1,0,0:0:0:0:
320,192,70871,128,0,71032:0:0:0:0:
192,192,70871,1,0,0:0:0:0:
64,192,71192,128,0,71353:0:0:0:0:
192,192,71192,1,0,0:0:0:0:
192,192,71353,128,0,71513:0:0:0:0:
320,192,71353,1,0,0:0:0:0:
64,192,71513,1,0,0:0:0:0:
320,192,71674,128,0,71834:0:0:0:0:
192,192,71674,1,0,0:0:0:0:
448,192,72315,128,0,73599:0:0:0:0:
192,192,72315,1,0,0:0:0:0:
64,192,72315,1,0,0:0:0:0:
320,192,72636,128,0,72797:0:0:0:0:
64,192,72636,1,0,0:0:0:0:
192,192,72797,1,0,0:0:0:0:
64,192,72957,128,0,73117:0:0:0:0:
320,192,72957,1,0,0:0:0:0:
192,192,73278,1,0,0:0:0:0:
320,192,73438,128,0,73599:0:0:0:0:
64,192,73438,1,0,0:0:0:0:
64,192,73759,128,0,73920:0:0:0:0:
192,192,73759,1,0,0:0:0:0:
448,192,73920,128,0,74080:0:0:0:0:
320,192,73920,1,0,0:0:0:0:
64,192,74080,1,0,0:0:0:0:
320,192,74160,1,0,0:0:0:0:
192,192,74240,128,0,74401:0:0:0:0:
448,192,74240,1,0,0:0:0:0:
64,192,74401,1,0,0:0:0:0:
320,192,74561,128,0,74882:0:0:0:0:
64,192,74882,128,0,77128:0:0:0:0:
192,192,74882,1,0,0:0:0:0:
448,192,74882,1,0,0:0:0:0:
448,192,75203,128,0,75363:0:0:0:0:
320,192,75203,1,0,0:0:0:0:
192,192,75363,1,0,0:0:0:0:
192,192,75524,128,0,75684:0:0:0:0:
448,192,75524,1,0,0:0:0:0:
320,192,75845,1,0,0:0:0:0:
448,192,76005,128,0,76166:0:0:0:0:
192,192,76005,1,0,0:0:0:0:
192,192,76326,128,0,76486:0:0:0:0:
320,192,76326,1,0,0:0:0:0:
320,192,76486,128,0,76647:0:0:0:0:
448,192,76486,1,0,0:0:0:0:
448,192,76807,128,0,76968:0:0:0:0:
192,192,76807,1,0,0:0:0:0:
448,192,77128,128,0,77449:0:0:0:0:
64,192,77449,128,0,79374:0:0:0:0:
192,192,77449,1,0,0:0:0:0:
320,192,77449,1,0,0:0:0:0:
320,192,77770,128,0,77930:0:0:0:0:
448,192,77770,1,0,0:0:0:0:
192,192,77930,1,0,0:0:0:0:
192,192,78091,128,0,78251:0:0:0:0:
448,192,78091,1,0,0:0:0:0:
320,192,78412,1,0,0:0:0:0:
448,192,78572,128,0,78732:0:0:0:0:
192,192,78572,1,0,0:0:0:0:
192,192,78893,128,0,79053:0:0:0:0:
320,192,78893,1,0,0:0:0:0:
448,192,79053,128,0,79214:0:0:0:0:
320,192,79214,1,0,0:0:0:0:
192,192,79294,1,0,0:0:0:0:
448,192,79374,1,0,0:0:0:0:
320,192,79374,1,0,0:0:0:0:
192,192,79454,1,0,0:0:0:0:
64,192,79454,1,0,0:0:0:0:
448,192,79535,1,0,0:0:0:0:
320,192,79535,1,0,0:0:0:0:
192,192,79615,1,0,0:0:0:0:
64,192,79615,1,0,0:0:0:0:
320,192,79695,1,0,0:0:0:0:
448,192,79695,1,0,0:0:0:0:
192,192,79775,1,0,0:0:0:0:
64,192,79775,1,0,0:0:0:0:
320,192,79855,1,0,0:0:0:0:
448,192,79855,1,0,0:0:0:0:
192,192,79936,1,0,0:0:0:0:
64,192,79936,1,0,0:0:0:0:
320,192,80016,1,0,0:0:0:0:
448,192,80016,1,0,0:0:0:0:
64,192,80016,1,0,0:0:0:0:
192,192,80176,1,0,0:0:0:0:
448,192,80337,1,0,0:0:0:0:
64,192,80497,1,0,0:0:0:0:
320,192,80658,1,0,0:0:0:0:
64,192,80818,1,0,0:0:0:0:
448,192,80978,1,0,0:0:0:0:
192,192,81139,1,0,0:0:0:0:
448,192,81299,1,0,0:0:0:0:
64,192,81460,1,0,0:0:0:0:
320,192,81620,1,0,0:0:0:0:
64,192,81781,1,0,0:0:0:0:
448,192,81941,1,0,0:0:0:0:
192,192,82101,1,0,0:0:0:0:
448,192,82262,1,0,0:0:0:0:
64,192,82422,1,0,0:0:0:0:
320,192,82583,128,0,82904:0:0:0:0:
448,192,82583,1,0,0:0:0:0:
192,192,82904,1,0,0:0:0:0:
64,192,82904,1,0,0:0:0:0:
448,192,83064,1,0,0:0:0:0:
320,192,83144,1,0,0:0:0:0:
192,192,83224,1,0,0:0:0:0:
64,192,83224,1,0,0:0:0:0:
448,192,83305,1,0,0:0:0:0:
192,192,83385,1,0,0:0:0:0:
320,192,83465,1,0,0:0:0:0:
448,192,83545,1,0,0:0:0:0:
64,192,83545,1,0,0:0:0:0:
192,192,83625,1,0,0:0:0:0:
320,192,83706,1,0,0:0:0:0:
448,192,83706,1,0,0:0:0:0:
192,192,83786,1,0,0:0:0:0:
448,192,83866,1,0,0:0:0:0:
64,192,83866,1,0,0:0:0:0:
320,192,83946,1,0,0:0:0:0:
192,192,84027,1,0,0:0:0:0:
448,192,84107,1,0,0:0:0:0:
64,192,84187,128,0,84267:0:0:0:0:
192,192,84187,1,0,0:0:0:0:
320,192,84267,128,0,84347:0:0:0:0:
192,192,84347,128,0,84428:0:0:0:0:
64,192,84428,128,0,84508:0:0:0:0:
320,192,84508,128,0,84588:0:0:0:0:
448,192,84588,128,0,84668:0:0:0:0:
64,192,84668,128,0,84748:0:0:0:0:
192,192,84748,128,0,84829:0:0:0:0:
320,192,84829,128,0,84909:0:0:0:0:
64,192,84909,128,0,84989:0:0:0:0:
448,192,84989,128,0,85069:0:0:0:0:
320,192,85069,128,0,85150:0:0:0:0:
192,192,85150,1,0,0:0:0:0:
448,192,85150,1,0,0:0:0:0:
64,192,85150,128,0,87396:0:0:0:0:
192,192,85310,1,0,0:0:0:0:
448,192,85470,1,0,0:0:0:0:
320,192,85470,1,0,0:0:0:0:
448,192,85631,1,0,0:0:0:0:
320,192,85791,1,0,0:0:0:0:
192,192,85791,1,0,0:0:0:0:
320,192,85952,1,0,0:0:0:0:
448,192,86112,1,0,0:0:0:0:
192,192,86112,1,0,0:0:0:0:
192,192,86273,1,0,0:0:0:0:
448,192,86433,1,0,0:0:0:0:
320,192,86433,1,0,0:0:0:0:
448,192,86593,1,0,0:0:0:0:
320,192,86754,1,0,0:0:0:0:
192,192,86754,1,0,0:0:0:0:
320,192,86914,1,0,0:0:0:0:
448,192,87075,1,0,0:0:0:0:
192,192,87075,1,0,0:0:0:0:
192,192,87235,1,0,0:0:0:0:
448,192,87396,1,0,0:0:0:0:
320,192,87396,1,0,0:0:0:0:
192,192,87556,1,0,0:0:0:0:
448,192,87556,1,0,0:0:0:0:
192,192,87716,128,0,88037:0:0:0:0:
320,192,87716,1,0,0:0:0:0:
64,192,87877,1,0,0:0:0:0:
320,192,88037,128,0,88198:0:0:0:0:
448,192,88037,1,0,0:0:0:0:
448,192,88198,128,0,89962:0:0:0:0:
192,192,88358,1,0,0:0:0:0:
64,192,88358,1,0,0:0:0:0:
64,192,88519,1,0,0:0:0:0:
320,192,88679,1,0,0:0:0:0:
192,192,88679,1,0,0:0:0:0:
320,192,88839,1,0,0:0:0:0:
192,192,89000,1,0,0:0:0:0:
64,192,89000,1,0,0:0:0:0:
192,192,89160,1,0,0:0:0:0:
64,192,89321,128,0,89642:0:0:0:0:
320,192,89321,1,0,0:0:0:0:
320,192,89481,1,0,0:0:0:0:
192,192,89642,128,0,89962:0:0:0:0:
64,192,89802,1,0,0:0:0:0:
320,192,89962,128,0,90283:0:0:0:0:
64,192,89962,1,0,0:0:0:0:
192,192,90123,1,0,0:0:0:0:
448,192,90283,128,0,92529:0:0:0:0:
192,192,90283,1,0,0:0:0:0:
64,192,90283,1,0,0:0:0:0:
320,192,90444,1,0,0:0:0:0:
192,192,90604,1,0,0:0:0:0:
320,192,90604,1,0,0:0:0:0:
192,192,90765,1,0,0:0:0:0:
64,192,90925,1,0,0:0:0:0:
320,192,90925,1,0,0:0:0:0:
320,192,91085,1,0,0:0:0:0:
192,192,91246,1,0,0:0:0:0:
64,192,91246,1,0,0:0:0:0:
64,192,91406,1,0,0:0:0:0:
192,192,91567,1,0,0:0:0:0:
320,192,91567,1,0,0:0:0:0:
192,192,91727,1,0,0:0:0:0:
64,192,91888,1,0,0:0:0:0:
320,192,91888,1,0,0:0:0:0:
320,192,92048,1,0,0:0:0:0:
64,192,92208,1,0,0:0:0:0:
192,192,92208,1,0,0:0:0:0:
192,192,92369,1,0,0:0:0:0:
64,192,92529,1,0,0:0:0:0:
320,192,92529,1,0,0:0:0:0:
192,192,92690,1,0,0:0:0:0:
448,192,92690,1,0,0:0:0:0:
192,192,92850,128,0,93331:0:0:0:0:
320,192,92850,1,0,0:0:0:0:
64,192,93010,1,0,0:0:0:0:
320,192,93171,1,0,0:0:0:0:
448,192,93171,1,0,0:0:0:0:
448,192,93331,128,0,93492:0:0:0:0:
320,192,93492,128,0,94775:0:0:0:0:
64,192,93492,1,0,0:0:0:0:
64,192,93652,1,0,0:0:0:0:
448,192,93813,1,0,0:0:0:0:
192,192,93813,1,0,0:0:0:0:
448,192,93973,1,0,0:0:0:0:
192,192,94133,1,0,0:0:0:0:
64,192,94133,1,0,0:0:0:0:
64,192,94294,1,0,0:0:0:0:
448,192,94454,128,0,94775:0:0:0:0:
192,192,94454,1,0,0:0:0:0:
64,192,94615,1,0,0:0:0:0:
192,192,94775,1,0,0:0:0:0:
64,192,94775,1,0,0:0:0:0:
320,192,94855,1,0,0:0:0:0:
448,192,94855,1,0,0:0:0:0:
192,192,94936,1,0,0:0:0:0:
64,192,94936,1,0,0:0:0:0:
320,192,95016,1,0,0:0:0:0:
448,192,95016,1,0,0:0:0:0:
192,192,95096,1,0,0:0:0:0:
64,192,95096,1,0,0:0:0:0:
320,192,95176,1,0,0:0:0:0:
448,192,95176,1,0,0:0:0:0:
192,192,95256,1,0,0:0:0:0:
64,192,95256,1,0,0:0:0:0:
320,192,95337,1,0,0:0:0:0:
448,192,95337,1,0,0:0:0:0:
64,192,95417,128,0,97663:0:0:0:0:
192,192,95417,1,0,0:0:0:0:
448,192,95417,1,0,0:0:0:0:
192,192,95577,1,0,0:0:0:0:
320,192,95738,1,0,0:0:0:0:
448,192,95738,1,0,0:0:0:0:
448,192,95898,1,0,0:0:0:0:
320,192,96059,1,0,0:0:0:0:
192,192,96059,1,0,0:0:0:0:
320,192,96219,1,0,0:0:0:0:
192,192,96379,1,0,0:0:0:0:
448,192,96379,1,0,0:0:0:0:
192,192,96540,1,0,0:0:0:0:
448,192,96700,1,0,0:0:0:0:
320,192,96700,1,0,0:0:0:0:
448,192,96861,1,0,0:0:0:0:
320,192,97021,128,0,97342:0:0:0:0:
192,192,97021,1,0,0:0:0:0:
448,192,97182,1,0,0:0:0:0:
192,192,97342,128,0,97663:0:0:0:0:
448,192,97342,1,0,0:0:0:0:
320,192,97502,1,0,0:0:0:0:
320,192,97663,1,0,0:0:0:0:
448,192,97663,1,0,0:0:0:0:
192,192,97743,1,0,0:0:0:0:
64,192,97823,1,0,0:0:0:0:
448,192,97823,1,0,0:0:0:0:
192,192,97904,1,0,0:0:0:0:
320,192,97904,1,0,0:0:0:0:
64,192,97984,128,0,99267:0:0:0:0:
448,192,97984,1,0,0:0:0:0:
320,192,97984,1,0,0:0:0:0:
192,192,98144,1,0,0:0:0:0:
320,192,98305,1,0,0:0:0:0:
448,192,98305,1,0,0:0:0:0:
448,192,98465,1,0,0:0:0:0:
320,192,98625,1,0,0:0:0:0:
192,192,98625,1,0,0:0:0:0:
320,192,98786,1,0,0:0:0:0:
192,192,98946,1,0,0:0:0:0:
448,192,98946,1,0,0:0:0:0:
192,192,99107,1,0,0:0:0:0:
448,192,99267,128,0,99588:0:0:0:0:
320,192,99267,1,0,0:0:0:0:
320,192,99428,1,0,0:0:0:0:
192,192,99588,128,0,99909:0:0:0:0:
64,192,99588,1,0,0:0:0:0:
64,192,99748,1,0,0:0:0:0:
320,192,99909,128,0,100230:0:0:0:0:
448,192,99909,1,0,0:0:0:0:
192,192,100069,1,0,0:0:0:0:
64,192,100230,1,0,0:0:0:0:
448,192,100310,1,0,0:0:0:0:
64,192,100390,1,0,0:0:0:0:
320,192,100390,1,0,0:0:0:0:
192,192,100470,1,0,0:0:0:0:
448,192,100470,1,0,0:0:0:0:
64,192,100551,1,0,0:0:0:0:
320,192,100551,1,0,0:0:0:0:
192,192,100711,1,0,0:0:0:0:
320,192,100711,1,0,0:0:0:0:
448,192,100871,1,0,0:0:0:0:
64,192,100871,1,0,0:0:0:0:
192,192,100871,1,0,0:0:0:0:
64,192,101032,1,0,0:0:0:0:
320,192,101032,1,0,0:0:0:0:
192,192,101192,1,0,0:0:0:0:
448,192,101192,1,0,0:0:0:0:
64,192,101353,1,0,0:0:0:0:
448,192,101353,1,0,0:0:0:0:
320,192,101513,1,0,0:0:0:0:
192,192,101513,1,0,0:0:0:0:
448,192,101674,1,0,0:0:0:0:
320,192,101674,1,0,0:0:0:0:
192,192,101834,1,0,0:0:0:0:
64,192,101834,1,0,0:0:0:0:
192,192,101994,1,0,0:0:0:0:
64,192,101994,1,0,0:0:0:0:
192,192,102155,1,0,0:0:0:0:
448,192,102155,1,0,0:0:0:0:
320,192,102155,1,0,0:0:0:0:
320,192,102315,1,0,0:0:0:0:
64,192,102315,1,0,0:0:0:0:
448,192,102476,1,0,0:0:0:0:
64,192,102476,1,0,0:0:0:0:
192,192,102556,1,0,0:0:0:0:
320,192,102636,1,0,0:0:0:0:
448,192,102636,1,0,0:0:0:0:
192,192,102716,1,0,0:0:0:0:
64,192,102716,1,0,0:0:0:0:
320,192,102797,1,0,0:0:0:0:
448,192,102797,1,0,0:0:0:0:
192,192,102877,1,0,0:0:0:0:
64,192,102877,1,0,0:0:0:0:
320,192,102957,1,0,0:0:0:0:
448,192,102957,1,0,0:0:0:0:
192,192,103037,1,0,0:0:0:0:
64,192,103037,1,0,0:0:0:0:
320,192,103117,128,0,103198:0:0:0:0:
448,192,103117,128,0,103198:0:0:0:0:
64,192,103117,128,0,103198:0:0:0:0:
448,192,103278,128,0,103358:0:0:0:0:
320,192,103278,128,0,103358:0:0:0:0:
64,192,103278,128,0,103358:0:0:0:0:
320,192,103438,1,0,0:0:0:0:
448,192,103438,1,0,0:0:0:0:
64,192,103438,1,0,0:0:0:0:
320,192,103599,128,0,103679:0:0:0:0:
64,192,103599,128,0,103679:0:0:0:0:
448,192,103599,128,0,103679:0:0:0:0:
448,192,103759,128,0,103839:0:0:0:0:
320,192,103759,128,0,103839:0:0:0:0:
64,192,103759,128,0,103839:0:0:0:0:
448,192,104080,128,0,104160:0:0:0:0:
64,192,104080,128,0,104160:0:0:0:0:
320,192,104080,128,0,104160:0:0:0:0:
64,192,104240,128,0,104321:0:0:0:0:
320,192,104240,128,0,104321:0:0:0:0:
448,192,104240,128,0,104321:0:0:0:0:
320,192,104561,128,0,104642:0:0:0:0:
64,192,104561,128,0,104642:0:0:0:0:
448,192,104561,128,0,104642:0:0:0:0:
448,192,104722,128,0,104802:0:0:0:0:
320,192,104722,128,0,104802:0:0:0:0:
64,192,104722,128,0,104802:0:0:0:0:
320,192,104882,1,0,0:0:0:0:
448,192,104882,1,0,0:0:0:0:
64,192,104882,1,0,0:0:0:0:
64,192,105043,128,0,105123:0:0:0:0:
192,192,105043,128,0,105123:0:0:0:0:
320,192,105043,128,0,105123:0:0:0:0:
448,192,105043,128,0,105123:0:0:0:0:
448,192,105363,128,0,105444:0:0:0:0:
320,192,105363,128,0,105444:0:0:0:0:
192,192,105363,128,0,105444:0:0:0:0:
64,192,105363,128,0,105444:0:0:0:0:
192,192,105684,128,0,105765:0:0:0:0:
64,192,105684,128,0,105765:0:0:0:0:
448,192,105684,128,0,105765:0:0:0:0:
64,192,105845,128,0,105925:0:0:0:0:
192,192,105845,128,0,105925:0:0:0:0:
448,192,105845,128,0,105925:0:0:0:0:
192,192,106166,128,0,106246:0:0:0:0:
448,192,106166,128,0,106246:0:0:0:0:
64,192,106166,128,0,106246:0:0:0:0:
64,192,106326,128,0,106406:0:0:0:0:
192,192,106326,128,0,106406:0:0:0:0:
448,192,106326,128,0,106406:0:0:0:0:
64,192,106647,128,0,106727:0:0:0:0:
448,192,106647,128,0,106727:0:0:0:0:
192,192,106647,128,0,106727:0:0:0:0:
448,192,106807,128,0,106888:0:0:0:0:
192,192,106807,128,0,106888:0:0:0:0:
64,192,106807,128,0,106888:0:0:0:0:
192,192,107128,128,0,107208:0:0:0:0:
448,192,107128,128,0,107208:0:0:0:0:
64,192,107128,128,0,107208:0:0:0:0:
64,192,107289,128,0,107369:0:0:0:0:
192,192,107289,128,0,107369:0:0:0:0:
448,192,107289,128,0,107369:0:0:0:0:
192,192,107609,128,0,107770:0:0:0:0:
64,192,107609,128,0,107770:0:0:0:0:
320,192,107609,128,0,107770:0:0:0:0:
448,192,107609,128,0,107770:0:0:0:0:
64,192,107930,128,0,109374:0:0:0:0:
320,192,107930,128,0,110176:0:0:0:0:
448,192,107930,128,0,110176:0:0:0:0:
192,192,107930,128,0,109374:0:0:0:0:
64,192,109535,1,0,0:0:0:0:
192,192,109535,1,0,0:0:0:0:
64,192,109855,1,0,0:0:0:0:
192,192,109855,1,0,0:0:0:0:
64,192,110176,1,0,0:0:0:0:
192,192,110176,1,0,0:0:0:0:
448,192,110256,1,0,0:0:0:0:
320,192,110256,1,0,0:0:0:0:
64,192,110337,1,0,0:0:0:0:
192,192,110337,1,0,0:0:0:0:
320,192,110417,1,0,0:0:0:0:
448,192,110417,1,0,0:0:0:0:
64,192,110497,1,0,0:0:0:0:
192,192,110551,1,0,0:0:0:0:
448,192,110604,1,0,0:0:0:0:
320,192,110658,1,0,0:0:0:0:
64,192,110711,1,0,0:0:0:0:
192,192,110765,1,0,0:0:0:0:
448,192,110818,1,0,0:0:0:0:
320,192,110818,1,0,0:0:0:0:
320,192,110978,1,0,0:0:0:0:
64,192,110978,1,0,0:0:0:0:
192,192,111139,1,0,0:0:0:0:
448,192,111139,1,0,0:0:0:0:
320,192,111139,1,0,0:0:0:0:
64,192,111299,1,0,0:0:0:0:
320,192,111460,1,0,0:0:0:0:
448,192,111460,1,0,0:0:0:0:
320,192,111620,1,0,0:0:0:0:
448,192,111620,1,0,0:0:0:0:
192,192,111781,1,0,0:0:0:0:
64,192,111781,1,0,0:0:0:0:
448,192,111781,1,0,0:0:0:0:
320,192,111941,1,0,0:0:0:0:
64,192,111941,1,0,0:0:0:0:
192,192,112101,1,0,0:0:0:0:
320,192,112262,1,0,0:0:0:0:
448,192,112262,1,0,0:0:0:0:
64,192,112422,1,0,0:0:0:0:
192,192,112422,1,0,0:0:0:0:
448,192,112422,1,0,0:0:0:0:
320,192,112583,1,0,0:0:0:0:
64,192,112743,1,0,0:0:0:0:
192,192,112743,1,0,0:0:0:0:
448,192,112904,1,0,0:0:0:0:
64,192,112904,1,0,0:0:0:0:
192,192,113064,1,0,0:0:0:0:
320,192,113064,1,0,0:0:0:0:
448,192,113064,1,0,0:0:0:0:
192,192,113224,1,0,0:0:0:0:
320,192,113224,1,0,0:0:0:0:
64,192,113224,1,0,0:0:0:0:
448,192,113385,1,0,0:0:0:0:
192,192,113545,1,0,0:0:0:0:
320,192,113545,1,0,0:0:0:0:
192,192,113706,1,0,0:0:0:0:
64,192,113706,1,0,0:0:0:0:
448,192,113706,1,0,0:0:0:0:
320,192,113866,1,0,0:0:0:0:
448,192,113946,1,0,0:0:0:0:
192,192,114027,128,0,114187:0:0:0:0:
64,192,114027,1,0,0:0:0:0:
448,192,114187,128,0,114347:0:0:0:0:
320,192,114187,1,0,0:0:0:0:
192,192,114347,1,0,0:0:0:0:
320,192,114347,1,0,0:0:0:0:
64,192,114347,1,0,0:0:0:0:
64,192,114508,128,0,114829:0:0:0:0:
448,192,114508,1,0,0:0:0:0:
320,192,114668,1,0,0:0:0:0:
448,192,114829,128,0,114989:0:0:0:0:
192,192,114829,1,0,0:0:0:0:
320,192,114989,128,0,115150:0:0:0:0:
64,192,114989,1,0,0:0:0:0:
448,192,115150,1,0,0:0:0:0:
192,192,115150,128,0,115310:0:0:0:0:
64,192,115310,1,0,0:0:0:0:
320,192,115310,1,0,0:0:0:0:
448,192,115390,1,0,0:0:0:0:
192,192,115390,1,0,0:0:0:0:
448,192,115551,1,0,0:0:0:0:
192,192,115551,1,0,0:0:0:0:
64,192,115631,1,0,0:0:0:0:
320,192,115631,1,0,0:0:0:0:
320,192,115791,1,0,0:0:0:0:
448,192,115791,1,0,0:0:0:0:
64,192,115791,1,0,0:0:0:0:
64,192,116112,1,0,0:0:0:0:
192,192,116112,1,0,0:0:0:0:
320,192,116273,1,0,0:0:0:0:
448,192,116273,1,0,0:0:0:0:
192,192,116273,1,0,0:0:0:0:
64,192,116433,1,0,0:0:0:0:
320,192,116433,1,0,0:0:0:0:
192,192,116593,1,0,0:0:0:0:
448,192,116593,1,0,0:0:0:0:
320,192,116754,1,0,0:0:0:0:
448,192,116754,1,0,0:0:0:0:
192,192,116914,1,0,0:0:0:0:
64,192,116914,1,0,0:0:0:0:
320,192,116914,1,0,0:0:0:0:
448,192,117075,1,0,0:0:0:0:
192,192,117075,1,0,0:0:0:0:
320,192,117235,1,0,0:0:0:0:
192,192,117396,1,0,0:0:0:0:
64,192,117396,1,0,0:0:0:0:
320,192,117556,1,0,0:0:0:0:
448,192,117556,1,0,0:0:0:0:
192,192,117556,1,0,0:0:0:0:
64,192,117716,1,0,0:0:0:0:
448,192,117716,1,0,0:0:0:0:
320,192,117877,1,0,0:0:0:0:
64,192,117877,1,0,0:0:0:0:
192,192,117957,1,0,0:0:0:0:
320,192,118037,1,0,0:0:0:0:
448,192,118037,1,0,0:0:0:0:
64,192,118117,1,0,0:0:0:0:
192,192,118117,1,0,0:0:0:0:
320,192,118198,1,0,0:0:0:0:
448,192,118198,1,0,0:0:0:0:
192,192,118278,1,0,0:0:0:0:
64,192,118358,1,0,0:0:0:0:
320,192,118358,1,0,0:0:0:0:
448,192,118358,1,0,0:0:0:0:
192,192,118679,1,0,0:0:0:0:
448,192,118679,1,0,0:0:0:0:
320,192,118839,1,0,0:0:0:0:
192,192,118839,1,0,0:0:0:0:
64,192,118839,1,0,0:0:0:0:
448,192,119000,1,0,0:0:0:0:
320,192,119160,128,0,119321:0:0:0:0:
64,192,119160,1,0,0:0:0:0:
64,192,119321,128,0,119481:0:0:0:0:
192,192,119321,1,0,0:0:0:0:
320,192,119481,1,0,0:0:0:0:
192,192,119481,1,0,0:0:0:0:
448,192,119481,1,0,0:0:0:0:
448,192,119642,128,0,119962:0:0:0:0:
64,192,119642,1,0,0:0:0:0:
320,192,119802,1,0,0:0:0:0:
192,192,119802,1,0,0:0:0:0:
192,192,119962,128,0,120123:0:0:0:0:
64,192,119962,1,0,0:0:0:0:
448,192,120123,1,0,0:0:0:0:
64,192,120123,1,0,0:0:0:0:
320,192,120123,128,0,120283:0:0:0:0:
448,192,120283,1,0,0:0:0:0:
64,192,120283,128,0,120444:0:0:0:0:
192,192,120444,128,0,120765:0:0:0:0:
320,192,120444,1,0,0:0:0:0:
448,192,120604,128,0,120765:0:0:0:0:
320,192,120765,128,0,120925:0:0:0:0:
64,192,120765,1,0,0:0:0:0:
64,192,120925,1,0,0:0:0:0:
192,192,120925,1,0,0:0:0:0:
448,192,120925,1,0,0:0:0:0:
320,192,121085,1,0,0:0:0:0:
64,192,121085,1,0,0:0:0:0:
192,192,121246,1,0,0:0:0:0:
320,192,121406,1,0,0:0:0:0:
448,192,121406,1,0,0:0:0:0:
64,192,121406,1,0,0:0:0:0:
192,192,121567,1,0,0:0:0:0:
320,192,121647,1,0,0:0:0:0:
64,192,121727,1,0,0:0:0:0:
448,192,121727,128,0,121888:0:0:0:0:
192,192,121888,128,0,122048:0:0:0:0:
64,192,122048,1,0,0:0:0:0:
448,192,122048,1,0,0:0:0:0:
320,192,122208,128,0,122529:0:0:0:0:
192,192,122208,1,0,0:0:0:0:
64,192,122208,1,0,0:0:0:0:
448,192,122369,1,0,0:0:0:0:
192,192,122369,1,0,0:0:0:0:
64,192,122529,128,0,122690:0:0:0:0:
192,192,122609,1,0,0:0:0:0:
448,192,122690,128,0,122850:0:0:0:0:
320,192,122690,1,0,0:0:0:0:
192,192,122850,128,0,123010:0:0:0:0:
64,192,122850,1,0,0:0:0:0:
320,192,122930,1,0,0:0:0:0:
64,192,123010,128,0,123171:0:0:0:0:
448,192,123010,1,0,0:0:0:0:
192,192,123171,128,0,123331:0:0:0:0:
320,192,123171,1,0,0:0:0:0:
448,192,123331,128,0,123412:0:0:0:0:
64,192,123331,1,0,0:0:0:0:
320,192,123412,128,0,123492:0:0:0:0:
192,192,123492,128,0,123572:0:0:0:0:
64,192,123572,128,0,123652:0:0:0:0:
192,192,123652,1,0,0:0:0:0:
320,192,123652,1,0,0:0:0:0:
448,192,123652,128,0,124936:0:0:0:0:
192,192,124133,1,0,0:0:0:0:
64,192,124133,1,0,0:0:0:0:
64,192,124936,128,0,126219:0:0:0:0:
192,192,124936,1,0,0:0:0:0:
320,192,124936,1,0,0:0:0:0:
448,192,125417,1,0,0:0:0:0:
192,192,125577,1,0,0:0:0:0:
448,192,126219,128,0,127502:0:0:0:0:
320,192,126219,1,0,0:0:0:0:
192,192,126219,1,0,0:0:0:0:
320,192,126700,1,0,0:0:0:0:
64,192,126861,1,0,0:0:0:0:
64,192,127502,128,0,128786:0:0:0:0:
192,192,127502,1,0,0:0:0:0:
320,192,127502,1,0,0:0:0:0:
448,192,127904,1,0,0:0:0:0:
320,192,127944,1,0,0:0:0:0:
192,192,127984,1,0,0:0:0:0:
192,192,128305,1,0,0:0:0:0:
320,192,128465,1,0,0:0:0:0:
448,192,128465,1,0,0:0:0:0:
448,192,128786,128,0,130069:0:0:0:0:
192,192,128786,1,0,0:0:0:0:
320,192,128786,1,0,0:0:0:0:
192,192,129107,1,0,0:0:0:0:
64,192,129107,1,0,0:0:0:0:
192,192,129428,1,0,0:0:0:0:
64,192,129428,1,0,0:0:0:0:
192,192,129748,1,0,0:0:0:0:
64,192,129748,1,0,0:0:0:0:
64,192,130069,128,0,131032:0:0:0:0:
320,192,130069,1,0,0:0:0:0:
192,192,130069,1,0,0:0:0:0:
448,192,130390,1,0,0:0:0:0:
320,192,130390,1,0,0:0:0:0:
448,192,130711,1,0,0:0:0:0:
320,192,130711,1,0,0:0:0:0:
320,192,130871,1,0,0:0:0:0:
192,192,130871,1,0,0:0:0:0:
192,192,131032,1,0,0:0:0:0:
320,192,131032,1,0,0:0:0:0:
448,192,131032,1,0,0:0:0:0:
64,192,131513,1,0,0:0:0:0:
320,192,131513,1,0,0:0:0:0:
192,192,131674,1,0,0:0:0:0:
64,192,131674,1,0,0:0:0:0:
448,192,131674,1,0,0:0:0:0:
320,192,131834,1,0,0:0:0:0:
448,192,131834,1,0,0:0:0:0:
192,192,131914,1,0,0:0:0:0:
64,192,131914,1,0,0:0:0:0:
320,192,131994,1,0,0:0:0:0:
448,192,131994,1,0,0:0:0:0:
192,192,132155,1,0,0:0:0:0:
64,192,132155,1,0,0:0:0:0:
320,192,132315,1,0,0:0:0:0:
192,192,132315,1,0,0:0:0:0:
448,192,132476,1,0,0:0:0:0:
320,192,132476,1,0,0:0:0:0:
64,192,132476,128,0,132636:0:0:0:0:
192,192,132636,128,0,132797:0:0:0:0:
64,192,132797,128,0,132957:0:0:0:0:
320,192,132957,128,0,133117:0:0:0:0:
64,192,133117,128,0,133278:0:0:0:0:
448,192,133278,128,0,133438:0:0:0:0:
64,192,133438,128,0,133599:0:0:0:0:
192,192,133438,1,0,0:0:0:0:
320,192,133519,1,0,0:0:0:0:
448,192,133599,128,0,133920:0:0:0:0:
192,192,133599,1,0,0:0:0:0:
320,192,133920,1,0,0:0:0:0:
192,192,133920,1,0,0:0:0:0:
64,192,133920,1,0,0:0:0:0:
448,192,134080,1,0,0:0:0:0:
64,192,134240,1,0,0:0:0:0:
448,192,134240,1,0,0:0:0:0:
320,192,134240,1,0,0:0:0:0:
64,192,134401,1,0,0:0:0:0:
448,192,134561,1,0,0:0:0:0:
192,192,134561,1,0,0:0:0:0:
192,192,134722,1,0,0:0:0:0:
320,192,134722,1,0,0:0:0:0:
64,192,134882,1,0,0:0:0:0:
320,192,134882,1,0,0:0:0:0:
448,192,134882,1,0,0:0:0:0:
448,192,135043,1,0,0:0:0:0:
192,192,135043,1,0,0:0:0:0:
320,192,135203,1,0,0:0:0:0:
64,192,135363,1,0,0:0:0:0:
192,192,135363,1,0,0:0:0:0:
64,192,135524,1,0,0:0:0:0:
320,192,135524,1,0,0:0:0:0:
448,192,135524,1,0,0:0:0:0:
320,192,135684,1,0,0:0:0:0:
448,192,135845,1,0,0:0:0:0:
64,192,135845,128,0,136085:0:0:0:0:
320,192,136005,1,0,0:0:0:0:
192,192,136005,1,0,0:0:0:0:
64,192,136166,128,0,136406:0:0:0:0:
448,192,136166,1,0,0:0:0:0:
192,192,136166,1,0,0:0:0:0:
320,192,136326,1,0,0:0:0:0:
192,192,136486,1,0,0:0:0:0:
64,192,136486,1,0,0:0:0:0:
448,192,136486,1,0,0:0:0:0:
192,192,136647,1,0,0:0:0:0:
320,192,136807,1,0,0:0:0:0:
64,192,136807,1,0,0:0:0:0:
448,192,136807,1,0,0:0:0:0:
320,192,136968,1,0,0:0:0:0:
192,192,137128,1,0,0:0:0:0:
448,192,137128,1,0,0:0:0:0:
192,192,137289,1,0,0:0:0:0:
320,192,137289,1,0,0:0:0:0:
64,192,137449,1,0,0:0:0:0:
320,192,137449,1,0,0:0:0:0:
448,192,137449,1,0,0:0:0:0:
64,192,137609,1,0,0:0:0:0:
192,192,137609,1,0,0:0:0:0:
192,192,137770,1,0,0:0:0:0:
320,192,137770,1,0,0:0:0:0:
320,192,137930,1,0,0:0:0:0:
192,192,138091,1,0,0:0:0:0:
448,192,138091,1,0,0:0:0:0:
64,192,138091,1,0,0:0:0:0:
320,192,138251,1,0,0:0:0:0:
192,192,138251,1,0,0:0:0:0:
64,192,138331,1,0,0:0:0:0:
448,192,138412,128,0,138652:0:0:0:0:
320,192,138412,1,0,0:0:0:0:
64,192,138572,1,0,0:0:0:0:
192,192,138572,1,0,0:0:0:0:
448,192,138732,128,0,138973:0:0:0:0:
320,192,138732,1,0,0:0:0:0:
192,192,138893,1,0,0:0:0:0:
64,192,138893,1,0,0:0:0:0:
320,192,139053,1,0,0:0:0:0:
448,192,139053,1,0,0:0:0:0:
64,192,139053,1,0,0:0:0:0:
192,192,139214,1,0,0:0:0:0:
320,192,139374,1,0,0:0:0:0:
448,192,139374,1,0,0:0:0:0:
64,192,139535,1,0,0:0:0:0:
320,192,139535,1,0,0:0:0:0:
192,192,139695,1,0,0:0:0:0:
64,192,139695,1,0,0:0:0:0:
448,192,139695,128,0,140016:0:0:0:0:
320,192,139855,1,0,0:0:0:0:
192,192,140016,1,0,0:0:0:0:
64,192,140016,1,0,0:0:0:0:
192,192,140176,1,0,0:0:0:0:
448,192,140176,128,0,140497:0:0:0:0:
64,192,140337,1,0,0:0:0:0:
320,192,140497,1,0,0:0:0:0:
192,192,140497,1,0,0:0:0:0:
64,192,140658,1,0,0:0:0:0:
320,192,140818,1,0,0:0:0:0:
448,192,140978,1,0,0:0:0:0:
64,192,140978,128,0,141299:0:0:0:0:
192,192,140978,1,0,0:0:0:0:
320,192,141139,1,0,0:0:0:0:
448,192,141139,1,0,0:0:0:0:
320,192,141299,1,0,0:0:0:0:
192,192,141299,1,0,0:0:0:0:
192,192,141460,1,0,0:0:0:0:
448,192,141460,128,0,141781:0:0:0:0:
64,192,141460,1,0,0:0:0:0:
64,192,141781,1,0,0:0:0:0:
192,192,141781,1,0,0:0:0:0:
320,192,141941,128,0,142101:0:0:0:0:
448,192,141941,1,0,0:0:0:0:
64,192,141941,1,0,0:0:0:0:
192,192,142101,1,0,0:0:0:0:
64,192,142101,1,0,0:0:0:0:
320,192,142182,1,0,0:0:0:0:
192,192,142262,128,0,142422:0:0:0:0:
448,192,142262,1,0,0:0:0:0:
448,192,142422,128,0,142583:0:0:0:0:
64,192,142422,1,0,0:0:0:0:
320,192,142583,1,0,0:0:0:0:
192,192,142583,1,0,0:0:0:0:
64,192,142583,1,0,0:0:0:0:
64,192,142743,128,0,143064:0:0:0:0:
448,192,142743,1,0,0:0:0:0:
192,192,142904,1,0,0:0:0:0:
320,192,142904,1,0,0:0:0:0:
448,192,143064,1,0,0:0:0:0:
192,192,143144,1,0,0:0:0:0:
448,192,143224,128,0,143385:0:0:0:0:
320,192,143224,1,0,0:0:0:0:
64,192,143224,1,0,0:0:0:0:
192,192,143385,1,0,0:0:0:0:
448,192,143545,128,0,143706:0:0:0:0:
320,192,143545,1,0,0:0:0:0:
192,192,143625,1,0,0:0:0:0:
320,192,143706,1,0,0:0:0:0:
64,192,143706,1,0,0:0:0:0:
448,192,143786,1,0,0:0:0:0:
192,192,143866,128,0,144027:0:0:0:0:
320,192,143866,1,0,0:0:0:0:
320,192,144027,1,0,0:0:0:0:
448,192,144027,1,0,0:0:0:0:
64,192,144027,128,0,144347:0:0:0:0:
192,192,144347,1,0,0:0:0:0:
448,192,144347,1,0,0:0:0:0:
192,192,144508,1,0,0:0:0:0:
64,192,144508,1,0,0:0:0:0:
320,192,144508,1,0,0:0:0:0:
448,192,144668,1,0,0:0:0:0:
64,192,144668,1,0,0:0:0:0:
192,192,144748,1,0,0:0:0:0:
448,192,144829,128,0,144989:0:0:0:0:
320,192,144829,1,0,0:0:0:0:
64,192,144989,128,0,145150:0:0:0:0:
192,192,144989,1,0,0:0:0:0:
320,192,145150,1,0,0:0:0:0:
448,192,145150,1,0,0:0:0:0:
320,192,145310,128,0,145631:0:0:0:0:
192,192,145310,1,0,0:0:0:0:
64,192,145470,1,0,0:0:0:0:
448,192,145470,1,0,0:0:0:0:
192,192,145631,1,0,0:0:0:0:
64,192,145791,128,0,145952:0:0:0:0:
320,192,145791,1,0,0:0:0:0:
192,192,145952,1,0,0:0:0:0:
448,192,145952,1,0,0:0:0:0:
64,192,146032,1,0,0:0:0:0:
320,192,146032,1,0,0:0:0:0:
192,192,146112,1,0,0:0:0:0:
448,192,146112,1,0,0:0:0:0:
320,192,146273,1,0,0:0:0:0:
448,192,146273,1,0,0:0:0:0:
192,192,146433,1,0,0:0:0:0:
320,192,146513,1,0,0:0:0:0:
192,192,146593,1,0,0:0:0:0:
320,192,146674,1,0,0:0:0:0:
64,192,146754,1,0,0:0:0:0:
448,192,146754,1,0,0:0:0:0:
192,192,146754,1,0,0:0:0:0:
192,192,147075,1,0,0:0:0:0:
64,192,147075,1,0,0:0:0:0:
320,192,147075,1,0,0:0:0:0:
448,192,147235,1,0,0:0:0:0:
192,192,147235,1,0,0:0:0:0:
320,192,147315,1,0,0:0:0:0:
64,192,147315,1,0,0:0:0:0:
192,192,147396,1,0,0:0:0:0:
448,192,147396,1,0,0:0:0:0:
320,192,147556,1,0,0:0:0:0:
64,192,147556,1,0,0:0:0:0:
192,192,147716,1,0,0:0:0:0:
64,192,147716,1,0,0:0:0:0:
448,192,147716,1,0,0:0:0:0:
320,192,147877,1,0,0:0:0:0:
448,192,147877,1,0,0:0:0:0:
320,192,148037,1,0,0:0:0:0:
64,192,148037,1,0,0:0:0:0:
64,192,148198,1,0,0:0:0:0:
448,192,148198,1,0,0:0:0:0:
192,192,148358,1,0,0:0:0:0:
448,192,148358,1,0,0:0:0:0:
320,192,148358,1,0,0:0:0:0:
64,192,148519,1,0,0:0:0:0:
320,192,148519,1,0,0:0:0:0:
192,192,148599,1,0,0:0:0:0:
448,192,148599,1,0,0:0:0:0:
320,192,148679,1,0,0:0:0:0:
64,192,148679,1,0,0:0:0:0:
192,192,148839,1,0,0:0:0:0:
320,192,148839,1,0,0:0:0:0:
448,192,149000,1,0,0:0:0:0:
320,192,149000,1,0,0:0:0:0:
64,192,149000,1,0,0:0:0:0:
448,192,149160,1,0,0:0:0:0:
192,192,149160,1,0,0:0:0:0:
192,192,149321,1,0,0:0:0:0:
320,192,149321,1,0,0:0:0:0:
64,192,149481,1,0,0:0:0:0:
320,192,149481,1,0,0:0:0:0:
192,192,149642,1,0,0:0:0:0:
448,192,149642,1,0,0:0:0:0:
320,192,149642,1,0,0:0:0:0:
448,192,149802,1,0,0:0:0:0:
64,192,149802,1,0,0:0:0:0:
192,192,149882,1,0,0:0:0:0:
320,192,149882,1,0,0:0:0:0:
448,192,149962,1,0,0:0:0:0:
64,192,149962,1,0,0:0:0:0:
320,192,150123,1,0,0:0:0:0:
192,192,150123,1,0,0:0:0:0:
192,192,150283,1,0,0:0:0:0:
64,192,150283,1,0,0:0:0:0:
448,192,150283,1,0,0:0:0:0:
448,192,150444,1,0,0:0:0:0:
320,192,150444,1,0,0:0:0:0:
320,192,150604,1,0,0:0:0:0:
64,192,150604,1,0,0:0:0:0:
192,192,150765,1,0,0:0:0:0:
64,192,150765,1,0,0:0:0:0:
192,192,150925,1,0,0:0:0:0:
320,192,150925,1,0,0:0:0:0:
448,192,150925,1,0,0:0:0:0:
64,192,151085,1,0,0:0:0:0:
320,192,151085,1,0,0:0:0:0:
192,192,151166,1,0,0:0:0:0:
448,192,151166,1,0,0:0:0:0:
320,192,151246,1,0,0:0:0:0:
64,192,151246,1,0,0:0:0:0:
448,192,151406,1,0,0:0:0:0:
320,192,151406,1,0,0:0:0:0:
192,192,151406,1,0,0:0:0:0:
448,192,151567,1,0,0:0:0:0:
64,192,151567,1,0,0:0:0:0:
320,192,151727,1,0,0:0:0:0:
64,192,151727,1,0,0:0:0:0:
192,192,151727,1,0,0:0:0:0:
448,192,151888,1,0,0:0:0:0:
192,192,151888,1,0,0:0:0:0:
320,192,152048,1,0,0:0:0:0:
64,192,152048,1,0,0:0:0:0:
320,192,152208,1,0,0:0:0:0:
448,192,152208,1,0,0:0:0:0:
192,192,152208,1,0,0:0:0:0:
64,192,152369,1,0,0:0:0:0:
320,192,152369,1,0,0:0:0:0:
192,192,152449,1,0,0:0:0:0:
448,192,152449,1,0,0:0:0:0:
320,192,152529,1,0,0:0:0:0:
64,192,152529,1,0,0:0:0:0:
192,192,152690,1,0,0:0:0:0:
448,192,152690,1,0,0:0:0:0:
320,192,152850,1,0,0:0:0:0:
448,192,152850,1,0,0:0:0:0:
64,192,152850,1,0,0:0:0:0:
192,192,153011,1,0,0:0:0:0:
64,192,153011,1,0,0:0:0:0:
192,192,153171,1,0,0:0:0:0:
448,192,153171,1,0,0:0:0:0:
448,192,153331,1,0,0:0:0:0:
64,192,153331,1,0,0:0:0:0:
320,192,153492,1,0,0:0:0:0:
64,192,153492,1,0,0:0:0:0:
192,192,153492,1,0,0:0:0:0:
448,192,153652,1,0,0:0:0:0:
192,192,153652,1,0,0:0:0:0:
320,192,153732,1,0,0:0:0:0:
64,192,153732,1,0,0:0:0:0:
192,192,153813,1,0,0:0:0:0:
448,192,153813,1,0,0:0:0:0:
320,192,153973,1,0,0:0:0:0:
192,192,153973,1,0,0:0:0:0:
64,192,154133,1,0,0:0:0:0:
192,192,154133,1,0,0:0:0:0:
448,192,154133,1,0,0:0:0:0:
64,192,154294,1,0,0:0:0:0:
320,192,154294,1,0,0:0:0:0:
320,192,154454,1,0,0:0:0:0:
192,192,154454,1,0,0:0:0:0:
448,192,154615,1,0,0:0:0:0:
192,192,154615,1,0,0:0:0:0:
320,192,154775,1,0,0:0:0:0:
64,192,154775,1,0,0:0:0:0:
192,192,154775,1,0,0:0:0:0:
64,192,154936,1,0,0:0:0:0:
448,192,154936,1,0,0:0:0:0:
320,192,155016,1,0,0:0:0:0:
192,192,155016,1,0,0:0:0:0:
64,192,155096,1,0,0:0:0:0:
448,192,155096,1,0,0:0:0:0:
192,192,155256,1,0,0:0:0:0:
320,192,155256,1,0,0:0:0:0:
320,192,155417,1,0,0:0:0:0:
448,192,155417,1,0,0:0:0:0:
64,192,155417,1,0,0:0:0:0:
64,192,155577,1,0,0:0:0:0:
192,192,155577,1,0,0:0:0:0:
192,192,155738,1,0,0:0:0:0:
448,192,155738,1,0,0:0:0:0:
320,192,155898,1,0,0:0:0:0:
448,192,155898,1,0,0:0:0:0:
320,192,156059,1,0,0:0:0:0:
192,192,156059,1,0,0:0:0:0:
64,192,156059,1,0,0:0:0:0:
448,192,156219,1,0,0:0:0:0:
192,192,156219,1,0,0:0:0:0:
320,192,156299,1,0,0:0:0:0:
64,192,156299,1,0,0:0:0:0:
192,192,156379,1,0,0:0:0:0:
448,192,156379,1,0,0:0:0:0:
64,192,156540,1,0,0:0:0:0:
448,192,156540,1,0,0:0:0:0:
320,192,156700,1,0,0:0:0:0:
64,192,156700,1,0,0:0:0:0:
192,192,156861,1,0,0:0:0:0:
448,192,156861,1,0,0:0:0:0:
320,192,157021,1,0,0:0:0:0:
192,192,157021,1,0,0:0:0:0:
64,192,157021,1,0,0:0:0:0:
64,192,157182,1,0,0:0:0:0:
320,192,157342,1,0,0:0:0:0:
64,192,157502,1,0,0:0:0:0:
448,192,157663,1,0,0:0:0:0:
192,192,157823,1,0,0:0:0:0:
448,192,157984,1,0,0:0:0:0:
64,192,158144,1,0,0:0:0:0:
448,192,158305,1,0,0:0:0:0:
192,192,158465,1,0,0:0:0:0:
448,192,158625,1,0,0:0:0:0:
64,192,158786,1,0,0:0:0:0:
320,192,158946,1,0,0:0:0:0:
64,192,159107,1,0,0:0:0:0:
448,192,159267,1,0,0:0:0:0:
192,192,159428,1,0,0:0:0:0:
448,192,159588,128,0,159909:0:0:0:0:
64,192,159588,1,0,0:0:0:0:
320,192,159909,1,0,0:0:0:0:
192,192,159909,1,0,0:0:0:0:
64,192,160069,1,0,0:0:0:0:
192,192,160150,1,0,0:0:0:0:
320,192,160230,1,0,0:0:0:0:
448,192,160230,1,0,0:0:0:0:
64,192,160310,1,0,0:0:0:0:
320,192,160390,1,0,0:0:0:0:
192,192,160470,1,0,0:0:0:0:
64,192,160551,1,0,0:0:0:0:
448,192,160551,1,0,0:0:0:0:
320,192,160631,1,0,0:0:0:0:
192,192,160711,1,0,0:0:0:0:
64,192,160711,1,0,0:0:0:0:
320,192,160791,1,0,0:0:0:0:
64,192,160871,1,0,0:0:0:0:
448,192,160871,1,0,0:0:0:0:
192,192,160952,1,0,0:0:0:0:
320,192,161032,1,0,0:0:0:0:
64,192,161112,1,0,0:0:0:0:
448,192,161192,128,0,161273:0:0:0:0:
320,192,161192,1,0,0:0:0:0:
192,192,161273,128,0,161353:0:0:0:0:
320,192,161353,128,0,161433:0:0:0:0:
448,192,161433,128,0,161513:0:0:0:0:
192,192,161513,128,0,161593:0:0:0:0:
64,192,161593,128,0,161674:0:0:0:0:
448,192,161674,128,0,161754:0:0:0:0:
320,192,161754,128,0,161834:0:0:0:0:
192,192,161834,128,0,161914:0:0:0:0:
448,192,161914,128,0,161994:0:0:0:0:
64,192,161994,128,0,162075:0:0:0:0:
192,192,162075,128,0,162155:0:0:0:0:
320,192,162155,1,0,0:0:0:0:
64,192,162155,1,0,0:0:0:0:
448,192,162155,128,0,164401:0:0:0:0:
320,192,162315,1,0,0:0:0:0:
64,192,162476,1,0,0:0:0:0:
192,192,162476,1,0,0:0:0:0:
64,192,162636,1,0,0:0:0:0:
192,192,162797,1,0,0:0:0:0:
320,192,162797,1,0,0:0:0:0:
192,192,162957,1,0,0:0:0:0:
64,192,163117,1,0,0:0:0:0:
320,192,163117,1,0,0:0:0:0:
320,192,163278,1,0,0:0:0:0:
64,192,163438,1,0,0:0:0:0:
192,192,163438,1,0,0:0:0:0:
64,192,163599,1,0,0:0:0:0:
192,192,163759,1,0,0:0:0:0:
320,192,163759,1,0,0:0:0:0:
192,192,163920,1,0,0:0:0:0:
64,192,164080,1,0,0:0:0:0:
320,192,164080,1,0,0:0:0:0:
320,192,164240,1,0,0:0:0:0:
64,192,164401,1,0,0:0:0:0:
192,192,164401,1,0,0:0:0:0:
64,192,164561,1,0,0:0:0:0:
320,192,164561,1,0,0:0:0:0:
448,192,164722,128,0,165203:0:0:0:0:
192,192,164722,1,0,0:0:0:0:
192,192,164882,1,0,0:0:0:0:
320,192,165043,1,0,0:0:0:0:
64,192,165043,1,0,0:0:0:0:
192,192,165203,128,0,165363:0:0:0:0:
64,192,165363,128,0,166968:0:0:0:0:
320,192,165363,1,0,0:0:0:0:
192,192,165524,1,0,0:0:0:0:
448,192,165684,1,0,0:0:0:0:
320,192,165684,1,0,0:0:0:0:
448,192,165845,1,0,0:0:0:0:
320,192,166005,1,0,0:0:0:0:
192,192,166005,1,0,0:0:0:0:
192,192,166166,1,0,0:0:0:0:
448,192,166326,128,0,166647:0:0:0:0:
320,192,166326,1,0,0:0:0:0:
192,192,166486,1,0,0:0:0:0:
320,192,166647,128,0,166968:0:0:0:0:
192,192,166647,1,0,0:0:0:0:
448,192,166807,1,0,0:0:0:0:
192,192,166968,128,0,167289:0:0:0:0:
448,192,166968,1,0,0:0:0:0:
320,192,167128,1,0,0:0:0:0:
64,192,167289,128,0,169535:0:0:0:0:
320,192,167289,1,0,0:0:0:0:
448,192,167289,1,0,0:0:0:0:
448,192,167449,1,0,0:0:0:0:
320,192,167609,1,0,0:0:0:0:
192,192,167609,1,0,0:0:0:0:
320,192,167770,1,0,0:0:0:0:
448,192,167930,1,0,0:0:0:0:
192,192,167930,1,0,0:0:0:0:
192,192,168091,1,0,0:0:0:0:
320,192,168251,1,0,0:0:0:0:
448,192,168251,1,0,0:0:0:0:
448,192,168412,1,0,0:0:0:0:
320,192,168572,1,0,0:0:0:0:
192,192,168572,1,0,0:0:0:0:
320,192,168732,1,0,0:0:0:0:
448,192,168893,1,0,0:0:0:0:
192,192,168893,1,0,0:0:0:0:
192,192,169053,1,0,0:0:0:0:
448,192,169214,1,0,0:0:0:0:
320,192,169214,1,0,0:0:0:0:
320,192,169374,1,0,0:0:0:0:
448,192,169535,1,0,0:0:0:0:
192,192,169535,1,0,0:0:0:0:
320,192,169695,1,0,0:0:0:0:
64,192,169695,1,0,0:0:0:0:
448,192,169855,128,0,170337:0:0:0:0:
192,192,169855,1,0,0:0:0:0:
64,192,170016,1,0,0:0:0:0:
320,192,170176,1,0,0:0:0:0:
192,192,170176,1,0,0:0:0:0:
320,192,170337,128,0,170497:0:0:0:0:
192,192,170497,128,0,171781:0:0:0:0:
448,192,170497,1,0,0:0:0:0:
64,192,170658,1,0,0:0:0:0:
320,192,170818,1,0,0:0:0:0:
448,192,170818,1,0,0:0:0:0:
448,192,170978,1,0,0:0:0:0:
320,192,171139,1,0,0:0:0:0:
64,192,171139,1,0,0:0:0:0:
320,192,171299,1,0,0:0:0:0:
64,192,171460,128,0,171781:0:0:0:0:
448,192,171460,1,0,0:0:0:0:
320,192,171620,1,0,0:0:0:0:
320,192,171781,1,0,0:0:0:0:
448,192,171781,1,0,0:0:0:0:
192,192,171861,1,0,0:0:0:0:
64,192,171861,1,0,0:0:0:0:
320,192,171941,1,0,0:0:0:0:
448,192,171941,1,0,0:0:0:0:
192,192,172021,1,0,0:0:0:0:
64,192,172021,1,0,0:0:0:0:
320,192,172101,1,0,0:0:0:0:
448,192,172101,1,0,0:0:0:0:
192,192,172182,1,0,0:0:0:0:
64,192,172182,1,0,0:0:0:0:
320,192,172262,1,0,0:0:0:0:
448,192,172262,1,0,0:0:0:0:
192,192,172342,1,0,0:0:0:0:
64,192,172342,1,0,0:0:0:0:
448,192,172422,128,0,174668:0:0:0:0:
320,192,172422,1,0,0:0:0:0:
64,192,172422,1,0,0:0:0:0:
320,192,172583,1,0,0:0:0:0:
192,192,172743,1,0,0:0:0:0:
64,192,172743,1,0,0:0:0:0:
64,192,172904,1,0,0:0:0:0:
192,192,173064,1,0,0:0:0:0:
320,192,173064,1,0,0:0:0:0:
192,192,173224,1,0,0:0:0:0:
320,192,173385,1,0,0:0:0:0:
64,192,173385,1,0,0:0:0:0:
320,192,173545,1,0,0:0:0:0:
64,192,173706,1,0,0:0:0:0:
320,192,173706,1,0,0:0:0:0:
64,192,173866,1,0,0:0:0:0:
192,192,174027,1,0,0:0:0:0:
320,192,174027,128,0,174347:0:0:0:0:
64,192,174187,1,0,0:0:0:0:
192,192,174347,1,0,0:0:0:0:
64,192,174347,128,0,174668:0:0:0:0:
192,192,174508,1,0,0:0:0:0:
320,192,174668,1,0,0:0:0:0:
192,192,174668,1,0,0:0:0:0:
64,192,174748,1,0,0:0:0:0:
448,192,174829,1,0,0:0:0:0:
320,192,174829,1,0,0:0:0:0:
192,192,174909,1,0,0:0:0:0:
64,192,174909,1,0,0:0:0:0:
320,192,174989,1,0,0:0:0:0:
64,192,174989,1,0,0:0:0:0:
448,192,174989,128,0,176273:0:0:0:0:
320,192,175150,1,0,0:0:0:0:
192,192,175310,1,0,0:0:0:0:
64,192,175310,1,0,0:0:0:0:
64,192,175470,1,0,0:0:0:0:
192,192,175631,1,0,0:0:0:0:
320,192,175631,1,0,0:0:0:0:
192,192,175791,1,0,0:0:0:0:
320,192,175952,1,0,0:0:0:0:
64,192,175952,1,0,0:0:0:0:
320,192,176112,1,0,0:0:0:0:
64,192,176273,128,0,176593:0:0:0:0:
192,192,176273,1,0,0:0:0:0:
192,192,176433,1,0,0:0:0:0:
320,192,176593,128,0,176914:0:0:0:0:
448,192,176593,1,0,0:0:0:0:
448,192,176754,1,0,0:0:0:0:
192,192,176914,128,0,177235:0:0:0:0:
64,192,176914,1,0,0:0:0:0:
320,192,177075,1,0,0:0:0:0:
64,192,177235,128,0,177556:0:0:0:0:
320,192,177235,1,0,0:0:0:0:
192,192,177396,1,0,0:0:0:0:
448,192,177396,1,0,0:0:0:0:
320,192,177476,1,0,0:0:0:0:
192,192,177556,1,0,0:0:0:0:
448,192,177556,1,0,0:0:0:0:
320,192,177716,1,0,0:0:0:0:
64,192,177716,1,0,0:0:0:0:
192,192,177877,1,0,0:0:0:0:
64,192,177877,1,0,0:0:0:0:
448,192,177877,1,0,0:0:0:0:
320,192,178037,1,0,0:0:0:0:
192,192,178037,1,0,0:0:0:0:
448,192,178198,1,0,0:0:0:0:
320,192,178198,1,0,0:0:0:0:
64,192,178358,1,0,0:0:0:0:
448,192,178358,1,0,0:0:0:0:
192,192,178519,1,0,0:0:0:0:
320,192,178519,1,0,0:0:0:0:
448,192,178519,1,0,0:0:0:0:
64,192,178679,1,0,0:0:0:0:
320,192,178679,1,0,0:0:0:0:
192,192,178839,1,0,0:0:0:0:
448,192,178839,1,0,0:0:0:0:
192,192,179000,1,0,0:0:0:0:
448,192,179000,1,0,0:0:0:0:
448,192,179160,1,0,0:0:0:0:
320,192,179160,1,0,0:0:0:0:
64,192,179160,1,0,0:0:0:0:
192,192,179321,1,0,0:0:0:0:
64,192,179481,1,0,0:0:0:0:
448,192,179481,1,0,0:0:0:0:
320,192,179561,1,0,0:0:0:0:
192,192,179642,1,0,0:0:0:0:
64,192,179642,1,0,0:0:0:0:
320,192,179722,1,0,0:0:0:0:
448,192,179722,1,0,0:0:0:0:
192,192,179802,1,0,0:0:0:0:
64,192,179802,1,0,0:0:0:0:
320,192,179882,1,0,0:0:0:0:
448,192,179882,1,0,0:0:0:0:
192,192,179962,1,0,0:0:0:0:
64,192,179962,1,0,0:0:0:0:
320,192,180043,1,0,0:0:0:0:
448,192,180043,1,0,0:0:0:0:
192,192,180123,128,0,180203:0:0:0:0:
64,192,180123,128,0,180203:0:0:0:0:
448,192,180123,128,0,180203:0:0:0:0:
64,192,180283,128,0,180363:0:0:0:0:
192,192,180283,128,0,180363:0:0:0:0:
448,192,180283,128,0,180363:0:0:0:0:
192,192,180444,1,0,0:0:0:0:
64,192,180444,1,0,0:0:0:0:
448,192,180444,1,0,0:0:0:0:
192,192,180604,128,0,180684:0:0:0:0:
448,192,180604,128,0,180684:0:0:0:0:
64,192,180604,128,0,180684:0:0:0:0:
64,192,180765,128,0,180845:0:0:0:0:
192,192,180765,128,0,180845:0:0:0:0:
448,192,180765,128,0,180845:0:0:0:0:
64,192,181085,128,0,181166:0:0:0:0:
448,192,181085,128,0,181166:0:0:0:0:
192,192,181085,128,0,181166:0:0:0:0:
448,192,181246,128,0,181326:0:0:0:0:
192,192,181246,128,0,181326:0:0:0:0:
64,192,181246,128,0,181326:0:0:0:0:
192,192,181567,128,0,181647:0:0:0:0:
448,192,181567,128,0,181647:0:0:0:0:
64,192,181567,128,0,181647:0:0:0:0:
64,192,181727,128,0,181807:0:0:0:0:
192,192,181727,128,0,181807:0:0:0:0:
448,192,181727,128,0,181807:0:0:0:0:
192,192,181888,1,0,0:0:0:0:
64,192,181888,1,0,0:0:0:0:
448,192,181888,1,0,0:0:0:0:
448,192,182048,128,0,182128:0:0:0:0:
320,192,182048,128,0,182128:0:0:0:0:
192,192,182048,128,0,182128:0:0:0:0:
64,192,182048,128,0,182128:0:0:0:0:
64,192,182369,128,0,182449:0:0:0:0:
192,192,182369,128,0,182449:0:0:0:0:
320,192,182369,128,0,182449:0:0:0:0:
448,192,182369,128,0,182449:0:0:0:0:
320,192,182690,128,0,182770:0:0:0:0:
448,192,182690,128,0,182770:0:0:0:0:
64,192,182690,128,0,182770:0:0:0:0:
448,192,182850,128,0,182930:0:0:0:0:
320,192,182850,128,0,182930:0:0:0:0:
64,192,182850,128,0,182930:0:0:0:0:
320,192,183171,128,0,183251:0:0:0:0:
64,192,183171,128,0,183251:0:0:0:0:
448,192,183171,128,0,183251:0:0:0:0:
448,192,183331,128,0,183412:0:0:0:0:
320,192,183331,128,0,183412:0:0:0:0:
64,192,183331,128,0,183412:0:0:0:0:
448,192,183652,128,0,183732:0:0:0:0:
64,192,183652,128,0,183732:0:0:0:0:
320,192,183652,128,0,183732:0:0:0:0:
64,192,183813,128,0,183893:0:0:0:0:
320,192,183813,128,0,183893:0:0:0:0:
448,192,183813,128,0,183893:0:0:0:0:
320,192,184133,128,0,184214:0:0:0:0:
64,192,184133,128,0,184214:0:0:0:0:
448,192,184133,128,0,184214:0:0:0:0:
448,192,184294,128,0,184374:0:0:0:0:
320,192,184294,128,0,184374:0:0:0:0:
64,192,184294,128,0,184374:0:0:0:0:
320,192,184615,128,0,184775:0:0:0:0:
448,192,184615,128,0,184775:0:0:0:0:
192,192,184615,128,0,184775:0:0:0:0:
64,192,184615,128,0,184775:0:0:0:0:
448,192,184936,128,0,186379:0:0:0:0:
192,192,184936,128,0,187182:0:0:0:0:
64,192,184936,128,0,187182:0:0:0:0:
320,192,184936,128,0,186379:0:0:0:0:
448,192,186540,1,0,0:0:0:0:
320,192,186540,1,0,0:0:0:0:
448,192,186861,1,0,0:0:0:0:
320,192,186861,1,0,0:0:0:0:
448,192,187182,1,0,0:0:0:0:
320,192,187182,1,0,0:0:0:0:
192,192,187262,1,0,0:0:0:0:
64,192,187262,1,0,0:0:0:0:
448,192,187342,1,0,0:0:0:0:
320,192,187342,1,0,0:0:0:0:
192,192,187422,1,0,0:0:0:0:
64,192,187422,1,0,0:0:0:0:
320,192,187502,1,0,0:0:0:0:
448,192,187502,1,0,0:0:0:0:
192,192,187583,1,0,0:0:0:0:
64,192,187583,1,0,0:0:0:0:
320,192,187663,1,0,0:0:0:0:
448,192,187663,1,0,0:0:0:0:
64,192,187663,1,0,0:0:0:0:
448,192,188144,1,0,0:0:0:0:
320,192,188144,1,0,0:0:0:0:
64,192,188305,1,0,0:0:0:0:
192,192,188465,1,0,0:0:0:0:
64,192,188625,1,0,0:0:0:0:
448,192,188786,1,0,0:0:0:0:
320,192,188786,1,0,0:0:0:0:
192,192,188946,1,0,0:0:0:0:
64,192,189107,1,0,0:0:0:0:
192,192,189267,1,0,0:0:0:0:
448,192,189428,1,0,0:0:0:0:
320,192,189428,1,0,0:0:0:0:
64,192,189588,1,0,0:0:0:0:
192,192,189748,1,0,0:0:0:0:
64,192,189909,1,0,0:0:0:0:
448,192,190069,1,0,0:0:0:0:
320,192,190069,1,0,0:0:0:0:
192,192,190230,128,0,190390:0:0:0:0:
320,192,190230,128,0,190390:0:0:0:0:
448,192,190230,128,0,190390:0:0:0:0:
64,192,190551,128,0,192716:0:0:0:0:
320,192,190551,1,0,0:0:0:0:
192,192,190551,1,0,0:0:0:0:
448,192,190711,1,0,0:0:0:0:
192,192,190871,1,0,0:0:0:0:
448,192,191032,1,0,0:0:0:0:
320,192,191192,1,0,0:0:0:0:
192,192,191353,1,0,0:0:0:0:
448,192,191353,1,0,0:0:0:0:
320,192,191513,1,0,0:0:0:0:
448,192,191674,1,0,0:0:0:0:
192,192,191834,1,0,0:0:0:0:
320,192,191994,1,0,0:0:0:0:
192,192,191994,1,0,0:0:0:0:
448,192,192155,128,0,192235:0:0:0:0:
320,192,192235,128,0,192315:0:0:0:0:
192,192,192315,128,0,192716:0:0:0:0:
320,192,192476,1,0,0:0:0:0:
320,192,192636,1,0,0:0:0:0:
448,192,192636,1,0,0:0:0:0:
192,192,192797,1,0,0:0:0:0:
448,192,192797,128,0,193278:0:0:0:0:
64,192,192797,128,0,192957:0:0:0:0:
320,192,192957,128,0,193117:0:0:0:0:
192,192,193117,128,0,193278:0:0:0:0:
64,192,193278,128,0,193438:0:0:0:0:
320,192,193438,128,0,193599:0:0:0:0:
192,192,193438,1,0,0:0:0:0:
448,192,193599,128,0,193759:0:0:0:0:
64,192,193599,1,0,0:0:0:0:
192,192,193759,128,0,193920:0:0:0:0:
64,192,193759,128,0,193920:0:0:0:0:
320,192,193920,128,0,194080:0:0:0:0:
448,192,193920,1,0,0:0:0:0:
64,192,194080,128,0,194240:0:0:0:0:
192,192,194240,128,0,194401:0:0:0:0:
320,192,194240,128,0,194401:0:0:0:0:
448,192,194401,128,0,194561:0:0:0:0:
64,192,194561,128,0,194722:0:0:0:0:
192,192,194561,1,0,0:0:0:0:
320,192,194722,128,0,194882:0:0:0:0:
448,192,194722,128,0,194882:0:0:0:0:
192,192,194882,128,0,195043:0:0:0:0:
64,192,194882,1,0,0:0:0:0:
448,192,195043,128,0,195203:0:0:0:0:
320,192,195043,128,0,195203:0:0:0:0:
64,192,195203,128,0,195363:0:0:0:0:
192,192,195203,1,0,0:0:0:0:
192,192,195363,128,0,195524:0:0:0:0:
448,192,195363,128,0,195845:0:0:0:0:
320,192,195524,128,0,195684:0:0:0:0:
192,192,195684,128,0,195845:0:0:0:0:
64,192,195845,128,0,196005:0:0:0:0:
320,192,195845,1,0,0:0:0:0:
320,192,196005,128,0,196166:0:0:0:0:
448,192,196166,128,0,196326:0:0:0:0:
64,192,196166,1,0,0:0:0:0:
192,192,196326,128,0,196486:0:0:0:0:
64,192,196326,128,0,196486:0:0:0:0:
448,192,196406,1,0,0:0:0:0:
320,192,196486,128,0,196647:0:0:0:0:
448,192,196567,1,0,0:0:0:0:
64,192,196647,128,0,196807:0:0:0:0:
192,192,196647,1,0,0:0:0:0:
448,192,196727,1,0,0:0:0:0:
192,192,196807,1,0,0:0:0:0:
320,192,196888,1,0,0:0:0:0:
448,192,196888,1,0,0:0:0:0:
192,192,196968,1,0,0:0:0:0:
64,192,196968,1,0,0:0:0:0:
320,192,197048,1,0,0:0:0:0:
448,192,197048,1,0,0:0:0:0:
192,192,197128,1,0,0:0:0:0:
64,192,197128,1,0,0:0:0:0:
320,192,197208,1,0,0:0:0:0:
448,192,197208,1,0,0:0:0:0:
192,192,197289,1,0,0:0:0:0:
64,192,197289,1,0,0:0:0:0:
320,192,197369,1,0,0:0:0:0:
448,192,197369,1,0,0:0:0:0:
192,192,197449,1,0,0:0:0:0:
64,192,197449,1,0,0:0:0:0:
320,192,197529,1,0,0:0:0:0:
448,192,197529,1,0,0:0:0:0:
192,192,197609,1,0,0:0:0:0:
64,192,197609,1,0,0:0:0:0:
320,192,197690,1,0,0:0:0:0:
448,192,197690,1,0,0:0:0:0:
192,192,197770,1,0,0:0:0:0:
64,192,197770,1,0,0:0:0:0:
320,192,197850,1,0,0:0:0:0:
192,192,197930,1,0,0:0:0:0:
64,192,197930,1,0,0:0:0:0:
448,192,197930,128,0,198412:0:0:0:0:
320,192,198091,1,0,0:0:0:0:
192,192,198251,1,0,0:0:0:0:
64,192,198251,1,0,0:0:0:0:
192,192,198412,128,0,198572:0:0:0:0:
320,192,198412,1,0,0:0:0:0:
448,192,198572,128,0,198732:0:0:0:0:
64,192,198732,128,0,198893:0:0:0:0:
192,192,198732,1,0,0:0:0:0:
320,192,198893,128,0,199053:0:0:0:0:
192,192,199053,1,0,0:0:0:0:
448,192,199053,1,0,0:0:0:0:
64,192,199214,128,0,199695:0:0:0:0:
320,192,199374,1,0,0:0:0:0:
448,192,199374,1,0,0:0:0:0:
192,192,199535,1,0,0:0:0:0:
320,192,199695,1,0,0:0:0:0:
448,192,199695,1,0,0:0:0:0:
64,192,199855,128,0,200337:0:0:0:0:
320,192,200016,1,0,0:0:0:0:
192,192,200016,1,0,0:0:0:0:
448,192,200176,1,0,0:0:0:0:
192,192,200176,1,0,0:0:0:0:
320,192,200337,1,0,0:0:0:0:
448,192,200337,1,0,0:0:0:0:
64,192,200497,128,0,200978:0:0:0:0:
192,192,200658,1,0,0:0:0:0:
448,192,200818,1,0,0:0:0:0:
320,192,200818,1,0,0:0:0:0:
192,192,200978,1,0,0:0:0:0:
320,192,200978,1,0,0:0:0:0:
448,192,201139,1,0,0:0:0:0:
192,192,201219,1,0,0:0:0:0:
320,192,201299,128,0,201460:0:0:0:0:
64,192,201299,1,0,0:0:0:0:
192,192,201460,128,0,201620:0:0:0:0:
320,192,201620,1,0,0:0:0:0:
448,192,201620,1,0,0:0:0:0:
448,192,201781,128,0,201941:0:0:0:0:
64,192,201941,128,0,202101:0:0:0:0:
192,192,201941,1,0,0:0:0:0:
320,192,202101,128,0,202262:0:0:0:0:
192,192,202262,128,0,202422:0:0:0:0:
64,192,202262,1,0,0:0:0:0:
448,192,202422,128,0,202583:0:0:0:0:
320,192,202583,1,0,0:0:0:0:
64,192,202583,1,0,0:0:0:0:
192,192,202743,128,0,202904:0:0:0:0:
320,192,202904,1,0,0:0:0:0:
448,192,202904,1,0,0:0:0:0:
192,192,203064,128,0,203545:0:0:0:0:
64,192,203224,1,0,0:0:0:0:
448,192,203385,1,0,0:0:0:0:
320,192,203385,1,0,0:0:0:0:
320,192,203545,128,0,203706:0:0:0:0:
64,192,203545,1,0,0:0:0:0:
64,192,203706,128,0,203866:0:0:0:0:
448,192,203866,128,0,204027:0:0:0:0:
320,192,203866,1,0,0:0:0:0:
192,192,204027,128,0,204187:0:0:0:0:
64,192,204187,1,0,0:0:0:0:
448,192,204347,128,0,204829:0:0:0:0:
320,192,204508,1,0,0:0:0:0:
64,192,204508,1,0,0:0:0:0:
192,192,204668,1,0,0:0:0:0:
320,192,204829,1,0,0:0:0:0:
64,192,204829,1,0,0:0:0:0:
448,192,204989,128,0,205470:0:0:0:0:
320,192,205150,1,0,0:0:0:0:
64,192,205310,1,0,0:0:0:0:
320,192,205470,1,0,0:0:0:0:
192,192,205470,1,0,0:0:0:0:
448,192,205631,128,0,206112:0:0:0:0:
64,192,205631,1,0,0:0:0:0:
320,192,205631,1,0,0:0:0:0:
192,192,205791,1,0,0:0:0:0:
320,192,205952,1,0,0:0:0:0:
64,192,205952,1,0,0:0:0:0:
64,192,206112,128,0,206273:0:0:0:0:
192,192,206112,1,0,0:0:0:0:
320,192,206273,128,0,206433:0:0:0:0:
192,192,206433,128,0,206593:0:0:0:0:
448,192,206433,1,0,0:0:0:0:
64,192,206593,128,0,206754:0:0:0:0:
320,192,206754,128,0,206914:0:0:0:0:
192,192,206754,1,0,0:0:0:0:
448,192,206914,128,0,207716:0:0:0:0:
192,192,207075,1,0,0:0:0:0:
64,192,207075,1,0,0:0:0:0:
320,192,207235,1,0,0:0:0:0:
192,192,207396,1,0,0:0:0:0:
320,192,207396,1,0,0:0:0:0:
64,192,207556,1,0,0:0:0:0:
192,192,207716,1,0,0:0:0:0:
320,192,207716,1,0,0:0:0:0:
64,192,207797,1,0,0:0:0:0:
448,192,207877,1,0,0:0:0:0:
320,192,207877,1,0,0:0:0:0:
192,192,207957,1,0,0:0:0:0:
64,192,207957,1,0,0:0:0:0:
448,192,208037,1,0,0:0:0:0:
320,192,208037,1,0,0:0:0:0:
192,192,208117,1,0,0:0:0:0:
64,192,208117,1,0,0:0:0:0:
448,192,208198,1,0,0:0:0:0:
320,192,208198,1,0,0:0:0:0:
64,192,208198,1,0,0:0:0:0:
192,192,208519,128,0,208679:0:0:0:0:
64,192,208519,1,0,0:0:0:0:
320,192,208679,128,0,208839:0:0:0:0:
64,192,208679,1,0,0:0:0:0:
448,192,208839,128,0,209000:0:0:0:0:
192,192,208839,1,0,0:0:0:0:
192,192,209000,128,0,209160:0:0:0:0:
320,192,209000,1,0,0:0:0:0:
64,192,209160,128,0,209321:0:0:0:0:
448,192,209160,1,0,0:0:0:0:
320,192,209321,128,0,209481:0:0:0:0:
192,192,209321,1,0,0:0:0:0:
192,192,209481,128,0,209802:0:0:0:0:
64,192,209481,1,0,0:0:0:0:
448,192,209642,1,0,0:0:0:0:
320,192,209642,1,0,0:0:0:0:
64,192,209802,1,0,0:0:0:0:
448,192,209802,1,0,0:0:0:0:
320,192,209962,128,0,210123:0:0:0:0:
192,192,209962,1,0,0:0:0:0:
448,192,210123,128,0,210283:0:0:0:0:
64,192,210123,1,0,0:0:0:0:
320,192,210283,1,0,0:0:0:0:
192,192,210283,1,0,0:0:0:0:
64,192,210444,128,0,210604:0:0:0:0:
448,192,210444,1,0,0:0:0:0:
320,192,210604,1,0,0:0:0:0:
192,192,210604,1,0,0:0:0:0:
64,192,210765,128,0,211085:0:0:0:0:
448,192,210765,1,0,0:0:0:0:
192,192,211085,1,0,0:0:0:0:
448,192,211085,1,0,0:0:0:0:
320,192,211246,1,0,0:0:0:0:
64,192,211246,1,0,0:0:0:0:
192,192,211246,1,0,0:0:0:0:
320,192,211406,128,0,211567:0:0:0:0:
448,192,211406,1,0,0:0:0:0:
192,192,211567,1,0,0:0:0:0:
64,192,211567,1,0,0:0:0:0:
192,192,211727,128,0,211888:0:0:0:0:
448,192,211727,1,0,0:0:0:0:
320,192,211888,128,0,212048:0:0:0:0:
64,192,211888,1,0,0:0:0:0:
448,192,212048,128,0,212208:0:0:0:0:
192,192,212048,1,0,0:0:0:0:
64,192,212208,128,0,212529:0:0:0:0:
320,192,212208,1,0,0:0:0:0:
448,192,212529,128,0,212850:0:0:0:0:
192,192,212529,1,0,0:0:0:0:
64,192,212850,128,0,213171:0:0:0:0:
320,192,212850,1,0,0:0:0:0:
192,192,213171,1,0,0:0:0:0:
320,192,213171,1,0,0:0:0:0:
448,192,213331,128,0,213652:0:0:0:0:
64,192,213331,1,0,0:0:0:0:
192,192,213331,1,0,0:0:0:0:
320,192,213652,1,0,0:0:0:0:
64,192,213652,1,0,0:0:0:0:
192,192,213813,1,0,0:0:0:0:
64,192,213813,1,0,0:0:0:0:
448,192,213813,1,0,0:0:0:0:
320,192,213973,128,0,214133:0:0:0:0:
448,192,213973,1,0,0:0:0:0:
192,192,214133,1,0,0:0:0:0:
64,192,214133,1,0,0:0:0:0:
64,192,214294,128,0,214454:0:0:0:0:
320,192,214294,1,0,0:0:0:0:
448,192,214454,1,0,0:0:0:0:
192,192,214454,1,0,0:0:0:0:
448,192,214615,128,0,214775:0:0:0:0:
320,192,214615,1,0,0:0:0:0:
192,192,214775,1,0,0:0:0:0:
64,192,214775,1,0,0:0:0:0:
320,192,214936,1,0,0:0:0:0:
448,192,214936,1,0,0:0:0:0:
192,192,215096,128,0,215417:0:0:0:0:
64,192,215096,1,0,0:0:0:0:
448,192,215096,1,0,0:0:0:0:
64,192,215256,1,0,0:0:0:0:
320,192,215417,128,0,215738:0:0:0:0:
448,192,215417,1,0,0:0:0:0:
64,192,215577,1,0,0:0:0:0:
192,192,215658,1,0,0:0:0:0:
448,192,215738,128,0,216059:0:0:0:0:
64,192,215738,1,0,0:0:0:0:
320,192,215818,1,0,0:0:0:0:
64,192,215898,1,0,0:0:0:0:
192,192,215978,1,0,0:0:0:0:
320,192,216059,1,0,0:0:0:0:
64,192,216059,1,0,0:0:0:0:
192,192,216219,1,0,0:0:0:0:
64,192,216219,1,0,0:0:0:0:
192,192,216379,1,0,0:0:0:0:
320,192,216379,1,0,0:0:0:0:
320,192,216540,1,0,0:0:0:0:
448,192,216540,1,0,0:0:0:0:
64,192,216540,1,0,0:0:0:0:
64,192,216700,1,0,0:0:0:0:
192,192,216700,1,0,0:0:0:0:
192,192,216861,1,0,0:0:0:0:
320,192,216861,1,0,0:0:0:0:
448,192,217021,1,0,0:0:0:0:
320,192,217021,1,0,0:0:0:0:
64,192,217021,1,0,0:0:0:0:
64,192,217182,1,0,0:0:0:0:
192,192,217182,1,0,0:0:0:0:
192,192,217342,1,0,0:0:0:0:
320,192,217342,1,0,0:0:0:0:
448,192,217502,1,0,0:0:0:0:
64,192,217502,1,0,0:0:0:0:
320,192,217502,1,0,0:0:0:0:
64,192,217663,1,0,0:0:0:0:
192,192,217663,1,0,0:0:0:0:
192,192,217823,1,0,0:0:0:0:
320,192,217823,1,0,0:0:0:0:
448,192,217984,1,0,0:0:0:0:
64,192,217984,1,0,0:0:0:0:
320,192,217984,1,0,0:0:0:0:
448,192,218144,1,0,0:0:0:0:
192,192,218144,1,0,0:0:0:0:
448,192,218305,1,0,0:0:0:0:
320,192,218305,1,0,0:0:0:0:
192,192,218305,1,0,0:0:0:0:
64,192,218465,1,0,0:0:0:0:
320,192,218465,1,0,0:0:0:0:
448,192,218625,1,0,0:0:0:0:
64,192,218625,1,0,0:0:0:0:
192,192,218625,1,0,0:0:0:0:
448,192,218786,1,0,0:0:0:0:
320,192,218786,1,0,0:0:0:0:
320,192,218946,1,0,0:0:0:0:
192,192,218946,1,0,0:0:0:0:
192,192,219107,1,0,0:0:0:0:
64,192,219107,1,0,0:0:0:0:
448,192,219107,1,0,0:0:0:0:
448,192,219267,1,0,0:0:0:0:
320,192,219267,1,0,0:0:0:0:
320,192,219428,1,0,0:0:0:0:
192,192,219428,1,0,0:0:0:0:
192,192,219588,1,0,0:0:0:0:
64,192,219588,1,0,0:0:0:0:
448,192,219588,1,0,0:0:0:0:
448,192,219748,1,0,0:0:0:0:
320,192,219748,1,0,0:0:0:0:
320,192,219909,1,0,0:0:0:0:
192,192,219909,1,0,0:0:0:0:
192,192,220069,1,0,0:0:0:0:
64,192,220069,1,0,0:0:0:0:
448,192,220069,1,0,0:0:0:0:
448,192,220230,128,0,220551:0:0:0:0:
320,192,220230,1,0,0:0:0:0:
192,192,220390,1,0,0:0:0:0:
64,192,220390,1,0,0:0:0:0:
320,192,220551,128,0,220871:0:0:0:0:
64,192,220551,1,0,0:0:0:0:
448,192,220711,1,0,0:0:0:0:
192,192,220711,1,0,0:0:0:0:
192,192,220871,128,0,221192:0:0:0:0:
64,192,220871,1,0,0:0:0:0:
320,192,220952,1,0,0:0:0:0:
448,192,221032,1,0,0:0:0:0:
320,192,221112,1,0,0:0:0:0:
64,192,221192,128,0,223438:0:0:0:0:
448,192,221192,1,0,0:0:0:0:
448,192,222315,1,0,0:0:0:0:
192,192,222476,1,0,0:0:0:0:
320,192,222957,1,0,0:0:0:0:
448,192,223117,1,0,0:0:0:0:
192,192,223438,1,0,0:0:0:0:
448,192,223759,128,0,224401:0:0:0:0:
192,192,224401,128,0,225043:0:0:0:0:
320,192,224401,1,0,0:0:0:0:
448,192,225043,128,0,225684:0:0:0:0:
64,192,225043,1,0,0:0:0:0:
64,192,225363,128,0,225684:0:0:0:0:
192,192,225524,1,0,0:0:0:0:
192,192,225684,128,0,226005:0:0:0:0:
320,192,225684,1,0,0:0:0:0:
320,192,226005,128,0,226326:0:0:0:0:
448,192,226326,128,0,228572:0:0:0:0:
64,192,226326,1,0,0:0:0:0:
192,192,227449,1,0,0:0:0:0:
320,192,227609,1,0,0:0:0:0:
192,192,228091,1,0,0:0:0:0:
64,192,228251,1,0,0:0:0:0:
320,192,228572,1,0,0:0:0:0:
64,192,228893,128,0,230497:0:0:0:0:
192,192,228893,1,0,0:0:0:0:
448,192,229855,1,0,0:0:0:0:
192,192,230016,1,0,0:0:0:0:
320,192,230176,1,0,0:0:0:0:
448,192,230497,128,0,230818:0:0:0:0:
320,192,230818,128,0,231139:0:0:0:0:
64,192,231139,128,0,231219:0:0:0:0:
192,192,231219,128,0,231299:0:0:0:0:
320,192,231299,128,0,231379:0:0:0:0:
448,192,231379,128,0,231460:0:0:0:0:
64,192,231460,128,0,233706:0:0:0:0:
192,192,231460,1,0,0:0:0:0:
320,192,231460,1,0,0:0:0:0:
448,192,233224,1,0,0:0:0:0:
192,192,233385,1,0,0:0:0:0:
320,192,234027,1,0,0:0:0:0:
448,192,234027,1,0,0:0:0:0:
192,192,234668,1,0,0:0:0:0:
448,192,235470,1,0,0:0:0:0:
192,192,235631,1,0,0:0:0:0:
320,192,235952,1,0,0:0:0:0:
448,192,236112,1,0,0:0:0:0:
64,192,236273,1,0,0:0:0:0:
192,192,236433,1,0,0:0:0:0:
448,192,236593,1,0,0:0:0:0:
320,192,236593,1,0,0:0:0:0:
192,192,237235,1,0,0:0:0:0:
64,192,237235,1,0,0:0:0:0:
448,192,237877,1,0,0:0:0:0:
320,192,237877,1,0,0:0:0:0:
192,192,238519,1,0,0:0:0:0:
64,192,238519,1,0,0:0:0:0:
448,192,239160,128,0,239321:0:0:0:0:
320,192,239160,128,0,239321:0:0:0:0:
192,192,239321,128,0,239481:0:0:0:0:
64,192,239321,128,0,239481:0:0:0:0:
64,192,239642,128,0,239802:0:0:0:0:
192,192,239642,128,0,239802:0:0:0:0:
320,192,239802,128,0,239962:0:0:0:0:
448,192,239802,128,0,239962:0:0:0:0:
64,192,240123,128,0,240283:0:0:0:0:
448,192,240123,128,0,240283:0:0:0:0:
192,192,240283,128,0,241727:0:0:0:0:
320,192,240283,128,0,241727:0:0:0:0:
192,192,244294,1,0,0:0:0:0:
64,192,244294,1,0,0:0:0:0:
448,192,244374,1,0,0:0:0:0:
320,192,244374,1,0,0:0:0:0:
192,192,244454,1,0,0:0:0:0:
64,192,244454,1,0,0:0:0:0:
448,192,244535,1,0,0:0:0:0:
320,192,244535,1,0,0:0:0:0:
192,192,244615,1,0,0:0:0:0:
64,192,244615,1,0,0:0:0:0:
320,192,244695,1,0,0:0:0:0:
448,192,244775,1,0,0:0:0:0:
192,192,244775,1,0,0:0:0:0:
64,192,244775,1,0,0:0:0:0:
320,192,244855,1,0,0:0:0:0:
192,192,244936,1,0,0:0:0:0:
64,192,244936,1,0,0:0:0:0:
448,192,245016,1,0,0:0:0:0:
320,192,245016,1,0,0:0:0:0:
64,192,245096,1,0,0:0:0:0:
192,192,245096,1,0,0:0:0:0:
320,192,245176,1,0,0:0:0:0:
192,192,245256,1,0,0:0:0:0:
64,192,245256,1,0,0:0:0:0:
448,192,245256,128,0,245577:0:0:0:0:
320,192,245577,1,0,0:0:0:0:
192,192,245577,1,0,0:0:0:0:
64,192,245577,128,0,247823:0:0:0:0:
448,192,245738,1,0,0:0:0:0:
192,192,245898,1,0,0:0:0:0:
320,192,245898,1,0,0:0:0:0:
192,192,246059,1,0,0:0:0:0:
448,192,246219,128,0,246540:0:0:0:0:
320,192,246219,1,0,0:0:0:0:
192,192,246379,1,0,0:0:0:0:
320,192,246540,1,0,0:0:0:0:
192,192,246540,1,0,0:0:0:0:
320,192,246700,128,0,247021:0:0:0:0:
448,192,246861,1,0,0:0:0:0:
192,192,246861,1,0,0:0:0:0:
192,192,247021,1,0,0:0:0:0:
448,192,247182,1,0,0:0:0:0:
320,192,247182,1,0,0:0:0:0:
448,192,247342,1,0,0:0:0:0:
192,192,247502,128,0,247823:0:0:0:0:
320,192,247502,1,0,0:0:0:0:
448,192,247663,1,0,0:0:0:0:
448,192,247823,1,0,0:0:0:0:
320,192,247823,1,0,0:0:0:0:
320,192,247984,1,0,0:0:0:0:
64,192,247984,1,0,0:0:0:0:
192,192,248144,128,0,248625:0:0:0:0:
448,192,248144,1,0,0:0:0:0:
320,192,248305,1,0,0:0:0:0:
448,192,248465,1,0,0:0:0:0:
64,192,248465,1,0,0:0:0:0:
320,192,248625,128,0,248786:0:0:0:0:
448,192,248786,128,0,250390:0:0:0:0:
192,192,248786,1,0,0:0:0:0:
64,192,248946,1,0,0:0:0:0:
320,192,249107,1,0,0:0:0:0:
192,192,249107,1,0,0:0:0:0:
320,192,249267,1,0,0:0:0:0:
192,192,249428,1,0,0:0:0:0:
64,192,249428,1,0,0:0:0:0:
192,192,249588,1,0,0:0:0:0:
64,192,249748,128,0,250069:0:0:0:0:
320,192,249748,1,0,0:0:0:0:
192,192,249909,1,0,0:0:0:0:
192,192,250069,128,0,250390:0:0:0:0:
320,192,250069,1,0,0:0:0:0:
64,192,250230,1,0,0:0:0:0:
320,192,250390,128,0,250711:0:0:0:0:
64,192,250390,1,0,0:0:0:0:
192,192,250551,1,0,0:0:0:0:
448,192,250711,128,0,252957:0:0:0:0:
192,192,250711,1,0,0:0:0:0:
64,192,250711,1,0,0:0:0:0:
320,192,250871,1,0,0:0:0:0:
320,192,251032,1,0,0:0:0:0:
64,192,251032,1,0,0:0:0:0:
192,192,251192,1,0,0:0:0:0:
64,192,251353,128,0,251674:0:0:0:0:
320,192,251353,1,0,0:0:0:0:
192,192,251513,1,0,0:0:0:0:
320,192,251674,1,0,0:0:0:0:
192,192,251674,1,0,0:0:0:0:
320,192,251834,128,0,252155:0:0:0:0:
192,192,251994,1,0,0:0:0:0:
64,192,251994,1,0,0:0:0:0:
192,192,252155,1,0,0:0:0:0:
64,192,252315,1,0,0:0:0:0:
320,192,252315,1,0,0:0:0:0:
64,192,252476,1,0,0:0:0:0:
192,192,252636,128,0,252957:0:0:0:0:
320,192,252636,1,0,0:0:0:0:
320,192,252957,1,0,0:0:0:0:
64,192,252957,1,0,0:0:0:0:
448,192,253117,1,0,0:0:0:0:
320,192,253117,1,0,0:0:0:0:
192,192,253278,128,0,253759:0:0:0:0:
64,192,253278,1,0,0:0:0:0:
320,192,253438,1,0,0:0:0:0:
448,192,253599,1,0,0:0:0:0:
64,192,253599,1,0,0:0:0:0:
64,192,253759,128,0,253920:0:0:0:0:
320,192,253920,128,0,255203:0:0:0:0:
192,192,253920,1,0,0:0:0:0:
448,192,254080,1,0,0:0:0:0:
192,192,254240,1,0,0:0:0:0:
64,192,254240,1,0,0:0:0:0:
64,192,254401,1,0,0:0:0:0:
192,192,254561,1,0,0:0:0:0:
448,192,254561,1,0,0:0:0:0:
192,192,254722,1,0,0:0:0:0:
64,192,254722,1,0,0:0:0:0:
448,192,254882,128,0,255203:0:0:0:0:
64,192,254882,1,0,0:0:0:0:
192,192,255043,1,0,0:0:0:0:
192,192,255203,1,0,0:0:0:0:
64,192,255203,1,0,0:0:0:0:
448,192,255283,1,0,0:0:0:0:
320,192,255283,1,0,0:0:0:0:
192,192,255363,1,0,0:0:0:0:
64,192,255363,1,0,0:0:0:0:
448,192,255444,1,0,0:0:0:0:
320,192,255444,1,0,0:0:0:0:
192,192,255524,1,0,0:0:0:0:
64,192,255524,1,0,0:0:0:0:
448,192,255604,1,0,0:0:0:0:
320,192,255604,1,0,0:0:0:0:
192,192,255684,1,0,0:0:0:0:
64,192,255684,1,0,0:0:0:0:
448,192,255765,1,0,0:0:0:0:
320,192,255765,1,0,0:0:0:0:
64,192,255845,128,0,258091:0:0:0:0:
192,192,255845,1,0,0:0:0:0:
448,192,255845,1,0,0:0:0:0:
320,192,256005,1,0,0:0:0:0:
320,192,256166,1,0,0:0:0:0:
192,192,256166,1,0,0:0:0:0:
448,192,256326,1,0,0:0:0:0:
320,192,256486,128,0,256807:0:0:0:0:
192,192,256486,1,0,0:0:0:0:
448,192,256647,1,0,0:0:0:0:
448,192,256807,1,0,0:0:0:0:
192,192,256807,1,0,0:0:0:0:
192,192,256968,128,0,257289:0:0:0:0:
320,192,257128,1,0,0:0:0:0:
448,192,257128,1,0,0:0:0:0:
320,192,257289,1,0,0:0:0:0:
448,192,257449,128,0,257770:0:0:0:0:
192,192,257449,1,0,0:0:0:0:
320,192,257609,1,0,0:0:0:0:
320,192,257770,128,0,258091:0:0:0:0:
192,192,257770,1,0,0:0:0:0:
192,192,257930,1,0,0:0:0:0:
192,192,258091,1,0,0:0:0:0:
448,192,258091,1,0,0:0:0:0:
320,192,258171,1,0,0:0:0:0:
192,192,258251,1,0,0:0:0:0:
64,192,258251,1,0,0:0:0:0:
320,192,258331,1,0,0:0:0:0:
448,192,258331,1,0,0:0:0:0:
64,192,258412,128,0,259695:0:0:0:0:
192,192,258412,1,0,0:0:0:0:
448,192,258412,1,0,0:0:0:0:
192,192,258572,1,0,0:0:0:0:
320,192,258732,128,0,259053:0:0:0:0:
448,192,258732,1,0,0:0:0:0:
192,192,258893,1,0,0:0:0:0:
448,192,259053,1,0,0:0:0:0:
192,192,259053,1,0,0:0:0:0:
320,192,259214,1,0,0:0:0:0:
320,192,259374,1,0,0:0:0:0:
448,192,259374,128,0,259535:0:0:0:0:
192,192,259535,128,0,259695:0:0:0:0:
448,192,259695,128,0,260016:0:0:0:0:
320,192,259695,1,0,0:0:0:0:
192,192,259855,128,0,260016:0:0:0:0:
64,192,260016,128,0,260337:0:0:0:0:
320,192,260016,128,0,260337:0:0:0:0:
448,192,260176,1,0,0:0:0:0:
192,192,260337,128,0,260658:0:0:0:0:
448,192,260337,128,0,260497:0:0:0:0:
64,192,260497,1,0,0:0:0:0:
320,192,260658,128,0,260978:0:0:0:0:
448,192,260658,1,0,0:0:0:0:
64,192,260818,1,0,0:0:0:0:
448,192,260978,128,0,262262:0:0:0:0:
192,192,260978,1,0,0:0:0:0:
64,192,260978,1,0,0:0:0:0:
192,192,261139,1,0,0:0:0:0:
64,192,261299,128,0,261460:0:0:0:0:
320,192,261299,1,0,0:0:0:0:
192,192,261460,1,0,0:0:0:0:
64,192,261620,128,0,261781:0:0:0:0:
320,192,261620,1,0,0:0:0:0:
192,192,261781,1,0,0:0:0:0:
64,192,261941,128,0,262101:0:0:0:0:
320,192,261941,1,0,0:0:0:0:
192,192,262101,128,0,262262:0:0:0:0:
320,192,262262,128,0,262583:0:0:0:0:
64,192,262262,1,0,0:0:0:0:
192,192,262422,1,0,0:0:0:0:
448,192,262422,1,0,0:0:0:0:
64,192,262583,128,0,262904:0:0:0:0:
192,192,262583,1,0,0:0:0:0:
320,192,262743,1,0,0:0:0:0:
448,192,262904,1,0,0:0:0:0:
192,192,262904,1,0,0:0:0:0:
320,192,262984,1,0,0:0:0:0:
192,192,263064,1,0,0:0:0:0:
64,192,263064,1,0,0:0:0:0:
448,192,263144,1,0,0:0:0:0:
320,192,263224,1,0,0:0:0:0:
192,192,263224,1,0,0:0:0:0:
64,192,263305,1,0,0:0:0:0:
320,192,263385,1,0,0:0:0:0:
448,192,263385,1,0,0:0:0:0:
192,192,263465,1,0,0:0:0:0:
64,192,263545,128,0,263625:0:0:0:0:
448,192,263545,128,0,263625:0:0:0:0:
320,192,263545,128,0,263625:0:0:0:0:
64,192,263706,128,0,263786:0:0:0:0:
320,192,263706,128,0,263786:0:0:0:0:
448,192,263706,128,0,263786:0:0:0:0:
320,192,263866,1,0,0:0:0:0:
448,192,263866,1,0,0:0:0:0:
64,192,263866,1,0,0:0:0:0:
64,192,264027,128,0,264107:0:0:0:0:
192,192,264027,128,0,264107:0:0:0:0:
448,192,264027,128,0,264107:0:0:0:0:
64,192,264187,128,0,264267:0:0:0:0:
192,192,264187,128,0,264267:0:0:0:0:
448,192,264187,128,0,264267:0:0:0:0:
448,192,264508,128,0,264588:0:0:0:0:
320,192,264508,128,0,264588:0:0:0:0:
192,192,264508,128,0,264588:0:0:0:0:
192,192,264668,128,0,264748:0:0:0:0:
320,192,264668,128,0,264748:0:0:0:0:
448,192,264668,128,0,264748:0:0:0:0:
64,192,264989,128,0,265069:0:0:0:0:
192,192,264989,128,0,265069:0:0:0:0:
320,192,264989,128,0,265069:0:0:0:0:
64,192,265150,128,0,265230:0:0:0:0:
192,192,265150,128,0,265230:0:0:0:0:
320,192,265150,128,0,265230:0:0:0:0:
448,192,265470,128,0,265551:0:0:0:0:
320,192,265470,128,0,265551:0:0:0:0:
192,192,265470,128,0,265551:0:0:0:0:
64,192,265470,128,0,265551:0:0:0:0:
64,192,265631,128,0,265711:0:0:0:0:
192,192,265631,128,0,265711:0:0:0:0:
320,192,265631,128,0,265711:0:0:0:0:
448,192,265631,128,0,265711:0:0:0:0:
192,192,266112,1,0,0:0:0:0:
64,192,266112,1,0,0:0:0:0:
448,192,266112,1,0,0:0:0:0:
320,192,266192,1,0,0:0:0:0:
192,192,266273,1,0,0:0:0:0:
64,192,266273,1,0,0:0:0:0:
448,192,266353,1,0,0:0:0:0:
320,192,266353,1,0,0:0:0:0:
192,192,266433,1,0,0:0:0:0:
64,192,266433,1,0,0:0:0:0:
448,192,266513,1,0,0:0:0:0:
320,192,266513,1,0,0:0:0:0:
192,192,266593,1,0,0:0:0:0:
64,192,266593,1,0,0:0:0:0:
320,192,266674,1,0,0:0:0:0:
448,192,266754,1,0,0:0:0:0:
64,192,266754,1,0,0:0:0:0:
320,192,266834,1,0,0:0:0:0:
192,192,266834,1,0,0:0:0:0:
64,192,266914,1,0,0:0:0:0:
448,192,266914,1,0,0:0:0:0:
320,192,266994,1,0,0:0:0:0:
192,192,266994,1,0,0:0:0:0:
64,192,267075,1,0,0:0:0:0:
448,192,267075,1,0,0:0:0:0:
192,192,267155,1,0,0:0:0:0:
320,192,267235,1,0,0:0:0:0:
448,192,267235,1,0,0:0:0:0:
192,192,267315,1,0,0:0:0:0:
64,192,267315,1,0,0:0:0:0:
448,192,267396,1,0,0:0:0:0:
320,192,267396,1,0,0:0:0:0:
192,192,267476,1,0,0:0:0:0:
64,192,267476,1,0,0:0:0:0:
448,192,267556,1,0,0:0:0:0:
320,192,267556,1,0,0:0:0:0:
192,192,267636,1,0,0:0:0:0:
64,192,267716,1,0,0:0:0:0:
448,192,267716,1,0,0:0:0:0:
320,192,267797,1,0,0:0:0:0:
192,192,267797,1,0,0:0:0:0:
448,192,267877,1,0,0:0:0:0:
64,192,267877,1,0,0:0:0:0:
320,192,267957,1,0,0:0:0:0:
192,192,267957,1,0,0:0:0:0:
64,192,268037,128,0,268117:0:0:0:0:
192,192,268037,128,0,268117:0:0:0:0:
320,192,268037,128,0,268117:0:0:0:0:
448,192,268037,128,0,268117:0:0:0:0:
64,192,268358,128,0,269802:0:0:0:0:
320,192,268358,128,0,270604:0:0:0:0:
448,192,268358,128,0,270604:0:0:0:0:
192,192,268358,128,0,269802:0:0:0:0:
64,192,269962,1,0,0:0:0:0:
192,192,269962,1,0,0:0:0:0:
64,192,270283,1,0,0:0:0:0:
192,192,270283,1,0,0:0:0:0:
64,192,270604,1,0,0:0:0:0:
192,192,270604,1,0,0:0:0:0:
448,192,270684,1,0,0:0:0:0:
320,192,270684,1,0,0:0:0:0:
192,192,270765,1,0,0:0:0:0:
64,192,270765,1,0,0:0:0:0:
448,192,270845,1,0,0:0:0:0:
320,192,270845,1,0,0:0:0:0:
192,192,270925,1,0,0:0:0:0:
64,192,270925,1,0,0:0:0:0:
320,192,271005,1,0,0:0:0:0:
192,192,271085,1,0,0:0:0:0:
64,192,271085,1,0,0:0:0:0:
448,192,271085,1,0,0:0:0:0:
320,192,271246,1,0,0:0:0:0:
192,192,271406,1,0,0:0:0:0:
64,192,271406,1,0,0:0:0:0:
320,192,271567,1,0,0:0:0:0:
448,192,271567,1,0,0:0:0:0:
64,192,271567,1,0,0:0:0:0:
192,192,271727,1,0,0:0:0:0:
320,192,271888,1,0,0:0:0:0:
448,192,271888,128,0,272529:0:0:0:0:
192,192,272048,1,0,0:0:0:0:
64,192,272048,1,0,0:0:0:0:
320,192,272208,1,0,0:0:0:0:
192,192,272208,1,0,0:0:0:0:
64,192,272369,1,0,0:0:0:0:
192,192,272449,1,0,0:0:0:0:
64,192,272529,128,0,273171:0:0:0:0:
320,192,272529,1,0,0:0:0:0:
192,192,272690,1,0,0:0:0:0:
448,192,272690,1,0,0:0:0:0:
320,192,272850,1,0,0:0:0:0:
192,192,272850,1,0,0:0:0:0:
448,192,273011,1,0,0:0:0:0:
320,192,273091,1,0,0:0:0:0:
448,192,273171,1,0,0:0:0:0:
192,192,273171,1,0,0:0:0:0:
448,192,273331,1,0,0:0:0:0:
320,192,273331,1,0,0:0:0:0:
192,192,273331,1,0,0:0:0:0:
64,192,273331,1,0,0:0:0:0:
448,192,273492,1,0,0:0:0:0:
320,192,273492,1,0,0:0:0:0:
192,192,273492,1,0,0:0:0:0:
64,192,273492,1,0,0:0:0:0:
448,192,273652,1,0,0:0:0:0:
320,192,273652,1,0,0:0:0:0:
192,192,273652,1,0,0:0:0:0:
64,192,273652,128,0,274454:0:0:0:0:
192,192,273813,1,0,0:0:0:0:
448,192,273973,1,0,0:0:0:0:
320,192,273973,1,0,0:0:0:0:
320,192,274133,1,0,0:0:0:0:
192,192,274133,1,0,0:0:0:0:
448,192,274294,1,0,0:0:0:0:
192,192,274454,128,0,274936:0:0:0:0:
320,192,274454,1,0,0:0:0:0:
448,192,274615,1,0,0:0:0:0:
64,192,274615,1,0,0:0:0:0:
320,192,274775,1,0,0:0:0:0:
64,192,274775,1,0,0:0:0:0:
448,192,274936,128,0,275417:0:0:0:0:
320,192,274936,1,0,0:0:0:0:
64,192,275096,1,0,0:0:0:0:
320,192,275256,1,0,0:0:0:0:
192,192,275256,1,0,0:0:0:0:
64,192,275417,128,0,275738:0:0:0:0:
192,192,275417,1,0,0:0:0:0:
320,192,275577,1,0,0:0:0:0:
448,192,275738,1,0,0:0:0:0:
192,192,275738,1,0,0:0:0:0:
320,192,275818,1,0,0:0:0:0:
192,192,275898,1,0,0:0:0:0:
64,192,275898,1,0,0:0:0:0:
448,192,275978,1,0,0:0:0:0:
320,192,276059,1,0,0:0:0:0:
192,192,276059,1,0,0:0:0:0:
64,192,276059,1,0,0:0:0:0:
448,192,276219,128,0,276540:0:0:0:0:
320,192,276219,1,0,0:0:0:0:
192,192,276219,1,0,0:0:0:0:
192,192,276540,1,0,0:0:0:0:
64,192,276540,1,0,0:0:0:0:
448,192,276620,1,0,0:0:0:0:
320,192,276620,1,0,0:0:0:0:
192,192,276700,1,0,0:0:0:0:
64,192,276700,1,0,0:0:0:0:
448,192,276861,1,0,0:0:0:0:
320,192,276861,1,0,0:0:0:0:
192,192,276941,1,0,0:0:0:0:
448,192,277021,1,0,0:0:0:0:
64,192,277021,1,0,0:0:0:0:
320,192,277021,1,0,0:0:0:0:
192,192,277182,1,0,0:0:0:0:
448,192,277182,1,0,0:0:0:0:
64,192,277182,1,0,0:0:0:0:
320,192,277342,1,0,0:0:0:0:
192,192,277342,1,0,0:0:0:0:
64,192,277342,1,0,0:0:0:0:
448,192,277502,1,0,0:0:0:0:
320,192,277502,1,0,0:0:0:0:
192,192,277502,1,0,0:0:0:0:
