osu file format v14

[General]
AudioFilename: audio.mp3
AudioLeadIn: 0
PreviewTime: 69451
Countdown: 0
SampleSet: Soft
StackLeniency: 0.7
Mode: 0
LetterboxInBreaks: 0
WidescreenStoryboard: 1

[Editor]
Bookmarks: 82034
DistanceSpacing: 1.2
BeatDivisor: 4
GridSize: 8
TimelineZoom: 2.2

[Metadata]
Title:Neo-Aspect
TitleUnicode:Neo-Aspect
Artist:Roselia
ArtistUnicode:Roselia
Creator:Underdogs
Version:Normal
Source:バンドリ! ガールズバンドパーティ!
Tags:AJamez Xetopia newton- BanG Dream! Garupa Bandori ONENESS ロゼリア ガルパ Girls Band Party! 湊友希那 Minato Yukina 相羽あいな Aiba Aina 宇田川あこ Udagawa Ako 櫻川めぐ Sakuragawa Megu 白金燐子 Shirokane Rinko 明坂聡美 Akesaka Satomi 氷川紗夜 Hikawa Sayo 工藤晴香 Kudou Haruka 今井リサ Imai Risa 遠藤ゆりか Endou Yurika
BeatmapID:1652308
BeatmapSetID:776620

[Difficulty]
HPDrainRate:4
CircleSize:3
OverallDifficulty:4
ApproachRate:5.3
SliderMultiplier:1.05
SliderTickRate:1

[Events]
//Background and Video events
0,0,"bg.jpg",0,0
//Break Periods
2,30401,31713
//Storyboard Layer 0 (Background)
//Storyboard Layer 1 (Fail)
//Storyboard Layer 2 (Pass)
//Storyboard Layer 3 (Foreground)
//Storyboard Sound Samples

[TimingPoints]
868,333.333333333333,4,2,1,50,1,0
868,-100,4,2,1,50,0,0
11534,-100,4,2,1,90,0,0
13534,-100,4,2,1,90,0,0
14201,-100,4,2,1,90,0,0
16867,-100,4,2,1,90,0,0
27534,-100,4,2,1,65,0,0
30201,-100,4,2,1,65,0,0
38201,-100,4,2,1,65,0,0
48867,-100,4,2,1,50,0,0
64867,-100,4,2,1,65,0,0
68867,-100,4,2,1,65,0,0
70201,-100,4,2,1,90,0,1
80784,-100,4,2,1,90,0,0
80867,-100,4,2,1,90,0,1
91451,-100,4,2,1,90,0,0
91534,-100,3,2,1,90,0,1
99534,-100,3,2,1,90,0,0
102201,-100,3,2,1,90,0,0
120867,-100,3,2,1,90,0,0

[Colours]
Combo1 : 128,255,255
Combo2 : 255,102,179
Combo3 : 192,192,192
Combo4 : 255,70,74
Combo5 : 0,112,223

[HitObjects]
96,48,867,6,0,P|112:96|80:160,1,105,2|0,0:0|0:0,0:0:0:0:
10,239,1534,2,0,P|-7:287|8:336,1,105,2|0,0:0|0:0,0:0:0:0:
134,347,2201,2,0,L|254:339,1,105,0|2,0:0|0:0,0:0:0:0:
364,346,2867,1,0,0:0:0:0:
289,243,3201,1,0,0:0:0:0:
414,229,3534,6,0,B|428:173|428:173|412:144|412:144|436:66,2,157.5,2|2|2,0:0|0:0|0:0,0:0:0:0:
288,208,4867,2,0,P|248:192|184:216,1,105,0|0,0:0|0:0,0:0:0:0:
168,336,5534,2,0,P|119:353|70:337,1,105,2|2,0:0|0:0,0:0:0:0:
24,216,6201,6,0,L|48:48,2,157.5,2|2|2,0:0|0:0|0:0,0:0:0:0:
152,224,7534,2,0,L|168:120,1,105,2|0,0:0|0:0,0:0:0:0:
241,17,8201,2,0,B|303:11|303:11|351:45,1,105,2|2,0:0|0:0,0:0:0:0:
365,158,8867,6,0,P|419:150|451:48,2,157.5,2|0|2,0:0|0:0|0:0,0:0:0:0:
241,131,10201,2,0,P|225:177|255:235,1,105,0|0,0:0|0:0,0:0:0:0:
315,331,10867,1,2,0:0:0:0:
426,271,11201,1,2,0:0:0:0:
367,159,11534,6,0,L|374:89,1,52.5,2|2,0:3|0:3,0:0:0:0:
283,17,12034,2,0,B|277:66|277:66|286:86|286:86|280:190,1,157.5,8|2,0:0|0:3,0:0:0:0:
264,232,12701,1,2,0:3:0:0:
184,136,13034,2,0,P|124:110|41:147,1,157.5,8|2,0:0|0:3,0:0:0:0:
64,264,13867,1,8,0:0:0:0:
168,336,14201,6,0,L|232:328,1,52.5,2|2,0:3|0:3,0:0:0:0:
328,264,14701,2,0,B|301:235|301:235|319:98,1,157.5,8|2,0:0|0:3,0:0:0:0:
336,56,15367,1,2,0:3:0:0:
460,71,15701,2,0,P|489:99|466:162,1,105,8|2,0:0|0:3,0:0:0:0:
411,165,16201,2,0,L|343:149,2,52.5,8|2|8,0:0|0:3|0:0,0:0:0:0:
459,281,16867,6,0,P|401:262|352:297,1,105,4|2,0:0|0:3,0:0:0:0:
312,320,17367,2,0,L|144:328,1,157.5,8|8,0:0|0:0,0:0:0:0:
56,248,18201,1,2,0:3:0:0:
56,248,18367,2,0,L|64:144,1,105,4|2,0:0|0:3,0:0:0:0:
56,80,18867,2,0,B|104:104|104:104|168:88,1,105,8|8,0:0|0:0,0:0:0:0:
262,26,19534,6,0,P|317:27|357:64,1,105,8|2,0:0|0:3,0:0:0:0:
363,120,20034,2,0,L|350:232,1,105,4|2,0:0|0:3,0:0:0:0:
316,277,20534,2,0,P|375:264|428:346,2,157.5,8|4|8,0:0|0:0|0:0,0:0:0:0:
255,379,21867,1,8,0:0:0:0:
133,359,22201,6,0,B|150:313|150:313|125:202,1,157.5,4|8,0:0|0:0,0:0:0:0:
82,88,23034,1,2,0:3:0:0:
82,88,23201,2,0,B|158:97|158:97|150:55|193:19,1,157.5,4|8,0:0|0:0,0:0:0:0:
374,46,24201,1,8,0:0:0:0:
281,117,24534,1,8,0:0:0:0:
384,174,24867,6,0,L|395:296,1,105,8|2,0:0|0:3,0:0:0:0:
385,341,25367,2,0,P|326:369|228:325,1,157.5,4|8,0:0|0:0,0:0:0:0:
171,236,26201,1,2,0:3:0:0:
171,236,26367,2,0,L|181:119,1,105,4|0,0:0|0:0,0:0:0:0:
161,71,26867,2,0,B|105:53|105:53|57:74,2,105,8|2|4,0:0|0:3|0:0,0:0:0:0:
256,192,27867,12,2,30201,0:0:0:0:
305,124,32867,6,0,P|358:164|438:109,2,157.5,2|2|2,0:0|0:0|0:0,0:0:0:0:
238,16,34201,2,0,L|131:35,1,105,0|2,0:0|0:0,0:0:0:0:
96,84,34701,2,0,B|67:120|67:120|86:250,1,157.5,0|2,0:0|0:0,0:0:0:0:
179,311,35534,2,0,P|97:354|33:322,2,157.5,2|2|2,0:0|0:0|0:0,0:0:0:0:
320,184,37034,2,0,B|330:66|330:66|336:84|363:107,1,157.5,2|2,0:0|0:0,0:0:0:0:
474,65,37867,1,8,0:0:0:0:
352,97,38201,6,0,P|283:119|240:102,1,105,4|8,0:0|0:0,0:0:0:0:
163,22,38867,2,0,P|111:13|64:35,1,105
56,96,39367,1,8,0:0:0:0:
49,158,39534,2,0,L|60:272,1,105,0|8,0:0|0:0,0:0:0:0:
156,343,40201,1,0,0:0:0:0:
267,285,40534,2,0,L|324:281,1,52.5,8|8,0:0|0:0,0:0:0:0:
377,306,40867,6,0,B|354:285|354:285|367:195,1,105,0|8,0:0|0:0,0:0:0:0:
396,89,41534,2,0,B|424:104|424:104|459:103,2,52.5
349,47,42034,1,8,0:0:0:0:
349,47,42201,2,0,P|348:87|283:124,1,105,0|8,0:0|0:0,0:0:0:0:
185,72,42867,2,0,L|64:84,1,105,2|8,0:3|0:0,0:0:0:0:
61,142,43367,1,8,0:0:0:0:
45,193,43534,6,0,B|37:236|37:236|70:302,1,105,4|8,0:0|0:0,0:0:0:0:
190,291,44201,2,0,L|185:355,2,52.5,0|2|2,0:0|0:3|0:3,0:0:0:0:
193,227,44701,1,8,0:0:0:0:
193,227,44867,2,0,P|234:242|294:217,1,105,2|8,0:3|0:0,0:0:0:0:
286,95,45534,2,0,P|245:80|185:105,1,105,2|8,0:3|0:0,0:0:0:0:
104,193,46201,6,0,L|94:307,2,105,4|8|2,0:0|0:0|0:3,0:0:0:0:
195,107,47201,1,0,0:0:0:0:
195,107,47367,2,0,B|236:125|236:125|301:113,1,105,8|2,0:0|0:3,0:0:0:0:
351,86,47867,2,0,L|354:24,2,52.5,8|0|2,0:0|0:0|0:3,0:0:0:0:
416,183,48534,1,8,0:0:0:0:
408,308,48867,6,0,L|287:307,1,105,4|8,0:0|0:0,0:0:0:0:
184,351,49534,2,0,P|168:303|192:247,1,105,2|0,0:3|0:0,0:0:0:0:
234,212,50034,2,0,B|257:179|257:179|229:60,1,157.5,8|8,0:0|0:0,0:0:0:0:
117,8,50867,1,2,0:3:0:0:
128,133,51201,1,8,0:0:0:0:
230,64,51534,6,0,P|278:38|341:57,1,105,4|8,0:0|0:0,0:0:0:0:
392,156,52201,2,0,L|384:260,1,105,2|0,0:3|0:0,0:0:0:0:
426,307,52701,2,0,B|396:292|396:292|262:317,1,157.5,8|8,0:0|0:0,0:0:0:0:
158,365,53534,1,2,0:3:0:0:
92,257,53867,1,8,0:0:0:0:
128,136,54201,6,0,L|1:124,2,105,4|8|2,0:0|0:0|0:3,0:0:0:0:
203,237,55201,1,0,0:0:0:0:
239,186,55367,2,0,B|259:153|259:153|245:78,1,105,8|2,0:0|0:3,0:0:0:0:
215,32,55867,2,0,L|337:47,1,105,8|2,0:0|0:3,0:0:0:0:
435,93,56534,1,8,0:0:0:0:
353,189,56867,2,0,P|338:238|365:291,1,105,4|8,0:0|0:0,0:0:0:0:
466,350,57534,2,0,L|533:337,2,52.5,2|2|0,0:3|0:3|0:0,0:0:0:0:
403,359,58034,6,0,L|281:342,1,105,8|0,0:0|0:0,0:0:0:0:
237,359,58534,1,8,0:0:0:0:
111,361,58867,2,0,B|88:329|88:329|103:259,1,105,0|8,0:0|0:0,0:0:0:0:
206,193,59534,5,4,0:0:0:0:
101,122,59867,1,8,0:0:0:0:
194,36,60201,2,0,L|306:44,1,105,2|8,0:3|0:0,0:0:0:0:
411,99,60867,6,0,P|424:141|392:206,1,105,2|8,0:3|0:0,0:0:0:0:
291,255,61534,1,2,0:3:0:0:
227,146,61867,1,8,0:0:0:0:
138,235,62201,6,0,L|129:347,1,105,2|8,0:3|0:0,0:0:0:0:
248,380,62867,2,0,L|257:268,1,105,2|8,0:3|0:0,0:0:0:0:
377,238,63534,6,0,L|368:350,1,105,2|8,0:3|0:0,0:0:0:0:
494,356,64201,1,2,0:3:0:0:
477,231,64534,1,2,0:3:0:0:
504,116,64867,6,0,B|475:84|475:84|345:100,1,157.5,4|8,0:0|0:0,0:0:0:0:
254,165,65701,1,0,0:0:0:0:
254,165,65867,2,0,B|225:197|225:197|95:181,1,157.5,4|8,0:0|0:0,0:0:0:0:
27,88,66701,1,2,0:3:0:0:
27,88,66867,2,0,P|59:68|130:83,1,105,8|8,0:0|0:0,0:0:0:0:
82,197,67534,6,0,B|55:236|55:236|64:352|64:352|101:389,1,210,4|8,0:0|0:0,0:0:0:0:
208,325,68534,1,8,0:0:0:0:
327,363,68867,1,2,0:3:0:0:
473,157,69534,6,0,L|481:52,1,105,2|2,0:0|0:0,0:0:0:0:
366,103,70201,6,0,L|352:214,1,105,4|0,0:0|0:0,0:0:0:0:
352,270,70701,2,0,B|314:243|314:243|244:249,1,105,8|2,0:0|0:3,0:0:0:0:
206,286,71201,1,8,0:0:0:0:
80,298,71534,5,0,0:0:0:0:
52,241,71701,2,0,L|48:128,1,105,4|2,0:0|0:3,0:0:0:0:
19,80,72201,2,0,P|63:88|113:55,1,105,8|8,0:0|0:0,0:0:0:0:
230,16,72867,6,0,L|218:129,1,105,4|0,0:0|0:0,0:0:0:0:
176,166,73367,2,0,B|217:154|217:154|299:178,1,105,8|2,0:0|0:3,0:0:0:0:
326,210,73867,1,8,0:0:0:0:
446,172,74201,6,0,L|457:62,2,105,0|0|8,0:0|0:0|0:0,0:0:0:0:
477,294,75201,1,8,0:0:0:0:
368,357,75534,6,0,P|325:351|286:294,1,105,4|2,0:0|0:3,0:0:0:0:
300,243,76034,2,0,B|273:266|273:266|145:260,1,157.5,8|8,0:0|0:0,0:0:0:0:
40,320,76867,1,2,0:3:0:0:
46,257,77034,2,0,L|59:138,1,105,8|0,0:0|0:0,0:0:0:0:
44,90,77534,2,0,P|84:111|154:89,1,105,8|8,0:0|0:0,0:0:0:0:
255,47,78201,6,0,P|295:26|365:48,1,105,8|2,0:0|0:3,0:0:0:0:
390,87,78701,2,0,L|379:204,1,105,8|0,0:0|0:0,0:0:0:0:
376,254,79201,1,8,0:0:0:0:
269,320,79534,6,0,L|279:380,2,52.5,8|8|2,0:0|0:0|0:3,0:0:0:0:
184,224,80201,2,0,L|200:112,1,105,8|8,0:0|0:0,0:0:0:0:
280,24,80867,6,0,P|344:32|376:72,1,105,4|8,0:0|0:0,0:0:0:0:
352,120,81367,2,0,B|336:152|336:152|352:224,1,105,0|2,0:0|0:3,0:0:0:0:
373,278,81867,1,8,0:0:0:0:
290,373,82201,2,0,L|172:359,1,105,2|8,0:3|0:0,0:0:0:0:
122,357,82701,2,0,B|155:331|155:331|145:252,1,105,0|2,0:0|0:3,0:0:0:0:
139,205,83201,1,8,0:0:0:0:
78,94,83534,6,0,P|130:97|179:69,1,105,2|8,0:3|0:0,0:0:0:0:
220,27,84034,2,0,L|216:142,1,105,0|2,0:0|0:3,0:0:0:0:
239,190,84534,1,8,0:0:0:0:
189,305,84867,2,0,L|304:326,1,105,2|8,0:3|0:0,0:0:0:0:
416,347,85534,1,0,0:0:0:0:
463,305,85701,2,0,L|471:246,1,52.5,8|2,0:0|0:3,0:0:0:0:
479,190,86034,1,8,0:0:0:0:
491,128,86201,6,0,P|443:111|383:148,1,105,4|8,0:0|0:0,0:0:0:0:
303,217,86867,2,0,L|194:206,1,105,2|8,0:3|0:0,0:0:0:0:
81,159,87534,1,2,0:3:0:0:
101,36,87867,1,8,0:0:0:0:
226,23,88201,1,2,0:3:0:0:
292,129,88534,1,8,0:0:0:0:
198,206,88867,6,0,P|178:251|198:318,1,105,4|8,0:0|0:0,0:0:0:0:
306,348,89534,2,0,L|414:342,1,105,2|8,0:3|0:0,0:0:0:0:
471,323,90034,1,0,0:0:0:0:
503,268,90201,6,0,B|494:240|494:240|512:150,1,105,2|8,0:3|0:0,0:0:0:0:
449,54,90867,1,2,0:3:0:0:
371,153,91201,1,2,0:3:0:0:
287,58,91534,6,0,L|160:53,1,105,4|0,0:0|0:0,0:0:0:0:
121,36,92034,2,0,B|150:71|150:71|121:192,1,157.5,8|8,0:0|0:0,0:0:0:0:
52,283,92867,1,0,0:0:0:0:
93,330,93034,6,0,L|210:319,1,105,8|0,0:0|0:0,0:0:0:0:
259,332,93534,2,0,B|242:304|242:304|255:229,1,105,8|8,0:0|0:0,0:0:0:0:
332,133,94201,6,0,P|350:179|451:172,1,157.5,8|8,0:0|0:0,0:0:0:0:
416,56,95034,1,2,0:3:0:0:
356,33,95201,2,0,L|239:44,1,105,8|2,0:0|0:3,0:0:0:0:
188,48,95701,2,0,B|210:82|210:82|193:162,1,105,4|0,0:0|0:0,0:0:0:0:
156,193,96201,1,8,0:0:0:0:
33,163,96534,1,2,0:3:0:0:
24,288,96867,6,0,L|137:309,1,105,4|2,0:0|0:3,0:0:0:0:
182,337,97367,2,0,P|171:300|258:224,1,157.5,8|8,0:0|0:0,0:0:0:0:
336,310,98201,1,2,0:3:0:0:
386,272,98367,2,0,L|375:155,1,105,8|0,0:0|0:0,0:0:0:0:
373,104,98867,1,8,0:0:0:0:
277,21,99201,1,8,0:0:0:0:
203,123,99534,6,0,B|248:146|248:146|222:318,1,210,4|2,0:0|0:0,0:0:0:0:
117,340,102201,6,0,L|230:323,1,105,8|0,0:0|0:0,0:0:0:0:
281,341,102701,2,0,B|253:307|253:307|277:186,1,157.5,4|8,0:0|0:0,0:0:0:0:
356,99,103534,1,2,0:3:0:0:
322,45,103701,2,0,L|199:55,1,105,4|0,0:0|0:0,0:0:0:0:
156,35,104201,2,0,P|174:71|148:131,1,105,8|8,0:0|0:0,0:0:0:0:
44,194,104867,5,2,0:3:0:0:
91,310,105201,1,0,0:0:0:0:
126,258,105367,2,0,L|244:268,1,105,4|2,0:0|0:3,0:0:0:0:
284,299,105867,1,8,0:0:0:0:
404,262,106201,1,2,0:3:0:0:
444,309,106367,2,0,L|452:184,1,105,4|2,0:0|0:3,0:0:0:0:
475,146,106867,2,0,L|361:142,1,105,8|8,0:0|0:0,0:0:0:0:
258,83,107534,6,0,P|233:121|240:196,1,105,2|0,0:3|0:0,0:0:0:0:
262,234,108034,2,0,B|219:212|219:212|151:226,1,105,4|2,0:0|0:3,0:0:0:0:
104,244,108534,1,8,0:0:0:0:
190,335,108867,1,0,0:0:0:0:
252,329,109034,6,0,L|368:317,1,105,4|0,0:0|0:0,0:0:0:0:
416,338,109534,2,0,B|402:307|402:307|417:231,1,105,8|8,0:0|0:0,0:0:0:0:
464,120,110201,5,2,0:3:0:0:
368,37,110534,1,0,0:0:0:0:
340,93,110701,2,0,P|300:117|234:86,1,105,4|2,0:0|0:3,0:0:0:0:
191,71,111201,1,8,0:0:0:0:
70,107,111534,6,0,L|53:229,1,105,8|8,0:0|0:0,0:0:0:0:
22,264,112034,2,0,B|60:243|60:243|123:267,1,105,2|2,0:3|0:3,0:0:0:0:
152,317,112534,2,0,L|146:371,2,52.5,8|2|4,0:0|0:3|0:0,0:0:0:0:
208,204,113201,1,2,0:3:0:0:
263,232,113367,6,0,L|384:226,1,105,8|2,0:0|0:3,0:0:0:0:
430,235,113867,2,0,B|404:200|404:200|418:117,1,105,8|2,0:0|0:3,0:0:0:0:
444,84,114367,2,0,L|282:66,1,157.5,4|8,0:0|0:0,0:0:0:0:
172,13,115201,1,8,0:0:0:0:
73,91,115534,6,0,P|90:129|65:189,1,105,2|2,0:3|0:3,0:0:0:0:
12,214,116034,2,0,B|0:264|0:264|20:340,1,105,4|2,0:0|0:3,0:0:0:0:
56,362,116534,1,8,0:0:0:0:
141,269,116867,1,2,0:3:0:0:
168,325,117034,2,0,B|203:305|203:305|282:340|282:340|332:329,1,157.5,4|8,0:0|0:0,0:0:0:0:
419,267,117867,1,8,0:0:0:0:
321,186,118201,6,0,L|204:184,1,105,2|2,0:3|0:3,0:0:0:0:
153,179,118701,2,0,B|139:128|139:128|157:62,1,105,4|2,0:0|0:3,0:0:0:0:
198,34,119201,1,8,0:0:0:0:
320,62,119534,1,2,0:3:0:0:
357,112,119701,2,0,B|341:157|341:157|359:221|359:221|344:278,1,157.5,4|8,0:0|0:0,0:0:0:0:
247,339,120534,1,8,0:0:0:0:
182,231,120867,6,0,P|120:236|81:266,1,105,8|2,0:0|0:3,0:0:0:0:
56,315,121367,2,0,L|41:189,1,105,4|2,0:0|0:3,0:0:0:0:
40,148,121867,1,8,0:0:0:0:
81,28,122201,1,2,0:3:0:0:
113,81,122367,2,0,B|146:100|146:100|221:85,1,105,4|2,0:0|0:3,0:0:0:0:
262,49,122867,2,0,P|244:98|271:142,1,105,8|8,0:0|0:0,0:0:0:0:
390,173,123534,5,4,0:0:0:0:
256,192,123701,12,2,128534,0:0:0:0:
